osu file format v14

[General]
AudioFilename: audio.mp3
AudioLeadIn: 0
PreviewTime: 19321
Countdown: 0
SampleSet: Soft
StackLeniency: 0.7
Mode: 3
LetterboxInBreaks: 0
SpecialStyle: 0
WidescreenStoryboard: 0

[Editor]
DistanceSpacing: 1
BeatDivisor: 4
GridSize: 8
TimelineZoom: 2.4

[Metadata]
Title:Broken Sword
TitleUnicode:Broken Sword
Artist:Kinjishi VS Kirin
ArtistUnicode:金獅子 VS 麒麟
Creator:[Shana Lesus]
Version:Normal
Source:beatmania IIDX 22 PENDUAL
Tags:Kuo Kyoka DUAL ANTIQUE NAGI Chrono Seeker 4thKAC BEMANI SPECIAL LIVE
BeatmapID:1028878
BeatmapSetID:476589

[Difficulty]
HPDrainRate:7
CircleSize:4
OverallDifficulty:7
ApproachRate:5
SliderMultiplier:1.4
SliderTickRate:1

[Events]
//Background and Video events
Video,-3000,"broken sword.avi"
0,0,"broken sword.png",0,0
//Break Periods
//Storyboard Layer 0 (Background)
//Storyboard Layer 1 (Fail)
//Storyboard Layer 2 (Pass)
//Storyboard Layer 3 (Foreground)
//Storyboard Sound Samples

[TimingPoints]
1023,375,4,2,1,20,1,0
19040,375,4,2,1,20,1,0
74540,375,3,2,1,20,1,0
93665,-100,3,2,1,20,0,1
101540,375,4,2,1,20,1,1
113540,-100,4,2,1,20,0,0

[HitObjects]
64,192,1023,5,0,0:0:0:0:
448,192,1023,1,0,0:0:0:0:
320,192,1398,1,0,0:0:0:0:
448,192,1585,1,0,0:0:0:0:
64,192,1773,1,0,0:0:0:0:
192,192,1773,1,0,0:0:0:0:
448,192,2148,1,0,0:0:0:0:
64,192,2335,1,0,0:0:0:0:
320,192,2523,1,0,0:0:0:0:
192,192,2523,1,0,0:0:0:0:
448,192,2898,1,0,0:0:0:0:
320,192,3085,1,0,0:0:0:0:
192,192,3273,1,0,0:0:0:0:
64,192,3273,1,0,0:0:0:0:
320,192,3648,1,0,0:0:0:0:
192,192,3835,1,0,0:0:0:0:
64,192,4023,1,0,0:0:0:0:
448,192,4023,1,0,0:0:0:0:
192,192,4398,1,0,0:0:0:0:
64,192,4585,1,0,0:0:0:0:
320,192,4773,1,0,0:0:0:0:
448,192,4773,1,0,0:0:0:0:
64,192,5148,1,0,0:0:0:0:
320,192,5335,1,0,0:0:0:0:
192,192,5523,1,0,0:0:0:0:
448,192,5523,1,0,0:0:0:0:
320,192,5898,1,0,0:0:0:0:
64,192,5898,1,0,0:0:0:0:
64,192,6273,1,0,0:0:0:0:
448,192,6273,1,0,0:0:0:0:
192,192,6460,1,0,0:0:0:0:
320,192,6648,1,0,0:0:0:0:
64,192,6835,1,0,0:0:0:0:
192,192,7023,1,0,0:0:0:0:
448,192,7023,128,0,7773:0:0:0:0:
320,192,7398,1,0,0:0:0:0:
64,192,7585,1,0,0:0:0:0:
320,192,7773,1,0,0:0:0:0:
192,192,7773,128,0,8523:0:0:0:0:
64,192,8148,1,0,0:0:0:0:
448,192,8335,1,0,0:0:0:0:
320,192,8523,1,0,0:0:0:0:
64,192,8523,128,0,9273:0:0:0:0:
448,192,8898,1,0,0:0:0:0:
192,192,9085,1,0,0:0:0:0:
320,192,9273,1,0,0:0:0:0:
448,192,9273,128,0,10023:0:0:0:0:
192,192,9648,1,0,0:0:0:0:
64,192,9835,1,0,0:0:0:0:
320,192,10023,1,0,0:0:0:0:
192,192,10023,128,0,10773:0:0:0:0:
64,192,10398,1,0,0:0:0:0:
448,192,10585,1,0,0:0:0:0:
320,192,10773,1,0,0:0:0:0:
64,192,10773,128,0,11523:0:0:0:0:
448,192,11148,1,0,0:0:0:0:
192,192,11335,1,0,0:0:0:0:
448,192,11523,1,0,0:0:0:0:
320,192,11523,128,0,12273:0:0:0:0:
64,192,11898,1,0,0:0:0:0:
448,192,12273,1,0,0:0:0:0:
192,192,12273,1,0,0:0:0:0:
64,192,12460,1,0,0:0:0:0:
448,192,12648,1,0,0:0:0:0:
320,192,12648,1,0,0:0:0:0:
192,192,12835,1,0,0:0:0:0:
64,192,13023,1,2,0:0:0:0:
448,192,13023,1,4,0:0:0:0:
64,192,13538,1,2,0:0:0:0:
192,192,13538,1,4,0:0:0:0:
448,192,14023,1,2,0:0:0:0:
320,192,14023,1,4,0:0:0:0:
192,192,14523,1,2,0:0:0:0:
64,192,14523,1,4,0:0:0:0:
320,192,14773,1,4,0:0:0:0:
192,192,14773,1,2,0:0:0:0:
320,192,15023,1,4,0:0:0:0:
448,192,15023,1,2,0:0:0:0:
64,192,16023,1,0,0:0:0:0:
192,192,16085,1,0,0:0:0:0:
320,192,16148,1,0,0:0:0:0:
448,192,16773,128,0,17523:0:0:0:0:
64,192,16773,128,0,17148:0:0:0:0:
320,192,17148,128,0,17523:0:0:0:0:
64,192,17523,1,2,0:0:0:0:
192,192,17523,1,0,0:0:0:0:
64,192,19040,1,2,0:0:0:0:
448,192,19040,1,4,0:0:0:0:
192,192,19415,1,2,0:0:0:0:
448,192,19415,128,0,19977:0:0:0:0:
320,192,19977,1,0,0:0:0:0:
64,192,20165,1,2,0:0:0:0:
448,192,20352,1,0,0:0:0:0:
192,192,20540,1,2,0:0:0:0:
64,192,20540,1,0,0:0:0:0:
320,192,20727,1,0,0:0:0:0:
448,192,20915,1,2,0:0:0:0:
64,192,21102,1,0,0:0:0:0:
320,192,21290,1,2,0:0:0:0:
448,192,21477,1,0,0:0:0:0:
64,192,21665,128,2,21852:0:0:0:0:
448,192,21852,128,0,22040:0:0:0:0:
192,192,22040,1,2,0:0:0:0:
64,192,22040,1,0,0:0:0:0:
320,192,22227,1,0,0:0:0:0:
64,192,22415,1,2,0:0:0:0:
192,192,22508,1,0,0:0:0:0:
320,192,22602,1,0,0:0:0:0:
448,192,22696,1,0,0:0:0:0:
64,192,22790,1,2,0:0:0:0:
192,192,22977,1,0,0:0:0:0:
448,192,23165,128,2,23352:0:0:0:0:
64,192,23352,128,0,25040:0:0:0:0:
320,192,23540,1,2,0:0:0:0:
448,192,23915,1,2,0:0:0:0:
320,192,24290,1,2,0:0:0:0:
192,192,24665,1,2,0:0:0:0:
320,192,25040,1,2,0:0:0:0:
448,192,25040,128,4,26540:0:0:0:0:
192,192,25415,1,2,0:0:0:0:
64,192,25790,1,2,0:0:0:0:
320,192,26165,1,2,0:0:0:0:
192,192,26540,1,2,0:0:0:0:
64,192,26540,1,0,0:0:0:0:
320,192,26727,1,0,0:0:0:0:
64,192,26915,1,2,0:0:0:0:
448,192,27102,1,0,0:0:0:0:
192,192,27290,1,2,0:0:0:0:
320,192,27477,1,0,0:0:0:0:
64,192,27665,1,2,0:0:0:0:
192,192,27758,1,0,0:0:0:0:
320,192,27852,1,0,0:0:0:0:
448,192,27946,1,0,0:0:0:0:
192,192,28040,1,2,0:0:0:0:
64,192,28040,1,4,0:0:0:0:
448,192,28227,1,0,0:0:0:0:
320,192,28415,128,2,28977:0:0:0:0:
64,192,28977,1,0,0:0:0:0:
448,192,29165,1,2,0:0:0:0:
64,192,29352,1,0,0:0:0:0:
320,192,29540,1,2,0:0:0:0:
448,192,29540,1,0,0:0:0:0:
192,192,29727,1,0,0:0:0:0:
448,192,29915,1,2,0:0:0:0:
192,192,30102,1,0,0:0:0:0:
320,192,30290,1,2,0:0:0:0:
64,192,30477,1,0,0:0:0:0:
448,192,30665,1,2,0:0:0:0:
320,192,30758,1,0,0:0:0:0:
192,192,30852,1,0,0:0:0:0:
64,192,30946,1,0,0:0:0:0:
320,192,31040,1,2,0:0:0:0:
448,192,31040,1,0,0:0:0:0:
448,192,31227,128,0,31415:0:0:0:0:
64,192,31415,1,2,0:0:0:0:
320,192,31415,1,0,0:0:0:0:
192,192,31602,1,0,0:0:0:0:
320,192,31790,1,2,0:0:0:0:
64,192,31977,128,0,32165:0:0:0:0:
448,192,32165,1,2,0:0:0:0:
192,192,32352,128,0,33665:0:0:0:0:
448,192,32540,1,2,0:0:0:0:
64,192,32915,1,2,0:0:0:0:
448,192,33290,1,2,0:0:0:0:
320,192,33477,1,2,0:0:0:0:
448,192,33665,1,2,0:0:0:0:
64,192,33665,1,0,0:0:0:0:
320,192,33852,1,2,0:0:0:0:
448,192,34040,128,2,35540:0:0:0:0:
64,192,34040,1,4,0:0:0:0:
192,192,34415,1,2,0:0:0:0:
320,192,34790,1,2,0:0:0:0:
192,192,35165,1,2,0:0:0:0:
64,192,35540,1,2,0:0:0:0:
192,192,35540,1,0,0:0:0:0:
320,192,35727,1,4,0:0:0:0:
192,192,35915,1,2,0:0:0:0:
64,192,36102,128,4,36477:0:0:0:0:
448,192,36290,1,2,0:0:0:0:
192,192,36477,1,4,0:0:0:0:
320,192,36665,1,2,0:0:0:0:
448,192,36852,128,4,37415:0:0:0:0:
192,192,37040,1,2,0:0:0:0:
320,192,37227,1,4,0:0:0:0:
64,192,37415,1,2,0:0:0:0:
192,192,37602,128,4,37977:0:0:0:0:
448,192,37790,1,2,0:0:0:0:
320,192,37977,1,4,0:0:0:0:
64,192,38165,128,2,38540:0:0:0:0:
192,192,38352,1,4,0:0:0:0:
448,192,38540,1,2,0:0:0:0:
320,192,38540,1,0,0:0:0:0:
192,192,38727,128,4,39102:0:0:0:0:
64,192,38915,1,2,0:0:0:0:
320,192,39102,1,4,0:0:0:0:
64,192,39290,128,2,39477:0:0:0:0:
448,192,39477,128,4,39852:0:0:0:0:
320,192,39665,1,2,0:0:0:0:
192,192,39852,128,4,40227:0:0:0:0:
64,192,40040,1,2,0:0:0:0:
320,192,40227,1,4,0:0:0:0:
64,192,40415,128,2,40602:0:0:0:0:
448,192,40602,128,4,40977:0:0:0:0:
320,192,40790,1,2,0:0:0:0:
192,192,40977,128,4,41165:0:0:0:0:
64,192,41165,128,2,41352:0:0:0:0:
320,192,41352,128,4,41727:0:0:0:0:
448,192,41540,1,2,0:0:0:0:
192,192,41727,128,4,41915:0:0:0:0:
448,192,41915,128,2,42102:0:0:0:0:
64,192,42102,128,4,42477:0:0:0:0:
320,192,42290,1,2,0:0:0:0:
448,192,42477,128,4,42665:0:0:0:0:
192,192,42665,128,2,42852:0:0:0:0:
320,192,42852,128,4,43040:0:0:0:0:
64,192,43040,128,2,43227:0:0:0:0:
448,192,43040,1,0,0:0:0:0:
192,192,43227,128,4,43415:0:0:0:0:
320,192,43415,128,2,43602:0:0:0:0:
64,192,43602,128,4,43790:0:0:0:0:
448,192,43790,128,2,43977:0:0:0:0:
192,192,43790,1,0,0:0:0:0:
64,192,43977,128,4,44165:0:0:0:0:
320,192,44165,1,2,0:0:0:0:
448,192,44352,128,4,44540:0:0:0:0:
192,192,44352,1,0,0:0:0:0:
64,192,44540,1,2,0:0:0:0:
320,192,44727,1,4,0:0:0:0:
192,192,44915,1,0,0:0:0:0:
448,192,45102,1,4,0:0:0:0:
64,192,45290,1,0,0:0:0:0:
320,192,45477,1,4,0:0:0:0:
64,192,45665,1,2,0:0:0:0:
192,192,45758,1,2,0:0:0:0:
320,192,45852,1,2,0:0:0:0:
448,192,45946,1,2,0:0:0:0:
320,192,46040,1,2,0:0:0:0:
64,192,46040,1,4,0:0:0:0:
192,192,46040,1,0,0:0:0:0:
192,192,46415,1,2,0:0:0:0:
320,192,46602,128,0,46790:0:0:0:0:
64,192,46790,128,2,47727:0:0:0:0:
448,192,47165,1,2,0:0:0:0:
192,192,47540,1,2,0:0:0:0:
448,192,47727,1,0,0:0:0:0:
320,192,47915,1,2,0:0:0:0:
192,192,48102,1,0,0:0:0:0:
448,192,48290,1,2,0:0:0:0:
64,192,48477,128,0,48665:0:0:0:0:
320,192,48665,1,2,0:0:0:0:
448,192,48852,128,0,49040:0:0:0:0:
192,192,49040,1,2,0:0:0:0:
64,192,49227,1,0,0:0:0:0:
192,192,49415,128,2,49790:0:0:0:0:
448,192,49602,1,0,0:0:0:0:
64,192,49790,128,2,50165:0:0:0:0:
320,192,49977,1,0,0:0:0:0:
192,192,50165,1,2,0:0:0:0:
448,192,50352,128,0,52040:0:0:0:0:
64,192,50540,1,2,0:0:0:0:
320,192,50915,1,2,0:0:0:0:
192,192,51290,1,2,0:0:0:0:
64,192,51665,1,2,0:0:0:0:
320,192,52040,1,2,0:0:0:0:
64,192,52227,1,0,0:0:0:0:
192,192,52415,128,2,52602:0:0:0:0:
448,192,52602,1,0,0:0:0:0:
64,192,52790,128,2,53165:0:0:0:0:
192,192,52977,1,0,0:0:0:0:
448,192,53165,1,2,0:0:0:0:
320,192,53352,128,0,53540:0:0:0:0:
64,192,53540,1,2,0:0:0:0:
192,192,53727,1,0,0:0:0:0:
448,192,53915,128,2,54102:0:0:0:0:
320,192,54102,1,0,0:0:0:0:
192,192,54290,128,2,54665:0:0:0:0:
64,192,54477,1,0,0:0:0:0:
320,192,54665,128,2,55040:0:0:0:0:
192,192,54852,1,0,0:0:0:0:
448,192,55040,1,2,0:0:0:0:
64,192,55040,1,4,0:0:0:0:
320,192,55227,1,0,0:0:0:0:
64,192,55415,1,2,0:0:0:0:
192,192,55602,128,0,55790:0:0:0:0:
320,192,55790,128,2,56727:0:0:0:0:
64,192,56165,1,2,0:0:0:0:
448,192,56540,1,2,0:0:0:0:
64,192,56727,1,0,0:0:0:0:
448,192,56915,1,2,0:0:0:0:
192,192,57102,1,0,0:0:0:0:
320,192,57290,128,2,57665:0:0:0:0:
64,192,57477,1,0,0:0:0:0:
448,192,57665,1,2,0:0:0:0:
64,192,57852,128,0,58227:0:0:0:0:
192,192,58040,1,2,0:0:0:0:
320,192,58227,1,0,0:0:0:0:
448,192,58415,128,2,58790:0:0:0:0:
64,192,58602,1,0,0:0:0:0:
192,192,58790,128,2,59165:0:0:0:0:
448,192,58977,1,0,0:0:0:0:
320,192,59165,1,2,0:0:0:0:
64,192,59352,128,0,61040:0:0:0:0:
448,192,59540,1,2,0:0:0:0:
192,192,59915,1,2,0:0:0:0:
448,192,60290,1,2,0:0:0:0:
192,192,60477,1,2,0:0:0:0:
320,192,60665,1,2,0:0:0:0:
448,192,60852,128,2,61040:0:0:0:0:
192,192,61040,1,6,0:0:0:0:
320,192,61227,1,4,0:0:0:0:
64,192,61415,128,2,61602:0:0:0:0:
320,192,61602,1,4,0:0:0:0:
448,192,61790,128,2,62165:0:0:0:0:
192,192,61977,1,4,0:0:0:0:
64,192,62165,1,2,0:0:0:0:
448,192,62352,128,4,62540:0:0:0:0:
320,192,62540,1,2,0:0:0:0:
64,192,62727,1,4,0:0:0:0:
320,192,62915,128,2,63102:0:0:0:0:
448,192,63102,1,4,0:0:0:0:
192,192,63290,128,2,63665:0:0:0:0:
320,192,63477,1,4,0:0:0:0:
64,192,63665,128,2,64040:0:0:0:0:
192,192,63852,1,4,0:0:0:0:
320,192,64040,1,2,0:0:0:0:
448,192,64040,128,0,64415:0:0:0:0:
192,192,64227,1,4,0:0:0:0:
64,192,64415,1,2,0:0:0:0:
320,192,64602,128,4,64977:0:0:0:0:
64,192,64977,1,4,0:0:0:0:
192,192,65165,128,2,65540:0:0:0:0:
320,192,65352,1,4,0:0:0:0:
448,192,65540,1,2,0:0:0:0:
64,192,65727,1,4,0:0:0:0:
192,192,65915,1,2,0:0:0:0:
320,192,66102,1,4,0:0:0:0:
448,192,66290,1,2,0:0:0:0:
192,192,66477,1,4,0:0:0:0:
320,192,66665,1,2,0:0:0:0:
448,192,66852,1,4,0:0:0:0:
192,192,67040,1,2,0:0:0:0:
64,192,67040,1,0,0:0:0:0:
320,192,67227,1,4,0:0:0:0:
448,192,67415,128,2,67977:0:0:0:0:
320,192,67790,1,2,0:0:0:0:
192,192,67977,1,4,0:0:0:0:
64,192,68165,1,2,0:0:0:0:
320,192,68352,1,4,0:0:0:0:
192,192,68540,1,2,0:0:0:0:
448,192,68727,1,4,0:0:0:0:
64,192,68915,1,2,0:0:0:0:
192,192,69102,1,4,0:0:0:0:
320,192,69290,1,2,0:0:0:0:
64,192,69477,1,4,0:0:0:0:
448,192,69665,128,2,70040:0:0:0:0:
192,192,70040,1,2,0:0:0:0:
64,192,70040,1,4,0:0:0:0:
320,192,70227,1,0,0:0:0:0:
192,192,70415,128,2,70977:0:0:0:0:
448,192,70790,1,2,0:0:0:0:
64,192,70790,1,4,0:0:0:0:
320,192,70977,1,0,0:0:0:0:
64,192,71165,1,2,0:0:0:0:
320,192,71352,1,0,0:0:0:0:
448,192,71540,5,2,0:0:0:0:
64,192,71540,1,0,0:0:0:0:
192,192,71727,1,2,0:0:0:0:
320,192,71915,1,2,0:0:0:0:
64,192,71915,1,0,0:0:0:0:
448,192,72008,1,2,0:0:0:0:
192,192,72102,1,2,0:0:0:0:
320,192,72196,1,2,0:0:0:0:
64,192,72290,5,2,0:0:0:0:
448,192,72290,1,4,0:0:0:0:
192,192,72571,1,2,0:0:0:0:
320,192,72571,1,0,0:0:0:0:
320,192,72852,1,4,0:0:0:0:
448,192,72852,1,2,0:0:0:0:
64,192,72852,1,4,0:0:0:0:
64,192,74540,1,0,0:0:0:0:
448,192,74540,1,0,0:0:0:0:
320,192,74727,1,0,0:0:0:0:
192,192,74915,1,0,0:0:0:0:
64,192,75102,1,0,0:0:0:0:
448,192,75290,1,0,0:0:0:0:
64,192,75477,1,0,0:0:0:0:
320,192,75665,1,0,0:0:0:0:
192,192,75665,1,0,0:0:0:0:
64,192,75852,1,0,0:0:0:0:
192,192,76040,1,0,0:0:0:0:
320,192,76227,1,0,0:0:0:0:
448,192,76415,1,0,0:0:0:0:
64,192,76602,1,0,0:0:0:0:
192,192,76790,1,0,0:0:0:0:
448,192,76790,1,0,0:0:0:0:
320,192,76977,1,0,0:0:0:0:
192,192,77165,1,0,0:0:0:0:
448,192,77352,1,0,0:0:0:0:
64,192,77540,1,0,0:0:0:0:
320,192,77727,1,0,0:0:0:0:
64,192,77915,1,0,0:0:0:0:
448,192,77915,1,0,0:0:0:0:
320,192,78102,1,0,0:0:0:0:
192,192,78290,1,0,0:0:0:0:
64,192,78477,1,0,0:0:0:0:
448,192,78665,1,0,0:0:0:0:
192,192,78852,1,0,0:0:0:0:
320,192,79040,1,0,0:0:0:0:
448,192,79040,1,0,0:0:0:0:
64,192,79227,1,0,0:0:0:0:
320,192,79415,1,0,0:0:0:0:
192,192,79602,1,0,0:0:0:0:
448,192,79790,1,0,0:0:0:0:
64,192,79977,1,0,0:0:0:0:
192,192,80165,1,0,0:0:0:0:
320,192,80165,128,0,80540:0:0:0:0:
64,192,80540,128,0,80915:0:0:0:0:
448,192,80540,1,0,0:0:0:0:
192,192,80915,128,0,81290:0:0:0:0:
320,192,80915,1,0,0:0:0:0:
448,192,81290,128,0,81665:0:0:0:0:
64,192,81290,1,0,0:0:0:0:
320,192,81665,128,0,82040:0:0:0:0:
192,192,81665,1,0,0:0:0:0:
64,192,82040,128,0,82415:0:0:0:0:
448,192,82040,1,0,0:0:0:0:
448,192,82415,1,0,0:0:0:0:
192,192,82415,1,0,0:0:0:0:
64,192,82602,1,0,0:0:0:0:
320,192,82790,1,0,0:0:0:0:
448,192,82790,1,0,0:0:0:0:
64,192,82977,1,0,0:0:0:0:
192,192,83165,1,0,0:0:0:0:
448,192,83165,1,0,0:0:0:0:
320,192,83540,1,0,0:0:0:0:
192,192,83540,1,0,0:0:0:0:
64,192,83915,1,0,0:0:0:0:
192,192,83915,1,0,0:0:0:0:
320,192,84290,1,0,0:0:0:0:
64,192,84290,1,0,0:0:0:0:
64,192,84665,1,0,0:0:0:0:
448,192,84665,128,0,85790:0:0:0:0:
320,192,85040,1,0,0:0:0:0:
64,192,85415,1,0,0:0:0:0:
192,192,85790,1,0,0:0:0:0:
320,192,85977,128,0,86165:0:0:0:0:
64,192,86165,128,0,86352:0:0:0:0:
448,192,86352,128,0,86540:0:0:0:0:
192,192,86540,128,0,86727:0:0:0:0:
320,192,86727,128,0,86915:0:0:0:0:
448,192,86915,128,0,88040:0:0:0:0:
64,192,86915,1,0,0:0:0:0:
320,192,87290,1,0,0:0:0:0:
192,192,87665,1,0,0:0:0:0:
64,192,88040,1,0,0:0:0:0:
192,192,88227,128,0,88415:0:0:0:0:
320,192,88415,128,0,88602:0:0:0:0:
64,192,88602,128,0,88790:0:0:0:0:
448,192,88790,128,0,88977:0:0:0:0:
192,192,88977,128,0,89165:0:0:0:0:
320,192,89165,128,0,89540:0:0:0:0:
64,192,89165,1,0,0:0:0:0:
64,192,89540,128,0,89915:0:0:0:0:
448,192,89540,1,0,0:0:0:0:
320,192,89915,1,0,0:0:0:0:
192,192,89915,128,0,90290:0:0:0:0:
64,192,90290,1,0,0:0:0:0:
320,192,90290,128,0,91415:0:0:0:0:
448,192,90665,1,0,0:0:0:0:
64,192,91040,1,0,0:0:0:0:
192,192,91415,1,0,0:0:0:0:
448,192,91415,1,0,0:0:0:0:
192,192,91602,1,0,0:0:0:0:
448,192,91790,1,0,0:0:0:0:
64,192,91790,1,0,0:0:0:0:
448,192,91977,1,0,0:0:0:0:
320,192,92165,1,0,0:0:0:0:
64,192,92165,128,0,92540:0:0:0:0:
192,192,92540,1,0,0:0:0:0:
320,192,92540,1,0,0:0:0:0:
320,192,92915,1,0,0:0:0:0:
448,192,92915,1,0,0:0:0:0:
192,192,93290,1,0,0:0:0:0:
64,192,93290,128,0,93665:0:0:0:0:
320,192,93665,1,2,0:0:0:0:
448,192,93665,128,4,94415:0:0:0:0:
64,192,94040,1,2,0:0:0:0:
192,192,94415,128,2,94790:0:0:0:0:
320,192,94415,1,0,0:0:0:0:
64,192,94790,128,2,95540:0:0:0:0:
448,192,94790,1,0,0:0:0:0:
320,192,95165,1,2,0:0:0:0:
320,192,95540,128,2,95915:0:0:0:0:
192,192,95540,1,0,0:0:0:0:
448,192,95915,128,2,96665:0:0:0:0:
64,192,95915,1,0,0:0:0:0:
192,192,96290,1,2,0:0:0:0:
192,192,96665,128,2,97040:0:0:0:0:
64,192,96665,1,0,0:0:0:0:
320,192,97040,128,2,97790:0:0:0:0:
448,192,97040,1,0,0:0:0:0:
64,192,97415,1,2,0:0:0:0:
64,192,97790,128,2,98165:0:0:0:0:
192,192,97790,1,0,0:0:0:0:
448,192,98165,128,2,98915:0:0:0:0:
320,192,98165,1,0,0:0:0:0:
192,192,98540,1,2,0:0:0:0:
192,192,98915,128,2,99290:0:0:0:0:
64,192,98915,1,0,0:0:0:0:
64,192,99290,128,2,100040:0:0:0:0:
448,192,99290,1,0,0:0:0:0:
192,192,99665,1,2,0:0:0:0:
320,192,100040,128,2,100415:0:0:0:0:
448,192,100040,1,0,0:0:0:0:
192,192,100415,128,2,100602:0:0:0:0:
64,192,100415,1,0,0:0:0:0:
448,192,100602,128,0,100790:0:0:0:0:
64,192,100790,128,0,100977:0:0:0:0:
192,192,100790,1,2,0:0:0:0:
320,192,100977,128,0,101165:0:0:0:0:
192,192,101165,128,0,101540:0:0:0:0:
448,192,101165,1,2,0:0:0:0:
448,192,101540,1,2,0:0:0:0:
64,192,101540,1,4,0:0:0:0:
192,192,101915,1,2,0:0:0:0:
448,192,101915,1,4,0:0:0:0:
320,192,102290,1,2,0:0:0:0:
64,192,102290,1,4,0:0:0:0:
192,192,102477,1,2,0:0:0:0:
448,192,102665,1,4,0:0:0:0:
64,192,102665,128,2,103040:0:0:0:0:
192,192,103040,1,2,0:0:0:0:
448,192,103040,128,4,103790:0:0:0:0:
320,192,103415,1,2,0:0:0:0:
320,192,103790,128,2,104540:0:0:0:0:
64,192,103790,1,0,0:0:0:0:
192,192,104165,1,2,0:0:0:0:
192,192,104540,128,2,105290:0:0:0:0:
448,192,104540,1,0,0:0:0:0:
64,192,104915,1,2,0:0:0:0:
448,192,105290,128,2,105477:0:0:0:0:
320,192,105290,1,0,0:0:0:0:
64,192,105477,128,0,105665:0:0:0:0:
192,192,105665,128,2,105852:0:0:0:0:
448,192,105665,1,0,0:0:0:0:
320,192,105852,128,0,106040:0:0:0:0:
64,192,106040,128,2,106790:0:0:0:0:
192,192,106040,1,0,0:0:0:0:
448,192,106415,1,2,0:0:0:0:
448,192,106790,128,2,107540:0:0:0:0:
192,192,106790,1,0,0:0:0:0:
320,192,107165,1,2,0:0:0:0:
192,192,107540,128,2,108290:0:0:0:0:
64,192,107540,1,0,0:0:0:0:
448,192,107915,1,2,0:0:0:0:
448,192,108290,128,2,108477:0:0:0:0:
320,192,108290,1,0,0:0:0:0:
64,192,108477,128,0,108665:0:0:0:0:
320,192,108665,128,2,108852:0:0:0:0:
448,192,108665,1,0,0:0:0:0:
192,192,108852,128,0,109040:0:0:0:0:
448,192,109040,128,2,109790:0:0:0:0:
64,192,109040,1,0,0:0:0:0:
320,192,109415,1,2,0:0:0:0:
64,192,109790,128,2,110540:0:0:0:0:
192,192,109790,1,0,0:0:0:0:
320,192,110165,1,2,0:0:0:0:
320,192,110540,128,2,111290:0:0:0:0:
448,192,110540,1,0,0:0:0:0:
64,192,110915,1,2,0:0:0:0:
192,192,111290,128,2,112040:0:0:0:0:
448,192,111290,1,0,0:0:0:0:
320,192,111665,1,2,0:0:0:0:
448,192,112040,128,2,112227:0:0:0:0:
64,192,112040,1,0,0:0:0:0:
320,192,112227,128,0,112415:0:0:0:0:
64,192,112415,128,2,112602:0:0:0:0:
192,192,112415,1,0,0:0:0:0:
448,192,112602,128,0,112790:0:0:0:0:
192,192,112790,128,2,113165:0:0:0:0:
320,192,112790,1,0,0:0:0:0:
448,192,112977,1,2,0:0:0:0:
320,192,113165,128,2,113540:0:0:0:0:
64,192,113165,1,0,0:0:0:0:
192,192,113352,1,6,0:0:0:0:
448,192,113540,1,2,0:0:0:0:
64,192,113540,1,4,0:0:0:0:
192,192,113915,1,4,0:0:0:0:
320,192,113915,1,2,0:0:0:0:
320,192,114290,1,4,0:0:0:0:
448,192,114290,1,2,0:0:0:0:
64,192,114665,1,2,0:0:0:0:
192,192,114665,1,4,0:0:0:0:
448,192,114758,1,2,0:0:0:0:
320,192,114852,1,2,0:0:0:0:
192,192,114946,1,2,0:0:0:0:
64,192,115040,1,4,0:0:0:0:
448,192,115040,128,2,115790:0:0:0:0:
192,192,115415,1,2,0:0:0:0:
192,192,115790,128,2,116540:0:0:0:0:
320,192,115790,1,0,0:0:0:0:
448,192,116165,1,2,0:0:0:0:
320,192,116540,128,2,117290:0:0:0:0:
64,192,116540,1,0,0:0:0:0:
448,192,116915,1,2,0:0:0:0:
64,192,117290,128,2,117477:0:0:0:0:
192,192,117290,1,0,0:0:0:0:
448,192,117477,128,0,117665:0:0:0:0:
192,192,117665,128,2,117852:0:0:0:0:
64,192,117665,1,0,0:0:0:0:
320,192,117852,128,0,118040:0:0:0:0:
448,192,118040,1,2,0:0:0:0:
64,192,118040,1,0,0:0:0:0:
