osu file format v14

[General]
AudioFilename: audio.mp3
AudioLeadIn: 0
PreviewTime: 352004
Countdown: 0
SampleSet: Soft
StackLeniency: 0.4
Mode: 0
LetterboxInBreaks: 0
WidescreenStoryboard: 1

[Editor]
Bookmarks: 2508,32746,57342,83114,116201,151051,181568,209681,237053,260533,280116,352004
DistanceSpacing: 0.2
BeatDivisor: 4
GridSize: 8
TimelineZoom: 3.799998

[Metadata]
Title:AYAYA Compilation
TitleUnicode:AYAYA Compilation
Artist:Kiniro Mosaic (Yellow Mosaic)
ArtistUnicode:Kiniro Mosaic (Yellow Mosaic)
Creator:DendyHere
Version:Marathon
Source:きんいろモザイク
Tags:-Mikan 3mplify KINMOZA! Kinmosa Golden Mosaic
BeatmapID:1770748
BeatmapSetID:846669

[Difficulty]
HPDrainRate:5.5
CircleSize:4
OverallDifficulty:8
ApproachRate:9.3
SliderMultiplier:1.4
SliderTickRate:1

[Events]
//Background and Video events
0,0,"bg.jpg",0,0
//Break Periods
2,149792,150497
2,179182,181329
2,280116,283723
//Storyboard Layer 0 (Background)
//Storyboard Layer 1 (Fail)
//Storyboard Layer 2 (Pass)
//Storyboard Layer 3 (Foreground)
//Storyboard Sound Samples

[TimingPoints]
2507,476.190476190476,4,2,0,70,1,0
2507,-100,4,2,0,70,0,0
3935,-125,4,2,0,70,0,0
4411,-100,4,2,0,70,0,0
5364,-125,4,2,0,70,0,0
5840,-100,4,2,0,70,0,0
7387,-83.3333333333333,4,2,0,70,0,0
8221,-100,4,2,0,70,0,0
9173,-125,4,2,0,70,0,0
9649,-100,4,2,0,70,0,0
11078,-100,4,2,0,70,0,0
12983,-100,4,2,0,70,0,0
15840,-125,4,2,0,70,0,0
17745,-66.6666666666667,4,2,0,70,0,0
19887,-83.3333333333333,4,2,0,70,0,0
21554,-66.6666666666667,4,2,0,70,0,0
24649,-100,4,2,0,70,0,0
25364,-66.6666666666667,4,2,0,70,0,0
27506,-100,4,2,0,70,0,0
29173,-66.6666666666667,4,2,0,70,0,0
31078,-100,4,2,0,70,0,0
32589,372.670807453416,4,2,1,70,1,0
32775,372.670807453416,4,2,1,70,1,0
32775,-83.3333333333333,4,2,1,70,0,0
34871,-83.3333333333333,4,2,1,5,0,0
34918,-83.3333333333333,4,2,1,70,0,0
34964,-83.3333333333333,4,2,1,5,0,0
35011,-83.3333333333333,4,2,1,70,0,0
44561,-83.3333333333333,4,2,1,5,0,0
44607,-83.3333333333333,4,2,1,70,0,0
44654,-83.3333333333333,4,2,1,5,0,0
44700,-83.3333333333333,4,2,1,70,0,0
57392,402.684563758389,4,2,0,70,1,0
57392,-100,4,2,0,70,0,0
70277,-80,4,2,0,70,0,0
75915,-66.6666666666667,4,2,0,70,0,0
83114,335.195530726257,4,2,0,55,1,0
93840,-83.3333333333333,4,2,0,55,0,0
99203,-80,4,2,0,60,0,0
104566,-76.9230769230769,4,2,0,65,0,0
106242,-76.9230769230769,4,2,0,70,0,0
106493,-76.9230769230769,4,2,0,5,0,0
106577,-66.6666666666667,4,2,0,70,0,0
106828,-76.9230769230769,4,2,0,5,0,0
106912,-58.8235294117647,4,2,0,70,0,0
107163,-76.9230769230769,4,2,0,5,0,0
107248,-76.9230769230769,4,2,0,70,0,0
108588,-76.9230769230769,4,2,0,70,0,0
108839,-76.9230769230769,4,2,0,5,0,0
108924,-66.6666666666667,4,2,0,70,0,0
109175,-76.9230769230769,4,2,0,5,0,0
109259,-58.8235294117647,4,2,0,70,0,0
109510,-76.9230769230769,4,2,0,5,0,0
109594,-52.6315789473684,4,2,0,70,0,0
109845,-76.9230769230769,4,2,0,5,0,0
109929,-76.9230769230769,4,2,0,70,0,0
111605,-66.6666666666667,4,2,0,70,0,0
111856,-76.9230769230769,4,2,0,5,0,0
111940,-58.8235294117647,4,2,0,70,0,0
112191,-76.9230769230769,4,2,0,5,0,0
112276,-52.6315789473684,4,2,0,70,0,0
112527,-76.9230769230769,4,2,0,5,0,0
112611,-76.9230769230769,4,2,0,70,0,0
113951,359.281437125748,4,2,0,70,1,0
116179,359.281437125748,4,2,0,70,1,0
116179,-66.6666666666667,4,2,0,70,0,0
151051,258.620689655172,4,2,0,70,1,0
151051,-100,4,2,0,60,0,0
166568,-83.3333333333333,4,2,0,60,0,0
168637,-100,4,2,0,60,0,0
169154,-90.9090909090909,4,2,0,60,0,0
169671,-83.3333333333333,4,2,0,70,0,0
181568,315.789473684211,4,2,0,100,1,0
181883,-133.333333333333,4,2,0,100,0,0
190725,315.789473684211,4,2,0,70,1,0
190725,-100,4,2,0,70,0,0
200830,-133.333333333333,4,2,0,70,0,0
209647,398.14200398142,4,2,0,70,1,0
209647,-50,4,2,0,65,0,0
222404,398.14200398142,4,2,0,65,1,0
222404,-50,4,2,0,65,0,0
223613,398.14200398142,4,2,0,65,1,0
223613,-100,4,2,0,65,0,0
224011,-100,4,2,0,70,0,0
237053,428.571428571429,4,2,0,100,1,0
237053,-100,4,2,0,100,0,0
240481,-80,4,2,0,100,0,0
247338,-133.333333333333,4,2,0,100,0,0
249053,-80,4,2,0,100,0,0
250767,461.538461538462,4,2,0,70,1,0
250767,-100,4,2,0,70,0,0
252613,428.571428571429,4,2,0,70,1,0
252613,-80,4,2,0,70,0,0
256072,428.571428571429,4,2,0,70,1,0
256072,-80,4,2,0,70,0,0
260533,416.666666666667,4,2,0,55,1,0
280116,346.820809248555,4,2,0,70,1,0
284277,-83.3333333333333,4,2,0,45,0,0
286185,346.820809248555,4,2,0,45,1,0
286185,-333.333333333333,4,2,0,60,0,0
290173,-100,4,2,0,60,0,0
290780,-100,4,2,0,5,0,0
290867,-100,4,2,0,60,0,0
291127,-100,4,2,0,5,0,0
291214,-100,4,2,0,60,0,0
291474,-100,4,2,0,5,0,0
291560,-333.333333333333,4,2,0,60,0,0
295895,-181.818181818182,4,2,0,60,0,0
296502,-100,4,2,0,5,0,0
296589,-181.818181818182,4,2,0,60,0,0
297196,-100,4,2,0,5,0,0
297283,-100,4,2,0,60,0,0
308381,-86.9565217391304,4,2,0,60,0,0
313930,-76.9230769230769,4,2,0,60,0,0
318092,-100,4,2,0,40,0,0
318352,-90.9090909090909,4,2,0,45,0,0
318612,-83.3333333333333,4,2,0,50,0,0
318872,-100,4,2,0,40,0,0
319132,-71.4285714285714,4,2,0,70,0,0
319306,-83.3333333333333,4,2,0,60,0,0
319499,346.820809248555,4,2,0,70,1,0
319499,-71.4285714285714,4,2,0,70,0,1
319585,-83.3333333333333,4,2,0,70,0,1
320886,-71.4285714285714,4,2,0,70,0,1
320972,-83.3333333333333,4,2,0,70,0,1
322273,-71.4285714285714,4,2,0,70,0,1
322359,-83.3333333333333,4,2,0,70,0,1
323660,-71.4285714285714,4,2,0,70,0,1
323746,-83.3333333333333,4,2,0,70,0,1
325048,-71.4285714285714,4,2,0,70,0,1
325134,-83.3333333333333,4,2,0,70,0,1
326435,-71.4285714285714,4,2,0,70,0,1
326521,-83.3333333333333,4,2,0,70,0,1
327822,-71.4285714285714,4,2,0,70,0,1
327908,-83.3333333333333,4,2,0,70,0,1
330597,-76.9230769230769,4,2,0,70,0,1
330683,-86.9565217391304,4,2,0,70,0,1
331984,-76.9230769230769,4,2,0,70,0,1
332070,-86.9565217391304,4,2,0,70,0,1
333371,-76.9230769230769,4,2,0,70,0,1
333457,-86.9565217391304,4,2,0,70,0,1
336146,-66.6666666666667,4,2,0,70,0,1
336233,-80,4,2,0,70,0,1
337533,-66.6666666666667,4,2,0,70,0,1
337620,-80,4,2,0,70,0,1
338920,-66.6666666666667,4,2,0,70,0,1
339007,-80,4,2,0,70,0,1
341695,-76.9230769230769,4,2,0,55,0,0
341868,-76.9230769230769,4,2,0,5,0,0
341955,-76.9230769230769,4,2,0,55,0,0
342129,-76.9230769230769,4,2,0,5,0,0
342215,-76.9230769230769,4,2,0,55,0,0
342389,-76.9230769230769,4,2,0,5,0,0
342475,-76.9230769230769,4,2,0,55,0,0
342649,-76.9230769230769,4,2,0,5,0,0
342735,-76.9230769230769,4,2,0,55,0,0
343082,342.857142857143,4,2,0,70,1,0
343082,-100,4,2,0,70,0,0
344453,346.820809248555,4,2,0,55,1,0
344453,-76.9230769230769,4,2,0,55,0,0
344626,-76.9230769230769,4,2,0,5,0,0
344713,-76.9230769230769,4,2,0,55,0,0
344887,-76.9230769230769,4,2,0,5,0,0
344973,-76.9230769230769,4,2,0,55,0,0
345147,-76.9230769230769,4,2,0,5,0,0
345233,-76.9230769230769,4,2,0,55,0,0
345407,-76.9230769230769,4,2,0,5,0,0
345493,-76.9230769230769,4,2,0,55,0,0
345840,342.857142857143,4,2,0,70,1,0
345857,-95.2380952380952,4,2,0,70,0,0
347211,346.820809248555,4,2,0,55,1,0
347211,-76.9230769230769,4,2,0,55,0,0
347471,-76.9230769230769,4,2,0,55,0,0
347645,-76.9230769230769,4,2,0,5,0,0
347731,-76.9230769230769,4,2,0,55,0,0
347905,-76.9230769230769,4,2,0,5,0,0
347991,-76.9230769230769,4,2,0,55,0,0
348165,-76.9230769230769,4,2,0,5,0,0
348251,-76.9230769230769,4,2,0,55,0,0
348598,342.857142857143,4,2,0,70,1,0
348631,-90.9090909090909,4,2,0,70,0,0
349969,346.820809248555,4,2,0,55,1,0
349969,-76.9230769230769,4,2,0,70,0,0
350142,-76.9230769230769,4,2,0,5,0,0
350229,-76.9230769230769,4,2,0,70,0,0
350403,-76.9230769230769,4,2,0,5,0,0
350489,-76.9230769230769,4,2,0,70,0,0
350663,-76.9230769230769,4,2,0,5,0,0
350749,-76.9230769230769,4,2,0,70,0,0
350923,-76.9230769230769,4,2,0,5,0,0
351009,-76.9230769230769,4,2,0,70,0,0
351406,-100,4,2,0,70,0,0
352004,322.58064516129,4,2,0,70,1,0
352165,-66.6666666666667,4,2,1,80,0,0
355874,322.58064516129,4,2,1,80,1,0
355874,-66.6666666666667,4,2,1,80,0,0
362360,322.58064516129,4,2,1,80,1,0
362360,-133.333333333333,4,2,1,80,0,0
364295,-58.8235294117647,4,2,1,80,0,0
364940,-133.333333333333,4,2,1,80,0,0
367682,-66.6666666666667,4,2,1,80,0,0

[Colours]
Combo1 : 241,146,180
Combo2 : 255,255,128
Combo3 : 225,173,34
Combo4 : 150,150,150

[HitObjects]
96,128,2507,6,0,P|131:132|184:124,1,70
49,217,2864,1,0,0:0:0:0:
49,217,2983,2,0,P|22:194|4:159,1,70
27,82,3340,1,0,0:0:0:0:
60,16,3459,2,0,P|33:39|15:74,1,70
196,59,3935,2,0,B|262:42,1,56
258,189,4411,6,0,P|273:158|278:124,1,70
375,165,4768,1,0,0:0:0:0:
375,165,4887,2,0,L|352:225,1,35
299,288,5126,1,0,0:0:0:0:
299,288,5245,1,0,0:0:0:0:
299,288,5364,2,0,B|267:299|267:299|232:298,1,56
147,149,5840,2,0,L|146:218,1,70
54,180,6197,1,0,2:0:0:0:
54,180,6316,6,0,P|49:132|68:92,1,70,0|0,2:0|2:0,2:0:0:0:
303,166,6792,1,0,0:0:0:0:
303,166,6911,1,0,0:0:0:0:
303,166,7030,2,0,B|270:185|226:171,1,70
228,332,7387,2,0,B|226:290|263:259,1,83.9999974365235
334,334,7745,1,0,0:0:0:0:
258,82,7983,1,0,0:0:0:0:
455,238,8221,6,0,P|458:197|475:167,1,70
390,98,8578,1,0,0:0:0:0:
390,98,8697,2,0,P|387:139|370:169,1,70
237,222,9173,2,0,P|267:216|296:222,1,56
205,325,9649,2,0,P|173:317|144:290,1,70
321,316,10126,6,0,B|321:357|321:357|300:406,1,70
408,340,10483,1,0,0:0:0:0:
408,340,10602,2,0,B|408:299|408:299|429:250,1,70
290,153,11078,2,0,P|316:176|329:209,1,70
242,224,11435,1,0,0:0:0:0:
242,224,11554,2,0,P|216:200|209:121,1,105
171,114,12030,6,0,P|135:122|80:105,1,70
81,201,12387,1,0,0:0:0:0:
81,201,12506,2,0,P|116:212|155:254,1,70
250,322,12983,6,0,L|201:324,1,35
401,252,13221,2,0,L|437:263,1,35
257,171,13459,1,0,0:0:0:0:
74,129,13935,6,0,P|114:121|167:140,1,70
115,276,14411,2,0,P|105:238|111:207,1,70
200,238,14768,1,0,0:0:0:0:
200,238,14887,2,0,P|210:276|204:307,1,70
281,193,15364,1,0,0:0:0:0:
420,205,15602,1,0,0:0:0:0:
420,205,15721,1,0,0:0:0:0:
420,205,15840,6,0,L|352:221,1,56
371,127,16197,1,0,0:0:0:0:
371,127,16316,2,0,L|404:119,3,28
326,49,16792,2,0,P|264:40|214:49,1,112
50,261,17745,6,0,L|26:331,2,52.5000020027161
186,300,18102,2,0,L|113:314,2,52.5000020027161
134,213,18459,2,0,L|85:157,2,52.5000020027161
183,124,18816,2,0,L|207:54,2,52.5000020027161
336,113,19173,2,0,L|263:127,2,52.5000020027161
334,211,19530,2,0,L|382:266,2,52.5000020027161
419,332,19887,6,0,P|373:348|323:333,2,83.9999974365235
368,250,20602,1,0,0:0:0:0:
418,164,20721,1,0,0:0:0:0:
347,87,20840,1,0,0:0:0:0:
397,1,20959,1,0,0:0:0:0:
397,1,21078,2,0,P|415:6|442:9,1,41.9999987182618
347,87,21316,2,0,P|325:96|306:97,1,41.9999987182618
195,153,21554,6,0,L|163:85,2,52.5000020027161
85,66,21911,2,0,L|127:5,2,52.5000020027161
95,162,22268,2,0,L|20:155,2,52.5000020027161
52,254,22626,2,0,L|9:314,2,52.5000020027161
133,384,22983,2,0,L|101:316,2,52.5000020027161
152,245,23340,6,0,L|192:177,2,52.5000020027161
211,325,23697,2,0,L|283:331,2,52.5000020027161
255,238,24054,2,0,L|323:195,2,52.5000020027161
381,227,24411,5,0,0:0:0:0:
381,227,24530,1,0,0:0:0:0:
381,227,24649,2,0,P|424:230|460:206,2,70
423,85,25364,6,0,L|401:132,2,52.5000020027161
292,30,25721,2,0,L|336:93,2,52.5000020027161
295,217,26078,2,0,L|313:167,2,52.5000020027161
163,163,26435,2,0,L|238:149,2,52.5000020027161
174,304,26792,2,0,L|192:254,2,52.5000020027161
43,249,27149,2,0,L|118:235,2,52.5000020027161
41,73,27506,6,0,P|46:115|71:146,2,70
246,24,28221,1,0,0:0:0:0:
142,70,28340,1,0,0:0:0:0:
188,174,28459,1,0,0:0:0:0:
292,128,28578,1,0,0:0:0:0:
409,163,28697,2,0,L|460:178,1,35
374,42,28935,2,0,L|373:3,1,35
325,240,29173,6,0,L|325:338,2,52.5000020027161
175,288,29530,2,0,L|257:272,2,52.5000020027161
242,124,29887,2,0,L|242:177,2,52.5000020027161
392,137,30245,2,0,L|340:144,2,52.5000020027161
84,137,30602,2,0,L|136:143,2,52.5000020027161
248,262,30959,1,0,0:0:0:0:
248,262,31078,6,0,L|248:359,2,70
248,58,31792,1,0,0:0:0:0:
60,112,32589,5,0,0:0:0:0:
60,112,32682,1,0,0:0:0:0:
60,112,32775,5,4,3:2:0:0:
80,74,32868,1,0,0:0:0:0:
115,56,32961,1,0,0:0:0:0:
140,87,33054,5,0,0:0:0:0:
144,132,33148,1,0,1:0:0:0:
129,169,33241,1,0,0:0:0:0:
91,198,33334,5,0,0:0:0:0:
78,237,33427,1,0,0:0:0:0:
90,282,33520,2,0,L|183:270,1,83.9999974365235,0|0,3:0|0:0,0:0:0:0:
361,318,33800,1,0,0:0:0:0:
349,339,33893,2,0,L|252:324,1,83.9999974365235,0|0,1:0|0:0,0:0:0:0:
248,212,34172,5,0,0:0:0:0:
248,212,34266,2,0,P|230:169|227:127,1,83.9999974365235,0|0,3:0|0:0,0:0:0:0:
313,37,34545,1,0,0:0:0:0:
353,37,34638,1,0,1:0:0:0:
395,38,34731,1,0,0:0:0:0:
443,96,34825,6,0,L|441:123,1,21.25
387,113,34918,2,0,L|385:141,1,21.25
329,125,35011,2,0,L|323:167,1,41.9999987182618,0|0,3:0|0:0,0:0:0:0:
152,121,35197,2,0,P|143:90|141:76,1,41.9999987182618
232,147,35384,2,0,P|229:187|211:234,1,83.9999974365235,0|0,1:0|0:0,0:0:0:0:
109,278,35663,5,0,0:0:0:0:
84,259,35756,2,0,P|70:233|66:206,1,41.9999987182618,0|0,3:0|0:0,0:0:0:0:
228,307,35943,5,0,0:0:0:0:
284,291,36036,1,0,0:0:0:0:
339,278,36129,2,0,P|348:246|349:225,1,41.9999987182618,0|0,1:0|0:0,0:0:0:0:
149,353,36315,5,0,0:0:0:0:
100,368,36408,1,0,0:0:0:0:
52,348,36502,2,0,P|31:324|21:302,1,41.9999987182618,0|0,3:0|0:0,0:0:0:0:
134,206,36688,2,0,P|131:232|121:265,1,41.9999987182618
23,106,36874,5,0,1:0:0:0:
73,107,36967,1,0,0:0:0:0:
124,110,37061,1,0,0:0:0:0:
174,111,37154,1,0,0:0:0:0:
224,114,37247,5,0,3:0:0:0:
254,73,37340,1,0,0:0:0:0:
240,25,37433,1,0,0:0:0:0:
195,10,37526,1,0,0:0:0:0:
157,39,37620,5,0,1:0:0:0:
160,94,37713,1,0,0:0:0:0:
163,149,37806,1,0,0:0:0:0:
167,203,37899,1,0,0:0:0:0:
180,256,37992,6,0,P|210:266|243:265,1,41.9999987182618,0|0,3:0|0:0,0:0:0:0:
350,150,38178,2,0,P|318:163|287:180,1,41.9999987182618,0|0,1:0|0:0,0:0:0:0:
405,309,38365,1,0,1:0:0:0:
400,291,38458,1,0,1:0:0:0:
364,302,38551,5,0,0:0:0:0:
356,342,38644,1,0,1:0:0:0:
389,372,38738,2,0,P|449:363|485:326,1,83.9999974365235,4|0,3:2|0:0,0:0:0:0:
273,246,39017,5,0,0:0:0:0:
290,275,39110,1,0,1:0:0:0:
277,322,39203,1,0,0:0:0:0:
225,348,39297,1,0,0:0:0:0:
170,327,39390,1,0,0:0:0:0:
154,268,39483,2,0,P|158:237|170:211,1,41.9999987182618,0|0,3:0|0:0,0:0:0:0:
92,364,39669,5,0,0:0:0:0:
71,313,39762,1,0,0:0:0:0:
68,259,39856,2,0,P|74:218|81:199,1,41.9999987182618,0|0,1:0|0:0,0:0:0:0:
159,94,40042,5,0,0:0:0:0:
154,117,40135,1,0,0:0:0:0:
121,144,40228,1,0,3:0:0:0:
65,128,40321,1,0,0:0:0:0:
44,79,40415,1,0,0:0:0:0:
58,26,40508,1,0,0:0:0:0:
114,9,40601,5,0,1:0:0:0:
166,35,40694,1,0,0:0:0:0:
227,51,40787,1,0,0:0:0:0:
288,35,40880,1,0,0:0:0:0:
335,2,40973,5,0,3:0:0:0:
325,64,41067,1,0,0:0:0:0:
338,117,41160,1,0,0:0:0:0:
323,161,41253,1,0,0:0:0:0:
333,193,41346,2,0,P|328:222|328:243,1,41.9999987182618,0|0,1:0|0:0,0:0:0:0:
450,324,41533,5,0,0:0:0:0:
432,306,41626,1,0,0:0:0:0:
406,303,41719,2,0,P|368:327|321:338,1,83.9999974365235,0|0,3:0|0:0,0:0:0:0:
182,292,41998,1,0,0:0:0:0:
170,269,42092,2,0,P|231:285|278:279,1,83.9999974365235,0|0,1:0|0:0,0:0:0:0:
384,174,42371,5,0,0:0:0:0:
345,143,42464,1,0,3:0:0:0:
333,193,42557,1,0,0:0:0:0:
377,228,42651,1,0,0:0:0:0:
434,212,42744,1,0,0:0:0:0:
438,154,42837,1,0,1:0:0:0:
91,110,43023,6,0,L|114:114,1,20.9999993591309
88,130,43116,2,0,L|118:129,1,20.9999993591309
94,157,43210,5,0,3:0:0:0:
135,203,43303,1,0,0:0:0:0:
203,203,43396,1,0,1:0:0:0:
252,155,43489,1,0,1:0:0:0:
248,82,43582,1,0,1:0:0:0:
190,32,43675,1,0,0:0:0:0:
115,54,43769,5,0,1:0:0:0:
177,110,43862,1,0,1:0:0:0:
263,111,43955,2,0,P|312:101|317:96,1,41.9999987182618,0|0,3:0|1:0,0:0:0:0:
436,28,44141,5,0,1:0:0:0:
402,97,44234,1,0,1:0:0:0:
415,171,44328,1,0,3:0:0:0:
475,223,44421,1,0,1:0:0:0:
490,282,44514,6,0,L|461:276,1,20.9999993591309,8|0,3:0|0:0,0:0:0:0:
469,331,44607,2,0,L|447:310,1,20.9999993591309,8|0,3:0|0:0,0:0:0:0:
423,344,44700,1,4,3:2:0:0:
381,330,44793,1,0,0:0:0:0:
346,264,44887,5,0,0:0:0:0:
283,233,44980,1,0,0:0:0:0:
211,253,45073,1,8,1:0:0:0:
178,326,45166,2,0,P|166:292|153:271,1,41.9999987182618
53,262,45352,5,0,0:0:0:0:
53,262,45446,2,0,P|64:229|76:211,1,41.9999987182618,0|0,3:0|0:0,0:0:0:0:
166,146,45632,1,0,0:0:0:0:
194,109,45725,1,0,0:0:0:0:
188,62,45818,1,0,1:0:0:0:
146,41,45911,1,0,0:0:0:0:
101,55,46005,2,0,P|108:79|117:105,1,41.9999987182618
270,158,46191,5,0,3:0:0:0:
312,153,46284,1,0,0:0:0:0:
354,149,46377,1,0,0:0:0:0:
396,144,46470,1,0,0:0:0:0:
434,116,46563,2,0,L|439:64,1,41.9999987182618,0|0,1:0|0:0,0:0:0:0:
340,2,46750,5,0,0:0:0:0:
343,17,46843,1,0,0:0:0:0:
348,32,46936,2,0,L|357:75,1,41.9999987182618,0|0,3:0|0:0,0:0:0:0:
504,173,47123,1,0,0:0:0:0:
501,191,47216,1,0,0:0:0:0:
497,211,47309,1,0,1:0:0:0:
494,228,47402,1,0,0:0:0:0:
491,248,47495,5,0,0:0:0:0:
438,306,47588,1,0,0:0:0:0:
364,297,47682,2,0,P|338:277|313:266,1,41.9999987182618,0|0,3:0|0:0,0:0:0:0:
218,370,47868,1,0,0:0:0:0:
218,370,47961,2,0,P|255:348|264:334,1,41.9999987182618,0|0,0:0|1:0,0:0:0:0:
208,217,48148,1,0,0:0:0:0:
208,217,48241,2,0,P|223:254|239:267,1,41.9999987182618
332,172,48427,6,0,P|341:143|343:122,1,41.9999987182618,0|0,3:0|0:0,0:0:0:0:
92,187,48613,2,0,P|111:210|132:227,1,41.9999987182618
203,0,48800,2,0,P|173:5|145:17,1,41.9999987182618,0|0,1:0|0:0,0:0:0:0:
207,121,48986,1,0,0:0:0:0:
207,121,49079,1,0,0:0:0:0:
207,121,49172,6,0,L|199:78,1,41.9999987182618,0|0,3:0|0:0,0:0:0:0:
388,102,49359,2,0,L|395:60,1,41.9999987182618
407,280,49545,5,0,1:0:0:0:
354,230,49638,1,0,1:0:0:0:
281,233,49731,1,0,1:0:0:0:
229,290,49825,1,0,1:0:0:0:
161,333,49918,1,4,3:0:0:0:
89,322,50011,1,0,3:0:0:0:
48,273,50104,1,0,3:0:0:0:
52,218,50197,1,0,3:0:0:0:
92,187,50290,1,0,3:0:0:0:
138,195,50384,1,0,3:0:0:0:
155,229,50477,1,0,3:0:0:0:
144,256,50570,1,0,3:0:0:0:
128,263,50663,5,0,3:0:0:0:
195,66,50849,1,0,0:0:0:0:
321,308,51036,1,2,0:0:0:0:
89,58,51222,1,0,0:0:0:0:
332,140,51408,6,0,L|423:120,1,83.9999974365235,0|0,3:0|0:0,0:0:0:0:
155,229,51781,2,0,L|54:221,1,83.9999974365235,2|0,0:0|0:0,0:0:0:0:
245,115,52154,5,0,3:0:0:0:
205,341,52340,1,0,0:0:0:0:
101,101,52526,1,2,0:0:0:0:
434,265,52713,1,0,0:0:0:0:
132,251,52899,6,0,P|110:293|101:342,1,83.9999974365235,0|0,3:0|0:0,0:0:0:0:
322,124,53272,2,0,P|311:73|287:32,1,83.9999974365235,2|0,0:0|0:0,0:0:0:0:
305,275,53644,5,0,3:0:0:0:
361,277,53738,1,0,0:0:0:0:
418,280,53831,1,0,0:0:0:0:
224,159,54017,6,0,L|173:165,1,41.9999987182618,2|0,0:0|0:0,0:0:0:0:
83,116,54203,1,0,0:0:0:0:
363,117,54390,6,0,L|360:163,1,41.9999987182618,0|0,3:0|0:0,0:0:0:0:
220,287,54576,2,0,L|204:237,1,41.9999987182618
374,360,54762,1,2,0:0:0:0:
23,337,54949,1,0,3:0:0:0:
463,232,55135,5,2,1:0:0:0:
463,232,55228,1,2,1:0:0:0:
99,149,55415,5,2,1:0:0:0:
99,149,55508,1,2,1:0:0:0:
99,149,55601,1,2,1:0:0:0:
378,82,55787,5,2,1:0:0:0:
378,82,55880,1,6,1:0:0:0:
92,123,57392,6,0,B|132:123|132:123|153:144,1,70
177,171,57694,1,0,0:0:0:0:
200,197,57794,1,0,0:0:0:0:
226,218,57895,1,0,0:0:0:0:
261,218,57996,1,0,0:0:0:0:
296,218,58096,1,0,0:0:0:0:
431,155,58197,6,0,L|355:155,1,70
240,85,58600,2,0,L|310:85,1,70
340,63,58902,1,0,0:0:0:0:
371,40,59002,2,0,B|409:47|409:47|440:40,2,70
480,128,59606,5,0,0:0:0:0:
480,160,59707,1,0,0:0:0:0:
480,192,59808,2,0,B|480:232|480:232|506:272,1,70
309,80,60210,1,0,0:0:0:0:
250,331,60412,1,0,0:0:0:0:
315,218,60613,6,0,B|277:200|277:200|225:200,1,70
219,220,60915,1,0,0:0:0:0:
188,201,61016,1,0,0:0:0:0:
154,212,61116,1,0,0:0:0:0:
129,187,61217,1,0,0:0:0:0:
95,189,61318,1,0,0:0:0:0:
33,337,61418,6,0,L|33:258,2,70
33,61,62022,5,0,0:0:0:0:
33,61,62123,1,0,0:0:0:0:
33,61,62224,2,0,B|57:81|57:81|95:81,1,70
478,101,62626,2,0,B|454:81|454:81|416:81,1,70
255,358,63029,1,0,0:0:0:0:
255,255,63230,1,0,0:0:0:0:
255,152,63432,5,0,0:0:0:0:
255,127,63532,1,0,0:0:0:0:
255,102,63633,1,0,0:0:0:0:
255,77,63734,1,0,0:0:0:0:
255,52,63834,6,0,B|289:42|289:42|323:52,1,70
365,61,64136,1,0,0:0:0:0:
408,51,64237,1,0,0:0:0:0:
451,41,64338,1,0,0:0:0:0:
444,85,64438,1,0,0:0:0:0:
436,129,64539,1,0,0:0:0:0:
436,249,64640,6,0,B|427:283|427:283|402:307,1,70
288,358,65043,2,0,B|306:328|306:328|306:292,1,70
308,249,65345,1,0,0:0:0:0:
308,204,65445,2,0,B|308:168|308:168|290:139,2,70
205,309,66049,5,0,0:0:0:0:
205,277,66150,1,0,0:0:0:0:
205,245,66251,2,0,B|205:205|205:205|179:165,1,70
376,357,66653,1,0,0:0:0:0:
433,97,66855,1,0,0:0:0:0:
444,215,67056,6,0,B|406:213|406:213|377:199,1,70
334,209,67358,1,0,0:0:0:0:
303,175,67459,1,0,0:0:0:0:
316,131,67559,1,0,0:0:0:0:
284,97,67660,1,0,0:0:0:0:
238,107,67761,1,0,0:0:0:0:
94,41,67861,6,0,L|164:41,2,70
19,247,68465,5,0,0:0:0:0:
19,247,68566,1,0,0:0:0:0:
19,247,68667,2,0,B|9:208|9:208|24:162,1,70
317,237,69069,2,0,B|326:208|326:208|316:169,1,70
170,310,69472,1,0,0:0:0:0:
170,310,69573,1,0,0:0:0:0:
170,310,69673,2,0,L|170:349,1,35
170,210,69875,5,0,0:0:0:0:
170,182,69975,1,0,0:0:0:0:
170,153,70076,1,0,0:0:0:0:
170,124,70177,1,0,0:0:0:0:
170,95,70277,6,0,B|213:78|213:78|256:95,1,87.5
298,123,70579,1,0,0:0:0:0:
351,97,70680,1,0,0:0:0:0:
356,39,70781,1,0,0:0:0:0:
307,7,70881,1,0,0:0:0:0:
255,34,70982,1,0,0:0:0:0:
262,329,71083,6,0,L|262:242,1,87.5
72,82,71485,2,0,L|72:170,1,87.5
34,298,71787,1,0,0:0:0:0:
34,298,71888,2,0,B|79:284|79:284|121:297,2,87.5
262,347,72492,5,0,0:0:0:0:
262,347,72593,1,0,0:0:0:0:
262,347,72694,2,0,B|311:360|311:360|353:346,1,87.5
307,61,73096,1,0,0:0:0:0:
87,251,73298,1,0,0:0:0:0:
256,164,73499,6,0,B|220:146|220:146|198:104,1,87.5
143,85,73801,1,0,2:0:0:0:
99,123,73902,1,0,0:0:0:0:
44,104,74002,1,0,2:0:0:0:
34,47,74103,1,0,0:0:0:0:
79,11,74204,1,0,0:0:0:0:
395,61,74304,6,0,L|307:61,2,87.5
213,278,74908,5,0,0:0:0:0:
213,278,75009,1,0,0:0:0:0:
212,277,75110,2,0,B|256:263|256:263|299:276,1,87.5,0|0,2:0|2:0,2:0:0:0:
44,79,75512,2,0,B|88:94|88:94|131:81,1,87.5
291,157,75915,6,0,L|291:92,1,52.5000020027161
79,198,76116,2,0,L|79:250,1,52.5000020027161
190,212,76318,1,0,0:0:0:0:
190,185,76418,1,0,0:0:0:0:
190,158,76519,1,0,0:0:0:0:
190,131,76620,1,0,0:0:0:0:
201,90,76720,5,0,0:0:0:0:
235,65,76821,1,0,0:0:0:0:
276,56,76922,2,0,P|305:61|344:53,1,52.5000020027161
444,134,77123,1,0,0:0:0:0:
444,134,77224,2,0,L|486:113,2,26.2500010013581
313,211,77425,5,0,0:0:0:0:
313,211,77526,1,0,0:0:0:0:
313,211,77627,2,0,L|271:190,2,26.2500010013581
223,323,77828,1,0,0:0:0:0:
183,334,77928,1,0,0:0:0:0:
141,324,78029,2,0,P|118:323|92:331,2,26.2500010013581
77,209,78230,2,0,L|73:172,2,26.2500010013581
166,183,78432,6,0,L|179:138,2,26.2500010013581
277,172,78633,1,0,0:0:0:0:
277,172,78734,2,0,L|258:209,2,26.2500010013581
354,98,78935,6,0,L|369:95,6,13.125000500679
266,20,79136,5,0,0:0:0:0:
224,16,79237,1,0,0:0:0:0:
183,27,79338,1,0,0:0:0:0:
149,51,79438,1,0,0:0:0:0:
107,47,79539,2,0,L|74:43,3,26.2500010013581
124,134,79740,2,0,L|133:144,6,13.125000500679
70,255,79942,6,0,P|93:268|127:270,1,52.5000020027161
427,296,80143,2,0,P|404:283|370:281,1,52.5000020027161
272,116,80345,5,0,0:0:0:0:
272,116,80445,1,0,0:0:0:0:
272,116,80546,2,0,L|330:116,1,52.5000020027161
210,206,80747,1,0,0:0:0:0:
183,27,80949,1,0,0:0:0:0:
72,251,81150,5,0,0:0:0:0:
70,208,81251,1,0,0:0:0:0:
69,166,81351,1,0,0:0:0:0:
67,123,81452,1,0,0:0:0:0:
65,80,81553,6,0,L|113:130,1,52.5000020027161
212,201,81754,1,0,0:0:0:0:
212,201,81854,1,0,0:0:0:0:
212,201,81955,2,0,L|212:286,1,52.5000020027161
302,324,82157,1,0,0:0:0:0:
302,324,82257,1,0,0:0:0:0:
302,324,82358,2,0,L|303:73,1,210.000008010865
59,61,83114,6,0,L|137:68,1,70
274,155,83449,2,0,L|196:162,1,70
121,297,83784,1,0,0:0:0:0:
142,209,83951,1,0,0:0:0:0:
199,345,84119,1,0,0:0:0:0:
121,297,84286,1,0,0:0:0:0:
268,285,84454,5,0,0:0:0:0:
142,209,84622,1,0,0:0:0:0:
199,345,84789,1,0,0:0:0:0:
233,201,85125,5,0,0:0:0:0:
121,297,85293,1,0,0:0:0:0:
268,285,85460,1,0,0:0:0:0:
142,209,85627,1,0,0:0:0:0:
275,106,85795,6,0,P|238:96|200:101,1,70
334,180,86130,2,0,P|371:190|409:185,1,70
512,91,86465,1,0,0:0:0:0:
491,179,86632,1,0,0:0:0:0:
434,43,86800,1,0,0:0:0:0:
512,91,86967,1,0,0:0:0:0:
365,103,87135,5,0,0:0:0:0:
491,179,87303,1,0,0:0:0:0:
365,103,87471,5,0,0:0:0:0:
491,179,87639,1,0,0:0:0:0:
400,187,87806,5,0,0:0:0:0:
365,103,87974,1,0,0:0:0:0:
328,243,88141,1,0,0:0:0:0:
326,253,88225,1,0,0:0:0:0:
324,263,88309,1,0,0:0:0:0:
321,273,88393,1,0,0:0:0:0:
320,283,88477,6,0,P|283:253|239:243,1,70
236,146,88812,2,0,P|191:163|160:196,1,70
126,333,89147,1,0,0:0:0:0:
107,243,89315,1,0,0:0:0:0:
46,99,89482,1,0,0:0:0:0:
22,192,89650,1,0,0:0:0:0:
140,91,89817,5,0,0:0:0:0:
107,243,89985,1,0,0:0:0:0:
46,99,90153,1,0,0:0:0:0:
177,177,90488,5,0,0:0:0:0:
22,192,90656,1,0,0:0:0:0:
140,91,90824,1,0,0:0:0:0:
107,243,90991,1,0,0:0:0:0:
261,196,91158,6,0,L|341:207,1,70
450,82,91493,2,0,L|370:93,1,70
504,225,91829,1,0,0:0:0:0:
450,82,91996,1,0,0:0:0:0:
405,341,92164,1,0,0:0:0:0:
351,198,92331,1,0,0:0:0:0:
504,225,92499,5,0,0:0:0:0:
351,198,92667,1,0,0:0:0:0:
504,225,92834,5,0,0:0:0:0:
351,198,93002,1,0,0:0:0:0:
405,341,93169,5,0,0:0:0:0:
504,225,93337,1,0,0:0:0:0:
450,82,93505,1,0,0:0:0:0:
436,84,93588,1,0,0:0:0:0:
422,86,93672,1,0,0:0:0:0:
408,89,93756,1,0,0:0:0:0:
391,92,93840,6,0,L|334:82,1,41.9999987182618
265,117,94007,2,0,L|208:107,1,41.9999987182618
379,98,94175,2,0,L|322:88,1,41.9999987182618
253,123,94342,2,0,L|196:113,1,41.9999987182618
129,58,94510,5,0,0:0:0:0:
154,198,94678,1,0,0:0:0:0:
211,115,94845,1,0,0:0:0:0:
71,140,95013,1,0,0:0:0:0:
154,198,95181,5,0,0:0:0:0:
129,58,95348,1,0,0:0:0:0:
154,198,95516,1,0,0:0:0:0:
260,293,95851,5,0,0:0:0:0:
285,153,96018,1,0,0:0:0:0:
260,293,96186,1,0,0:0:0:0:
394,242,96354,1,0,0:0:0:0:
154,198,96521,6,0,L|212:210,1,41.9999987182618
301,301,96689,2,0,L|259:292,1,41.9999987182618
138,187,96857,2,0,L|208:201,1,41.9999987182618
316,311,97025,2,0,L|266:301,1,41.9999987182618
150,361,97192,5,0,0:0:0:0:
122,174,97359,1,0,0:0:0:0:
51,327,97527,5,0,0:0:0:0:
107,157,97694,1,0,0:0:0:0:
51,327,97862,5,0,0:0:0:0:
95,147,98029,1,0,0:0:0:0:
0,241,98197,5,0,0:0:0:0:
80,130,98364,1,0,0:0:0:0:
205,177,98532,1,0,0:0:0:0:
80,130,98700,1,0,0:0:0:0:
183,44,98868,1,0,0:0:0:0:
199,48,98951,1,0,0:0:0:0:
215,51,99035,1,0,0:0:0:0:
231,55,99119,1,0,0:0:0:0:
247,60,99203,6,0,P|269:52|295:52,1,43.75
378,166,99370,2,0,P|360:150|347:128,1,43.75
239,54,99538,2,0,P|264:45|293:45,1,43.75
385,171,99705,2,0,P|365:155|350:130,1,43.75
390,30,99873,5,0,0:0:0:0:
474,130,100041,1,0,0:0:0:0:
446,257,100208,1,0,0:0:0:0:
320,295,100376,1,0,0:0:0:0:
214,197,100544,5,0,0:0:0:0:
446,257,100711,1,0,0:0:0:0:
320,295,100879,1,0,0:0:0:0:
318,302,101214,5,0,0:0:0:0:
465,258,101382,1,0,0:0:0:0:
196,186,101549,1,0,0:0:0:0:
315,314,101717,1,0,0:0:0:0:
362,131,101884,6,0,L|378:70,1,43.75
318,302,102052,2,0,L|334:241,1,43.75
359,143,102220,2,0,L|375:82,1,43.75
315,314,102388,2,0,L|331:253,1,43.75
370,100,102555,5,0,0:0:0:0:
249,150,102722,1,0,0:0:0:0:
131,17,102890,1,0,0:0:0:0:
252,67,103057,1,0,0:0:0:0:
242,231,103225,5,0,0:0:0:0:
252,67,103393,1,0,0:0:0:0:
242,231,103560,5,0,0:0:0:0:
252,67,103728,1,0,0:0:0:0:
153,195,103896,5,0,0:0:0:0:
340,102,104064,1,0,0:0:0:0:
160,91,104231,5,0,0:0:0:0:
170,100,104315,1,0,0:0:0:0:
179,108,104398,1,0,0:0:0:0:
188,117,104482,1,0,0:0:0:0:
196,127,104566,6,0,P|200:99|211:75,1,45.4999979171754
295,106,104734,2,0,P|322:101|349:104,1,45.4999979171754
345,193,104901,2,0,P|358:218|363:243,1,45.4999979171754
277,267,105069,2,0,P|257:287|234:300,1,45.4999979171754
147,202,105236,5,0,0:0:0:0:
243,297,105404,1,0,0:0:0:0:
363,234,105572,1,0,0:0:0:0:
339,102,105739,1,0,0:0:0:0:
206,82,105907,5,0,0:0:0:0:
243,297,106074,1,0,0:0:0:0:
339,102,106242,2,0,P|234:96|195:114,1,136.499993751526
156,177,106577,2,0,B|193:142|181:98|181:98|160:17,1,157.500006008148
69,193,106912,2,0,B|174:173|131:245|257:214,1,178.500003404617
297,169,107248,6,0,P|277:186|266:218,1,45.4999979171754
367,276,107415,2,0,P|361:249|340:224,1,45.4999979171754
240,284,107583,2,0,P|265:292|297:286,1,45.4999979171754
293,164,107750,2,0,P|273:181|262:213,1,45.4999979171754
414,350,107918,5,0,0:0:0:0:
466,220,108086,1,0,0:0:0:0:
406,95,108253,1,0,0:0:0:0:
265,56,108421,1,0,0:0:0:0:
265,56,108505,1,0,0:0:0:0:
265,56,108588,6,0,P|296:109|303:191,1,136.499993751526
290,287,108924,2,0,P|284:223|219:157,1,157.500006008148
146,304,109259,2,0,P|149:232|212:283,1,178.500003404617
80,361,109594,2,0,P|47:252|126:143,1,199.499994672775
185,114,109929,6,0,P|159:126|133:130,1,45.4999979171754
63,93,110097,2,0,P|51:67|47:41,1,45.4999979171754
196,115,110264,2,0,P|165:130|134:134,1,45.4999979171754
51,91,110432,2,0,P|37:60|32:29,1,45.4999979171754
149,14,110600,1,0,0:0:0:0:
284,47,110767,1,0,0:0:0:0:
286,176,110935,1,0,0:0:0:0:
168,218,111102,1,0,0:0:0:0:
286,176,111270,5,0,0:0:0:0:
264,304,111438,1,0,0:0:0:0:
168,218,111605,2,0,P|102:185|1:193,1,157.500006008148
105,308,111940,2,0,P|175:259|274:309,1,178.500003404617
380,282,112276,2,0,P|320:330|330:241,1,199.499994672775
381,195,112611,6,0,P|361:177|330:162,1,45.4999979171754
304,84,112778,2,0,P|278:92|249:111,1,45.4999979171754
177,117,112946,2,0,P|171:143|173:177,1,45.4999979171754
137,242,113114,2,0,P|157:260|188:275,1,45.4999979171754
299,314,113281,1,0,0:0:0:0:
299,314,113449,1,0,0:0:0:0:
299,314,113616,1,0,0:0:0:0:
256,192,113951,12,0,116106,0:0:0:0:
65,85,116179,6,0,P|104:72|141:70,1,52.5000020027161
245,150,116358,2,0,P|203:142|175:129,1,52.5000020027161
159,16,116538,2,0,L|162:189,1,157.500006008148
289,71,116897,6,0,P|326:60|357:59,1,52.5000020027161
472,128,117077,1,0,0:0:0:0:
441,146,117167,2,0,P|386:100|403:12,1,157.500006008148
476,273,117616,6,0,P|432:260|408:260,1,52.5000020027161
290,339,117795,2,0,P|333:329|371:305,1,52.5000020027161
374,209,117975,2,0,L|378:379,1,157.500006008148
210,264,118334,6,0,P|184:246|136:234,1,52.5000020027161
23,284,118514,1,0,0:0:0:0:
59,300,118604,2,0,P|115:264|117:142,1,157.500006008148
55,24,119053,5,0,0:0:0:0:
101,30,119143,1,0,0:0:0:0:
147,37,119232,1,0,0:0:0:0:
198,47,119322,1,0,0:0:0:0:
237,81,119412,5,0,0:0:0:0:
188,100,119502,1,0,0:0:0:0:
137,115,119592,2,0,L|121:179,1,52.5000020027161
327,241,119771,5,0,0:0:0:0:
281,247,119861,1,0,0:0:0:0:
235,254,119951,1,0,0:0:0:0:
184,264,120041,1,0,0:0:0:0:
145,298,120131,5,0,0:0:0:0:
194,317,120220,1,0,0:0:0:0:
245,332,120310,2,0,L|261:396,1,52.5000020027161
53,355,120490,5,0,0:0:0:0:
24,310,120580,1,0,0:0:0:0:
26,257,120670,1,0,0:0:0:0:
64,222,120759,1,0,0:0:0:0:
110,197,120849,5,0,0:0:0:0:
138,152,120939,1,0,0:0:0:0:
128,100,121029,2,0,P|120:69|118:44,1,52.5000020027161
370,129,121208,5,0,0:0:0:0:
335,177,121298,1,0,0:0:0:0:
275,181,121388,1,0,0:0:0:0:
237,134,121478,1,0,0:0:0:0:
248,75,121568,1,0,0:0:0:0:
301,48,121658,1,0,0:0:0:0:
354,74,121747,1,0,0:0:0:0:
370,129,121837,1,0,0:0:0:0:
335,177,121927,6,0,P|316:213|310:243,1,52.5000020027161
385,371,122107,2,0,P|375:315|362:286,1,52.5000020027161
268,316,122286,2,0,L|456:287,1,157.500006008148
197,216,122646,6,0,P|169:238|148:270,1,52.5000020027161
98,377,122825,1,0,0:0:0:0:
109,335,122915,2,0,P|74:263|1:214,1,157.500006008148
169,23,123364,6,0,P|157:69|136:105,1,52.5000020027161
84,208,123544,2,0,P|69:168|68:131,1,52.5000020027161
187,148,123723,2,0,L|-5:127,1,157.500006008148
272,77,124083,6,0,P|291:120|292:157,1,52.5000020027161
357,256,124262,1,0,0:0:0:0:
337,227,124352,2,0,P|375:143|456:112,1,157.500006008148
399,360,124801,5,0,0:0:0:0:
347,351,124891,1,0,0:0:0:0:
295,342,124981,1,0,0:0:0:0:
243,333,125071,1,0,0:0:0:0:
191,324,125161,5,0,0:0:0:0:
139,314,125250,1,0,0:0:0:0:
87,304,125340,2,0,L|17:286,1,52.5000020027161
118,170,125520,5,0,0:0:0:0:
170,161,125610,1,0,0:0:0:0:
222,152,125699,1,0,0:0:0:0:
274,143,125789,1,0,0:0:0:0:
326,134,125879,5,0,0:0:0:0:
378,124,125969,1,0,0:0:0:0:
430,114,126059,2,0,L|500:96,1,52.5000020027161
272,384,126238,5,0,0:0:0:0:
268,331,126328,1,0,0:0:0:0:
264,278,126418,1,0,0:0:0:0:
261,226,126508,1,0,0:0:0:0:
257,173,126598,5,0,0:0:0:0:
253,120,126687,1,0,0:0:0:0:
248,67,126777,2,0,L|237:-4,1,52.5000020027161
444,177,126957,5,0,0:0:0:0:
400,222,127047,1,0,0:0:0:0:
338,236,127137,1,0,0:0:0:0:
284,204,127226,1,0,0:0:0:0:
247,152,127316,1,0,0:0:0:0:
184,145,127406,1,0,0:0:0:0:
126,170,127496,1,0,0:0:0:0:
99,227,127586,1,0,0:0:0:0:
115,287,127676,6,0,L|112:242,1,26.2500010013581
135,271,127765,2,0,L|131:208,1,52.5000020027161
81,60,127945,1,0,0:0:0:0:
64,41,128035,2,0,L|62:112,1,52.5000020027161
257,161,128214,6,0,L|253:122,1,26.2500010013581
280,148,128304,2,0,L|278:115,1,26.2500010013581
304,137,128394,1,0,0:0:0:0:
325,127,128484,2,0,L|322:65,1,52.5000020027161
447,197,128664,1,0,0:0:0:0:
425,209,128753,2,0,L|427:271,1,52.5000020027161
320,331,128933,6,0,L|334:300,1,26.2500010013581
276,326,129023,2,0,L|285:284,1,26.2500010013581
241,338,129113,2,0,L|229:311,1,26.2500010013581
208,369,129202,2,0,P|171:347|139:344,1,52.5000020027161
32,228,129382,1,0,0:0:0:0:
45,247,129472,2,0,P|92:223|109:220,1,52.5000020027161
276,69,129652,6,0,L|286:33,1,26.2500010013581
236,72,129741,2,0,L|229:36,1,26.2500010013581
205,100,129831,1,0,0:0:0:0:
185,139,129921,2,0,P|147:135|123:127,1,52.5000020027161
362,61,130101,1,0,0:0:0:0:
373,77,130190,2,0,P|407:66|439:65,1,52.5000020027161
467,225,130370,6,0,L|435:220,1,26.2500010013581
461,258,130460,2,0,L|427:253,1,26.2500010013581
455,291,130550,2,0,L|419:288,1,26.2500010013581
448,328,130640,2,0,L|380:324,1,52.5000020027161
235,239,130819,1,0,0:0:0:0:
249,258,130909,2,0,L|311:251,1,52.5000020027161
145,324,131089,6,0,L|155:288,1,26.2500010013581
114,322,131178,2,0,L|112:288,1,26.2500010013581
82,345,131268,1,0,0:0:0:0:
60,377,131358,2,0,L|24:333,1,52.5000020027161
49,150,131538,1,0,0:0:0:0:
67,171,131628,2,0,L|44:230,1,52.5000020027161
45,57,131807,6,0,L|30:20,1,26.2500010013581
89,50,131897,2,0,L|95:18,1,26.2500010013581
135,68,131987,2,0,L|158:38,1,26.2500010013581
155,105,132077,2,0,P|186:114|221:116,1,52.5000020027161
347,54,132256,1,0,0:0:0:0:
350,31,132346,2,0,P|318:43|296:57,1,52.5000020027161
394,198,132526,6,0,P|405:209|417:219,1,26.2500010013581
382,238,132616,2,0,P|398:242|423:237,1,26.2500010013581
394,286,132705,1,0,0:0:0:0:
425,325,132795,2,0,P|456:309|473:290,1,52.5000020027161
300,268,132975,1,0,0:0:0:0:
292,244,133065,2,0,P|249:227|229:226,1,52.5000020027161
53,323,133244,6,0,L|99:310,1,26.2500010013581
78,356,133334,2,0,L|106:330,1,26.2500010013581
116,371,133424,2,0,L|127:330,1,26.2500010013581
162,368,133514,2,0,L|160:299,1,52.5000020027161
126,163,133693,1,0,0:0:0:0:
103,144,133783,2,0,L|107:204,1,52.5000020027161
233,85,133963,6,0,L|235:45,1,26.2500010013581
278,81,134053,2,0,L|272:42,1,26.2500010013581
317,61,134143,1,0,0:0:0:0:
344,22,134232,2,0,P|369:16|400:14,1,52.5000020027161
493,130,134412,1,0,0:0:0:0:
483,154,134502,2,0,P|444:150|418:139,1,52.5000020027161
282,240,134681,6,0,L|318:232,1,26.2500010013581
304,277,134771,2,0,L|332:256,1,26.2500010013581
342,298,134861,2,0,L|347:268,1,26.2500010013581
384,297,134951,2,0,P|389:264|383:224,1,52.5000020027161
191,270,135131,1,0,0:0:0:0:
173,259,135220,2,0,P|159:304|158:330,1,52.5000020027161
25,358,135400,6,0,L|-6:344,1,26.2500010013581
42,327,135490,2,0,L|66:318,1,26.2500010013581
46,292,135580,1,0,0:0:0:0:
31,249,135670,2,0,L|26:192,1,52.5000020027161
95,65,135849,1,0,0:0:0:0:
113,52,135939,2,0,L|107:123,1,52.5000020027161
280,107,136119,6,0,P|279:87|273:66,1,26.2500010013581
323,90,136208,2,0,P|313:66|298:46,1,26.2500010013581
358,59,136298,2,0,P|338:40|318:34,1,26.2500010013581
379,20,136388,2,0,P|344:8|313:7,1,52.5000020027161
214,183,136568,1,0,0:0:0:0:
228,199,136658,2,0,P|273:187|291:176,1,52.5000020027161
474,258,136837,6,0,P|459:247|444:240,1,26.2500010013581
458,291,136927,2,0,P|444:285|426:281,1,26.2500010013581
462,328,137017,1,0,0:0:0:0:
484,368,137107,2,0,L|422:379,1,52.5000020027161
274,316,137286,1,0,0:0:0:0:
283,333,137376,2,0,L|349:325,1,52.5000020027161
178,172,137556,6,0,L|138:161,1,26.2500010013581
164,202,137646,2,0,L|133:203,1,26.2500010013581
159,234,137735,2,0,L|125:244,1,26.2500010013581
164,265,137825,2,0,P|144:293|133:317,1,52.5000020027161
298,179,138005,1,0,0:0:0:0:
276,165,138095,2,0,P|260:126|258:100,1,52.5000020027161
68,23,138274,6,0,P|44:19|31:17,1,26.2500010013581
53,59,138364,2,0,L|17:59,1,26.2500010013581
57,96,138454,1,0,0:0:0:0:
48,137,138544,2,0,P|37:176|34:203,1,52.5000020027161
197,95,138723,1,0,0:0:0:0:
218,88,138813,2,0,P|229:47|231:26,1,52.5000020027161
418,19,138993,5,0,0:0:0:0:
479,33,139083,1,0,0:0:0:0:
505,90,139173,2,0,L|445:92,1,52.5000020027161
304,181,139352,2,0,L|374:171,1,52.5000020027161
511,272,139532,2,0,L|429:265,1,52.5000020027161
320,357,139711,5,0,0:0:0:0:
361,333,139801,1,0,0:0:0:0:
369,286,139891,1,0,0:0:0:0:
322,279,139981,1,0,0:0:0:0:
299,320,140071,1,0,0:0:0:0:
258,344,140161,1,0,0:0:0:0:
212,332,140250,1,0,0:0:0:0:
178,291,140340,1,0,0:0:0:0:
135,251,140430,1,0,0:0:0:0:
77,249,140520,1,0,0:0:0:0:
32,291,140610,6,0,P|55:354|88:385,1,105.000004005432
81,380,140879,1,0,0:0:0:0:
81,380,140969,1,0,0:0:0:0:
56,150,141149,5,0,0:0:0:0:
28,112,141238,1,0,0:0:0:0:
37,65,141328,1,0,0:0:0:0:
74,36,141418,1,0,0:0:0:0:
121,40,141508,1,0,0:0:0:0:
155,72,141598,1,0,0:0:0:0:
180,111,141687,1,0,0:0:0:0:
223,128,141777,1,0,0:0:0:0:
275,123,141867,1,0,0:0:0:0:
315,89,141957,1,0,0:0:0:0:
326,32,142047,6,0,L|273:41,1,52.5000020027161
162,163,142226,2,0,L|237:173,1,52.5000020027161
407,174,142406,5,0,0:0:0:0:
418,197,142496,1,0,0:0:0:0:
425,222,142586,1,0,0:0:0:0:
426,249,142676,1,0,0:0:0:0:
407,280,142765,1,0,0:0:0:0:
392,313,142855,1,0,0:0:0:0:
398,349,142945,1,0,0:0:0:0:
428,369,143035,1,0,0:0:0:0:
474,361,143125,1,0,0:0:0:0:
488,316,143214,1,0,0:0:0:0:
457,280,143304,1,0,0:0:0:0:
399,284,143394,1,0,0:0:0:0:
340,330,143484,6,0,P|278:355|224:346,1,105.000004005432
241,351,143753,1,0,0:0:0:0:
241,351,143843,1,0,0:0:0:0:
121,237,144023,5,0,0:0:0:0:
86,249,144113,1,0,0:0:0:0:
79,284,144202,1,0,0:0:0:0:
107,307,144292,1,0,0:0:0:0:
142,297,144382,1,0,0:0:0:0:
146,260,144472,1,0,0:0:0:0:
100,209,144562,5,0,0:0:0:0:
80,143,144652,1,0,0:0:0:0:
119,87,144741,1,0,0:0:0:0:
187,87,144831,1,0,0:0:0:0:
228,141,144921,6,0,P|238:154|283:181,1,52.5000020027161
450,115,145101,2,0,P|398:139|381:155,1,52.5000020027161
387,309,145280,6,0,P|384:273|360:230,3,52.5000020027161
361,341,145640,5,0,0:0:0:0:
328,357,145729,1,0,0:0:0:0:
291,351,145819,1,0,0:0:0:0:
264,325,145909,1,0,0:0:0:0:
228,293,145999,1,0,0:0:0:0:
171,279,146089,1,0,0:0:0:0:
118,300,146178,1,0,0:0:0:0:
106,356,146268,1,0,0:0:0:0:
159,378,146358,6,0,L|162:312,3,52.5000020027161
151,289,146717,5,0,0:0:0:0:
118,262,146807,1,0,0:0:0:0:
75,259,146897,1,0,0:0:0:0:
39,282,146987,1,0,0:0:0:0:
29,323,147077,1,0,0:0:0:0:
61,364,147167,1,0,0:0:0:0:
61,317,147256,1,0,0:0:0:0:
62,269,147346,1,0,0:0:0:0:
55,202,147436,6,0,L|52:139,3,52.5000020027161
86,81,147795,6,0,L|160:87,1,52.5000020027161
297,145,147975,2,0,L|233:157,1,52.5000020027161
391,30,148155,5,0,0:0:0:0:
425,42,148244,1,0,0:0:0:0:
449,70,148334,1,0,0:0:0:0:
453,106,148424,1,0,0:0:0:0:
432,148,148514,1,0,0:0:0:0:
406,193,148604,1,0,0:0:0:0:
424,241,148693,1,0,0:0:0:0:
468,269,148783,1,0,0:0:0:0:
408,248,148873,5,0,0:0:0:0:
345,259,148963,1,0,0:0:0:0:
301,304,149053,1,0,0:0:0:0:
296,366,149143,1,0,0:0:0:0:
296,366,149232,6,0,P|246:357|226:347,1,52.5000020027161
98,305,149412,2,0,P|139:288|187:284,1,52.5000020027161
232,186,149592,5,0,0:0:0:0:
334,5,151051,6,0,B|356:37|356:37|341:146,1,140
283,190,151438,1,0,0:0:0:0:
421,237,151568,2,0,B|337:250|360:200|268:203,1,140
158,239,151956,5,0,0:0:0:0:
181,319,152085,1,0,0:0:0:0:
172,237,152214,1,0,0:0:0:0:
166,320,152343,1,0,0:0:0:0:
186,240,152473,1,0,0:0:0:0:
151,316,152602,2,0,L|170:232,1,70
63,208,152861,2,0,L|44:124,1,70
204,46,153119,5,0,0:0:0:0:
204,46,153378,1,0,0:0:0:0:
270,97,153507,1,0,0:0:0:0:
283,13,153637,2,0,P|280:51|292:96,1,70
356,119,153895,1,0,0:0:0:0:
439,107,154025,1,0,0:0:0:0:
342,202,154154,2,0,P|373:160|464:122,1,140
351,297,154542,5,0,0:0:0:0:
351,297,154671,2,0,P|310:277|254:271,1,70
187,342,154930,1,0,0:0:0:0:
106,313,155059,1,0,0:0:0:0:
171,260,155188,2,0,P|183:294|180:344,1,70
76,150,155447,1,0,0:0:0:0:
76,150,155576,1,0,0:0:0:0:
213,179,155706,2,0,B|131:180|164:135|76:135,1,140
53,52,156094,5,0,0:0:0:0:
76,150,156223,1,0,0:0:0:0:
70,51,156352,1,0,0:0:0:0:
58,150,156481,1,0,0:0:0:0:
87,56,156611,1,0,0:0:0:0:
39,144,156740,2,0,P|70:130|115:128,1,70
187,55,156999,2,0,P|214:74|238:112,1,70
274,210,157257,5,0,0:0:0:0:
274,210,157516,1,0,0:0:0:0:
309,134,157645,1,0,0:0:0:0:
358,202,157775,2,0,P|303:174|197:165,1,140
58,315,158292,5,0,0:0:0:0:
66,309,158357,1,0,0:0:0:0:
75,304,158421,1,0,0:0:0:0:
154,331,158551,1,0,0:0:0:0:
206,265,158680,1,0,0:0:0:0:
286,287,158809,2,0,P|216:295|171:345,1,140
357,342,159197,1,0,0:0:0:0:
357,342,159326,6,0,P|372:305|371:261,1,70
261,156,159585,2,0,P|285:187|324:208,1,70
478,145,159844,2,0,L|318:121,1,140
261,156,160232,5,0,0:0:0:0:
274,73,160361,1,0,0:0:0:0:
196,103,160490,1,0,0:0:0:0:
268,152,160619,1,0,0:0:0:0:
266,68,160748,1,0,0:0:0:0:
195,114,160878,2,0,P|188:147|196:192,1,70
116,304,161137,2,0,P|120:269|113:235,1,70
34,175,161395,5,0,0:0:0:0:
34,175,161654,1,0,0:0:0:0:
90,112,161783,1,0,0:0:0:0:
53,35,161913,2,0,P|84:76|183:104,1,140
258,68,162300,1,0,0:0:0:0:
258,68,162365,1,0,0:0:0:0:
258,68,162430,6,0,L|249:152,1,70
302,203,162688,1,0,0:0:0:0:
368,150,162818,1,0,0:0:0:0:
368,150,162947,2,0,L|374:75,1,70
437,203,163206,1,0,0:0:0:0:
368,251,163335,1,0,0:0:0:0:
375,334,163464,6,0,P|386:270|470:215,1,140
288,364,163852,1,0,0:0:0:0:
288,364,163982,2,0,P|259:317|175:276,1,140
109,312,164369,5,0,0:0:0:0:
127,229,164499,1,0,0:0:0:0:
47,255,164628,1,0,0:0:0:0:
116,308,164757,1,0,0:0:0:0:
120,223,164887,1,0,0:0:0:0:
45,262,165016,2,0,P|82:253|123:254,1,70
257,157,165275,2,0,P|220:166|179:165,1,70
47,73,165533,5,0,0:0:0:0:
47,73,165792,1,0,0:0:0:0:
126,99,165921,1,0,0:0:0:0:
194,50,166050,2,0,B|322:22|260:115|411:84,1,210
432,16,166568,6,0,P|468:67|312:67,1,335.999989746094
80,368,167344,1,0,0:0:0:0:
80,368,167602,6,0,P|44:317|200:317,1,335.999989746094
398,344,168378,1,0,0:0:0:0:
398,344,168637,6,0,B|374:306|374:306|392:257|392:257|446:252|446:252|491:314,1,210
282,184,169154,2,0,B|326:224|326:224|305:277|305:277|248:284|248:284|217:217,1,231.000007049561
49,113,169671,6,0,P|88:192|106:83,1,251.999992309571
332,80,170188,2,0,P|293:1|275:110,1,251.999992309571
251,235,170706,6,0,B|358:299|480:212|480:212|438:239|385:224,1,335.999989746094
173,335,171482,1,0,0:0:0:0:
173,335,171740,6,0,B|242:267|185:185|185:185|86:205|97:317,1,335.999989746094
63,83,172516,1,0,0:0:0:0:
63,83,172775,5,0,0:0:0:0:
146,73,172904,1,0,0:0:0:0:
228,59,173033,1,0,0:0:0:0:
59,97,173292,5,0,0:0:0:0:
143,57,173421,1,0,0:0:0:0:
239,69,173550,1,0,0:0:0:0:
56,112,173809,5,0,0:0:0:0:
141,40,173938,1,0,0:0:0:0:
250,80,174068,1,0,0:0:0:0:
149,365,174326,5,0,0:0:0:0:
142,285,174456,1,0,0:0:0:0:
191,217,174585,1,0,0:0:0:0:
267,200,174714,1,0,0:0:0:0:
338,235,174844,2,0,B|377:270|427:248|427:248|487:221|542:289|521:362|435:385|388:316,1,335.999989746094
142,367,175619,1,0,0:0:0:0:
142,367,175878,6,0,B|153:283|153:283|134:247|134:247|145:160|145:160|121:173|121:173|82:141|82:141|26:144,1,335.999989746094
259,42,176654,1,0,0:0:0:0:
259,42,176913,6,0,B|311:65|311:65|438:44|438:44|500:107|500:107|424:124,3,335.999989746094
255,338,178982,5,0,0:0:0:0:
57,66,181883,6,0,P|83:68|110:66,1,52.5000020027161
137,81,182120,1,0,0:0:0:0:
164,96,182199,1,0,0:0:0:0:
260,42,182357,1,0,0:0:0:0:
251,201,182515,1,0,0:0:0:0:
345,112,182673,1,0,0:0:0:0:
123,206,182831,1,0,0:0:0:0:
185,320,182989,1,0,0:0:0:0:
410,316,183146,6,0,P|379:309|351:315,1,52.5000020027161
368,281,183383,1,0,0:0:0:0:
384,253,183462,1,0,0:0:0:0:
449,83,183620,2,0,P|452:122|443:152,1,52.5000020027161
292,112,183936,2,0,L|344:112,2,52.5000020027161
120,7,184410,6,0,P|151:25|163:48,1,52.5000020027161
167,69,184647,1,0,0:0:0:0:
163,100,184726,1,0,0:0:0:0:
134,260,184884,1,0,0:0:0:0:
54,96,185042,1,0,0:0:0:0:
37,330,185200,1,0,0:0:0:0:
222,198,185358,1,0,0:0:0:0:
199,355,185516,1,0,0:0:0:0:
450,276,185673,6,0,P|419:283|391:277,1,52.5000020027161
367,275,185910,1,0,0:0:0:0:
367,275,185989,1,0,0:0:0:0:
427,125,186147,2,0,P|430:164|421:194,1,52.5000020027161
292,103,186463,2,0,P|311:119|331:153,2,52.5000020027161
227,193,186936,6,0,P|199:192|174:195,1,52.5000020027161
149,219,187173,1,0,0:0:0:0:
149,219,187252,1,0,0:0:0:0:
37,150,187410,1,0,0:0:0:0:
173,82,187568,1,0,0:0:0:0:
30,21,187726,1,0,0:0:0:0:
297,98,187884,1,0,0:0:0:0:
247,204,188042,1,0,0:0:0:0:
331,324,188199,6,0,P|355:303|373:263,1,52.5000020027161
358,249,188436,1,0,0:0:0:0:
358,249,188515,1,0,0:0:0:0:
434,156,188673,2,0,P|433:182|437:208,1,52.5000020027161
305,87,188989,2,0,P|334:83|368:87,2,52.5000020027161
153,277,189462,6,0,P|157:242|150:206,1,52.5000020027161
148,193,189699,1,0,0:0:0:0:
132,163,189778,1,0,0:0:0:0:
81,351,189936,1,0,0:0:0:0:
273,290,190094,5,0,0:0:0:0:
302,298,190173,1,0,0:0:0:0:
334,293,190252,1,0,0:0:0:0:
360,279,190331,1,0,0:0:0:0:
377,235,190410,1,0,0:0:0:0:
382,182,190489,1,0,0:0:0:0:
416,135,190568,1,0,0:0:0:0:
267,59,190725,6,0,P|280:89|277:152,2,70
241,35,191119,1,0,0:0:0:0:
208,22,191198,1,0,0:0:0:0:
48,197,191356,1,0,0:0:0:0:
47,58,191514,1,0,0:0:0:0:
29,37,191593,1,0,0:0:0:0:
156,123,191751,1,0,0:0:0:0:
183,117,191830,1,0,0:0:0:0:
143,321,191988,6,0,P|158:278|187:251,1,70
380,156,192303,1,0,0:0:0:0:
254,342,192461,1,0,0:0:0:0:
183,117,192619,1,0,0:0:0:0:
183,117,192698,1,0,0:0:0:0:
183,117,192777,1,0,0:0:0:0:
317,248,192935,6,0,P|383:267|402:265,2,70
285,231,193330,1,0,0:0:0:0:
285,231,193409,1,0,0:0:0:0:
51,331,193567,1,0,0:0:0:0:
14,154,193725,1,0,0:0:0:0:
148,11,193882,2,0,P|186:3|230:15,1,70
360,32,194119,1,0,0:0:0:0:
360,32,194198,2,0,P|322:40|278:28,1,70
123,147,194514,5,0,0:0:0:0:
157,319,194672,1,0,0:0:0:0:
275,304,194830,5,0,0:0:0:0:
73,240,194988,1,0,0:0:0:0:
254,131,195146,6,0,L|294:115,1,35
353,189,195303,2,0,L|387:192,1,35
407,297,195461,2,0,L|376:279,3,35
257,217,195777,6,0,P|215:212|168:224,1,70
121,56,196093,2,0,P|125:90|120:125,1,70
241,105,196409,1,0,0:0:0:0:
241,105,196488,1,0,0:0:0:0:
369,260,196725,2,0,P|373:218|366:186,1,70
441,361,197040,5,0,0:0:0:0:
441,361,197119,1,0,0:0:0:0:
441,361,197198,1,0,0:0:0:0:
488,161,197356,1,0,0:0:0:0:
257,239,197514,1,0,0:0:0:0:
373,50,197672,1,0,0:0:0:0:
373,50,197751,1,0,0:0:0:0:
373,50,197830,1,0,0:0:0:0:
194,91,197988,6,0,P|137:93|117:82,2,70
228,84,198382,1,0,0:0:0:0:
228,84,198461,1,0,0:0:0:0:
127,214,198619,1,0,0:0:0:0:
169,0,198777,1,0,0:0:0:0:
301,220,198935,2,0,P|330:254|371:265,1,70
483,327,199172,1,0,0:0:0:0:
483,327,199251,2,0,P|454:293|413:282,1,70
205,330,199567,5,0,0:0:0:0:
205,330,199646,1,0,0:0:0:0:
205,330,199725,2,0,L|141:331,1,35
59,274,199882,2,0,P|91:229|94:209,2,70
27,291,200277,1,0,0:0:0:0:
27,291,200356,1,0,0:0:0:0:
374,102,200830,5,0,0:0:0:0:
374,102,200988,1,0,0:0:0:0:
374,102,201146,2,0,P|408:99|448:104,1,52.5000020027161
319,178,201462,5,0,0:0:0:0:
348,18,201619,1,0,0:0:0:0:
222,84,201777,2,0,P|247:87|274:87,1,52.5000020027161
114,124,202093,5,0,0:0:0:0:
107,149,202172,1,0,0:0:0:0:
105,175,202251,1,0,0:0:0:0:
108,201,202330,1,0,0:0:0:0:
111,227,202409,1,0,0:0:0:0:
106,252,202488,1,0,0:0:0:0:
94,275,202567,1,0,0:0:0:0:
82,298,202646,1,0,0:0:0:0:
76,321,202725,1,0,0:0:0:0:
99,332,202803,1,0,0:0:0:0:
125,334,202882,1,0,0:0:0:0:
150,326,202961,1,0,0:0:0:0:
171,311,203040,1,0,0:0:0:0:
191,295,203118,1,0,0:0:0:0:
216,287,203197,1,0,0:0:0:0:
242,289,203276,1,0,0:0:0:0:
311,340,203356,6,0,P|313:314|326:277,1,52.5000020027161
488,196,203672,2,0,P|465:210|436:215,1,52.5000020027161
331,148,203988,5,0,0:0:0:0:
299,129,204067,1,0,0:0:0:0:
262,123,204146,1,0,0:0:0:0:
225,128,204225,1,0,0:0:0:0:
196,150,204303,2,0,P|168:152|129:140,1,52.5000020027161
133,273,204619,6,0,P|134:303|151:342,1,52.5000020027161
216,364,204856,1,0,0:0:0:0:
241,360,204934,1,0,0:0:0:0:
267,356,205013,1,0,0:0:0:0:
293,352,205092,1,0,0:0:0:0:
319,348,205171,1,0,0:0:0:0:
389,312,205251,6,0,P|415:309|441:311,1,52.5000020027161
483,335,205488,1,0,0:0:0:0:
483,335,205567,1,0,0:0:0:0:
464,147,205725,1,0,0:0:0:0:
291,54,205882,5,0,0:0:0:0:
291,54,205961,1,0,0:0:0:0:
291,54,206040,2,0,L|292:85,1,26.2500010013581
238,175,206198,5,0,0:0:0:0:
238,175,206277,1,0,0:0:0:0:
238,175,206356,2,0,L|239:206,1,26.2500010013581
268,291,206514,6,0,P|303:271|320:244,1,52.5000020027161
205,86,206830,2,0,P|169:105|152:132,1,52.5000020027161
256,192,207146,12,0,209514,0:0:0:0:
86,81,209647,5,2,0:0:0:0:
92,71,209847,5,2,0:0:0:0:
91,91,209945,1,0,0:0:0:0:
89,112,210045,1,2,0:0:0:0:
88,132,210144,1,0,0:0:0:0:
86,153,210244,1,2,0:0:0:0:
84,173,210343,1,0,0:0:0:0:
82,194,210443,1,2,0:0:0:0:
191,162,210642,5,2,0:0:0:0:
194,189,210741,1,2,0:0:0:0:
196,218,210841,1,2,0:0:0:0:
335,74,211040,5,0,0:0:0:0:
331,148,211140,1,0,0:0:0:0:
326,220,211238,2,0,P|373:158|385:54,1,140,2|0,0:0|0:0,0:0:0:0:
486,48,211537,1,0,0:0:0:0:
424,6,211636,2,0,P|471:68|483:170,1,140,2|0,0:0|0:0,0:0:0:0:
55,17,212034,1,2,0:0:0:0:
63,42,212233,5,2,0:0:0:0:
83,60,212333,1,0,0:0:0:0:
121,60,212432,1,2,0:0:0:0:
173,31,212532,1,0,0:0:0:0:
236,51,212632,1,2,0:0:0:0:
268,118,212731,1,0,0:0:0:0:
231,184,212832,6,0,P|318:191|366:280,1,140,2|0,0:0|0:0,0:0:0:0:
255,308,213129,1,2,0:0:0:0:
191,253,213229,2,0,P|108:262|71:305,1,140,2|0,0:0|0:0,0:0:0:0:
66,383,213527,1,2,0:0:0:0:
33,286,213627,1,2,0:0:0:0:
272,342,213827,6,0,P|297:351|348:349,1,70
479,289,214026,2,0,P|365:261|401:359,1,210,2|0,0:0|0:0,0:0:0:0:
481,174,214424,6,0,L|501:14,1,140,2|0,0:0|0:0,0:0:0:0:
388,90,214723,1,0,0:0:0:0:
412,117,214822,2,0,L|400:39,1,70,2|0,0:0|0:0,0:0:0:0:
286,154,215021,2,0,L|293:67,1,70
175,111,215220,1,2,0:0:0:0:
192,108,215420,5,2,0:0:0:0:
207,84,215519,1,0,0:0:0:0:
185,44,215619,1,2,0:0:0:0:
135,47,215718,1,0,0:0:0:0:
101,86,215818,1,2,0:0:0:0:
109,143,215917,1,0,0:0:0:0:
171,186,216017,1,2,0:0:0:0:
38,200,216216,5,2,0:0:0:0:
30,231,216315,1,2,0:0:0:0:
27,264,216415,1,2,0:0:0:0:
231,316,216614,5,2,0:0:0:0:
228,283,216714,1,0,0:0:0:0:
220,252,216813,1,2,0:0:0:0:
118,345,217012,5,0,0:0:0:0:
119,354,217112,1,0,0:0:0:0:
120,362,217211,1,0,3:0:0:0:
405,192,217410,5,0,0:0:0:0:
399,273,217510,1,0,0:0:0:0:
399,354,217609,2,0,L|414:185,1,140,2|0,0:0|0:0,0:0:0:0:
291,152,217908,1,0,0:0:0:0:
324,85,218007,2,0,L|337:253,1,140,2|0,0:0|0:0,0:0:0:0:
493,14,218406,1,2,0:0:0:0:
481,37,218605,5,2,0:0:0:0:
444,57,218704,1,0,0:0:0:0:
399,34,218804,1,2,0:0:0:0:
344,0,218903,1,0,0:0:0:0:
273,8,219003,1,2,0:0:0:0:
236,80,219102,1,0,0:0:0:0:
319,80,219202,6,0,P|254:125|236:204,1,140,2|0,0:0|0:0,0:0:0:0:
174,307,219501,1,2,0:0:0:0:
166,228,219600,2,0,P|128:163|29:131,1,140,2|0,0:0|0:0,0:0:0:0:
5,177,219899,1,2,0:0:0:0:
34,71,219998,1,2,0:0:0:0:
57,330,220197,5,0,0:0:0:0:
57,330,220297,1,0,0:0:0:0:
57,330,220396,2,0,P|92:301|141:284,1,70,2|0,0:0|0:0,0:0:0:0:
195,371,220595,2,0,P|245:385|287:378,1,70
455,278,220794,6,0,P|355:249|322:332,1,210,2|0,0:0|0:0,0:0:0:0:
401,381,221193,2,0,L|391:302,1,70,2|0,0:0|0:0,0:0:0:0:
313,191,221392,1,0,0:0:0:0:
322,131,221491,1,0,0:0:0:0:
330,72,221591,1,2,0:0:0:0:
338,86,221790,5,2,0:0:0:0:
304,123,221889,1,0,0:0:0:0:
242,120,221989,1,2,0:0:0:0:
195,65,222088,1,0,0:0:0:0:
119,41,222188,1,2,0:0:0:0:
46,87,222288,1,0,0:0:0:0:
55,171,222404,6,0,P|105:157|185:203,1,140,2|0,0:0|0:0,0:0:0:0:
194,280,222702,2,2,P|206:309|219:323,2,35
247,333,222901,1,0,0:0:0:0:
321,329,223001,1,2,0:0:0:0:
386,268,223100,1,0,0:0:0:0:
390,173,223200,6,0,P|361:181|345:191,1,35,2|0,0:0|0:0,0:0:0:0:
341,133,223299,2,0,P|325:161|320:180,1,35
279,135,223399,2,0,P|281:165|291:194,1,35,2|0,0:0|0:0,0:0:0:0:
232,162,223498,2,0,P|241:190|255:213,1,35
203,207,223613,6,0,P|256:244|277:248,2,70,0|0|2,0:0|0:0|3:0,0:0:0:0:
155,89,224210,1,0,0:0:0:0:
125,57,224309,1,0,0:0:0:0:
80,51,224409,1,8,0:0:0:0:
60,197,224608,1,0,0:0:0:0:
245,64,224807,5,2,3:0:0:0:
360,190,225006,1,0,0:0:0:0:
401,210,225106,1,0,0:0:0:0:
445,198,225205,1,8,0:0:0:0:
499,23,225404,5,0,0:0:0:0:
459,295,225603,1,2,3:0:0:0:
323,169,225802,1,0,0:0:0:0:
273,180,225902,1,0,0:0:0:0:
244,218,226001,1,8,0:0:0:0:
223,360,226200,5,0,0:0:0:0:
69,115,226399,1,2,3:0:0:0:
223,255,226599,1,0,0:0:0:0:
180,282,226698,1,0,0:0:0:0:
127,281,226798,6,0,P|91:270|61:246,2,70,8|0|2,0:0|0:0|3:0,0:0:0:0:
321,313,227395,1,0,0:0:0:0:
366,295,227494,1,0,0:0:0:0:
415,297,227594,1,8,0:0:0:0:
506,375,227793,5,0,0:0:0:0:
417,145,227992,1,2,3:0:0:0:
289,342,228191,1,0,0:0:0:0:
243,366,228291,1,0,0:0:0:0:
192,354,228390,1,8,0:0:0:0:
71,145,228589,5,0,0:0:0:0:
100,359,228788,1,2,3:0:0:0:
189,164,228987,1,0,0:0:0:0:
184,117,229087,1,0,0:0:0:0:
179,74,229186,6,0,L|184:26,1,35,8|0,0:0|0:0,0:0:0:0:
279,14,229386,2,0,L|285:59,1,35
364,112,229585,1,2,3:0:0:0:
390,84,229684,2,0,L|394:31,1,35
475,10,229883,1,0,0:0:0:0:
502,40,229983,6,0,L|508:90,1,35,8|0,0:0|0:0,0:0:0:0:
454,169,230182,2,0,L|459:211,1,35
412,312,230381,5,2,3:0:0:0:
399,329,230480,1,0,0:0:0:0:
373,340,230580,1,0,0:0:0:0:
341,340,230680,1,0,0:0:0:0:
309,318,230779,1,8,0:0:0:0:
271,300,230879,1,0,0:0:0:0:
240,305,230978,1,0,0:0:0:0:
218,322,231078,1,0,0:0:0:0:
206,343,231177,5,2,3:0:0:0:
182,317,231277,1,0,0:0:0:0:
165,278,231376,1,0,0:0:0:0:
175,231,231476,1,0,0:0:0:0:
216,194,231575,1,8,0:0:0:0:
248,162,231675,1,0,0:0:0:0:
258,128,231774,1,0,0:0:0:0:
252,100,231874,1,0,0:0:0:0:
232,80,231973,6,0,P|213:69|188:64,1,35,2|0,3:0|0:0,0:0:0:0:
354,153,232173,2,0,P|387:148|410:141,1,35
243,109,232372,6,0,P|227:103|208:103,1,35,8|0,0:0|0:0,0:0:0:0:
345,151,232571,2,0,P|368:142|384:134,1,35
248,125,232770,6,0,P|232:122|213:126,1,35,2|0,3:0|0:0,0:0:0:0:
337,144,232969,2,0,P|354:133|366:124,1,35
259,135,233168,6,0,P|242:135|225:142,1,35,8|0,0:0|0:0,0:0:0:0:
330,139,233367,2,0,P|345:125|354:114,1,35
377,17,233566,5,2,0:0:0:0:
375,235,233765,1,0,0:0:0:0:
379,273,233865,1,0,0:0:0:0:
382,309,233964,1,8,0:0:0:0:
397,31,234163,5,2,0:0:0:0:
303,247,234362,2,0,L|246:244,1,35,8|0,0:0|0:0,0:0:0:0:
445,155,234561,2,0,L|493:149,1,35,8|0,0:0|0:0,0:0:0:0:
217,173,234760,5,0,0:0:0:0:
200,184,234826,5,0,0:0:0:0:
187,200,234893,5,0,0:0:0:0:
179,219,234960,5,0,0:0:0:0:
176,239,235026,6,0,P|178:260|182:274,1,23.3333333333333
224,330,235160,1,2,3:0:0:0:
84,133,237053,6,0,P|141:147|197:128,1,105
285,137,237481,2,0,P|228:123|172:142,1,105
182,234,237909,2,0,P|196:177|177:121,1,105
186,33,238338,2,0,P|172:90|191:146,1,105
193,157,238767,5,0,0:0:0:0:
196,183,238874,1,0,0:0:0:0:
192,209,238981,1,0,0:0:0:0:
182,234,239088,1,0,0:0:0:0:
148,325,239195,2,0,P|184:319|232:329,1,70
431,312,239624,2,0,P|350:288|380:240,1,140
408,100,240267,5,0,0:0:0:0:
389,69,240374,1,0,0:0:0:0:
347,55,240481,2,0,P|281:74|260:67,1,87.5
142,162,240910,2,0,P|215:160|249:173,1,87.5
51,91,241338,1,0,0:0:0:0:
59,248,241553,1,0,0:0:0:0:
198,328,241767,2,0,P|179:289|180:246,1,87.5
366,273,242195,6,0,L|242:268,1,87.5
328,189,242517,1,0,0:0:0:0:
327,188,242624,2,0,L|414:191,1,87.5
512,118,243053,1,0,0:0:0:0:
499,259,243267,1,0,0:0:0:0:
374,98,243481,2,0,P|332:86|239:122,1,131.25
309,273,243910,6,0,L|330:167,1,87.5
205,323,244338,1,0,0:0:0:0:
133,157,244553,1,0,0:0:0:0:
62,217,244767,2,0,P|107:249|146:250,1,87.5
163,246,245088,1,0,0:0:0:0:
188,239,245195,1,0,0:0:0:0:
239,99,245410,6,0,L|239:150,2,43.75
323,198,245838,1,0,0:0:0:0:
355,184,245945,1,0,0:0:0:0:
390,181,246053,1,0,0:0:0:0:
424,188,246160,1,0,0:0:0:0:
456,202,246267,2,0,P|454:116|466:92,2,87.5
265,47,246910,2,0,P|341:53|386:38,1,87.5
151,68,247338,6,0,L|138:131,1,52.5000020027161
116,202,247767,1,0,0:0:0:0:
272,141,248195,6,0,L|285:204,1,52.5000020027161
307,275,248624,1,0,0:0:0:0:
467,113,249053,5,0,0:0:0:0:
470,247,249267,1,0,0:0:0:0:
367,152,249481,2,0,P|364:82|385:40,1,87.5
215,230,249910,1,0,0:0:0:0:
108,71,250124,1,0,0:0:0:0:
113,215,250338,2,0,P|164:147|200:136,1,87.5
440,66,250767,6,0,L|358:54,1,70
282,192,251228,2,0,L|359:177,1,70
122,60,251690,6,0,L|204:80,1,70
124,181,252151,2,0,L|41:193,1,70
222,365,252613,5,0,0:0:0:0:
101,306,252827,1,0,0:0:0:0:
232,257,253041,2,0,P|296:287|324:324,1,87.5
438,126,253470,1,0,0:0:0:0:
250,101,253684,1,0,0:0:0:0:
360,192,253898,2,0,P|343:108|359:74,1,87.5
77,61,254327,5,0,0:0:0:0:
77,323,254755,1,0,0:0:0:0:
435,61,255184,5,0,0:0:0:0:
435,323,255613,1,0,0:0:0:0:
266,70,256072,5,0,0:0:0:0:
266,70,256179,1,0,0:0:0:0:
266,70,256286,2,0,P|262:98|251:126,1,43.75
208,185,256500,1,0,0:0:0:0:
208,185,256607,1,0,0:0:0:0:
208,185,256714,2,0,P|200:213|199:242,1,43.75
228,330,256929,5,0,0:0:0:0:
228,330,257036,1,0,0:0:0:0:
228,330,257143,2,0,P|199:322|170:321,1,43.75
100,340,257358,1,0,0:0:0:0:
100,340,257465,1,0,0:0:0:0:
100,340,257572,2,0,P|71:336|43:325,1,43.75
80,185,257786,6,0,P|82:99|74:79,1,87.5
345,135,258215,2,0,P|342:229|353:254,1,87.5
427,277,258536,5,0,0:0:0:0:
427,277,258643,2,0,P|430:183|419:158,1,87.5
250,326,259072,2,0,P|317:317|341:322,1,87.5
138,89,259500,5,0,0:0:0:0:
30,320,259929,5,0,0:0:0:0:
36,188,260143,1,0,0:0:0:0:
134,359,260357,1,0,0:0:0:0:
73,60,261366,5,0,0:0:0:0:
93,141,261574,1,0,0:0:0:0:
179,3,261783,1,0,0:0:0:0:
159,84,261991,1,0,0:0:0:0:
53,241,262199,5,0,0:0:0:0:
72,226,262303,1,0,0:0:0:0:
95,218,262408,1,0,0:0:0:0:
119,217,262512,1,0,0:0:0:0:
138,223,262616,1,0,0:0:0:0:
152,233,262720,1,0,0:0:0:0:
160,244,262824,1,0,0:0:0:0:
172,256,262928,1,0,0:0:0:0:
190,265,263033,1,0,0:0:0:0:
213,269,263137,1,0,0:0:0:0:
240,262,263241,1,0,0:0:0:0:
265,243,263345,1,0,0:0:0:0:
277,210,263449,2,0,L|270:172,1,35
202,108,263658,2,0,L|209:70,1,35
365,23,263866,5,0,0:0:0:0:
370,53,263970,1,0,0:0:0:0:
375,83,264074,1,0,0:0:0:0:
439,217,264283,2,0,L|444:174,1,35
368,272,264491,2,0,L|372:306,1,35
260,150,264699,1,0,0:0:0:0:
447,220,264908,1,0,0:0:0:0:
281,298,265116,2,0,L|227:289,1,35
274,305,265324,2,0,L|220:296,1,35
124,193,265533,5,0,0:0:0:0:
124,193,265637,1,0,0:0:0:0:
98,275,265741,2,0,P|114:223|103:184,1,70
60,117,266158,1,0,0:0:0:0:
182,25,266366,2,0,L|189:71,1,35
289,57,266574,2,0,L|282:103,1,35
225,190,266783,2,0,B|286:172|278:209|344:186,1,105
342,183,267199,5,0,0:0:0:0:
342,183,267303,1,0,0:0:0:0:
408,286,267408,2,0,P|377:272|333:268,1,70
266,317,267824,1,0,0:0:0:0:
156,201,268033,1,0,0:0:0:0:
156,211,268137,1,0,0:0:0:0:
157,221,268241,1,0,0:0:0:0:
48,333,268449,1,0,0:0:0:0:
51,301,268553,1,0,0:0:0:0:
54,269,268658,1,0,0:0:0:0:
143,116,268866,6,0,B|98:125|98:125|87:116|87:116|26:129,1,105
192,47,269283,2,0,L|172:192,1,140
214,287,269908,1,0,0:0:0:0:
214,287,270012,1,0,0:0:0:0:
214,287,270116,2,0,P|260:258|331:250,1,105
390,316,270533,5,0,0:0:0:0:
383,303,270637,1,0,0:0:0:0:
379,289,270741,1,0,0:0:0:0:
435,132,270949,2,0,L|477:142,1,35
377,74,271158,2,0,L|335:84,1,35
249,171,271366,2,0,L|344:183,1,70
181,118,271783,2,0,P|165:163|190:237,1,105
234,279,272199,6,0,P|206:257|156:253,1,70
60,353,272616,1,0,0:0:0:0:
77,350,272720,1,0,0:0:0:0:
94,347,272824,1,0,0:0:0:0:
111,344,272928,1,0,0:0:0:0:
128,341,273033,2,0,P|147:343|169:353,1,35
223,245,273241,2,0,P|230:262|233:286,1,35
321,366,273449,1,0,0:0:0:0:
321,366,273553,1,0,0:0:0:0:
321,366,273658,2,0,P|321:341|334:309,1,35
416,206,273866,6,0,L|411:171,2,35
335,140,274283,2,0,P|357:110|394:88,1,70
290,40,274595,1,0,0:0:0:0:
290,40,274699,2,0,P|266:33|233:31,1,35
172,6,274908,2,0,P|153:23|135:50,1,35
46,131,275116,2,0,B|124:101|110:152|201:115,1,140
88,206,275741,5,0,0:0:0:0:
199,254,275949,2,0,P|179:257|155:249,1,35
31,325,276158,2,0,P|67:306|123:298,1,70
236,349,276574,1,0,0:0:0:0:
236,349,276678,1,0,0:0:0:0:
236,349,276783,1,0,0:0:0:0:
315,291,276991,1,0,0:0:0:0:
443,363,277199,5,2,0:0:0:0:
433,336,277303,1,0,0:0:0:0:
433,307,277408,1,0,0:0:0:0:
512,179,277616,1,0,0:0:0:0:
493,201,277720,1,0,0:0:0:0:
468,215,277825,1,0,0:0:0:0:
325,193,278033,1,0,0:0:0:0:
353,198,278137,1,0,0:0:0:0:
378,213,278242,1,0,0:0:0:0:
395,234,278345,1,0,0:0:0:0:
400,261,278449,2,0,P|378:308|382:368,1,105
292,380,278866,6,0,P|298:362|293:325,1,35
227,280,279074,2,0,P|214:265|179:251,1,35
79,369,279283,2,0,L|174:346,1,70
51,68,284277,6,0,P|75:70|106:80,1,41.9999987182618
141,151,284451,2,0,P|161:146|182:143,1,41.9999987182618
260,49,284624,2,0,B|354:43|324:105|447:90,2,167.999994873047
141,151,285491,1,0,0:0:0:0:
141,151,285665,2,0,B|108:200|108:200|125:322,1,167.999994873047
252,374,286185,6,0,B|187:209|358:147|358:147|291:180|292:255,1,419.999987182618
437,33,290000,5,0,0:0:0:0:
367,72,290173,2,0,L|281:57,1,70
178,18,290520,2,0,P|199:61|199:128,1,105
224,125,290867,2,0,P|208:170|161:217,1,105
182,229,291213,2,0,P|137:246|70:240,1,105
0,345,291560,6,0,B|205:279|163:428|364:363|364:363|309:380|261:344,1,482.99998526001
363,161,295895,6,0,P|317:226|324:281,1,134.750004112244
443,254,296589,2,0,P|409:181|358:160,1,134.750004112244
298,106,297283,6,0,L|219:116,1,70
164,167,297543,1,0,0:0:0:0:
164,167,297630,2,0,L|81:158,1,70
21,282,297976,1,0,0:0:0:0:
29,288,298063,1,0,0:0:0:0:
35,296,298150,1,0,0:0:0:0:
39,305,298237,1,0,0:0:0:0:
41,315,298323,2,0,P|56:306|80:300,1,35
147,254,298497,2,0,P|162:262|179:280,1,35
257,363,298670,6,0,L|276:266,1,70
340,225,298930,1,0,0:0:0:0:
340,225,299017,2,0,L|321:128,1,70
246,57,299364,1,0,0:0:0:0:
256,58,299450,1,0,0:0:0:0:
266,59,299537,1,0,0:0:0:0:
276,60,299624,1,0,0:0:0:0:
286,61,299711,2,0,L|333:66,1,35
397,113,299884,2,0,L|431:109,1,35
473,254,300057,6,0,P|460:220|421:185,1,70
354,229,300317,1,0,0:0:0:0:
354,229,300404,2,0,P|318:223|268:239,1,70
207,318,300751,1,0,0:0:0:0:
200,309,300838,1,0,0:0:0:0:
195,299,300924,1,0,0:0:0:0:
190,289,301011,1,0,0:0:0:0:
186,278,301098,2,0,P|185:257|190:230,1,35
139,180,301271,6,0,P|151:163|236:128,1,105
311,159,301618,2,0,P|290:156|217:100,1,105
206,20,301965,2,0,P|214:39|202:130,1,105
79,72,302312,1,0,0:0:0:0:
89,72,302398,1,0,0:0:0:0:
102,74,302485,2,0,L|94:125,1,35
144,214,302658,2,0,L|138:179,1,35
45,295,302832,6,0,L|136:307,1,70
195,355,303092,1,0,0:0:0:0:
195,355,303179,2,0,L|264:345,1,70
364,252,303526,1,0,0:0:0:0:
363,262,303612,1,0,0:0:0:0:
361,272,303699,1,0,0:0:0:0:
359,282,303786,1,0,0:0:0:0:
357,292,303872,2,0,P|360:312|365:333,1,35
449,226,304046,2,0,P|452:208|455:191,1,35
379,77,304219,6,0,L|464:93,1,70
232,142,304479,1,0,0:0:0:0:
232,142,304566,2,0,L|300:129,1,70
136,40,304913,1,0,0:0:0:0:
135,50,305000,1,0,0:0:0:0:
133,60,305086,1,0,0:0:0:0:
131,70,305173,1,0,0:0:0:0:
129,80,305260,2,0,P|130:101|135:122,1,35
88,199,305433,2,0,P|103:207|127:214,1,35
167,300,305606,6,0,P|192:276|239:265,1,70
368,328,305867,1,0,0:0:0:0:
368,328,305953,2,0,P|334:318|308:295,1,70
297,197,306300,1,0,0:0:0:0:
301,187,306387,1,0,0:0:0:0:
304,176,306474,1,0,0:0:0:0:
306,165,306560,1,0,0:0:0:0:
305,154,306647,2,0,P|301:131|291:104,1,35
197,35,306820,2,0,P|192:57|193:86,1,35
76,153,306994,6,0,L|159:163,1,70
158,266,307254,1,0,0:0:0:0:
158,266,307341,2,0,L|75:276,1,70
224,364,307687,1,0,0:0:0:0:
227,354,307774,1,0,0:0:0:0:
232,341,307861,1,0,0:0:0:0:
242,327,307948,1,0,0:0:0:0:
258,313,308034,1,0,0:0:0:0:
279,302,308121,1,0,0:0:0:0:
306,297,308208,1,0,0:0:0:0:
335,286,308294,1,0,0:0:0:0:
361,262,308381,6,0,P|382:222|385:175,1,80.5000015354157
306,96,308641,1,0,0:0:0:0:
306,96,308728,2,0,L|396:110,1,80.5000015354157
238,164,309075,1,0,0:0:0:0:
120,42,309248,1,0,0:0:0:0:
120,42,309335,1,0,0:0:0:0:
120,42,309421,2,0,L|114:98,1,40.2500007677078
54,162,309595,2,0,L|60:218,1,40.2500007677078
195,292,309768,6,0,L|103:279,1,80.5000015354157
273,341,310028,1,0,0:0:0:0:
273,341,310115,2,0,L|365:328,1,80.5000015354157
435,237,310462,1,0,0:0:0:0:
335,113,310635,1,0,0:0:0:0:
335,113,310722,1,0,0:0:0:0:
335,113,310809,2,0,L|328:162,1,40.2500007677078
252,257,310982,2,0,L|246:217,1,40.2500007677078
184,62,311156,6,0,P|158:89|137:141,1,80.5000015354157
61,188,311416,1,0,0:0:0:0:
61,188,311502,2,0,P|71:224|105:268,1,80.5000015354157
124,352,311849,1,0,0:0:0:0:
252,258,312023,1,0,0:0:0:0:
252,258,312109,1,0,0:0:0:0:
252,258,312196,2,0,L|206:252,1,40.2500007677078
301,354,312369,2,0,L|347:348,1,40.2500007677078
393,253,312543,6,0,P|405:215|398:163,1,80.5000015354157
511,64,312803,1,0,0:0:0:0:
511,64,312890,2,0,P|472:72|430:104,1,80.5000015354157
292,83,313237,1,0,0:0:0:0:
233,193,313410,1,0,0:0:0:0:
233,193,313497,1,0,0:0:0:0:
233,193,313583,2,0,P|231:167|213:132,1,40.2500007677078
182,67,313757,2,0,P|158:55|119:53,1,40.2500007677078
46,209,313930,6,0,P|79:177|139:154,1,90.9999958343508
223,318,314190,1,0,0:0:0:0:
223,318,314277,2,0,P|190:286|149:267,1,90.9999958343508
318,367,314537,1,0,0:0:0:0:
318,367,314624,2,0,P|350:335|391:316,1,90.9999958343508
467,251,314884,1,0,0:0:0:0:
467,251,314971,2,0,P|459:224|461:201,1,45.4999979171754
407,125,315144,2,0,P|413:97|426:78,1,45.4999979171754
260,29,315317,6,0,L|268:135,1,90.9999958343508
187,199,315578,1,0,0:0:0:0:
187,199,315664,2,0,P|234:194|278:224,1,90.9999958343508
150,337,315924,1,0,0:0:0:0:
150,337,316011,2,0,P|122:298|124:242,1,90.9999958343508
294,295,316271,1,0,0:0:0:0:
294,295,316358,2,0,P|276:338|252:353,1,45.4999979171754
185,191,316531,2,0,P|232:186|262:201,1,45.4999979171754
504,150,316705,5,0,0:0:0:0:
473,182,316791,1,0,0:0:0:0:
432,202,316878,1,0,0:0:0:0:
386,204,316965,1,0,0:0:0:0:
344,189,317051,1,0,0:0:0:0:
309,160,317138,1,0,0:0:0:0:
289,120,317225,1,0,0:0:0:0:
284,75,317311,1,0,0:0:0:0:
302,36,317398,1,0,0:0:0:0:
338,19,317484,1,0,0:0:0:0:
377,28,317571,1,0,0:0:0:0:
402,60,317658,1,0,0:0:0:0:
401,100,317744,5,0,0:0:0:0:
197,50,318092,2,0,L|186:134,1,70
92,153,318352,2,0,L|179:117,1,77.0000023498536
233,192,318612,2,0,L|146:131,1,83.9999974365235
110,287,318872,6,0,P|146:268|194:268,1,70
244,334,319132,2,0,P|252:306|270:283,1,48.9999985046387
386,231,319306,2,0,P|357:238|334:237,1,41.9999987182618
299,129,319499,6,0,P|294:154|339:223,1,97.9999970092774
213,90,319759,1,0,0:0:0:0:
213,90,319845,2,0,L|118:104,1,83.9999974365235
22,201,320192,1,0,0:0:0:0:
22,201,320279,2,0,L|116:216,1,83.9999974365235
154,275,320539,1,0,0:0:0:0:
169,249,320626,1,0,0:0:0:0:
194,233,320712,1,0,0:0:0:0:
222,225,320799,1,0,0:0:0:0:
256,229,320886,6,0,B|289:248|289:248|359:244,1,97.9999970092774
440,171,321146,1,0,0:0:0:0:
440,171,321233,2,0,P|432:212|430:263,1,83.9999974365235
496,106,321579,1,0,0:0:0:0:
459,86,321665,1,0,0:0:0:0:
417,84,321752,1,0,0:0:0:0:
380,102,321839,1,0,0:0:0:0:
354,135,321926,1,0,0:0:0:0:
328,168,322012,1,0,0:0:0:0:
291,186,322099,1,0,0:0:0:0:
249,184,322186,1,0,0:0:0:0:
213,165,322273,6,0,P|237:139|259:70,1,97.9999970092774
119,186,322533,1,0,0:0:0:0:
119,186,322620,2,0,L|127:278,1,83.9999974365235
47,327,322967,1,0,0:0:0:0:
47,327,323054,2,0,P|90:340|130:366,1,83.9999974365235
232,305,323314,2,0,P|210:310|189:324,1,41.9999987182618
317,358,323487,2,0,P|337:368|362:371,1,41.9999987182618
466,314,323660,5,0,0:0:0:0:
440,272,323746,1,0,0:0:0:0:
435,224,323833,1,0,0:0:0:0:
445,178,323920,1,0,0:0:0:0:
469,137,324007,1,0,0:0:0:0:
484,99,324093,1,0,0:0:0:0:
465,62,324180,1,0,0:0:0:0:
425,53,324267,1,0,0:0:0:0:
392,76,324353,5,0,0:0:0:0:
362,47,324440,1,0,0:0:0:0:
322,34,324527,1,0,0:0:0:0:
281,40,324614,1,0,0:0:0:0:
246,63,324701,1,0,0:0:0:0:
211,85,324787,1,0,0:0:0:0:
170,91,324874,1,0,0:0:0:0:
130,78,324961,1,0,0:0:0:0:
100,49,325048,6,0,L|111:157,1,97.9999970092774
31,224,325308,1,0,0:0:0:0:
31,224,325394,2,0,P|73:226|125:250,1,83.9999974365235
157,342,325741,2,0,L|206:335,1,41.9999987182618
271,261,325915,2,0,L|312:266,1,41.9999987182618
403,353,326088,1,0,0:0:0:0:
420,329,326175,1,0,0:0:0:0:
433,293,326262,1,0,0:0:0:0:
431,247,326348,1,0,0:0:0:0:
402,189,326435,6,0,P|390:128|407:82,1,97.9999970092774
300,143,326695,1,0,0:0:0:0:
300,143,326782,2,0,P|262:160|194:150,1,83.9999974365235
111,32,327129,1,0,0:0:0:0:
129,48,327215,1,0,0:0:0:0:
142,69,327302,1,0,0:0:0:0:
149,93,327389,1,0,0:0:0:0:
151,120,327475,1,0,0:0:0:0:
141,156,327562,1,0,0:0:0:0:
144,193,327649,1,0,0:0:0:0:
166,223,327735,1,0,0:0:0:0:
208,235,327822,6,0,L|99:250,1,97.9999970092774
236,318,328082,1,0,0:0:0:0:
236,318,328169,2,0,L|340:332,1,83.9999974365235
414,278,328516,1,0,0:0:0:0:
414,278,328603,2,0,P|401:230|416:179,1,83.9999974365235
512,97,328863,2,0,P|495:118|469:130,1,41.9999987182618
328,85,329036,2,0,P|354:89|378:105,1,41.9999987182618
262,147,329209,5,0,0:0:0:0:
243,109,329295,1,0,0:0:0:0:
242,67,329382,1,0,0:0:0:0:
258,29,329469,1,0,0:0:0:0:
288,1,329555,1,0,0:0:0:0:
264,35,329642,1,0,0:0:0:0:
229,57,329729,1,0,0:0:0:0:
188,63,329816,1,0,0:0:0:0:
148,50,329902,5,0,0:0:0:0:
107,46,329989,1,0,0:0:0:0:
73,69,330076,1,0,0:0:0:0:
63,109,330163,1,0,0:0:0:0:
81,145,330250,1,0,0:0:0:0:
99,183,330336,1,0,0:0:0:0:
102,225,330423,1,0,0:0:0:0:
92,265,330510,1,0,0:0:0:0:
68,299,330597,6,0,B|112:310|112:310|173:290,1,90.9999958343508
327,302,330857,1,0,0:0:0:0:
327,302,330944,2,0,B|285:299|285:299|252:270,1,80.5000015354157
235,90,331290,1,0,0:0:0:0:
235,90,331377,2,0,L|224:185,1,80.5000015354157
331,219,331637,2,0,L|324:175,1,40.2500007677078
418,102,331811,2,0,L|410:140,1,40.2500007677078
462,307,331984,6,0,P|444:263|447:206,1,90.9999958343508
375,325,332244,1,0,0:0:0:0:
375,325,332331,2,0,L|279:335,1,80.5000015354157
212,378,332678,1,0,0:0:0:0:
201,339,332764,1,0,0:0:0:0:
206,299,332851,1,0,0:0:0:0:
225,264,332938,1,0,0:0:0:0:
256,240,333024,1,0,0:0:0:0:
296,207,333111,1,0,0:0:0:0:
304,156,333198,1,0,0:0:0:0:
277,113,333285,1,0,0:0:0:0:
229,97,333371,6,0,L|331:83,1,90.9999958343508
165,154,333631,1,0,0:0:0:0:
165,154,333718,2,0,P|146:114|151:59,1,80.5000015354157
47,19,334065,2,0,P|52:39|50:70,1,40.2500007677078
85,233,334238,2,0,P|80:213|82:182,1,40.2500007677078
277,113,334412,2,0,P|272:129|274:154,1,40.2500007677078
245,288,334585,2,0,P|249:271|247:246,1,40.2500007677078
441,207,334759,5,0,0:0:0:0:
401,209,334845,1,0,0:0:0:0:
368,231,334932,1,0,0:0:0:0:
350,266,335019,1,0,0:0:0:0:
352,306,335105,1,0,0:0:0:0:
374,339,335192,1,0,0:0:0:0:
409,357,335279,1,0,0:0:0:0:
449,355,335365,1,0,0:0:0:0:
482,333,335452,5,0,0:0:0:0:
455,303,335538,1,0,0:0:0:0:
420,284,335625,1,0,0:0:0:0:
381,277,335712,1,0,0:0:0:0:
341,284,335798,1,0,0:0:0:0:
302,293,335885,1,0,0:0:0:0:
262,287,335972,1,0,0:0:0:0:
227,268,336059,1,0,0:0:0:0:
201,237,336146,6,0,B|221:203|221:203|214:127,1,105.000004005432
89,52,336406,1,0,0:0:0:0:
89,52,336493,2,0,P|134:66|179:65,1,87.5
311,12,336840,1,0,0:0:0:0:
311,12,336926,2,0,L|297:112,1,87.5
309,180,337186,1,0,0:0:0:0:
332,168,337273,1,0,0:0:0:0:
357,161,337360,1,0,0:0:0:0:
382,159,337446,1,0,0:0:0:0:
413,164,337533,6,0,P|386:204|385:271,1,105.000004005432
436,350,337793,1,0,0:0:0:0:
436,350,337880,2,0,L|345:339,1,87.5
250,277,338227,1,0,0:0:0:0:
206,281,338313,1,0,0:0:0:0:
163,286,338400,1,0,0:0:0:0:
119,291,338487,1,0,0:0:0:0:
76,295,338573,1,0,0:0:0:0:
24,285,338660,1,0,0:0:0:0:
0,241,338747,1,0,0:0:0:0:
9,189,338834,1,0,0:0:0:0:
41,155,338920,6,0,P|88:177|149:171,1,105.000004005432
225,97,339181,1,0,0:0:0:0:
225,97,339267,2,0,L|230:201,1,87.5
286,273,339614,1,0,0:0:0:0:
286,273,339701,2,0,P|314:253|376:231,1,87.5
454,325,339961,2,0,P|429:310|400:307,1,43.75
287,375,340134,2,0,P|312:360|329:337,1,43.75
374,220,340308,5,0,0:0:0:0:
374,211,340394,1,0,0:0:0:0:
375,202,340481,1,0,0:0:0:0:
375,193,340568,1,0,0:0:0:0:
375,184,340655,1,0,0:0:0:0:
375,175,340741,1,0,0:0:0:0:
375,166,340828,1,0,0:0:0:0:
375,157,340915,1,0,0:0:0:0:
375,145,341001,6,0,L|320:132,1,43.75
251,39,341175,2,0,L|208:49,1,43.75
153,188,341348,2,0,L|110:177,1,43.75
45,13,341522,2,0,L|2:23,1,43.75
18,249,341695,6,0,P|45:212|93:186,1,90.9999958343508
121,363,341955,2,0,P|102:321|103:266,1,90.9999958343508
275,325,342215,2,0,P|229:320|182:291,1,90.9999958343508
324,174,342475,2,0,P|297:211|248:237,1,90.9999958343508
222,86,342735,2,0,P|237:113|236:168,1,45.4999979171754
103,129,342909,2,0,P|134:129|181:158,1,45.4999979171754
160,250,343082,6,0,L|117:247,1,35
152,256,343253,2,0,L|109:253,1,35
142,266,343424,2,0,L|99:263,1,35
34,330,343596,2,0,L|63:335,1,17.5
38,341,343682,2,0,L|66:345,1,17.5
127,377,343767,2,0,L|147:370,2,17.5
219,316,343939,2,0,L|244:318,2,17.5
308,374,344110,2,0,L|341:364,1,35
390,265,344282,2,0,L|423:275,1,35
494,135,344453,6,0,P|467:172|419:198,1,90.9999958343508
391,21,344713,2,0,P|409:62|408:117,1,90.9999958343508
237,59,344973,2,0,P|282:63|329:92,1,90.9999958343508
188,210,345233,2,0,P|215:172|263:147,1,90.9999958343508
290,298,345493,2,0,P|274:270|275:215,1,45.4999979171754
409,255,345667,2,0,P|377:254|330:225,1,45.4999979171754
353,172,345840,5,0,0:0:0:0:
353,172,345925,1,0,0:0:0:0:
353,172,346011,1,0,0:0:0:0:
253,150,346182,1,0,0:0:0:0:
253,150,346267,1,0,0:0:0:0:
253,150,346354,2,0,L|223:162,4,18.3749994392395
142,126,346697,2,0,B|109:147|109:147|34:127,2,110.249996635437
331,44,347471,6,0,L|339:138,1,90.9999958343508
421,129,347731,2,0,L|413:223,1,90.9999958343508
339,229,347991,2,0,L|347:323,1,90.9999958343508
421,227,348251,2,0,L|426:178,1,45.4999979171754
333,142,348424,2,0,L|328:93,1,45.4999979171754
200,175,348598,6,0,L|224:182,1,17.5
188,179,348683,2,0,L|211:187,1,19.2500005874634
175,184,348769,2,0,L|201:192,1,19.2500005874634
163,189,348855,2,0,L|188:197,1,19.2500005874634
148,197,348940,2,0,L|230:223,1,77.0000023498536
276,292,349198,2,0,L|307:286,2,19.2500005874634
339,214,349369,1,0,0:0:0:0:
365,241,349454,1,0,0:0:0:0:
378,277,349540,1,0,0:0:0:0:
375,315,349626,2,0,P|371:343|373:367,1,38.5000011749268
472,243,349798,2,0,P|470:225|464:206,1,38.5000011749268
391,39,349969,6,0,P|367:67|361:132,1,90.9999958343508
244,125,350229,2,0,P|280:131|339:104,1,90.9999958343508
379,205,350489,2,0,P|366:170|313:132,1,90.9999958343508
398,40,350749,2,0,P|374:68|368:133,1,90.9999958343508
238,128,351009,2,0,P|274:134|317:116,1,45.4999979171754
375,214,351182,2,0,P|362:179|326:151,1,45.4999979171754
178,103,352165,6,0,P|96:51|137:153,1,262.500010013581,2|0,0:0|0:0,0:0:0:0:
121,154,352649,5,0,3:0:0:0:
160,12,352810,1,0,0:0:0:0:
246,206,352971,2,0,L|364:182,1,105.000004005432,0|0,3:0|0:0,0:0:0:0:
374,49,353294,5,2,3:2:0:0:
316,288,353455,1,0,0:0:0:0:
460,183,353616,1,0,3:0:0:0:
397,342,353778,2,0,B|345:299|293:338|293:338|241:373|179:328,1,210.000008010865,2|0,0:0|0:0,0:0:0:0:
95,177,354262,2,0,L|111:290,1,105.000004005432,0|0,3:0|0:0,0:0:0:0:
195,73,354584,1,0,3:0:0:0:
194,178,354745,5,2,0:0:0:0:
48,83,354907,2,0,B|86:40|86:40|244:44,1,210.000008010865,0|0,3:0|3:0,0:0:0:0:
396,140,355391,2,0,P|307:113|370:191,1,210.000008010865,2|0,0:0|0:0,0:0:0:0:
460,197,355874,6,0,P|476:147|393:145,1,157.500006008148,2|0,3:0|0:0,0:0:0:0:
389,258,356196,2,0,P|455:269|444:187,1,157.500006008148,2|0,3:0|0:0,0:0:0:0:
265,326,356519,2,0,P|326:325|389:254,1,157.500006008148,2|0,3:0|0:0,0:0:0:0:
169,208,356841,2,0,B|197:276|197:276|285:340,1,157.500006008148,2|0,3:0|0:0,0:0:0:0:
188,128,357164,1,4,3:2:0:0:
395,68,357325,6,0,L|277:55,1,105.000004005432,2|0,0:0|3:0,0:0:0:0:
91,148,357648,2,0,L|221:135,1,105.000004005432,0|0,0:0|3:0,0:0:0:0:
191,35,357970,1,0,0:0:0:0:
257,240,358132,1,0,3:0:0:0:
305,138,358293,1,0,0:0:0:0:
155,328,358454,6,0,L|10:326,1,105.000004005432,2|0,3:2|0:0,0:0:0:0:
265,228,358777,2,0,L|489:213,1,210.000008010865,0|0,3:0|3:0,0:0:0:0:
442,310,359261,5,2,0:0:0:0:
341,192,359422,2,0,P|324:130|326:83,1,105.000004005432,0|0,3:0|0:0,0:0:0:0:
508,10,359744,6,0,B|506:27|506:27|510:48|510:48|501:60|501:60|503:78|503:78|488:90|488:90|490:106|490:106|472:111|472:111|462:124|462:124|444:124|444:124|432:131|432:131|414:125|414:125|397:124,1,210.000008010865,4|0,3:1|3:0,0:0:0:0:
279,31,360228,2,0,P|238:34|203:52,1,52.5000020027161,2|0,0:0|0:0,0:0:0:0:
103,88,360390,5,2,3:0:0:0:
149,96,360470,1,0,0:0:0:0:
177,133,360551,1,0,0:0:0:0:
189,178,360632,1,0,0:0:0:0:
177,223,360712,1,0,3:0:0:0:
97,171,360874,1,2,0:0:0:0:
277,193,361035,6,0,P|356:224|408:291,1,157.500006008148,4|0,3:2|0:0,0:0:0:0:
305,300,361357,2,0,P|345:242|435:196,1,157.500006008148,0|0,3:0|0:0,0:0:0:0:
488,267,361680,1,0,1:0:0:0:
481,287,361761,1,0,1:0:0:0:
491,305,361841,1,0,1:0:0:0:
481,323,361922,1,0,1:0:0:0:
488,342,362003,1,0,3:0:0:0:
486,154,362164,1,0,3:0:0:0:
316,363,362361,6,0,L|226:361,1,78.7500030040742,8|0,3:2|0:0,0:0:0:0:
79,246,362682,2,0,L|126:242,1,26.2500010013581,8|0,3:2|0:0,0:0:0:0:
218,157,362843,2,0,L|190:153,1,26.2500010013581,8|0,0:0|0:0,0:0:0:0:
67,251,363167,5,8,0:0:0:0:
67,251,363247,1,8,0:0:0:0:
67,251,363327,2,0,L|112:249,1,26.2500010013581,8|0,3:2|0:0,0:0:0:0:
228,150,363489,2,0,L|192:145,1,26.2500010013581,8|0,0:0|0:0,0:0:0:0:
56,257,363811,5,8,0:0:0:0:
56,257,363892,1,8,0:0:0:0:
56,257,363973,2,0,L|100:255,1,26.2500010013581,8|0,3:2|0:0,0:0:0:0:
248,137,364133,2,0,L|206:132,1,26.2500010013581,8|0,0:0|0:0,0:0:0:0:
433,259,364295,6,0,P|446:182|413:69,1,178.500003404617,2|0,3:0|0:0,0:0:0:0:
409,89,364618,2,0,P|420:179|484:251,1,178.500003404617,2|0,3:2|0:0,0:0:0:0:
412,369,364940,6,0,P|355:355|323:354,1,78.7500030040742,8|0,3:2|0:0,0:0:0:0:
172,353,365263,2,0,P|204:341|215:333,1,26.2500010013581,8|0,3:2|0:0,0:0:0:0:
282,221,365424,2,0,P|275:246|275:266,1,26.2500010013581,8|0,0:0|0:0,0:0:0:0:
157,367,365747,5,8,0:0:0:0:
157,367,365827,1,8,0:0:0:0:
157,367,365908,2,0,P|189:355|200:347,1,26.2500010013581,8|0,3:2|0:0,0:0:0:0:
267,203,366069,2,0,P|260:228|260:248,1,26.2500010013581,8|0,0:0|0:0,0:0:0:0:
268,323,366230,5,0,3:0:0:0:
239,113,366392,1,0,0:0:0:0:
83,254,366553,5,2,3:1:0:0:
196,35,366714,1,0,0:0:0:0:
383,207,366876,1,0,3:0:0:0:
57,118,367037,5,0,1:0:0:0:
79,111,367118,1,0,1:0:0:0:
102,113,367198,1,0,1:0:0:0:
123,122,367279,1,0,1:0:0:0:
141,136,367360,1,0,1:0:0:0:
152,156,367440,1,0,1:0:0:0:
156,179,367521,1,0,1:0:0:0:
14,333,367682,6,0,P|80:302|206:366,1,210.000008010865,2|0,0:0|0:0,0:0:0:0:
251,218,368166,1,0,3:0:0:0:
317,369,368327,1,0,0:0:0:0:
388,163,368489,2,0,L|507:184,1,105.000004005432,0|0,3:0|0:0,0:0:0:0:
436,280,368811,5,2,3:2:0:0:
408,80,368972,1,0,0:0:0:0:
441,289,369134,1,0,3:0:0:0:
267,99,369295,2,0,B|206:82|206:82|35:137,1,210.000008010865,2|0,0:0|0:0,0:0:0:0:
8,229,369779,2,0,P|2:290|13:347,1,105.000004005432,0|0,3:0|0:0,0:0:0:0:
98,213,370101,1,0,3:0:0:0:
226,343,370263,5,2,0:0:0:0:
226,343,370424,2,0,L|336:353,1,105.000004005432,0|0,3:0|0:0,0:0:0:0:
459,231,370747,1,0,3:0:0:0:
364,57,370908,2,0,L|221:71,1,105.000004005432,0|0,0:0|3:0,0:0:0:0:
470,215,371230,1,2,0:0:0:0:
226,205,371392,6,0,B|197:150|269:94|315:191|231:222,1,157.500006008148,2|0,3:0|0:0,0:0:0:0:
217,235,371714,2,0,B|162:264|106:192|203:146|234:230,1,157.500006008148,2|0,3:0|0:0,0:0:0:0:
246,238,372037,2,0,B|275:293|203:349|157:252|241:221,1,157.500006008148,2|0,3:0|0:0,0:0:0:0:
249,208,372360,2,0,B|304:179|360:251|263:297|232:213,1,157.500006008148,2|0,3:0|0:0,0:0:0:0:
235,132,372682,1,4,3:2:0:0:
285,329,372843,5,0,0:0:0:0:
137,167,373005,2,0,L|27:151,1,105.000004005432,0|0,3:0|0:0,0:0:0:0:
39,277,373327,1,2,3:2:0:0:
107,84,373489,1,0,0:0:0:0:
208,242,373650,2,0,L|353:224,1,105.000004005432,0|0,3:0|0:0,0:0:0:0:
274,91,373972,5,2,3:2:0:0:
389,312,374134,1,0,0:0:0:0:
386,155,374295,1,0,3:0:0:0:
240,363,374456,2,0,P|211:313|201:235,1,105.000004005432,2|0,0:0|3:0,0:0:0:0:
266,82,374779,1,0,0:0:0:0:
408,180,374940,2,0,P|403:236|376:306,1,105.000004005432,0|0,3:0|0:0,0:0:0:0:
165,128,375263,6,0,P|149:56|149:9,1,105.000004005432,0|2,3:0|0:0,0:0:0:0:
141,229,375585,2,0,P|71:183|34:131,1,105.000004005432,0|0,3:0|0:0,0:0:0:0:
217,292,375908,2,0,P|162:368|34:378,1,210.000008010865,0|2,3:2|3:2,0:0:0:0:
10,288,376392,1,0,0:0:0:0:
234,364,376553,6,0,P|306:387|352:369,1,105.000004005432,0|0,3:0|0:0,0:0:0:0:
435,194,376876,2,0,P|367:204|316:239,1,105.000004005432,0|0,3:0|1:0,0:0:0:0:
288,282,377118,1,0,1:0:0:0:
288,282,377198,1,0,1:0:0:0:
336,106,377360,1,0,1:0:0:0:
336,106,377440,1,0,1:0:0:0:
336,106,377521,1,0,1:0:0:0:
423,284,377682,5,2,1:2:0:0:
163,61,377843,1,4,3:2:0:0:
