osu file format v14

[General]
AudioFilename: Kings Of The City - Wrong (Muzzy Remix).mp3
AudioLeadIn: 0
PreviewTime: 113860
Countdown: 0
SampleSet: Drum
StackLeniency: 0.7
Mode: 0
LetterboxInBreaks: 0
EpilepsyWarning: 1
WidescreenStoryboard: 1

[Editor]
Bookmarks: 225031
DistanceSpacing: 0.7
BeatDivisor: 4
GridSize: 16
TimelineZoom: 1.8

[Metadata]
Title:Wrong (Muzzy Remix)
TitleUnicode:Wrong (Muzzy Remix)
Artist:KINGS OF THE CITY
ArtistUnicode:KINGS OF THE CITY
Creator:Hikaru Rose
Version:Fallacious
Source:
Tags:drum and bass dnb electronic english rock marathon no snake cheesecake
BeatmapID:898654
BeatmapSetID:414582

[Difficulty]
HPDrainRate:6
CircleSize:4.2
OverallDifficulty:9
ApproachRate:9.3
SliderMultiplier:1.6
SliderTickRate:1

[Events]
//Background and Video events
0,0,"muzzybg.jpg",0,0
//Break Periods
2,203288,221735
2,270289,271106
//Storyboard Layer 0 (Background)
//Storyboard Layer 1 (Fail)
//Storyboard Layer 2 (Pass)
//Storyboard Layer 3 (Foreground)
//Storyboard Layer 4 (Overlay)
//Storyboard Sound Samples

[TimingPoints]
132,342.857142857143,4,3,0,40,1,0
5446,-100,4,2,1,5,0,0
5617,344.827586206897,4,2,1,40,1,0
5618,-133.333333333333,4,2,1,40,0,0
11134,342.857142857143,4,2,1,40,1,0
11134,-133.333333333333,4,2,1,40,0,0
12505,340.909090909091,4,2,1,40,1,0
12505,-133.333333333333,4,2,1,40,0,0
13868,333.333333333333,4,2,1,40,1,0
13868,-133.333333333333,4,2,1,40,0,0
14868,342.857142857143,4,2,1,40,1,0
14868,-133.333333333333,4,2,1,40,0,0
16582,342.857142857143,4,2,1,50,1,0
16582,-133.333333333333,4,2,1,50,0,0
32696,-133.333333333333,4,2,1,5,0,0
32867,-133.333333333333,4,2,1,50,0,0
34067,-133.333333333333,4,2,1,5,0,0
34239,-133.333333333333,4,2,1,50,0,0
36811,-133.333333333333,4,2,1,5,0,0
36896,-133.333333333333,4,2,1,15,0,0
36982,-133.333333333333,4,2,1,20,0,0
37068,-133.333333333333,4,2,1,25,0,0
37153,-133.333333333333,4,2,1,40,0,0
47267,-200,4,2,1,40,0,0
47353,-200,4,2,1,5,0,0
48810,-133.333333333333,4,1,1,40,0,0
49489,342.857142857143,4,1,1,50,1,0
49489,-133.333333333333,4,2,1,50,0,0
60460,-100,4,2,1,70,0,0
70060,-100,4,1,1,50,0,0
71089,-66.6666666666667,4,2,0,70,0,0
71346,-66.6666666666667,4,2,0,5,0,0
71431,-83.3333333333333,4,1,1,70,0,1
76660,-83.3333333333333,4,1,1,40,0,1
76746,-83.3333333333333,4,1,1,50,0,1
76831,-83.3333333333333,4,1,1,50,0,1
76917,-83.3333333333333,4,1,1,70,0,1
87546,-100,4,1,1,70,0,1
87803,-100,4,1,1,5,0,1
87889,-83.3333333333333,4,1,1,70,0,1
90631,-83.3333333333333,4,1,1,70,0,0
92003,-83.3333333333333,4,1,1,50,0,0
93374,-83.3333333333333,4,1,1,70,0,1
93460,-83.3333333333333,4,1,1,70,0,0
103917,-83.3333333333333,4,1,1,5,0,0
104003,-83.3333333333333,4,1,1,70,0,0
104346,-100,4,2,1,70,0,0
112574,-100,4,1,1,60,0,0
115317,-83.3333333333333,4,1,1,70,0,1
135889,-83.3333333333333,4,1,1,70,0,0
137260,-83.3333333333333,4,1,1,70,0,1
148231,-83.3333333333333,4,2,1,70,0,0
156460,-133.333333333333,4,2,1,70,0,0
156974,-133.333333333333,4,2,1,5,0,0
157146,-133.333333333333,4,2,1,70,0,0
157660,-133.333333333333,4,2,1,5,0,0
157831,-83.3333333333333,4,1,1,60,0,0
164346,-83.3333333333333,4,1,1,30,0,0
164431,-83.3333333333333,4,1,1,40,0,0
164517,-83.3333333333333,4,1,1,50,0,0
164603,-83.3333333333333,4,1,1,60,0,0
164689,-83.3333333333333,4,1,1,70,0,1
170089,-83.3333333333333,4,1,1,5,0,0
170174,-83.3333333333333,4,1,1,70,0,1
175574,-83.3333333333333,4,1,1,5,0,1
175660,-83.3333333333333,4,1,1,70,0,1
178403,-83.3333333333333,4,1,1,70,0,0
179774,-83.3333333333333,4,1,1,50,0,0
180460,-83.3333333333333,4,1,1,40,0,0
180803,-83.3333333333333,4,1,1,60,0,0
181146,-83.3333333333333,4,1,1,70,0,1
181231,-83.3333333333333,4,1,1,70,0,0
191689,-83.3333333333333,4,1,1,5,0,0
191774,-83.3333333333333,4,1,1,70,0,0
192117,-100,4,2,1,70,0,0
200346,-100,4,1,1,70,0,0
203089,-100,4,1,1,70,0,0
224517,-100,4,1,1,5,0,0
224689,-133.333333333333,4,2,1,50,0,0
234289,-133.333333333333,4,2,1,10,0,0
234374,-133.333333333333,4,2,1,15,0,0
234460,-133.333333333333,4,2,1,20,0,0
234546,-133.333333333333,4,2,1,25,0,0
234631,-133.333333333333,4,2,1,50,0,0
245603,-200,4,2,1,50,0,0
246117,-200,4,2,1,5,0,0
246289,-100,4,2,1,60,0,0
246974,-133.333333333333,4,2,1,70,0,0
247317,-133.333333333333,4,2,1,55,0,0
247660,-133.333333333333,4,2,1,40,0,0
248003,-133.333333333333,4,2,1,25,0,0
248346,-133.333333333333,4,2,1,10,0,0
248689,-133.333333333333,4,2,1,50,0,0
257946,-100,4,2,1,60,0,0
267546,-100,4,1,1,40,0,0
268574,-66.6666666666667,4,2,1,60,0,0
268831,-66.6666666666667,4,2,1,5,0,0
268917,-100,4,2,1,60,0,0
271660,-83.3333333333333,4,1,1,70,0,1
288031,-83.3333333333333,4,1,1,5,0,1
288117,-83.3333333333333,4,1,1,70,0,1
290860,-83.3333333333333,4,1,1,60,0,0
292231,-83.3333333333333,4,1,1,40,0,0
293603,-83.3333333333333,4,1,1,70,0,1
293689,-83.3333333333333,4,1,1,70,0,0
304146,-83.3333333333333,4,1,1,5,0,0
304231,-83.3333333333333,4,1,1,70,0,0
304574,-100,4,2,1,70,0,0
312803,-100,4,1,1,70,0,0
315546,-83.3333333333333,4,1,1,70,0,1
326431,-83.3333333333333,4,1,1,5,0,1
326517,-83.3333333333333,4,1,1,70,0,1
336117,-83.3333333333333,4,2,1,70,0,0
337489,-83.3333333333333,4,1,1,70,0,1
347689,-83.3333333333333,4,1,1,5,0,1
347774,-83.3333333333333,4,1,1,70,0,1
347860,-83.3333333333333,4,1,1,5,0,1
347946,-83.3333333333333,4,1,1,70,0,1
348031,-83.3333333333333,4,1,1,5,0,1
348117,-83.3333333333333,4,1,1,70,0,1
348460,-83.3333333333333,4,2,1,70,0,0
357203,-83.3333333333333,4,2,1,5,0,0
357374,-83.3333333333333,4,2,1,70,0,0
357889,-83.3333333333333,4,2,1,5,0,0
358060,-83.3333333333333,4,1,1,60,0,0
359431,-83.3333333333333,4,1,1,70,0,1
359517,-83.3333333333333,4,2,1,70,0,0
364574,-83.3333333333333,4,2,1,30,0,0
364660,-83.3333333333333,4,2,1,40,0,0
364746,-83.3333333333333,4,2,1,50,0,0
364831,-83.3333333333333,4,2,1,60,0,0
364917,-76.9230769230769,4,1,1,70,0,1
370317,-76.9230769230769,4,1,1,5,0,1
370403,-76.9230769230769,4,1,1,70,0,1
375803,-76.9230769230769,4,1,1,5,0,1
375889,-76.9230769230769,4,1,1,70,0,1
378631,-83.3333333333333,4,2,1,70,0,0
380003,-83.3333333333333,4,1,1,50,0,0
381374,-76.9230769230769,4,1,1,70,0,1
381460,-76.9230769230769,4,1,1,70,0,0
391917,-76.9230769230769,4,1,1,5,0,0
392003,-76.9230769230769,4,1,1,70,0,0
392346,-100,4,2,1,70,0,0
400574,-100,4,1,1,70,0,0

[Colours]
Combo1 : 134,0,223
Combo2 : 116,105,112
Combo3 : 107,104,123
Combo4 : 134,81,82
Combo5 : 108,89,134
Combo6 : 236,0,0

[HitObjects]
256,192,1503,12,0,5446,0:0:0:0:
248,196,5617,6,0,P|296:216|336:202,1,80,6|0,0:0|0:0,0:0:0:0:
296,140,5969,1,2,0:0:0:0:
201,257,6146,2,0,L|217:326,2,60.0000022888184,2|0|0,0:0|0:0|0:0,0:0:0:0:
130,189,6675,2,0,L|138:118,1,60.0000022888184,2|0,0:0|0:0,0:0:0:0:
77,244,7028,6,0,P|106:264|149:261,1,60.0000022888184,2|0,0:0|0:0,0:0:0:0:
201,257,7341,1,2,0:0:0:0:
201,140,7507,2,0,B|197:181|197:181|209:216|209:216|209:239|196:269,1,120.000004577637,2|0,0:0|0:0,0:0:0:0:
277,166,8030,2,0,B|280:133|280:133|272:91,1,60.0000022888184,2|0,0:0|0:0,0:0:0:0:
343,247,8375,70,0,P|309:240|263:250,1,60.0000022888184,2|0,0:0|0:0,0:0:0:0:
308,328,8720,1,2,0:0:0:0:
379,167,8892,2,0,L|369:106,2,60.0000022888184,2|0|0,0:0|0:0|0:0,0:0:0:0:
450,45,9410,2,0,L|443:118,1,60.0000022888184,2|0,0:0|0:0,0:0:0:0:
366,235,9754,6,0,P|395:236|430:213,1,60.0000022888184,2|0,0:0|0:0,0:0:0:0:
445,105,10099,1,2,0:0:0:0:
421,221,10272,2,0,B|430:180|430:180|444:146|444:146|449:114|441:79,1,120.000004577637,2|0,0:0|0:0,0:0:0:0:
501,228,10789,2,0,B|505:261|505:261|501:298,1,60.0000022888184,2|0,0:0|0:0,0:0:0:0:
341,339,11134,70,0,P|373:345|409:336,1,60.0000022888184,2|0,0:0|0:0,0:0:0:0:
502,287,11476,1,2,0:0:0:0:
282,287,11648,2,0,P|266:312|267:357,2,60.0000022888184,2|0|0,0:0|0:0|0:0,0:0:0:0:
371,259,12162,2,0,L|363:179,1,60.0000022888184,2|0,0:0|0:0,0:0:0:0:
206,328,12505,6,0,P|232:341|263:341,1,60.0000022888184,2|0,0:0|0:0,0:0:0:0:
371,259,12845,1,2,0:0:0:0:
154,256,13016,2,0,P|126:295|139:382,1,120.000004577637,2|0,0:0|0:0,0:0:0:0:
249,258,13527,2,0,L|244:195,1,60.0000022888184,2|0,0:0|0:0,0:0:0:0:
240,113,13868,69,2,0:0:0:0:
162,77,14034,1,0,0:0:0:0:
232,28,14201,1,2,0:0:0:0:
170,162,14368,2,0,B|128:174|128:174|39:158,1,120.000004577637,2|0,0:0|0:0,0:0:0:0:
240,113,14868,2,0,B|271:108|271:108|309:113,1,60.0000022888184,2|0,0:0|0:0,0:0:0:0:
388,142,15210,5,2,0:0:0:0:
503,93,15382,1,0,0:0:0:0:
421,61,15553,1,2,0:0:0:0:
474,178,15725,2,0,B|482:218|482:218|481:240|477:260|477:260|485:305,1,120.000004577637,2|0,0:0|0:0,0:0:0:0:
387,218,16239,1,2,0:0:0:0:
483,296,16410,1,0,0:0:0:0:
353,344,16582,6,0,P|317:355|272:340,1,60.0000022888184,6|0,0:0|0:0,0:0:0:0:
208,321,16924,1,2,0:0:0:0:
307,156,17096,2,0,B|318:193|318:193|312:293,1,120.000004577637,2|0,0:0|0:0,0:0:0:0:
295,352,17610,1,2,0:0:0:0:
234,243,17782,1,0,0:0:0:0:
201,334,17953,69,2,0:0:0:0:
313,274,18124,1,0,0:0:0:0:
157,215,18296,1,2,0:0:0:0:
306,356,18467,2,0,B|344:367|344:367|442:348,1,120.000004577637,2|0,0:0|0:0,0:0:0:0:
314,262,18982,1,2,0:0:0:0:
302,364,19153,1,2,0:0:0:0:
396,221,19324,69,2,0:0:0:0:
433,356,19496,1,0,0:0:0:0:
315,252,19667,1,2,0:0:0:0:
439,79,19839,2,0,B|461:114|461:114|466:156|466:156|477:204,1,120.000004577637,2|0,0:0|0:0,0:0:0:0:
329,168,20353,1,2,0:0:0:0:
482,194,20524,1,0,0:0:0:0:
315,239,20696,5,2,0:0:0:0:
342,96,20867,1,0,0:0:0:0:
416,273,21039,1,2,0:0:0:0:
214,206,21210,2,0,B|209:173|209:173|230:69,1,120.000004577637,2|0,0:0|0:0,0:0:0:0:
135,216,21724,1,2,0:0:0:0:
285,165,21896,1,2,0:0:0:0:
135,115,22067,69,2,0:0:0:0:
234,249,22239,1,0,0:0:0:0:
226,87,22410,1,2,0:0:0:0:
155,318,22582,2,0,B|201:333|201:333|278:319,1,120.000004577637,2|0,0:0|0:0,0:0:0:0:
204,164,23096,1,2,0:0:0:0:
281,328,23267,5,0,0:0:0:0:
122,238,23439,1,2,0:0:0:0:
299,218,23610,1,0,0:0:0:0:
168,339,23782,1,2,0:0:0:0:
111,120,23953,2,0,B|105:160|105:160|124:249,1,120.000004577637,2|0,0:0|0:0,0:0:0:0:
168,339,24468,1,2,0:0:0:0:
299,218,24639,1,0,0:0:0:0:
122,238,24811,69,2,0:0:0:0:
204,164,24982,1,0,0:0:0:0:
281,328,25154,1,0,0:0:0:0:
358,161,25324,2,0,B|319:145|319:145|231:157,1,120.000004577637,2|0,0:0|0:0,0:0:0:0:
105,257,25839,1,2,0:0:0:0:
310,229,26010,1,0,0:0:0:0:
142,171,26182,5,2,0:0:0:0:
175,340,26353,1,0,0:0:0:0:
317,232,26524,1,2,0:0:0:0:
67,216,26696,2,0,B|62:260|62:260|76:345,1,120.000004577637,2|0,0:0|0:0,0:0:0:0:
142,171,27210,1,2,0:0:0:0:
142,171,27382,6,0,L|134:94,1,60.0000022888184,2|4,0:0|0:0,0:0:0:0:
231,213,27724,2,0,L|219:288,1,60.0000022888184,2|0,0:0|0:0,0:0:0:0:
135,165,28067,2,0,L|119:41,1,120.000004577637,2|0,0:0|0:0,0:0:0:0:
238,207,28582,2,0,L|227:272,1,60.0000022888184,2|0,0:0|0:0,0:0:0:0:
198,364,28924,5,0,0:0:0:0:
198,364,29096,2,0,P|162:374|135:367,1,60.0000022888184,2|0,0:0|0:0,0:0:0:0:
275,326,29439,2,0,P|282:352|277:386,1,60.0000022888184,2|0,0:0|0:0,0:0:0:0:
159,293,29782,2,0,P|154:264|219:192,1,120.000004577637,2|0,0:0|0:0,0:0:0:0:
363,262,30296,70,0,L|300:251,1,60.0000022888184,2|0,0:0|0:0,0:0:0:0:
153,300,30639,2,0,L|223:287,1,60.0000022888184,2|2,0:0|0:0,0:0:0:0:
312,192,30982,1,0,0:0:0:0:
312,192,31153,2,0,L|296:315,1,120.000004577637,2|0,0:0|0:0,0:0:0:0:
239,148,31667,6,0,P|293:112|392:164,1,180.000006866455,2|0,0:0|0:0,0:0:0:0:
312,192,32353,1,2,0:0:0:0:
314,75,32524,2,0,L|334:7,2,60.0000022888184,2|0|0,0:0|0:0|0:0,0:0:0:0:
380,245,33039,2,0,P|352:269|230:217,1,180.000006866455,2|0,0:0|0:0,0:0:0:0:
312,192,33724,69,0,0:0:0:0:
309,312,33896,2,0,L|298:377,2,60.0000022888184,2|0|0,0:0|0:0|0:0,0:0:0:0:
240,185,34410,2,0,L|208:375,1,180.000006866455,2|0,0:0|0:0,0:0:0:0:
143,255,35096,1,2,0:0:0:0:
309,312,35267,2,0,L|298:377,2,60.0000022888184,2|0|2,0:0|0:0|0:0,0:0:0:0:
387,229,35782,6,0,B|402:128,1,90.0000034332277,2|0,0:0|0:0,0:0:0:0:
402,122,36124,1,2,0:0:0:0:
352,17,36296,1,2,0:0:0:0:
352,17,36810,70,0,L|346:0,8,15.0000005722046,0|0|0|0|0|0|0|0|2,0:0|0:0|0:0|0:0|0:0|0:0|0:0|0:0|0:0,0:0:0:0:
352,17,38182,6,0,L|343:82,1,60.0000022888184,0|2,0:0|0:0,0:0:0:0:
448,168,38524,1,4,0:0:0:0:
479,67,38696,70,0,L|467:-4,1,60.0000022888184
455,177,39039,2,0,P|449:222|457:256,1,60.0000022888184
470,354,39382,2,0,P|426:340|345:362,1,120.000004577637,2|0,0:0|0:0,0:0:0:0:
206,338,39896,6,0,P|247:343|278:333,1,60.0000022888184,2|0,0:0|0:0,0:0:0:0:
346,196,40239,2,0,L|343:265,1,60.0000022888184,2|0,0:0|0:0,0:0:0:0:
339,353,40582,1,0,0:0:0:0:
150,240,40753,2,0,P|195:227|264:259,1,120.000004577637,2|0,0:0|0:0,0:0:0:0:
69,269,41267,70,0,P|64:234|72:205,1,60.0000022888184,2|0,0:0|0:0,0:0:0:0:
199,308,41610,1,2,0:0:0:0:
71,376,41782,2,0,L|8:364,1,60.0000022888184,2|0,0:0|0:0,0:0:0:0:
201,191,42124,2,0,P|212:249|198:310,1,120.000004577637,2|0,0:0|0:0,0:0:0:0:
126,140,42639,6,0,L|142:63,1,60.0000022888184,2|0,0:0|0:0,0:0:0:0:
153,6,42982,1,0,0:0:0:0:
153,6,43324,69,0,0:0:0:0:
212,132,43496,2,0,L|200:195,1,60.0000022888184,2|0,0:0|0:0,0:0:0:0:
264,32,44010,2,0,B|273:60|276:88|276:88|306:75|306:75|336:88|336:88|339:60|348:31,1,180.000006866455,2|0,0:0|0:0,0:0:0:0:
306,154,44696,5,0,0:0:0:0:
264,279,44867,2,0,L|282:362,1,60.0000022888184,2|0,0:0|0:0,0:0:0:0:
128,184,45382,2,0,B|130:213|127:241|127:241|159:235|159:235|185:254|185:254|194:228|210:201,1,180.000006866455,2|0,0:0|0:0,0:0:0:0:
141,313,46067,69,2,0:0:0:0:
43,205,46239,2,0,L|45:140,1,60.0000022888184,2|0,0:0|0:0,0:0:0:0:
141,313,46753,2,0,B|168:339|181:368|181:368|205:300,1,120.000004577637,2|0,0:0|0:0,0:0:0:0:
250,294,47267,2,0,B|233:327|231:359|231:359|185:303,1,120.000004577637,2|0,0:0|0:0,0:0:0:0:
182,368,48810,5,8,0:0:0:0:
205,324,48896,1,0,3:0:0:0:
210,274,48982,1,4,3:0:0:0:
196,226,49067,1,4,3:0:0:0:
170,194,49153,1,0,3:0:0:0:
165,164,49239,1,0,3:0:0:0:
174,136,49324,1,0,3:0:0:0:
196,116,49410,1,0,3:0:0:0:
228,103,49489,70,0,L|301:111,1,60.0000022888184,4|0,0:0|0:0,0:0:0:0:
375,127,49831,1,2,0:0:0:0:
371,244,50003,2,0,B|373:203|373:203|383:166|383:166|372:112,1,120.000004577637
336,313,50517,2,0,P|373:323|402:315,1,60.0000022888184
296,248,50860,5,2,0:0:0:0:
260,312,51031,2,0,P|223:322|194:314,1,60.0000022888184
215,186,51374,2,0,L|223:252,1,60.0000022888184,0|2,0:0|0:0,0:0:0:0:
197,69,51717,2,0,B|212:101|212:101|208:122|209:140|209:140|214:164|215:193,1,120.000004577637,0|2,0:0|0:0,0:0:0:0:
122,338,52231,70,0,P|127:304|117:266,1,60.0000022888184,2|0,0:0|0:0,0:0:0:0:
27,153,52574,2,0,B|26:187|26:187|33:224,1,60.0000022888184
50,308,52917,1,2,0:0:0:0:
114,131,53089,2,0,L|96:54,1,60.0000022888184
137,265,53603,6,0,P|196:273|259:241,1,120.000004577637,2|0,0:0|0:0,0:0:0:0:
299,175,54117,1,0,0:0:0:0:
177,160,54289,69,2,0:0:0:0:
305,185,54460,2,0,L|393:173,1,60.0000022888184,2|0,0:0|0:0,0:0:0:0:
310,194,54974,2,0,L|436:178,1,120.000004577637,2|0,0:0|0:0,0:0:0:0:
429,178,55660,5,0,0:0:0:0:
434,60,55831,2,0,L|443:0,1,60.0000022888184,2|0,0:0|0:0,0:0:0:0:
449,59,56346,2,0,L|428:182,1,120.000004577637,2|0,0:0|0:0,0:0:0:0:
428,177,57031,69,2,0:0:0:0:
400,297,57203,2,0,L|336:289,1,60.0000022888184,2|0,0:0|0:0,0:0:0:0:
263,277,57546,1,0,0:0:0:0:
464,248,57717,2,0,P|479:306|435:372,1,120.000004577637,2|0,0:0|0:0,0:0:0:0:
372,371,58231,2,0,L|234:350,1,120.000004577637,2|0,0:0|0:0,0:0:0:0:
173,341,58746,2,0,L|95:328,1,60.0000022888184,2|0,0:0|0:0,0:0:0:0:
282,179,59089,5,2,0:0:0:0:
72,235,59431,1,2,0:0:0:0:
186,265,59774,2,0,L|183:189,1,60.0000022888184
177,118,60117,2,0,L|174:42,1,60.0000022888184
282,179,60460,70,0,P|289:234|276:277,1,80,8|0,0:0|0:0,0:0:0:0:
219,340,60803,1,8,0:0:0:0:
372,365,60974,2,0,L|364:271,1,80,0|8,0:0|0:0,0:0:0:0:
412,118,61317,2,0,L|418:197,1,80,0|8,0:0|0:0,0:0:0:0:
331,60,61660,1,0,0:0:0:0:
481,14,61831,6,0,L|487:93,1,80,8|0,0:0|0:0,0:0:0:0:
324,139,62174,2,0,L|330:59,1,80,8|0,0:0|0:0,0:0:0:0:
208,43,62517,1,8,0:0:0:0:
282,209,62689,2,0,P|328:221|370:206,2,80,2|8|2,0:0|0:0|0:0,0:0:0:0:
121,116,63203,70,0,L|128:201,1,80,8|0,0:0|0:0,0:0:0:0:
135,278,63546,1,8,0:0:0:0:
78,49,63717,2,0,P|113:38|160:49,1,80,0|8,0:0|0:0,0:0:0:0:
289,129,64060,2,0,L|280:227,1,80,0|8,0:0|0:0,0:0:0:0:
272,299,64403,1,0,0:0:0:0:
349,78,64574,6,0,P|330:61|254:61,1,80,8|0,0:0|0:0,0:0:0:0:
209,241,64917,2,0,L|204:146,1,80,8|0,0:0|0:0,0:0:0:0:
195,77,65260,1,8,0:0:0:0:
135,278,65431,2,0,P|159:309|215:323,1,80,2|8,0:0|0:0,0:0:0:0:
281,208,65774,1,2,0:0:0:0:
121,171,65946,69,8,0:0:0:0:
148,10,66117,1,0,0:0:0:0:
194,221,66289,1,8,0:0:0:0:
102,86,66460,1,0,0:0:0:0:
281,208,66631,1,8,0:0:0:0:
121,171,66803,2,0,L|35:183,1,80,0|8,0:0|0:0,0:0:0:0:
144,302,67146,1,0,0:0:0:0:
239,110,67317,5,8,0:0:0:0:
277,322,67489,1,0,0:0:0:0:
334,202,67660,1,8,0:0:0:0:
144,302,67831,1,0,0:0:0:0:
121,171,68003,1,8,0:0:0:0:
284,336,68174,2,0,B|317:340|317:340|372:326,1,80,2|8,0:0|0:0,0:0:0:0:
226,215,68517,1,2,0:0:0:0:
80,208,68689,69,8,0:0:0:0:
339,213,68860,1,0,0:0:0:0:
54,233,69031,5,8,0:0:0:0:
365,188,69203,1,0,0:0:0:0:
29,208,69374,69,8,0:0:0:0:
365,239,69546,1,0,0:0:0:0:
54,182,69717,5,8,0:0:0:0:
390,213,69889,1,0,0:0:0:0:
176,335,70060,69,8,0:0:0:0:
145,285,70146,1,0,3:0:0:0:
165,230,70231,1,0,3:0:0:0:
219,211,70317,1,0,3:0:0:0:
277,173,70403,5,8,0:0:0:0:
223,147,70489,1,8,0:0:0:0:
171,172,70574,1,0,3:0:0:0:
158,230,70660,1,0,3:0:0:0:
204,274,70746,37,4,3:0:0:0:
233,269,70831,1,4,3:0:0:0:
262,266,70917,1,4,3:0:0:0:
291,262,71003,1,4,3:0:0:0:
320,260,71089,38,0,P|347:208|304:255,1,180.000006866455,2|0,0:0|0:0,0:0:0:0:
321,228,71431,6,0,L|311:116,1,95.9999970703126,4|0,3:2|0:0,0:0:0:0:
150,9,71774,2,0,L|159:115,1,95.9999970703126,8|2,0:0|0:0,0:0:0:0:
177,279,72117,1,2,0:0:0:0:
424,169,72289,1,0,3:0:0:0:
159,113,72460,1,8,0:0:0:0:
341,315,72631,1,2,0:0:0:0:
312,45,72803,6,0,B|276:35|276:35|199:41,1,95.9999970703126,0|0,3:0|0:0,0:0:0:0:
55,204,73146,2,0,B|92:212|92:212|161:206,1,95.9999970703126,8|2,0:0|0:0,0:0:0:0:
348,164,73489,1,2,0:0:0:0:
108,98,73660,1,0,3:0:0:0:
195,325,73831,1,8,0:0:0:0:
237,92,74003,70,0,B|229:56|227:19|227:19|223:33|211:48,1,95.9999970703126,2|0,0:0|3:0,0:0:0:0:
55,204,74346,1,0,0:0:0:0:
282,262,74517,2,0,L|401:249,1,95.9999970703126,8|2,0:0|0:0,0:0:0:0:
321,82,74860,1,2,0:0:0:0:
195,325,75031,1,0,3:0:0:0:
103,91,75203,1,8,0:0:0:0:
312,167,75374,6,0,P|314:233|293:267,1,95.9999970703126,2|0,0:0|3:0,0:0:0:0:
93,300,75717,1,0,0:0:0:0:
226,84,75889,2,0,B|256:75|256:75|337:83,1,95.9999970703126,8|2,0:0|0:0,0:0:0:0:
397,304,76231,1,2,0:0:0:0:
157,191,76403,1,0,3:0:0:0:
461,162,76574,2,0,L|486:155,1,23.9999992675781,10|2,0:0|0:0,0:0:0:0:
476,189,76660,2,0,L|505:186,1,23.9999992675781,2|2,0:0|0:0,0:0:0:0:
479,221,76746,2,0,L|510:224,1,23.9999992675781,2|2,0:0|0:0,0:0:0:0:
467,250,76831,2,0,L|495:257,1,23.9999992675781,2|2,0:0|0:0,0:0:0:0:
407,210,76917,70,0,P|372:218|307:202,1,95.9999970703126,6|0,3:1|0:0,0:0:0:0:
94,146,77260,2,0,P|46:141|-9:170,1,95.9999970703126,10|2,0:0|0:0,0:0:0:0:
282,136,77603,1,2,0:0:0:0:
60,231,77774,1,0,3:0:0:0:
181,6,77946,1,8,0:0:0:0:
12,79,78117,1,2,0:0:0:0:
191,272,78289,6,0,B|237:278|237:278|301:266,1,95.9999970703126,0|0,3:0|0:0,0:0:0:0:
181,6,78631,2,0,B|170:40|170:40|178:111,1,95.9999970703126,8|2,0:0|0:0,0:0:0:0:
196,281,78974,1,2,0:0:0:0:
321,67,79146,1,0,3:0:0:0:
30,148,79317,1,8,0:0:0:0:
264,172,79489,70,0,L|383:157,1,95.9999970703126,2|0,0:0|3:0,0:0:0:0:
154,164,79831,1,0,0:0:0:0:
423,102,80003,2,0,P|444:155|431:212,1,95.9999970703126,8|2,0:0|0:0,0:0:0:0:
294,274,80346,1,2,0:0:0:0:
354,54,80517,1,0,3:0:0:0:
145,157,80689,1,8,0:0:0:0:
383,300,80860,6,0,L|377:188,1,95.9999970703126,2|0,0:0|3:0,0:0:0:0:
257,100,81203,1,0,0:0:0:0:
320,357,81374,2,0,P|368:382|422:375,1,95.9999970703126,8|2,0:0|0:0,0:0:0:0:
368,116,81717,1,2,0:0:0:0:
114,268,81889,1,0,3:0:0:0:
388,307,82060,1,8,0:0:0:0:
249,95,82231,1,2,0:0:0:0:
257,289,82403,70,0,L|261:327,7,23.9999992675781,4|0|0|0|0|0|0|0,3:1|0:0|0:0|0:0|0:0|0:0|0:0|0:0,0:0:0:0:
199,220,82746,2,0,L|195:182,6,23.9999992675781,8|0|0|0|2|0|0,0:0|0:0|0:0|0:0|0:0|0:0|0:0,0:0:0:0:
268,169,83089,1,2,0:0:0:0:
44,238,83260,1,0,3:0:0:0:
275,323,83431,1,8,0:0:0:0:
99,96,83603,1,2,0:0:0:0:
352,217,83774,6,0,L|343:92,1,95.9999970703126,0|0,3:0|0:0,0:0:0:0:
140,26,84117,2,0,P|93:15|31:49,1,95.9999970703126,8|2,0:0|0:0,0:0:0:0:
176,251,84460,1,2,0:0:0:0:
354,128,84631,1,0,3:0:0:0:
99,96,84803,1,8,0:0:0:0:
363,133,84974,70,0,L|472:113,1,95.9999970703126,2|0,0:0|3:0,0:0:0:0:
238,55,85317,1,0,0:0:0:0:
296,259,85489,2,0,B|292:296|292:296|296:327|296:327|292:370,1,95.9999970703126,8|2,0:0|0:0,0:0:0:0:
168,161,85831,1,2,0:0:0:0:
388,307,86003,1,0,3:0:0:0:
151,360,86174,1,8,0:0:0:0:
396,315,86346,6,0,B|405:280|405:280|394:200,1,95.9999970703126,2|0,0:0|3:0,0:0:0:0:
368,103,86689,1,0,0:0:0:0:
154,261,86860,2,0,B|115:268|115:268|36:252,1,95.9999970703126,8|2,0:0|0:0,0:0:0:0:
192,83,87203,1,2,0:0:0:0:
296,362,87374,1,0,3:0:0:0:
400,144,87546,54,0,B|387:108|387:67|387:67|382:94|363:107,1,120,8|0,0:0|0:0,0:0:0:0:
350,198,87889,6,0,P|396:218|456:192,1,95.9999970703126,0|0,3:0|0:0,0:0:0:0:
287,73,88231,2,0,L|179:84,1,95.9999970703126,8|2,0:0|0:0,0:0:0:0:
35,102,88574,1,2,0:0:0:0:
242,216,88746,1,0,3:0:0:0:
8,245,88917,1,8,0:0:0:0:
180,84,89089,1,2,0:0:0:0:
136,317,89260,6,0,B|99:329|99:329|26:317,1,95.9999970703126,0|0,3:0|0:0,0:0:0:0:
292,155,89603,2,0,P|317:209|297:268,1,95.9999970703126,8|2,0:0|0:0,0:0:0:0:
123,190,89946,1,2,0:0:0:0:
412,116,90117,1,0,3:0:0:0:
170,45,90289,1,8,0:0:0:0:
313,253,90460,1,2,0:0:0:0:
412,116,90631,69,0,3:0:0:0:
132,201,90803,1,0,0:0:0:0:
421,343,90974,2,0,P|431:287|431:239,1,95.9999970703126,8|0,0:0|0:0,0:0:0:0:
309,34,91317,1,8,0:2:0:0:
194,317,91489,1,0,0:0:0:0:
371,181,91660,2,0,L|478:167,1,95.9999970703126,8|0,0:0|0:0,0:0:0:0:
194,317,92003,5,8,0:0:0:0:
147,323,92088,1,8,0:0:0:0:
109,296,92174,1,0,3:0:0:0:
100,250,92260,1,0,3:0:0:0:
145,205,92346,53,8,0:0:0:0:
154,177,92431,1,8,0:0:0:0:
146,149,92517,1,0,3:0:0:0:
126,129,92603,1,0,3:0:0:0:
90,174,92689,53,8,3:0:0:0:
154,178,92774,1,8,3:0:0:0:
180,120,92860,1,8,3:0:0:0:
135,73,92946,1,8,3:0:0:0:
83,109,93031,53,4,3:0:0:0:
88,156,93117,1,4,3:0:0:0:
94,204,93203,1,4,3:0:0:0:
100,251,93289,1,4,3:0:0:0:
109,296,93374,70,0,B|115:332|115:332|107:406,1,95.9999970703126,4|0,3:1|0:0,0:0:0:0:
219,188,93717,2,0,P|207:138|220:78,1,95.9999970703126,8|2,0:0|0:0,0:0:0:0:
216,88,93974,1,0,0:0:0:0:
219,82,94060,1,2,0:0:0:0:
328,226,94231,1,0,3:0:0:0:
99,163,94403,1,8,0:0:0:0:
364,111,94574,6,0,L|470:129,1,95.9999970703126,2|0,0:0|3:0,0:0:0:0:
296,347,94917,1,2,0:0:0:0:
100,173,95089,2,0,B|134:163|134:163|201:174,1,95.9999970703126,8|2,0:0|0:0,0:0:0:0:
232,182,95346,1,0,0:0:0:0:
270,190,95431,1,2,0:0:0:0:
45,284,95603,1,0,3:0:0:0:
151,69,95774,1,8,0:0:0:0:
309,263,95946,70,0,P|260:271|199:233,1,95.9999970703126,2|0,0:0|3:0,0:0:0:0:
154,75,96289,1,0,0:0:0:0:
54,290,96460,2,0,B|95:299|95:299|170:277,1,95.9999970703126,8|2,0:0|0:0,0:0:0:0:
218,253,96717,1,0,0:0:0:0:
218,253,96803,1,2,0:0:0:0:
61,157,96974,1,0,3:0:0:0:
206,353,97146,1,8,0:0:0:0:
229,156,97317,6,0,L|238:56,1,95.9999970703126,2|0,0:0|3:0,0:0:0:0:
52,160,97660,1,2,0:0:0:0:
227,261,97831,2,0,L|335:250,1,95.9999970703126,8|2,0:0|0:0,0:0:0:0:
401,245,98089,1,0,0:0:0:0:
401,245,98174,1,2,0:0:0:0:
196,356,98346,1,0,3:0:0:0:
276,134,98517,2,0,L|283:99,1,23.9999992675781,10|2,0:0|0:0,0:0:0:0:
256,106,98603,2,0,L|224:88,1,23.9999992675781,2|2,0:0|0:0,0:0:0:0:
224,116,98689,2,0,L|197:140,1,23.9999992675781,2|2,0:0|0:0,0:0:0:0:
223,150,98774,2,0,L|237:182,1,23.9999992675781,2|2,0:0|0:0,0:0:0:0:
254,161,98860,70,0,L|354:151,1,95.9999970703126,6|0,3:1|0:0,0:0:0:0:
196,356,99203,2,0,L|96:366,1,95.9999970703126,10|2,0:0|0:0,0:0:0:0:
17,375,99460,1,0,0:0:0:0:
17,375,99546,1,2,0:0:0:0:
162,149,99717,1,0,3:0:0:0:
196,356,99889,1,8,0:0:0:0:
56,195,100060,6,0,L|68:91,1,95.9999970703126,2|0,0:0|3:0,0:0:0:0:
177,252,100403,1,2,0:0:0:0:
141,38,100574,2,0,B|176:30|176:30|255:37,1,95.9999970703126,8|2,0:0|0:0,0:0:0:0:
313,49,100831,1,0,0:0:0:0:
313,49,100917,1,2,0:0:0:0:
67,99,101089,1,0,3:0:0:0:
390,22,101260,1,8,0:0:0:0:
146,132,101431,70,0,B|135:98|135:98|141:33,1,95.9999970703126,2|0,0:0|3:0,0:0:0:0:
378,100,101774,1,0,0:0:0:0:
192,199,101946,2,0,P|131:210|89:191,1,95.9999970703126,8|2,0:0|0:0,0:0:0:0:
84,183,102203,1,0,0:0:0:0:
70,165,102289,1,2,0:0:0:0:
317,229,102460,1,0,3:0:0:0:
160,52,102631,1,8,0:0:0:0:
192,294,102803,6,0,B|231:308|231:308|309:299,1,95.9999970703126,2|0,0:0|3:0,0:0:0:0:
458,283,103146,1,2,0:0:0:0:
319,67,103317,2,0,P|315:114|315:174,1,95.9999970703126,8|2,0:0|0:0,0:0:0:0:
316,196,103574,1,0,3:0:0:0:
317,229,103660,2,0,L|315:288,1,47.9999985351563,2|0,0:0|0:0,0:0:0:0:
243,61,103831,2,0,P|257:21|284:-2,1,47.9999985351563,0|0,3:0|0:0,0:0:0:0:
226,274,104003,2,0,P|182:290|114:265,1,95.9999970703126,8|2,0:0|0:0,0:0:0:0:
166,130,104346,38,0,L|176:238,1,80,4|0,3:2|0:0,0:0:0:0:
183,289,104689,1,8,0:0:0:0:
122,65,104860,1,2,0:0:0:0:
158,50,104946,1,0,0:0:0:0:
198,54,105031,1,2,0:0:0:0:
70,188,105203,1,8,0:0:0:0:
183,289,105374,1,2,0:0:0:0:
178,249,105460,1,0,0:0:0:0:
174,209,105546,1,2,0:0:0:0:
170,169,105631,1,0,0:0:0:0:
166,129,105717,6,0,L|157:34,1,80,0|0,3:0|0:0,0:0:0:0:
70,188,106060,1,8,0:0:0:0:
278,231,106231,1,2,0:0:0:0:
316,221,106317,1,0,0:0:0:0:
351,211,106403,1,2,0:0:0:0:
174,209,106574,1,8,0:0:0:0:
374,287,106746,1,2,0:0:0:0:
357,251,106831,1,0,0:0:0:0:
351,211,106917,1,2,0:0:0:0:
355,172,107003,1,0,0:0:0:0:
369,134,107089,70,0,P|380:95|368:45,1,80,0|0,3:0|0:0,0:0:0:0:
476,206,107431,1,8,0:0:0:0:
277,90,107603,1,2,0:0:0:0:
237,95,107689,1,0,0:0:0:0:
197,100,107774,1,2,0:0:0:0:
373,56,107946,1,8,0:0:0:0:
197,100,108117,1,2,0:0:0:0:
173,131,108203,1,0,0:0:0:0:
165,170,108289,1,2,0:0:0:0:
174,209,108374,1,0,0:0:0:0:
198,241,108460,6,0,L|281:261,1,80,0|0,3:0|0:0,0:0:0:0:
445,302,108803,1,8,0:0:0:0:
253,353,108974,1,2,0:0:0:0:
214,343,109060,1,0,0:0:0:0:
175,334,109146,1,2,0:0:0:0:
350,354,109317,1,8,0:0:0:0:
436,153,109489,1,2,0:0:0:0:
439,202,109574,1,0,0:0:0:0:
442,252,109660,1,2,0:0:0:0:
445,302,109746,1,0,0:0:0:0:
448,352,109831,69,4,3:2:0:0:
257,276,110003,1,0,0:0:0:0:
436,153,110174,2,0,P|443:105|430:56,1,80,8|2,0:0|0:0,0:0:0:0:
420,38,110431,1,0,0:0:0:0:
390,10,110517,1,2,0:0:0:0:
172,154,110689,2,0,B|203:167|203:167|272:162,1,80,8|2,0:0|0:0,0:0:0:0:
293,161,110946,1,0,0:0:0:0:
340,158,111031,1,2,0:0:0:0:
388,155,111117,1,0,0:0:0:0:
436,153,111203,5,0,3:0:0:0:
215,87,111374,1,0,0:0:0:0:
344,241,111546,2,0,L|435:235,1,80,8|2,0:0|0:0,0:0:0:0:
463,233,111803,1,0,0:0:0:0:
503,231,111889,1,2,0:0:0:0:
285,300,112060,2,0,P|264:258|270:215,1,80,8|2,0:0|0:0,0:0:0:0:
286,182,112317,1,0,0:0:0:0:
315,143,112403,1,2,0:0:0:0:
327,96,112489,1,0,0:0:0:0:
318,49,112574,69,8,0:0:0:0:
344,241,112746,1,0,3:0:0:0:
346,41,112917,5,8,0:0:0:0:
317,252,113089,1,0,3:0:0:0:
315,21,113260,69,8,0:0:0:0:
347,269,113431,1,0,3:0:0:0:
349,11,113603,5,8,0:0:0:0:
314,282,113774,1,0,3:0:0:0:
176,68,113946,37,8,0:0:0:0:
219,49,114031,1,0,3:0:0:0:
263,66,114117,1,0,3:0:0:0:
285,109,114203,1,0,3:0:0:0:
337,123,114289,5,8,0:0:0:0:
332,83,114375,1,8,0:0:0:0:
304,56,114461,1,0,3:0:0:0:
265,54,114546,1,0,3:0:0:0:
225,109,114631,5,8,3:0:0:0:
229,162,114717,1,8,3:0:0:0:
233,215,114803,1,8,3:0:0:0:
238,268,114889,1,8,3:0:0:0:
242,320,114974,38,4,L|245:372,1,40,4|4,3:0|3:0,3:0:0:0:
129,216,115146,2,4,L|146:173,1,40,4|4,3:0|3:0,3:0:0:0:
309,166,115317,70,0,B|327:204|327:204|320:282,1,95.9999970703126,4|0,3:2|0:0,0:0:0:0:
177,46,115660,2,0,P|235:31|275:46,1,95.9999970703126,8|2,0:0|0:0,0:0:0:0:
268,41,115917,1,0,0:0:0:0:
268,41,116003,1,2,0:0:0:0:
107,114,116174,1,0,3:0:0:0:
373,91,116346,1,8,0:0:0:0:
322,257,116517,1,2,0:0:0:0:
314,279,116603,1,0,0:0:0:0:
307,302,116689,6,0,B|273:311|273:311|203:298,1,95.9999970703126,0|2,3:0|0:0,0:0:0:0:
373,91,117031,2,0,P|389:148|377:196,1,95.9999970703126,8|2,0:0|0:0,0:0:0:0:
380,191,117289,1,0,0:0:0:0:
377,200,117374,2,0,P|362:228|342:243,1,47.9999985351563,2|0,0:0|0:0,0:0:0:0:
356,23,117546,2,0,P|379:21|402:27,1,47.9999985351563,0|0,3:0|0:0,0:0:0:0:
213,129,117717,1,8,0:0:0:0:
444,137,117889,70,0,B|450:179|450:179|436:250,1,95.9999970703126,2|0,0:0|3:0,0:0:0:0:
403,349,118231,1,0,0:0:0:0:
366,147,118403,2,0,P|367:121|379:91,1,47.9999985351563,8|0,0:0|0:0,0:0:0:0:
503,275,118574,2,0,P|487:293|458:306,1,47.9999985351563,2|0,0:0|0:0,0:0:0:0:
248,273,118746,2,0,P|246:250|261:209,1,47.9999985351563,2|0,0:0|0:0,0:0:0:0:
461,218,118917,2,0,P|491:205|525:208,1,47.9999985351563,0|0,3:0|0:0,0:0:0:0:
276,339,119089,2,0,P|250:346|219:337,1,47.9999985351563,8|0,0:0|0:0,0:0:0:0:
302,117,119260,2,0,P|301:89|313:57,1,47.9999985351563,2|0,0:0|0:0,0:0:0:0:
385,363,119431,5,0,3:0:0:0:
367,139,119603,1,2,0:0:0:0:
276,339,119774,1,8,0:0:0:0:
335,129,119946,1,2,0:0:0:0:
487,343,120117,1,2,0:0:0:0:
302,117,120289,1,0,3:0:0:0:
170,337,120460,2,0,L|168:366,1,23.9999992675781,8|2,0:0|0:0,0:0:0:0:
139,353,120546,2,0,L|110:360,1,23.9999992675781,2|2,0:0|0:0,0:0:0:0:
110,334,120631,2,0,L|94:309,1,23.9999992675781,2|2,0:0|0:0,0:0:0:0:
113,300,120717,2,0,L|131:277,1,23.9999992675781,2|2,0:0|0:0,0:0:0:0:
145,286,120803,70,0,L|255:293,1,95.9999970703126,6|0,3:2|0:0,0:0:0:0:
466,240,121146,2,0,L|356:233,1,95.9999970703126,10|2,0:0|0:0,0:0:0:0:
101,209,121489,1,2,0:0:0:0:
354,152,121660,1,0,3:0:0:0:
136,135,121831,1,8,0:0:0:0:
370,233,122003,1,2,0:0:0:0:
110,289,122174,5,0,3:0:0:0:
363,193,122346,1,2,0:0:0:0:
68,201,122517,1,8,0:0:0:0:
370,155,122689,1,2,0:0:0:0:
97,115,122860,1,2,0:0:0:0:
206,318,123031,1,0,3:0:0:0:
272,52,123203,2,0,B|238:40|238:40|165:50,1,95.9999970703126,8|2,0:0|0:0,0:0:0:0:
49,191,123546,70,0,P|99:202|148:190,1,95.9999970703126,0|0,3:0|0:0,0:0:0:0:
332,0,123889,2,0,P|352:54|327:113,1,95.9999970703126,8|2,0:0|0:0,0:0:0:0:
326,107,124146,1,0,0:0:0:0:
305,118,124231,2,0,L|243:128,1,47.9999985351563,2|0,0:0|0:0,0:0:0:0:
443,34,124403,2,0,L|454:93,1,47.9999985351563,0|0,3:0|0:0,0:0:0:0:
407,261,124574,1,8,0:0:0:0:
279,53,124746,1,2,0:0:0:0:
322,287,124917,5,0,3:0:0:0:
267,58,125089,1,2,0:0:0:0:
236,293,125260,1,8,0:0:0:0:
256,64,125431,1,2,0:0:0:0:
41,195,125603,1,2,0:0:0:0:
326,297,125774,1,0,3:0:0:0:
162,165,125946,2,0,B|151:131|151:131|154:50,1,95.9999970703126,8|2,0:0|0:0,0:0:0:0:
331,305,126289,70,0,L|325:339,7,23.9999992675781,4|0|0|0|0|0|0|0,3:2|0:0|0:0|0:0|0:0|0:0|0:0|0:0,0:0:0:0:
388,228,126631,2,0,L|394:194,6,23.9999992675781,8|0|0|0|2|0|0,0:0|0:0|0:0|0:0|0:0|0:0|0:0,0:0:0:0:
328,140,126974,1,2,0:0:0:0:
431,317,127146,1,0,3:0:0:0:
213,278,127317,1,8,0:0:0:0:
485,204,127489,1,2,0:0:0:0:
477,181,127574,1,0,0:0:0:0:
468,158,127660,6,0,L|480:88,1,47.9999985351563,0|0,3:0|0:0,0:0:0:0:
359,287,127831,2,0,P|352:325|362:359,1,47.9999985351563,2|0,0:0|0:0,0:0:0:0:
255,153,128003,2,0,P|255:121|265:97,1,47.9999985351563,8|0,0:0|0:0,0:0:0:0:
238,347,128174,2,0,P|208:351|176:343,1,47.9999985351563,2|0,0:0|0:0,0:0:0:0:
370,153,128346,1,2,0:0:0:0:
139,158,128517,1,0,3:0:0:0:
249,353,128689,1,8,0:0:0:0:
264,229,128860,1,2,0:0:0:0:
130,306,129031,70,0,P|78:314|28:290,1,95.9999970703126,0|0,3:0|0:0,0:0:0:0:
267,88,129374,2,0,B|275:128|275:128|268:196,1,95.9999970703126,8|2,0:0|0:0,0:0:0:0:
267,206,129631,1,0,0:0:0:0:
264,229,129717,2,0,L|217:261,1,47.9999985351563,2|0,0:0|0:0,0:0:0:0:
87,170,129889,2,0,L|82:113,1,47.9999985351563,0|0,3:0|0:0,0:0:0:0:
226,46,130060,1,8,0:0:0:0:
155,216,130231,1,2,0:0:0:0:
145,238,130317,1,0,0:0:0:0:
134,259,130403,6,0,P|130:282|136:313,1,47.9999985351563,0|0,3:0|0:0,0:0:0:0:
337,181,130574,2,0,P|326:160|298:141,1,47.9999985351563,2|0,0:0|0:0,0:0:0:0:
155,68,130746,2,0,P|152:46|157:21,1,47.9999985351563,8|0,0:0|0:0,0:0:0:0:
203,284,130917,2,0,P|226:286|255:277,1,47.9999985351563,2|0,0:0|0:0,0:0:0:0:
308,64,131089,1,2,0:0:0:0:
363,293,131260,1,0,3:0:0:0:
206,149,131431,2,0,P|153:136|104:150,1,95.9999970703126,8|2,0:0|0:0,0:0:0:0:
238,374,131774,70,0,L|251:266,1,95.9999970703126,4|0,3:2|0:0,0:0:0:0:
273,82,132117,2,0,L|278:48,4,23.9999992675781,8|0|0|0|2,0:0|0:0|0:0|0:0|0:0,0:0:0:0:
268,105,132374,1,0,0:0:0:0:
264,128,132460,1,2,0:0:0:0:
233,279,132631,1,0,3:0:0:0:
372,135,132803,1,8,0:0:0:0:
124,254,132974,1,2,0:0:0:0:
336,304,133146,5,0,3:0:0:0:
264,128,133317,1,2,0:0:0:0:
207,358,133489,2,0,B|249:377|249:377|322:371,1,95.9999970703126,8|2,0:0|0:0,0:0:0:0:
354,220,133831,1,2,0:0:0:0:
114,262,134003,1,0,3:0:0:0:
175,31,134174,1,8,0:0:0:0:
63,133,134346,1,2,0:0:0:0:
258,229,134517,70,0,L|364:218,1,95.9999970703126,0|0,3:0|0:0,0:0:0:0:
157,182,134860,2,0,P|146:232|170:295,1,95.9999970703126,8|2,0:0|0:0,0:0:0:0:
173,291,135117,1,0,0:0:0:0:
195,300,135203,2,0,L|268:309,1,47.9999985351563,2|0,0:0|0:0,0:0:0:0:
59,251,135374,2,0,L|70:190,1,47.9999985351563,0|0,3:0|0:0,0:0:0:0:
272,115,135546,1,8,0:0:0:0:
97,68,135717,1,2,0:0:0:0:
230,203,135889,69,2,0:0:0:0:
310,34,136060,1,0,0:0:0:0:
352,284,136231,1,8,0:2:0:0:
272,115,136403,1,0,0:0:0:0:
146,379,136574,1,0,3:0:0:0:
314,203,136746,1,0,3:0:0:0:
96,270,136917,2,0,L|-11:278,1,95.9999970703126,8|0,0:0|0:0,0:0:0:0:
272,115,137260,6,0,L|304:120,7,23.9999992675781,4|0|0|0|0|0|0|0,3:2|0:0|0:0|0:0|0:0|0:0|0:0|0:0,0:0:0:0:
230,203,137603,2,0,L|206:206,6,23.9999992675781,8|0|0|0|2|0|0,0:0|0:0|0:0|0:0|0:0|0:0|0:0,0:0:0:0:
331,235,137946,1,2,0:0:0:0:
165,104,138117,1,0,3:0:0:0:
119,322,138289,1,8,0:0:0:0:
339,238,138460,1,2,0:0:0:0:
143,91,138631,6,0,B|133:131|133:131|140:196,1,95.9999970703126,0|2,3:0|0:0,0:0:0:0:
306,304,138974,2,0,P|328:313|366:304,1,47.9999985351563,8|0,0:0|0:0,0:0:0:0:
143,233,139146,2,0,L|137:170,1,47.9999985351563,2|0,0:0|0:0,0:0:0:0:
345,143,139317,2,0,B|349:182|349:182|336:251,1,95.9999970703126,2|0,0:0|3:0,0:0:0:0:
15,280,139660,1,8,0:0:0:0:
263,188,139831,1,2,0:0:0:0:
119,38,140003,69,0,3:0:0:0:
143,233,140174,1,0,0:0:0:0:
153,254,140260,1,0,0:0:0:0:
162,276,140346,2,0,L|209:286,1,47.9999985351563,8|0,0:0|0:0,0:0:0:0:
117,131,140517,2,0,B|108:99|108:99|119:35,1,95.9999970703126,2|2,0:0|0:0,0:0:0:0:
20,176,140860,1,0,3:0:0:0:
197,89,141031,2,0,L|329:104,1,95.9999970703126,8|2,0:0|0:0,0:0:0:0:
357,284,141374,5,0,3:0:0:0:
119,325,141546,1,2,0:0:0:0:
202,99,141717,1,8,0:0:0:0:
250,373,141889,1,2,0:0:0:0:
95,188,142060,1,2,0:0:0:0:
332,146,142231,1,0,3:0:0:0:
127,332,142403,2,0,L|94:328,1,23.9999992675781,8|2,0:0|0:0,0:0:0:0:
100,309,142489,2,0,L|75:286,1,23.9999992675781,2|2,0:0|0:0,0:0:0:0:
98,274,142574,2,0,L|91:241,1,23.9999992675781,2|2,0:0|0:0,0:0:0:0:
122,248,142660,2,0,L|136:217,1,23.9999992675781,2|2,0:0|0:0,0:0:0:0:
157,248,142746,70,0,B|190:257|190:257|273:251,1,95.9999970703126,6|0,3:2|0:0,0:0:0:0:
427,231,143089,1,8,0:0:0:0:
242,88,143260,1,2,0:0:0:0:
221,75,143346,1,0,0:0:0:0:
201,62,143431,2,0,L|143:69,1,47.9999985351563,2|0,0:0|0:0,0:0:0:0:
0,199,143603,2,0,L|63:213,1,47.9999985351563,0|0,3:0|0:0,0:0:0:0:
251,252,143774,1,8,0:0:0:0:
88,33,143946,6,0,B|81:68|81:68|86:136,1,95.9999970703126,2|0,0:0|3:0,0:0:0:0:
198,324,144289,2,0,P|243:343|299:324,1,95.9999970703126,2|8,0:0|0:0,0:0:0:0:
417,169,144631,1,2,0:0:0:0:
412,145,144717,1,0,0:0:0:0:
406,121,144803,2,0,L|410:72,1,47.9999985351563,2|0,0:0|0:0,0:0:0:0:
458,273,144974,1,0,3:0:0:0:
254,156,145146,2,0,B|247:190|247:190|251:259,1,95.9999970703126,8|2,0:0|0:0,0:0:0:0:
408,370,145489,69,0,3:0:0:0:
417,169,145660,1,0,0:0:0:0:
173,283,145831,2,0,L|90:269,2,63.9999980468751,8|0|0,0:0|0:0|0:0,0:0:0:0:
260,298,146174,1,2,0:0:0:0:
30,257,146346,1,0,3:0:0:0:
227,220,146517,1,8,0:0:0:0:
60,336,146689,1,2,0:0:0:0:
296,375,146860,5,0,3:0:0:0:
191,144,147031,1,2,0:0:0:0:
354,244,147203,2,0,P|397:255|467:231,1,95.9999970703126,8|2,0:0|0:0,0:0:0:0:
462,235,147460,1,0,0:0:0:0:
474,223,147546,1,2,0:0:0:0:
292,383,147717,1,0,3:0:0:0:
402,174,147889,2,0,L|392:59,1,95.9999970703126,8|2,0:0|0:0,0:0:0:0:
264,230,148231,38,0,P|318:251|366:236,1,95.9999970703126,4|0,3:2|0:0,0:0:0:0:
393,78,148574,1,8,0:0:0:0:
187,213,148746,1,2,0:0:0:0:
190,260,148831,1,0,0:0:0:0:
220,296,148917,1,2,0:0:0:0:
318,171,149089,1,8,0:0:0:0:
151,341,149260,1,2,0:0:0:0:
186,372,149346,1,0,0:0:0:0:
232,379,149431,1,2,0:0:0:0:
275,359,149517,1,0,0:0:0:0:
299,318,149603,6,0,P|299:264|267:226,1,95.9999970703126,0|0,3:0|0:0,0:0:0:0:
151,341,149946,1,8,0:0:0:0:
365,364,150117,1,2,0:0:0:0:
379,318,150203,1,0,0:0:0:0:
364,273,150289,1,2,0:0:0:0:
220,296,150460,1,8,0:0:0:0:
440,260,150631,1,2,0:0:0:0:
417,218,150717,1,0,0:0:0:0:
374,198,150803,1,2,0:0:0:0:
327,206,150889,1,0,0:0:0:0:
294,239,150974,70,0,B|257:243|257:243|189:224,1,95.9999970703126,0|0,3:0|0:0,0:0:0:0:
78,193,151317,1,8,0:0:0:0:
285,315,151489,1,2,0:0:0:0:
331,307,151574,1,0,0:0:0:0:
363,272,151660,1,2,0:0:0:0:
200,227,151831,1,8,0:0:0:0:
421,321,152003,1,2,0:0:0:0:
437,277,152089,1,0,0:0:0:0:
424,231,152174,1,2,0:0:0:0:
390,197,152260,1,0,0:0:0:0:
366,155,152346,6,0,B|361:125|361:125|375:42,1,95.9999970703126,0|0,3:0|0:0,0:0:0:0:
502,171,152689,1,8,0:0:0:0:
294,199,152860,1,2,0:0:0:0:
282,152,152946,1,0,0:0:0:0:
294,106,153031,1,2,0:0:0:0:
424,231,153203,1,8,0:0:0:0:
217,294,153374,1,2,0:0:0:0:
165,287,153460,1,0,0:0:0:0:
114,281,153546,1,2,0:0:0:0:
63,275,153631,1,0,0:0:0:0:
12,269,153717,69,4,3:2:0:0:
215,197,153889,1,0,0:0:0:0:
58,86,154060,2,0,B|46:136|46:136|51:192,1,95.9999970703126,8|2,0:0|0:0,0:0:0:0:
56,228,154317,1,0,0:0:0:0:
63,275,154403,1,2,0:0:0:0:
166,134,154574,2,0,P|224:118|272:142,1,95.9999970703126,8|2,0:0|0:0,0:0:0:0:
284,168,154831,1,0,0:0:0:0:
289,216,154917,1,2,0:0:0:0:
294,264,155003,1,0,0:0:0:0:
299,311,155089,5,0,3:0:0:0:
166,134,155260,1,0,0:0:0:0:
112,325,155431,2,0,B|158:338|158:338|211:328,1,95.9999970703126,8|2,0:0|0:0,0:0:0:0:
253,320,155689,1,0,0:0:0:0:
299,311,155774,1,2,0:0:0:0:
117,193,155946,2,0,P|89:133|106:88,1,95.9999970703126,8|2,0:0|0:0,0:0:0:0:
123,67,156203,1,0,0:0:0:0:
171,59,156289,1,2,0:0:0:0:
218,52,156374,1,0,0:0:0:0:
266,45,156460,38,0,B|270:72|277:99|277:99|263:131|258:160|258:160|268:193|275:246,1,180.000006866455,6|0,0:0|0:0,0:0:0:0:
292,298,157146,6,0,P|270:343|225:266,1,180.000006866455,2|0,0:0|0:0,0:0:0:0:
121,270,157831,69,8,0:0:0:0:
135,245,157917,1,0,3:0:0:0:
138,217,158003,1,0,3:0:0:0:
129,190,158089,1,0,3:0:0:0:
70,225,158174,5,8,0:0:0:0:
60,198,158260,1,8,0:0:0:0:
62,170,158346,1,0,3:0:0:0:
77,146,158431,1,0,3:0:0:0:
10,132,158517,5,8,3:0:0:0:
39,83,158603,1,8,3:0:0:0:
95,75,158689,1,8,3:0:0:0:
136,113,158774,1,8,3:0:0:0:
145,166,158860,5,4,3:0:0:0:
185,215,158946,1,4,3:0:0:0:
244,191,159031,1,4,3:0:0:0:
240,128,159117,1,4,3:0:0:0:
178,111,159203,1,4,3:2:0:0:
190,101,160060,6,0,L|150:106,1,23.9999992675781,2|0,0:0|0:0,0:0:0:0:
424,23,160403,6,0,L|385:17,1,23.9999992675781,2|0,0:0|0:0,0:0:0:0:
424,23,160917,2,0,L|385:17,1,23.9999992675781,2|0,0:0|0:0,0:0:0:0:
187,190,161431,70,0,L|147:195,1,23.9999992675781,2|0,0:0|0:0,0:0:0:0:
421,112,161774,6,0,L|381:117,1,23.9999992675781,2|0,0:0|0:0,0:0:0:0:
421,112,162289,2,0,L|381:117,1,23.9999992675781,2|0,0:0|0:0,0:0:0:0:
184,279,162803,70,0,L|144:284,1,23.9999992675781,2|0,0:0|0:0,0:0:0:0:
418,201,163146,70,0,L|395:230,1,23.9999992675781,2|0,0:0|0:0,0:0:0:0:
418,201,163660,2,0,L|395:230,1,23.9999992675781,2|0,0:0|0:0,0:0:0:0:
418,201,164174,2,0,L|395:230,1,23.9999992675781,2|0,0:0|0:0,0:0:0:0:
334,314,164346,22,0,L|302:308,7,23.9999992675781,2|2|2|2|2|2|2|2,0:0|0:0|0:0|0:0|0:0|0:0|0:0|0:0,0:0:0:0:
290,303,164689,70,0,B|252:296|252:296|181:306,1,95.9999970703126,6|0,3:2|0:0,0:0:0:0:
222,81,165031,2,0,B|260:88|260:88|331:78,1,95.9999970703126,8|2,0:0|0:0,0:0:0:0:
123,183,165374,1,2,0:0:0:0:
455,267,165546,1,0,3:0:0:0:
195,304,165717,1,8,0:0:0:0:
380,125,165889,6,0,P|394:84|371:26,1,95.9999970703126,2|0,0:0|3:0,0:0:0:0:
123,183,166231,1,2,0:0:0:0:
360,279,166403,2,0,L|467:266,1,95.9999970703126,8|2,0:0|0:0,0:0:0:0:
316,80,166746,1,2,0:0:0:0:
186,307,166917,1,0,3:0:0:0:
455,267,167089,1,8,0:0:0:0:
251,202,167260,70,0,B|241:168|241:168|249:101,1,95.9999970703126,2|0,0:0|3:0,0:0:0:0:
486,156,167603,1,0,0:0:0:0:
281,317,167774,2,0,L|176:306,1,95.9999970703126,8|2,0:0|0:0,0:0:0:0:
0,271,168117,1,2,0:0:0:0:
248,107,168289,1,0,3:0:0:0:
149,380,168460,1,8,0:0:0:0:
65,131,168631,6,0,L|83:26,1,95.9999970703126,2|0,0:0|3:0,0:0:0:0:
236,123,168974,1,2,0:0:0:0:
95,279,169146,2,0,L|-7:270,1,95.9999970703126,8|2,0:0|0:0,0:0:0:0:
228,138,169489,1,2,0:0:0:0:
26,202,169660,1,0,3:0:0:0:
286,281,169831,2,0,B|300:253|300:253|298:222|305:177|305:177|300:206|248:228,1,143.999995605469,8|0,0:0|0:0,0:0:0:0:
357,131,170174,70,0,L|350:92,7,23.9999992675781,4|0|0|0|0|0|0|0,3:2|0:0|0:0|0:0|0:0|0:0|0:0|0:0,0:0:0:0:
285,206,170517,2,0,L|278:245,6,23.9999992675781,8|0|0|0|2|0|0,0:0|0:0|0:0|0:0|0:0|0:0|0:0,0:0:0:0:
245,115,170860,1,2,0:0:0:0:
425,277,171031,1,0,3:0:0:0:
124,175,171203,1,8,0:0:0:0:
352,13,171374,6,0,B|361:48|361:48|351:116,1,95.9999970703126,2|0,0:0|3:0,0:0:0:0:
114,171,171717,1,2,0:0:0:0:
330,291,171889,2,0,L|451:272,1,95.9999970703126,8|2,0:0|0:0,0:0:0:0:
104,167,172231,1,2,0:0:0:0:
424,276,172403,1,0,3:0:0:0:
151,339,172574,1,8,0:0:0:0:
281,166,172746,70,0,L|267:62,1,95.9999970703126,2|0,0:0|3:0,0:0:0:0:
225,264,173089,1,0,0:0:0:0:
347,74,173260,2,0,P|332:21|291:-3,1,95.9999970703126,8|2,0:0|0:0,0:0:0:0:
137,107,173603,1,2,0:0:0:0:
401,185,173774,1,0,3:0:0:0:
145,330,173946,1,8,0:0:0:0:
364,114,174117,6,0,P|405:105|459:128,1,95.9999970703126,2|0,0:0|3:0,0:0:0:0:
346,289,174460,1,2,0:0:0:0:
261,87,174631,2,0,P|263:32|274:-22,1,95.9999970703126,8|2,0:0|0:0,0:0:0:0:
405,192,174974,1,2,0:0:0:0:
123,149,175146,1,0,3:0:0:0:
353,292,175317,2,0,B|336:193|336:193|328:229|311:237,1,143.999995605469,8|0,0:0|0:0,0:0:0:0:
238,217,175660,69,4,3:2:0:0:
300,361,175831,1,0,0:0:0:0:
105,243,176003,2,0,L|123:145,1,95.9999970703126,8|2,0:0|0:0,0:0:0:0:
171,367,176346,1,2,0:0:0:0:
353,292,176517,1,0,3:0:0:0:
122,148,176689,1,8,0:0:0:0:
361,296,176860,6,0,L|460:276,1,95.9999970703126,2|0,0:0|3:0,0:0:0:0:
335,127,177203,1,2,0:0:0:0:
322,366,177374,2,0,P|380:375|422:350,1,95.9999970703126,8|2,0:0|0:0,0:0:0:0:
431,177,177717,1,2,0:0:0:0:
182,118,177889,1,0,3:0:0:0:
361,296,178060,1,8,0:0:0:0:
187,130,178231,1,2,0:0:0:0:
430,82,178403,69,0,3:0:0:0:
361,296,178574,1,0,0:0:0:0:
96,151,178746,2,0,B|55:145|55:145|-7:157,1,95.9999970703126,8|0,0:0|0:0,0:0:0:0:
304,42,179089,1,8,0:2:0:0:
361,296,179260,1,0,3:0:0:0:
192,142,179431,2,0,L|81:153,1,95.9999970703126,8|0,0:0|0:0,0:0:0:0:
293,258,179774,5,8,0:0:0:0:
327,225,179860,1,8,0:0:0:0:
374,219,179946,1,0,3:0:0:0:
415,242,180031,1,0,3:0:0:0:
390,206,180117,53,8,0:0:0:0:
383,175,180203,1,8,0:0:0:0:
396,146,180289,1,0,3:0:0:0:
423,129,180374,1,0,3:0:0:0:
364,105,180460,53,8,3:0:0:0:
409,63,180546,1,8,3:0:0:0:
467,80,180631,1,8,3:0:0:0:
488,137,180717,1,8,3:0:0:0:
454,185,180803,53,4,3:0:0:0:
442,219,180889,1,4,3:0:0:0:
442,254,180974,1,4,3:0:0:0:
452,289,181060,1,4,3:0:0:0:
478,320,181146,70,0,L|376:313,1,95.9999970703126,4|0,3:2|0:0,0:0:0:0:
50,286,181489,2,0,L|145:292,1,95.9999970703126,8|2,0:0|0:0,0:0:0:0:
164,293,181746,1,2,0:0:0:0:
183,295,181831,1,0,0:0:0:0:
206,160,182003,1,0,3:0:0:0:
263,371,182174,1,8,0:0:0:0:
15,187,182346,6,0,L|28:88,1,95.9999970703126,2|0,0:0|3:0,0:0:0:0:
34,296,182689,1,2,0:0:0:0:
206,160,182860,2,0,L|310:168,1,95.9999970703126,8|2,0:0|0:0,0:0:0:0:
320,168,183117,1,0,0:0:0:0:
339,169,183203,1,2,0:0:0:0:
176,257,183374,1,0,3:0:0:0:
231,68,183546,1,8,0:0:0:0:
359,257,183717,70,0,L|339:365,1,95.9999970703126,2|0,0:0|3:0,0:0:0:0:
176,257,184060,1,0,0:0:0:0:
433,205,184231,2,0,P|449:259|425:319,1,95.9999970703126,8|2,0:0|0:0,0:0:0:0:
429,332,184489,1,0,0:0:0:0:
413,365,184574,1,2,0:0:0:0:
266,206,184746,1,0,3:0:0:0:
508,252,184917,1,8,0:0:0:0:
341,351,185089,6,0,L|241:332,1,95.9999970703126,2|0,0:0|3:0,0:0:0:0:
433,205,185431,1,2,0:0:0:0:
182,259,185603,2,0,P|169:209|182:160,1,95.9999970703126,8|2,0:0|0:0,0:0:0:0:
198,134,185860,1,0,0:0:0:0:
225,107,185946,1,2,0:0:0:0:
36,192,186117,1,0,3:0:0:0:
287,235,186289,2,0,L|320:230,1,23.9999992675781,8|2,0:0|0:0,0:0:0:0:
311,212,186374,2,0,L|316:179,1,23.9999992675781,2|2,0:0|0:0,0:0:0:0:
296,183,186460,2,0,L|266:167,1,23.9999992675781,2|2,0:0|0:0,0:0:0:0:
264,191,186546,2,0,L|240:214,1,23.9999992675781,2|2,0:0|0:0,0:0:0:0:
264,225,186631,70,0,L|277:330,1,95.9999970703126,2|0,3:2|0:0,0:0:0:0:
207,135,186974,2,0,P|255:96|297:99,1,95.9999970703126,8|2,0:0|0:0,0:0:0:0:
355,132,187231,1,0,0:0:0:0:
355,132,187317,1,2,0:0:0:0:
170,207,187489,1,0,3:0:0:0:
422,170,187660,1,8,0:0:0:0:
216,53,187831,6,0,L|112:64,1,95.9999970703126,2|0,0:0|3:0,0:0:0:0:
355,132,188174,1,2,0:0:0:0:
110,157,188346,2,0,P|92:204|111:261,1,95.9999970703126,8|2,0:0|0:0,0:0:0:0:
164,288,188603,1,0,0:0:0:0:
164,288,188689,1,2,0:0:0:0:
213,66,188860,1,0,3:0:0:0:
17,211,189031,1,8,0:0:0:0:
176,295,189203,70,0,L|272:285,1,95.9999970703126,2|0,0:0|3:0,0:0:0:0:
199,90,189546,1,0,0:0:0:0:
105,270,189717,2,0,P|108:328|135:361,1,95.9999970703126,8|2,0:0|0:0,0:0:0:0:
162,377,189974,1,0,0:0:0:0:
200,380,190060,1,2,0:0:0:0:
218,214,190231,1,0,3:0:0:0:
32,337,190403,1,8,0:0:0:0:
222,379,190574,6,0,L|327:367,1,95.9999970703126,2|0,0:0|3:0,0:0:0:0:
154,283,190917,1,2,0:0:0:0:
375,307,191089,2,0,P|387:258|375:208,1,95.9999970703126,8|2,0:0|0:0,0:0:0:0:
360,188,191346,1,0,3:0:0:0:
337,169,191431,2,0,P|305:160|279:164,1,47.9999985351563,2|2,0:0|0:0,0:0:0:0:
319,356,191603,2,0,P|344:376|370:380,1,47.9999985351563,0|0,3:0|0:0,0:0:0:0:
476,243,191774,2,0,L|465:141,1,95.9999970703126,8|0,0:0|0:0,0:0:0:0:
284,81,192117,38,0,L|290:162,1,80,4|0,3:2|0:0,0:0:0:0:
294,241,192460,1,8,0:0:0:0:
318,20,192631,1,2,0:0:0:0:
279,12,192717,1,0,0:0:0:0:
242,27,192803,1,2,0:0:0:0:
390,135,192974,1,8,0:0:0:0:
294,241,193146,1,2,0:0:0:0:
291,201,193231,1,0,0:0:0:0:
289,161,193317,1,2,0:0:0:0:
287,121,193403,1,0,0:0:0:0:
284,81,193489,6,0,P|289:26|307:0,1,80,0|0,3:0|0:0,0:0:0:0:
390,135,193831,1,8,0:0:0:0:
178,196,194003,1,2,0:0:0:0:
138,190,194089,1,0,0:0:0:0:
98,185,194174,1,2,0:0:0:0:
289,161,194346,1,8,0:0:0:0:
76,110,194517,1,2,0:0:0:0:
93,145,194603,1,0,0:0:0:0:
98,185,194689,1,2,0:0:0:0:
90,224,194774,1,0,0:0:0:0:
69,258,194860,70,0,P|60:306|72:344,1,80,0|0,3:0|0:0,0:0:0:0:
0,181,195203,1,8,0:0:0:0:
161,297,195374,1,2,0:0:0:0:
200,303,195460,1,0,0:0:0:0:
239,298,195546,1,2,0:0:0:0:
67,335,195717,1,8,0:0:0:0:
239,298,195889,1,2,0:0:0:0:
261,265,195974,1,0,0:0:0:0:
272,226,196060,1,2,0:0:0:0:
271,186,196146,1,0,0:0:0:0:
258,149,196231,6,0,P|250:97|265:57,1,80,0|0,3:0|0:0,0:0:0:0:
168,218,196574,1,8,0:0:0:0:
342,110,196746,1,2,0:0:0:0:
381,114,196831,1,0,0:0:0:0:
421,118,196917,1,2,0:0:0:0:
258,149,197089,1,8,0:0:0:0:
385,313,197260,1,2,0:0:0:0:
384,263,197346,1,0,0:0:0:0:
383,213,197431,1,2,0:0:0:0:
382,163,197517,1,0,0:0:0:0:
381,114,197603,69,4,3:2:0:0:
496,230,197774,1,0,0:0:0:0:
263,306,197946,2,0,L|169:293,1,80,8|2,0:0|0:0,0:0:0:0:
144,289,198203,1,0,0:0:0:0:
104,283,198289,1,2,0:0:0:0:
321,366,198460,2,0,P|343:318|333:268,1,80,8|2,0:0|0:0,0:0:0:0:
318,249,198717,1,0,0:0:0:0:
306,202,198803,1,2,0:0:0:0:
310,154,198889,1,0,0:0:0:0:
333,112,198974,5,0,3:0:0:0:
184,220,199146,1,0,0:0:0:0:
429,195,199317,2,0,P|452:155|458:113,1,80,8|2,0:0|0:0,0:0:0:0:
454,82,199574,1,0,0:0:0:0:
437,45,199660,1,2,0:0:0:0:
174,45,199831,2,0,L|179:143,1,80,8|2,0:0|0:0,0:0:0:0:
181,173,200089,1,0,0:0:0:0:
184,220,200174,1,2,0:0:0:0:
187,268,200260,1,0,0:0:0:0:
190,315,200346,69,8,0:0:0:0:
455,278,200517,1,0,3:0:0:0:
233,364,200689,5,8,0:0:0:0:
465,212,200860,1,0,3:0:0:0:
296,385,201031,69,8,0:0:0:0:
441,151,201203,1,0,3:0:0:0:
360,372,201374,5,8,0:0:0:0:
389,110,201546,1,0,3:0:0:0:
210,251,201717,37,8,0:0:0:0:
180,225,201802,1,8,0:0:0:0:
170,187,201888,1,0,3:0:0:0:
185,150,201974,1,0,3:0:0:0:
130,111,202060,5,8,0:0:0:0:
167,84,202145,1,8,0:0:0:0:
214,89,202231,1,0,3:0:0:0:
250,122,202317,1,0,3:0:0:0:
241,190,202403,37,8,3:0:0:0:
282,152,202488,1,8,3:0:0:0:
331,125,202574,1,8,3:0:0:0:
389,110,202660,1,8,3:0:0:0:
384,178,202746,69,4,3:0:0:0:
366,171,202831,1,4,3:0:0:0:
350,159,202917,1,4,3:0:0:0:
338,143,203003,1,4,3:0:0:0:
331,125,203088,1,4,3:2:0:0:
256,192,222289,12,0,224517,0:0:0:0:
300,55,224689,38,0,L|306:120,1,60.0000022888184,2|0,0:0|0:0,0:0:0:0:
323,260,225031,21,4,0:0:0:0:
237,214,225203,2,0,L|231:149,1,60.0000022888184,2|0,0:0|0:0,0:0:0:0:
323,260,225546,2,0,L|338:391,1,120.000004577637,2|0,0:0|0:0,0:0:0:0:
379,206,226060,2,0,P|354:188|312:184,1,60.0000022888184,2|0,0:0|0:0,0:0:0:0:
248,304,226403,5,0,0:0:0:0:
248,304,226574,2,0,L|245:365,1,60.0000022888184,2|0,0:0|0:0,0:0:0:0:
158,250,226917,2,0,L|155:189,1,60.0000022888184,2|0,0:0|0:0,0:0:0:0:
267,90,227260,2,0,L|260:224,1,120.000004577637,2|0,0:0|0:0,0:0:0:0:
231,22,227774,70,0,P|251:15|307:25,1,60.0000022888184,2|0,0:0|0:0,0:0:0:0:
383,46,228117,2,0,P|403:53|459:43,1,60.0000022888184,2|0,0:0|0:0,0:0:0:0:
267,90,228460,1,0,0:0:0:0:
442,148,228631,2,0,P|460:193|423:275,1,120.000004577637,2|0,0:0|0:0,0:0:0:0:
256,202,229146,6,0,B|294:192|294:192|374:202,1,120.000004577637,2|0,0:0|0:0,0:0:0:0:
377,208,229831,1,0,0:0:0:0:
371,93,230003,2,0,B|370:114|366:133|366:133|376:147|382:169|382:169|378:201|376:225,1,120.000004577637,2|0,0:0|0:0,0:0:0:0:
435,38,230517,70,0,P|384:9|287:77,1,180.000006866455,2|0,0:0|0:0,0:0:0:0:
377,208,231203,1,0,0:0:0:0:
260,203,231374,2,0,B|280:202|300:198|300:198|321:202|340:212|340:212|358:208|379:207,1,120.000004577637,2|0,0:0|0:0,0:0:0:0:
215,277,231889,6,0,P|182:240|236:121,1,180.000006866455,2|0,0:0|0:0,0:0:0:0:
376,207,232574,1,0,0:0:0:0:
381,325,232746,2,0,B|382:308|377:284|377:284|379:269|383:253|383:253|378:237|376:197,1,120.000004577637,2|0,0:0|0:0,0:0:0:0:
260,349,233260,70,0,P|212:358|146:321,1,120.000004577637,2|0,0:0|0:0,0:0:0:0:
110,238,233774,1,2,0:0:0:0:
110,238,234289,6,0,L|114:215,8,15.0000005722046,2|2|2|2|2|2|2|2|2,0:0|0:0|0:0|0:0|0:0|0:0|0:0|0:0|0:0,0:0:0:0:
110,238,235660,70,0,L|175:248,1,60.0000022888184
117,91,236003,5,4,0:0:0:0:
76,306,236174,2,0,P|45:277|35:240,1,60.0000022888184,2|0,0:0|0:0,0:0:0:0:
235,193,236517,2,0,P|253:242|228:311,1,120.000004577637,2|0,0:0|0:0,0:0:0:0:
107,151,237031,2,0,L|119:82,1,60.0000022888184,2|0,0:0|0:0,0:0:0:0:
307,204,237374,70,0,P|290:242|259:258,1,60.0000022888184,2|0,0:0|0:0,0:0:0:0:
192,60,237717,2,0,L|261:74,1,60.0000022888184,2|0,0:0|0:0,0:0:0:0:
336,89,238060,1,2,0:0:0:0:
189,248,238231,2,0,B|174:214|174:214|185:117,1,120.000004577637,2|0,0:0|0:0,0:0:0:0:
307,309,238746,6,0,P|276:316|244:309,1,60.0000022888184,2|0,0:0|0:0,0:0:0:0:
189,248,239089,1,2,0:0:0:0:
374,267,239260,2,0,P|387:307|378:343,1,60.0000022888184,2|0,0:0|0:0,0:0:0:0:
282,224,239603,2,0,L|292:150,2,60.0000022888184,2|0|0,0:0|0:0|0:0,0:0:0:0:
336,376,240117,70,0,P|280:377|238:331,1,120.000004577637,2|0,0:0|0:0,0:0:0:0:
238,332,240803,1,0,0:0:0:0:
125,345,240974,2,0,B|170:337|170:337|203:346|203:346|251:334,1,120.000004577637,2|0,0:0|0:0,0:0:0:0:
423,227,241489,6,0,B|414:199|411:171|411:171|381:184|381:184|351:171|351:171|348:199|339:228,1,180.000006866455,2|0,0:0|0:0,0:0:0:0:
383,102,242174,1,0,0:0:0:0:
380,293,242346,2,0,P|324:304|269:259,1,120.000004577637,2|0,0:0|0:0,0:0:0:0:
77,162,242860,70,0,B|90:135|98:108|98:108|125:126|125:126|157:119|157:119|155:147|159:176,1,180.000006866455,2|0,0:0|0:0,0:0:0:0:
139,43,243546,1,0,0:0:0:0:
108,242,243717,2,0,P|144:258|232:217,1,120.000004577637,2|0,0:0|0:0,0:0:0:0:
289,59,244231,6,0,L|293:118,1,60.0000022888184,2|0,0:0|0:0,0:0:0:0:
364,30,244574,1,0,0:0:0:0:
239,168,244746,2,0,P|273:188|362:98,1,180.000006866455,2|0,0:0|0:0,0:0:0:0:
239,168,245603,22,0,B|234:189|234:189|241:210|241:210|236:233|236:233|243:253|243:253|246:229|261:213,1,120,2|0,0:0|0:0,0:0:0:0:
270,101,246289,53,8,0:1:0:0:
217,98,246374,1,0,3:1:0:0:
176,131,246460,1,8,0:0:0:0:
167,182,246546,1,8,3:0:0:0:
185,233,246631,53,0,3:0:0:0:
197,259,246717,1,0,3:0:0:0:
202,289,246803,1,4,3:0:0:0:
197,319,246889,1,4,3:0:0:0:
185,346,246974,22,0,B|138:356|138:356|59:336,4,120.000004577637,4|4|4|4|4,0:0|0:0|0:0|0:0|0:0,0:0:0:0:
185,346,248689,69,2,0:0:0:0:
165,222,248860,1,0,0:0:0:0:
299,336,249031,2,0,B|257:356|257:356|171:344,1,120.000004577637,2|0,0:0|0:0,0:0:0:0:
290,238,249546,6,0,B|314:231|336:231|336:231|351:239|367:243|367:243|391:238|427:241,1,120.000004577637,2|2,0:0|0:0,0:0:0:0:
484,235,250060,1,0,0:0:0:0:
257,157,250231,2,0,P|204:224|235:305,1,180.000006866455,2|2,0:0|0:0,0:0:0:0:
290,238,250917,1,0,0:0:0:0:
139,166,251089,70,0,L|65:171,1,60.0000022888184,2|0,0:0|0:0,0:0:0:0:
257,97,251431,2,0,P|261:133|252:168,1,60.0000022888184,2|0,0:0|0:0,0:0:0:0:
206,230,251774,1,2,0:0:0:0:
218,35,251946,2,0,P|243:24|291:35,1,60.0000022888184,2|0,0:0|0:0,0:0:0:0:
349,127,252289,6,0,L|333:262,1,120.000004577637,2|2,0:0|0:0,0:0:0:0:
320,344,252803,1,0,0:0:0:0:
155,167,252974,2,0,P|124:228|151:291,1,120.000004577637,2|0,0:0|0:0,0:0:0:0:
260,351,253489,2,0,L|333:342,1,60.0000022888184,2|0,0:0|0:0,0:0:0:0:
206,230,253831,70,0,L|218:100,1,120.000004577637,2|0,0:0|0:0,0:0:0:0:
221,23,254346,1,2,0:0:0:0:
291,168,254517,2,0,P|325:177|363:164,2,60.0000022888184,2|0|0,0:0|0:0|0:0,0:0:0:0:
217,110,255031,1,2,0:0:0:0:
137,274,255203,5,2,0:0:0:0:
286,257,255546,1,2,0:0:0:0:
136,263,255889,69,2,0:0:0:0:
286,267,256231,1,2,0:0:0:0:
137,253,256574,6,0,L|201:265,1,60.0000022888184
285,277,256917,1,2,0:0:0:0:
263,74,257089,2,0,B|247:118|247:118|258:200,1,120.000004577637,2|0,0:0|0:0,0:0:0:0:
285,277,257603,1,0,0:0:0:0:
330,125,257774,1,0,0:0:0:0:
155,193,257946,70,0,L|62:180,1,80,8|0,0:0|0:0,0:0:0:0:
330,125,258289,2,0,L|423:138,1,80,8|0,0:0|0:0,0:0:0:0:
164,217,258631,1,8,0:0:0:0:
305,110,258803,1,2,0:0:0:0:
185,237,258974,1,8,0:0:0:0:
282,88,259146,1,2,0:0:0:0:
333,273,259317,6,0,L|318:365,1,80,8|0,0:0|0:0,0:0:0:0:
303,183,259660,1,8,0:0:0:0:
417,311,259831,1,0,0:0:0:0:
239,324,260003,2,0,L|131:300,1,80,8|0,0:0|0:0,0:0:0:0:
333,273,260346,1,8,0:0:0:0:
270,95,260517,1,0,0:0:0:0:
445,183,260689,69,8,0:0:0:0:
249,228,260860,1,0,0:0:0:0:
417,311,261031,1,8,0:0:0:0:
271,101,261203,1,0,0:0:0:0:
220,354,261374,1,8,0:0:0:0:
351,204,261546,1,2,0:0:0:0:
132,259,261717,1,8,0:0:0:0:
317,332,261889,1,2,0:0:0:0:
201,177,262060,6,0,B|194:148|194:148|203:91,1,80,8|0,0:0|0:0,0:0:0:0:
426,184,262403,2,0,P|396:199|328:197,1,80,8|0,0:0|0:0,0:0:0:0:
192,175,262746,1,8,0:0:0:0:
354,214,262917,1,0,0:0:0:0:
238,256,263089,1,8,0:0:0:0:
368,129,263260,1,0,0:0:0:0:
157,96,263431,70,0,L|66:102,1,80,8|0,0:0|0:0,0:0:0:0:
259,110,263774,1,8,0:0:0:0:
87,190,263946,2,0,B|81:232|81:232|92:288,1,80,0|8,0:0|0:0,0:0:0:0:
249,347,264289,1,2,0:0:0:0:
81,277,264460,1,8,0:0:0:0:
267,196,264631,1,2,0:0:0:0:
336,339,264803,5,8,0:0:0:0:
176,239,264974,1,0,0:0:0:0:
346,253,265146,1,8,0:0:0:0:
165,313,265317,1,0,0:0:0:0:
182,162,265489,1,8,0:0:0:0:
326,340,265660,1,0,0:0:0:0:
361,157,265831,1,8,0:0:0:0:
261,276,266003,1,0,0:0:0:0:
86,208,266174,69,10,0:0:0:0:
309,178,266346,1,0,0:0:0:0:
94,189,266517,5,10,0:0:0:0:
355,175,266689,1,0,0:0:0:0:
107,175,266860,69,10,0:0:0:0:
404,162,267031,1,2,0:0:0:0:
124,163,267203,5,10,0:0:0:0:
447,136,267374,1,2,0:0:0:0:
226,19,267546,53,8,0:0:0:0:
202,50,267631,1,0,3:0:0:0:
201,89,267717,1,0,3:0:0:0:
224,121,267803,1,0,3:0:0:0:
189,177,267889,5,8,0:0:0:0:
158,141,267974,1,8,0:0:0:0:
160,96,268060,1,0,3:0:0:0:
193,63,268146,1,0,3:0:0:0:
264,71,268231,5,0,3:0:0:0:
284,87,268316,1,0,3:0:0:0:
310,92,268402,1,0,3:0:0:0:
335,84,268488,1,0,3:0:0:0:
350,65,268574,38,0,B|345:100|327:124|327:124|349:145|350:172|350:172|317:191|310:240,1,180.000006866455,2|0,0:0|0:0,0:0:0:0:
391,240,268917,37,4,3:0:0:0:
391,240,271660,6,0,L|286:232,1,95.9999970703126,4|0,3:2|0:0,0:0:0:0:
69,131,272003,2,0,L|174:139,1,95.9999970703126,8|2,0:0|0:0,0:0:0:0:
427,165,272346,1,2,0:0:0:0:
197,297,272517,1,0,3:0:0:0:
305,56,272689,1,8,0:0:0:0:
361,315,272860,1,2,0:0:0:0:
164,138,273031,6,0,P|112:138|48:149,1,95.9999970703126,0|2,3:0|0:0,0:0:0:0:
280,305,273374,2,0,B|288:259|288:259|278:198,1,95.9999970703126,8|2,0:0|0:0,0:0:0:0:
78,246,273717,1,2,0:0:0:0:
354,319,273889,1,0,3:0:0:0:
94,356,274060,1,8,0:0:0:0:
65,131,274231,70,0,L|80:31,1,95.9999970703126,2|0,0:0|3:0,0:0:0:0:
87,255,274574,1,0,0:0:0:0:
274,127,274746,2,0,L|404:138,1,95.9999970703126,8|2,0:0|0:0,0:0:0:0:
279,339,275089,1,2,0:0:0:0:
94,261,275260,1,0,3:0:0:0:
369,135,275431,1,8,0:0:0:0:
94,356,275603,6,0,B|86:325|86:325|99:228,1,95.9999970703126,2|0,0:0|3:0,0:0:0:0:
125,120,275946,1,2,0:0:0:0:
283,348,276117,2,0,B|325:354|325:354|399:342,1,95.9999970703126,8|2,0:0|0:0,0:0:0:0:
178,332,276460,1,2,0:0:0:0:
369,135,276631,1,0,3:0:0:0:
74,169,276803,2,0,L|39:182,1,23.9999992675781,8|2,0:0|0:0,0:0:0:0:
58,141,276889,2,0,L|21:147,1,23.9999992675781,2|2,0:0|0:0,0:0:0:0:
55,109,276974,2,0,L|18:102,1,23.9999992675781,2|2,0:0|0:0,0:0:0:0:
66,80,277060,2,0,L|33:61,1,23.9999992675781,2|2,0:0|0:0,0:0:0:0:
125,120,277146,70,0,B|166:135|166:135|240:127,1,95.9999970703126,4|0,3:2|0:0,0:0:0:0:
366,44,277489,2,0,B|407:29|407:29|481:37,1,95.9999970703126,8|0,0:0|0:0,0:0:0:0:
358,269,277831,1,2,0:0:0:0:
497,91,278003,1,0,3:0:0:0:
280,153,278174,1,8,0:0:0:0:
493,231,278346,1,2,0:0:0:0:
366,44,278517,6,0,B|327:36|327:36|258:48,1,95.9999970703126,0|2,3:0|0:0,0:0:0:0:
358,269,278860,2,0,B|366:230|366:230|354:161,1,95.9999970703126,8|2,0:0|0:0,0:0:0:0:
241,339,279203,1,2,0:0:0:0:
493,231,279374,1,0,3:0:0:0:
201,163,279546,1,8,0:0:0:0:
481,323,279717,70,0,B|497:286|497:286|490:206,1,95.9999970703126,2|0,0:0|3:0,0:0:0:0:
336,92,280060,1,0,0:0:0:0:
318,334,280231,2,0,P|358:347|419:322,1,95.9999970703126,8|2,0:0|0:0,0:0:0:0:
486,135,280574,1,2,0:0:0:0:
232,198,280746,1,0,3:0:0:0:
492,230,280917,1,8,0:0:0:0:
238,104,281089,6,0,B|226:135|226:135|233:218,1,95.9999970703126,2|0,0:0|3:0,0:0:0:0:
318,334,281431,1,2,0:0:0:0:
492,230,281603,2,0,B|498:193|498:193|485:128,1,95.9999970703126,8|2,0:0|0:0,0:0:0:0:
232,198,281946,1,2,0:0:0:0:
476,298,282117,1,0,3:0:0:0:
335,74,282289,1,8,0:0:0:0:
318,334,282460,1,2,0:0:0:0:
486,135,282631,70,0,L|477:95,7,23.9999992675781,0|0|0|0|0|0|0|0,3:0|0:0|0:0|0:0|0:0|0:0|0:0|0:0,0:0:0:0:
390,159,282974,2,0,L|384:182,6,23.9999992675781,8|0|0|0|2|0|0,0:0|0:0|0:0|0:0|0:0|0:0|0:0,0:0:0:0:
335,74,283317,1,2,0:0:0:0:
476,298,283489,1,0,3:0:0:0:
232,198,283660,1,8,0:0:0:0:
480,111,283831,1,2,0:0:0:0:
209,22,284003,6,0,B|202:59|202:59|213:125,1,95.9999970703126,0|2,3:0|0:0,0:0:0:0:
255,280,284346,2,0,B|262:317|262:317|251:383,1,95.9999970703126,8|2,0:0|0:0,0:0:0:0:
73,151,284689,1,2,0:0:0:0:
386,249,284860,1,0,3:0:0:0:
96,315,285031,1,8,0:0:0:0:
259,185,285203,70,0,B|265:219|265:219|253:288,1,95.9999970703126,2|0,0:0|3:0,0:0:0:0:
73,151,285546,1,0,0:0:0:0:
321,100,285717,2,0,L|435:114,1,95.9999970703126,8|2,0:0|0:0,0:0:0:0:
171,211,286060,1,2,0:0:0:0:
280,10,286231,1,0,3:0:0:0:
369,283,286403,1,8,0:0:0:0:
510,120,286574,6,0,B|475:110|475:110|402:112,1,95.9999970703126,2|0,0:0|3:0,0:0:0:0:
213,122,286917,1,2,0:0:0:0:
332,351,287089,2,0,P|375:361|425:337,1,95.9999970703126,8|2,0:0|0:0,0:0:0:0:
415,112,287431,1,2,0:0:0:0:
175,262,287603,1,0,3:0:0:0:
421,340,287774,54,0,B|421:325|428:302|428:302|418:271|414:231|414:231|410:251|403:273,1,143.999995605469,8|0,0:0|0:0,0:0:0:0:
453,171,288117,6,0,P|401:162|357:186,1,95.9999970703126,0|0,3:0|0:0,0:0:0:0:
95,291,288460,2,0,B|88:252|88:252|96:181,1,95.9999970703126,8|2,0:0|0:0,0:0:0:0:
274,81,288803,1,2,0:0:0:0:
211,350,288974,1,0,3:0:0:0:
137,102,289146,1,8,0:0:0:0:
310,250,289317,6,0,L|421:264,1,95.9999970703126,2|0,0:0|3:0,0:0:0:0:
125,99,289660,1,2,0:0:0:0:
211,350,289831,2,0,B|251:363|251:363|312:350,1,95.9999970703126,8|2,0:0|0:0,0:0:0:0:
295,85,290174,1,2,0:0:0:0:
94,195,290346,1,0,3:0:0:0:
420,258,290517,1,8,0:0:0:0:
203,357,290689,1,0,0:0:0:0:
302,184,290860,69,0,3:0:0:0:
116,301,291031,1,0,0:0:0:0:
435,334,291203,2,0,L|535:320,1,95.9999970703126,8|0,0:0|0:0,0:0:0:0:
298,89,291546,1,8,0:2:0:0:
199,363,291717,1,0,3:0:0:0:
100,204,291889,2,0,L|-5:193,1,95.9999970703126,8|0,0:0|0:0,0:0:0:0:
229,80,292231,5,8,0:0:0:0:
240,130,292316,1,8,0:0:0:0:
286,160,292402,1,0,3:0:0:0:
339,147,292488,1,0,3:0:0:0:
406,145,292574,53,8,0:0:0:0:
398,114,292660,1,8,0:0:0:0:
377,91,292746,1,0,3:0:0:0:
347,81,292831,1,0,3:0:0:0:
416,86,292917,53,8,3:0:0:0:
395,27,293003,1,8,3:0:0:0:
336,8,293089,1,8,3:0:0:0:
285,43,293174,1,8,3:0:0:0:
298,89,293260,53,4,3:0:0:0:
311,134,293346,1,4,3:0:0:0:
313,182,293431,1,4,3:0:0:0:
303,229,293517,1,4,3:0:0:0:
281,272,293603,70,0,B|245:277|245:277|183:267,1,95.9999970703126,4|0,3:2|0:0,0:0:0:0:
394,138,293946,2,0,P|403:194|387:236,1,95.9999970703126,8|2,0:0|0:0,0:0:0:0:
380,246,294203,1,0,0:0:0:0:
366,259,294289,1,2,0:0:0:0:
196,164,294460,1,0,3:0:0:0:
486,63,294631,1,8,0:0:0:0:
275,29,294803,6,0,L|178:43,1,95.9999970703126,2|0,0:0|3:0,0:0:0:0:
394,138,295146,1,2,0:0:0:0:
125,119,295317,2,0,P|112:177|134:221,1,95.9999970703126,8|2,0:0|0:0,0:0:0:0:
137,224,295574,1,0,0:0:0:0:
153,233,295660,1,2,0:0:0:0:
275,29,295831,1,0,3:0:0:0:
25,55,296003,1,8,0:0:0:0:
196,164,296174,70,0,B|233:175|233:175|302:171,1,95.9999970703126,2|0,0:0|3:0,0:0:0:0:
169,61,296517,1,0,0:0:0:0:
1,190,296689,2,0,L|20:294,1,95.9999970703126,8|2,0:0|0:0,0:0:0:0:
28,321,296946,1,0,0:0:0:0:
37,357,297031,1,2,0:0:0:0:
93,121,297203,1,0,3:0:0:0:
194,358,297374,1,8,0:0:0:0:
290,171,297546,6,0,B|325:162|325:162|395:171,1,95.9999970703126,2|0,0:0|3:0,0:0:0:0:
404,334,297889,1,2,0:0:0:0:
207,209,298060,2,0,P|199:159|219:117,1,95.9999970703126,8|2,0:0|0:0,0:0:0:0:
246,94,298317,1,0,0:0:0:0:
282,82,298403,1,2,0:0:0:0:
228,286,298574,1,0,3:0:0:0:
93,121,298746,2,0,L|82:99,1,23.9999992675781,8|2,0:0|0:0,0:0:0:0:
61,112,298831,2,0,L|37:114,1,23.9999992675781,2|2,0:0|0:0,0:0:0:0:
43,141,298917,2,0,L|38:164,1,23.9999992675781,2|2,0:0|0:0,0:0:0:0:
64,166,299003,2,0,L|85:177,1,23.9999992675781,2|2,0:0|0:0,0:0:0:0:
96,154,299089,70,0,B|133:144|133:144|195:150,1,95.9999970703126,4|0,3:2|0:0,0:0:0:0:
322,285,299431,2,0,B|285:294|285:294|218:284,1,95.9999970703126,8|2,0:0|0:0,0:0:0:0:
151,273,299689,1,0,0:0:0:0:
151,273,299774,1,2,0:0:0:0:
384,225,299946,1,0,3:0:0:0:
78,309,300117,1,8,0:0:0:0:
284,353,300289,6,0,B|323:358|323:358|394:346,1,95.9999970703126,2|0,0:0|3:0,0:0:0:0:
201,204,300631,1,2,0:0:0:0:
449,279,300803,2,0,P|467:226|442:169,1,95.9999970703126,8|2,0:0|0:0,0:0:0:0:
410,129,301060,1,0,0:0:0:0:
410,129,301146,1,2,0:0:0:0:
189,210,301317,1,0,3:0:0:0:
465,288,301489,1,8,0:0:0:0:
303,105,301660,70,0,B|292:144|292:144|296:218,1,95.9999970703126,2|0,0:0|3:0,0:0:0:0:
302,292,302003,1,0,0:0:0:0:
361,55,302174,2,0,P|313:29|253:42,1,95.9999970703126,8|2,0:0|0:0,0:0:0:0:
248,49,302431,1,0,0:0:0:0:
230,74,302517,1,2,0:0:0:0:
439,58,302689,1,0,3:0:0:0:
158,26,302860,1,8,0:0:0:0:
294,199,303031,6,0,B|308:237|308:237|301:311,1,95.9999970703126,2|0,0:0|3:0,0:0:0:0:
106,212,303374,1,2,0:0:0:0:
303,105,303546,2,0,L|408:119,1,95.9999970703126,8|2,0:0|0:0,0:0:0:0:
431,123,303803,1,0,3:0:0:0:
464,128,303889,2,0,L|516:136,1,47.9999985351563,2|0,0:0|0:0,0:0:0:0:
336,37,304060,2,0,P|302:30|273:36,1,47.9999985351563,0|0,3:0|0:0,0:0:0:0:
368,211,304231,2,0,B|377:242|377:242|371:316,1,95.9999970703126,8|2,0:0|0:0,0:0:0:0:
207,160,304574,38,0,L|218:73,1,80,4|2,3:2|0:0,0:0:0:0:
229,1,304917,1,8,0:0:0:0:
236,229,305089,1,2,0:0:0:0:
197,238,305174,1,0,0:0:0:0:
160,225,305260,1,2,0:0:0:0:
340,108,305431,1,8,0:0:0:0:
229,1,305603,1,2,0:0:0:0:
223,40,305689,1,0,0:0:0:0:
217,80,305774,1,2,0:0:0:0:
212,119,305860,1,0,0:0:0:0:
206,159,305946,6,0,L|197:241,1,80,0|2,3:0|0:0,0:0:0:0:
177,342,306289,1,8,0:0:0:0:
112,188,306460,1,2,0:0:0:0:
72,193,306546,1,0,0:0:0:0:
32,199,306631,1,2,0:0:0:0:
197,238,306803,1,8,0:0:0:0:
337,98,306974,1,2,0:0:0:0:
326,59,307060,1,0,0:0:0:0:
298,32,307146,1,2,0:0:0:0:
259,25,307231,1,0,0:0:0:0:
222,40,307317,70,0,P|174:51|140:40,1,80,0|2,3:0|0:0,0:0:0:0:
42,6,307660,1,8,0:0:0:0:
186,119,307831,1,2,0:0:0:0:
224,109,307917,1,0,0:0:0:0:
263,99,308003,1,2,0:0:0:0:
112,188,308174,1,8,0:0:0:0:
263,99,308346,1,2,0:0:0:0:
302,92,308431,1,0,0:0:0:0:
341,102,308517,1,2,0:0:0:0:
371,128,308603,1,0,0:0:0:0:
387,164,308689,6,0,P|379:222|390:258,1,80,0|2,3:0|0:0,0:0:0:0:
444,336,309031,1,8,0:0:0:0:
466,207,309203,1,2,0:0:0:0:
489,239,309289,1,0,0:0:0:0:
512,272,309374,1,2,0:0:0:0:
301,179,309546,1,8,0:0:0:0:
428,10,309717,1,2,0:0:0:0:
437,59,309803,1,0,0:0:0:0:
446,108,309889,1,2,0:0:0:0:
455,157,309974,1,0,0:0:0:0:
465,206,310060,69,4,3:2:0:0:
325,91,310231,1,2,0:0:0:0:
276,270,310403,2,0,B|310:281|310:281|358:275,1,80,8|2,0:0|0:0,0:0:0:0:
393,272,310660,1,0,0:0:0:0:
433,274,310746,1,2,0:0:0:0:
246,361,310917,2,0,P|205:333|187:300,1,80,8|2,0:0|0:0,0:0:0:0:
181,268,311174,1,0,0:0:0:0:
190,229,311260,1,2,0:0:0:0:
213,197,311346,1,0,0:0:0:0:
247,177,311431,5,0,3:0:0:0:
89,205,311603,1,2,0:0:0:0:
276,270,311774,2,0,L|360:255,1,80,8|2,0:0|0:0,0:0:0:0:
394,249,312031,1,0,0:0:0:0:
433,243,312117,1,2,0:0:0:0:
247,177,312289,2,0,L|163:192,1,80,8|2,0:0|0:0,0:0:0:0:
128,198,312546,1,0,0:0:0:0:
89,205,312631,1,2,0:0:0:0:
49,212,312717,1,0,0:0:0:0:
9,221,312803,69,8,0:0:0:0:
286,169,312974,1,0,3:0:0:0:
35,144,313146,5,8,0:0:0:0:
340,230,313317,1,0,3:0:0:0:
89,205,313489,69,8,0:0:0:0:
368,153,313661,1,0,3:0:0:0:
61,282,313831,5,8,0:0:0:0:
314,92,314003,1,0,3:0:0:0:
300,342,314174,37,8,0:0:0:0:
249,355,314260,1,0,3:0:0:0:
203,330,314346,1,0,3:0:0:0:
187,281,314431,1,0,3:0:0:0:
132,276,314517,5,8,0:0:0:0:
141,311,314602,1,8,0:0:0:0:
169,334,314688,1,0,3:0:0:0:
207,336,314774,1,0,3:0:0:0:
255,287,314860,5,8,3:0:0:0:
249,225,314946,1,8,3:0:0:0:
243,164,315031,1,8,3:0:0:0:
237,103,315117,1,8,3:0:0:0:
228,39,315203,38,0,L|222:-5,1,40,4|4,3:0|3:0,0:0:0:0:
149,192,315374,2,0,L|153:241,1,40,4|4,3:0|3:0,0:0:0:0:
363,104,315546,70,0,L|488:89,1,95.9999970703126,4|0,3:2|0:0,0:0:0:0:
149,192,315889,2,0,B|145:155|145:155|156:75,1,95.9999970703126,8|2,0:0|0:0,0:0:0:0:
153,96,316146,1,0,0:0:0:0:
153,96,316231,1,2,0:0:0:0:
32,233,316403,1,0,3:0:0:0:
267,152,316574,1,8,0:0:0:0:
31,113,316746,1,2,0:0:0:0:
27,125,316831,1,0,0:0:0:0:
24,138,316917,6,0,B|18:173|18:173|33:240,1,95.9999970703126,0|2,3:0|0:0,0:0:0:0:
284,240,317260,2,0,P|287:185|265:149,1,95.9999970703126,8|2,0:0|0:0,0:0:0:0:
245,139,317517,1,0,0:0:0:0:
217,131,317603,2,0,L|158:137,1,47.9999985351563,2|0,0:0|0:0,0:0:0:0:
332,299,317774,2,0,P|351:279|359:242,1,47.9999985351563,0|0,3:0|0:0,0:0:0:0:
382,98,317946,1,8,0:0:0:0:
204,210,318117,70,0,B|166:215|166:215|85:200,1,95.9999970703126,2|0,0:0|3:0,0:0:0:0:
313,81,318460,1,0,0:0:0:0:
350,91,318546,1,0,0:0:0:0:
382,98,318631,2,0,L|447:92,1,47.9999985351563,8|0,0:0|0:0,0:0:0:0:
211,162,318803,2,0,P|204:191|206:223,1,47.9999985351563,2|0,0:0|0:0,0:0:0:0:
397,335,318974,1,2,0:0:0:0:
313,81,319146,1,0,3:0:0:0:
480,191,319317,1,8,0:0:0:0:
204,287,319489,1,2,0:0:0:0:
397,335,319660,6,0,B|405:304|405:304|400:217,1,95.9999970703126,0|2,3:0|0:0,0:0:0:0:
313,81,320003,2,0,B|305:112|305:112|310:199,1,95.9999970703126,8|2,0:0|0:0,0:0:0:0:
324,325,320346,1,2,0:0:0:0:
496,123,320517,1,0,3:0:0:0:
181,230,320689,2,0,L|148:236,1,23.9999992675781,8|2,0:0|0:0,0:0:0:0:
166,260,320774,2,0,L|149:289,1,23.9999992675781,2|2,0:0|0:0,0:0:0:0:
185,289,320860,2,0,L|196:320,1,23.9999992675781,2|2,0:0|0:0,0:0:0:0:
219,286,320946,2,0,L|250:297,1,23.9999992675781,2|2,0:0|0:0,0:0:0:0:
234,255,321031,70,0,B|228:222|228:222|237:144,1,95.9999970703126,6|0,3:2|0:0,0:0:0:0:
258,15,321374,1,8,0:0:0:0:
84,182,321546,1,2,0:0:0:0:
84,182,321631,1,0,0:0:0:0:
84,182,321717,2,0,L|19:177,1,47.9999985351563,2|0,0:0|0:0,0:0:0:0:
174,96,321889,1,0,3:0:0:0:
98,349,322060,1,8,0:0:0:0:
235,159,322231,2,0,L|288:146,1,47.9999985351563,2|0,0:0|0:0,0:0:0:0:
387,284,322403,6,0,P|371:304|342:318,1,47.9999985351563,0|0,3:0|0:0,0:0:0:0:
177,211,322574,2,0,P|163:188|165:149,1,47.9999985351563,2|0,0:0|0:0,0:0:0:0:
398,200,322746,1,8,0:0:0:0:
171,300,322917,1,2,0:0:0:0:
356,133,323089,2,0,P|399:120|460:146,1,95.9999970703126,2|0,0:0|3:0,0:0:0:0:
270,355,323431,1,8,0:0:0:0:
213,98,323603,70,0,L|219:-12,1,95.9999970703126,2|0,0:0|3:0,0:0:0:0:
92,149,323946,1,0,0:0:0:0:
330,31,324117,1,8,0:0:0:0:
177,211,324289,1,2,0:0:0:0:
179,228,324374,1,0,0:0:0:0:
181,245,324460,2,0,L|203:294,1,47.9999985351563,2|0,0:0|0:0,0:0:0:0:
318,218,324631,1,0,3:0:0:0:
58,246,324803,1,8,0:0:0:0:
291,102,324974,2,0,L|286:156,1,47.9999985351563,2|0,0:0|0:0,0:0:0:0:
270,355,325146,6,0,B|237:366|237:366|159:357,1,95.9999970703126,0|2,3:0|0:0,0:0:0:0:
35,169,325489,1,8,0:0:0:0:
363,111,325660,2,0,L|354:179,1,47.9999985351563,2|0,0:0|0:0,0:0:0:0:
264,363,325831,2,0,B|253:330|253:330|262:252,1,95.9999970703126,2|0,0:0|3:0,0:0:0:0:
274,101,326174,2,0,P|272:55|251:104,1,143.999995605469,8|0,0:0|0:0,0:0:0:0:
363,111,326517,70,0,L|403:106,7,23.9999992675781,4|0|0|0|0|0|0|0,3:2|0:0|0:0|0:0|0:0|0:0|0:0|0:0,0:0:0:0:
274,101,326860,2,0,L|234:106,6,23.9999992675781,8|0|0|0|2|0|0,0:0|0:0|0:0|0:0|0:0|0:0|0:0,0:0:0:0:
329,200,327203,1,2,0:0:0:0:
384,38,327374,2,0,L|368:-8,1,47.9999985351563,0|0,3:0|0:0,0:0:0:0:
121,112,327546,1,8,0:0:0:0:
283,275,327717,2,0,P|359:283|410:181,1,191.999994140625,2|2,0:0|0:0,0:0:0:0:
255,78,328231,6,0,L|199:71,1,47.9999985351563,8|0,0:0|0:0,0:0:0:0:
75,230,328403,2,0,L|132:224,1,47.9999985351563,2|0,0:0|0:0,0:0:0:0:
329,200,328574,2,0,B|339:160|339:160|331:95,1,95.9999970703126,2|0,0:0|3:0,0:0:0:0:
241,347,328917,1,8,0:0:0:0:
412,193,329089,2,0,L|401:85,1,95.9999970703126,2|0,0:0|3:0,0:0:0:0:
429,281,329431,69,0,0:0:0:0:
207,178,329603,1,8,0:0:0:0:
487,146,329774,1,2,0:0:0:0:
224,259,329946,1,2,0:0:0:0:
402,97,330117,1,0,3:0:0:0:
188,99,330289,2,0,P|145:123|128:185,1,95.9999970703126,8|2,0:0|0:0,0:0:0:0:
146,334,330631,5,0,3:0:0:0:
306,183,330803,2,0,B|312:151|312:151|306:74,1,95.9999970703126,2|8,0:0|0:0,0:0:0:0:
224,259,331146,1,2,0:0:0:0:
188,99,331317,2,0,L|250:102,1,47.9999985351563
427,222,331489,2,0,L|362:229,1,47.9999985351563,0|0,3:0|0:0,0:0:0:0:
72,285,331660,1,8,0:0:0:0:
277,338,331831,1,2,0:0:0:0:
117,158,332003,70,0,B|113:125|113:125|120:55,1,95.9999970703126,0|0,3:0|0:0,0:0:0:0:
228,235,332346,2,0,L|221:272,4,23.9999992675781,8|0|0|0|2,0:0|0:0|0:0|0:0|0:0,0:0:0:0:
234,212,332603,1,0,0:0:0:0:
239,190,332689,2,0,L|252:121,1,47.9999985351563,2|0,0:0|0:0,0:0:0:0:
379,227,332860,2,0,P|379:251|365:291,1,47.9999985351563,0|0,3:0|0:0,0:0:0:0:
154,240,333031,2,0,P|159:206|188:174,1,47.9999985351563,8|0,0:0|0:0,0:0:0:0:
331,89,333203,1,2,0:0:0:0:
246,368,333374,2,0,B|212:377|212:377|131:366,1,95.9999970703126,0|2,3:0|0:0,0:0:0:0:
247,142,333717,6,0,L|254:108,4,23.9999992675781,8|0|0|0|0,0:0|0:0|0:0|0:0|0:0,0:0:0:0:
251,183,333974,1,0,0:0:0:0:
254,224,334060,1,2,0:0:0:0:
55,202,334231,1,0,3:0:0:0:
331,89,334403,2,0,L|323:154,1,47.9999985351563,8|0,0:0|0:0,0:0:0:0:
192,259,334574,2,0,P|186:243|185:211,1,47.9999985351563,2|0,0:0|0:0,0:0:0:0:
147,40,334746,2,0,B|184:32|184:32|256:40,1,95.9999970703126,0|0,3:0|0:0,0:0:0:0:
368,270,335089,70,0,L|361:310,4,23.9999992675781,8|0|0|0|0,0:0|0:0|0:0|0:0|0:0,0:0:0:0:
375,232,335346,1,0,0:0:0:0:
383,195,335431,1,2,0:0:0:0:
386,372,335603,1,0,3:0:0:0:
184,212,335774,2,0,L|138:198,1,47.9999985351563,8|0,0:0|0:0,0:0:0:0:
325,137,335946,2,0,L|388:118,1,47.9999985351563,2|0,0:0|0:0,0:0:0:0:
290,344,336117,69,4,0:0:0:0:
247,142,336289,1,0,0:0:0:0:
64,288,336460,1,8,0:2:0:0:
266,245,336631,1,0,0:0:0:0:
122,64,336803,1,4,3:0:0:0:
165,266,336974,1,0,3:0:0:0:
0,74,337146,1,8,0:0:0:0:
247,142,337317,1,2,0:0:0:0:
64,288,337489,6,0,L|22:280,7,23.9999992675781,4|0|0|0|0|0|0|0,3:2|0:0|0:0|0:0|0:0|0:0|0:0|0:0,0:0:0:0:
165,266,337831,2,0,L|199:283,6,23.9999992675781,8|0|0|0|2|0|0,0:0|0:0|0:0|0:0|0:0|0:0|0:0,0:0:0:0:
87,184,338174,1,2,0:0:0:0:
152,379,338346,1,0,3:0:0:0:
195,142,338517,1,8,0:0:0:0:
15,353,338689,1,2,0:0:0:0:
259,216,338860,6,0,P|281:264|258:331,1,95.9999970703126,0|2,3:0|0:0,0:0:0:0:
15,353,339203,2,0,L|39:294,1,47.9999985351563,8|0,0:0|0:0,0:0:0:0:
75,137,339374,2,0,L|93:208,1,47.9999985351563,2|0,0:0|0:0,0:0:0:0:
242,371,339546,2,0,P|282:379|343:331,1,95.9999970703126,2|0,0:0|3:0,0:0:0:0:
152,318,339889,1,8,0:0:0:0:
415,322,340060,1,2,0:0:0:0:
286,90,340231,69,0,3:0:0:0:
274,305,340403,1,0,0:0:0:0:
277,320,340489,1,0,0:0:0:0:
281,335,340574,2,0,L|314:381,1,47.9999985351563,8|0,0:0|0:0,0:0:0:0:
348,139,340746,2,0,P|363:112|366:78,1,47.9999985351563,2|0,0:0|0:0,0:0:0:0:
188,259,340917,2,0,P|157:249|128:252,1,47.9999985351563,2|0,0:0|0:0,0:0:0:0:
415,322,341089,1,0,3:0:0:0:
217,377,341260,2,0,P|208:356|214:309,1,47.9999985351563,8|0,0:0|0:0,0:0:0:0:
253,135,341431,6,0,B|288:128|288:128|353:139,1,95.9999970703126,2|0,0:0|3:0,0:0:0:0:
461,154,341774,1,2,0:0:0:0:
167,127,341946,1,8,0:0:0:0:
417,47,342117,1,2,0:0:0:0:
204,207,342289,2,0,L|208:157,1,47.9999985351563,2|0,0:0|0:0,0:0:0:0:
303,31,342460,1,0,3:0:0:0:
391,245,342631,2,0,L|384:274,1,23.9999992675781,8|2,0:0|0:0,0:0:0:0:
357,252,342717,2,0,L|328:260,1,23.9999992675781,2|2,0:0|0:0,0:0:0:0:
335,226,342803,2,0,L|313:205,1,23.9999992675781,2|2,0:0|0:0,0:0:0:0:
347,194,342889,2,0,L|354:164,1,23.9999992675781,2|2,0:0|0:0,0:0:0:0:
381,191,342974,70,0,P|419:202|492:189,1,95.9999970703126,6|0,3:2|0:0,0:0:0:0:
207,159,343317,1,8,0:0:0:0:
432,112,343489,1,2,0:0:0:0:
285,61,343660,2,0,L|293:120,1,47.9999985351563,2|0,0:0|0:0,0:0:0:0:
381,191,343831,1,0,3:0:0:0:
59,101,344003,1,8,0:0:0:0:
307,37,344174,5,2,0:0:0:0:
235,247,344346,1,0,3:0:0:0:
432,112,344517,1,2,0:0:0:0:
72,186,344689,1,8,0:0:0:0:
304,295,344860,1,2,0:0:0:0:
116,353,345031,2,0,B|94:358|94:358|51:353,1,47.9999985351563,2|0,0:0|0:0,0:0:0:0:
307,343,345203,2,0,B|310:318|310:318|305:296,1,47.9999985351563,0|0,3:0|0:0,0:0:0:0:
167,189,345374,2,0,B|133:179|133:179|54:189,1,95.9999970703126,8|2,0:0|0:0,0:0:0:0:
68,355,345717,69,0,3:0:0:0:
226,155,345889,1,0,0:0:0:0:
74,91,346060,2,0,B|66:134|66:134|73:192,1,95.9999970703126,8|2,0:0|0:0,0:0:0:0:
77,210,346317,1,0,0:0:0:0:
83,234,346403,2,0,L|96:293,1,47.9999985351563,2|0,0:0|0:0,0:0:0:0:
309,170,346574,2,0,P|310:141|301:118,1,47.9999985351563,0|0,3:0|0:0,0:0:0:0:
50,23,346746,1,8,0:0:0:0:
171,185,346917,2,0,L|183:157,1,23.9999992675781,2|0,0:0|0:0,0:0:0:0:
184,208,347003,2,0,L|206:184,1,23.9999992675781
196,230,347089,6,0,P|204:260|196:286,1,47.9999985351563,0|0,3:0|0:0,0:0:0:0:
362,53,347260,2,0,L|306:49,1,47.9999985351563
38,34,347431,1,8,0:0:0:0:
370,63,347603,2,0,L|385:133,1,47.9999985351563,2|0,0:0|0:0,0:0:0:0:
226,155,347774,2,0,P|199:164|158:154,1,47.9999985351563,2|0,0:0|0:0,0:0:0:0:
118,48,347946,2,0,P|129:11|152:-10,1,47.9999985351563,0|0,3:0|0:0,0:0:0:0:
296,107,348117,2,0,P|310:171|285:220,1,95.9999970703126,8|2,0:0|0:0,0:0:0:0:
105,286,348460,38,0,L|200:276,1,95.9999970703126,4|2,3:2|0:0,0:0:0:0:
296,267,348803,1,8,0:0:0:0:
139,349,348974,1,2,0:0:0:0:
92,356,349060,1,0,0:0:0:0:
51,331,349146,1,2,0:0:0:0:
168,152,349317,1,8,0:0:0:0:
296,267,349489,1,2,0:0:0:0:
248,271,349574,1,0,0:0:0:0:
200,276,349660,1,2,0:0:0:0:
152,281,349746,1,0,0:0:0:0:
104,286,349831,6,0,B|81:284|65:285|65:285|54:278|41:275|41:275|20:275|-8:273,1,95.9999970703126,0|2,3:0|0:0,0:0:0:0:
168,152,350174,1,8,0:0:0:0:
281,339,350346,1,2,0:0:0:0:
327,335,350431,1,0,0:0:0:0:
360,302,350517,1,2,0:0:0:0:
104,286,350689,1,8,0:0:0:0:
360,302,350860,1,2,0:0:0:0:
369,255,350946,1,0,0:0:0:0:
347,213,351031,1,2,0:0:0:0:
305,193,351117,1,0,0:0:0:0:
259,203,351203,70,0,B|255:242|255:242|260:265|260:265|250:315,1,95.9999970703126,0|2,3:0|0:0,0:0:0:0:
128,149,351546,1,8,0:0:0:0:
277,84,351717,1,2,0:0:0:0:
324,91,351803,1,0,0:0:0:0:
371,98,351889,1,2,0:0:0:0:
166,66,352060,1,8,0:0:0:0:
397,8,352231,1,2,0:0:0:0:
375,50,352317,1,0,0:0:0:0:
371,98,352403,1,2,0:0:0:0:
385,144,352489,1,0,0:0:0:0:
414,181,352574,6,0,P|426:240|407:289,1,95.9999970703126,0|2,3:0|0:0,0:0:0:0:
481,88,352917,1,8,0:0:0:0:
333,229,353089,1,2,0:0:0:0:
285,234,353174,1,0,0:0:0:0:
241,216,353260,1,2,0:0:0:0:
371,98,353431,1,8,0:0:0:0:
235,296,353603,1,2,0:0:0:0:
182,270,353689,1,0,0:0:0:0:
160,215,353774,1,2,0:0:0:0:
180,160,353860,1,0,0:0:0:0:
232,133,353946,69,4,3:2:0:0:
33,183,354117,1,2,0:0:0:0:
241,216,354289,2,0,L|341:208,1,95.9999970703126,8|2,0:0|0:0,0:0:0:0:
385,208,354546,1,0,0:0:0:0:
432,208,354631,1,2,0:0:0:0:
232,133,354803,2,0,P|180:159|162:197,1,95.9999970703126,8|2,0:0|0:0,0:0:0:0:
162,238,355060,1,0,0:0:0:0:
188,278,355146,1,2,0:0:0:0:
232,296,355231,1,0,0:0:0:0:
278,288,355317,5,0,3:0:0:0:
64,231,355489,1,2,0:0:0:0:
168,54,355660,1,8,0:0:0:0:
241,216,355831,1,2,0:0:0:0:
257,253,355917,1,0,0:0:0:0:
278,288,356003,1,2,0:0:0:0:
274,58,356174,1,8,0:0:0:0:
435,66,356346,69,2,0:0:0:0:
380,97,356431,1,0,0:0:0:0:
351,153,356517,1,2,0:0:0:0:
357,216,356603,1,0,0:0:0:0:
379,267,356689,54,0,P|325:348|260:220,1,287.999991210938,6|0,0:0|0:0,0:0:0:0:
307,277,357374,6,0,B|272:317|220:301|220:301|183:322|183:322|160:311|134:306|134:306|83:344|28:304,1,287.999991210938,2|0,0:0|0:0,0:0:0:0:
61,187,358060,5,8,0:0:0:0:
58,157,358146,1,8,0:0:0:0:
87,153,358231,1,0,3:0:0:0:
94,181,358317,1,0,3:0:0:0:
148,218,358403,5,8,0:0:0:0:
146,247,358489,1,8,0:0:0:0:
175,252,358574,1,0,3:0:0:0:
181,224,358660,1,0,3:0:0:0:
123,194,358746,5,8,3:0:0:0:
168,158,358831,1,8,3:0:0:0:
223,172,358917,1,8,3:0:0:0:
247,225,359003,1,8,3:0:0:0:
314,250,359089,5,4,3:0:0:0:
344,186,359174,1,4,3:0:0:0:
295,134,359260,1,4,3:0:0:0:
232,165,359346,1,4,3:0:0:0:
242,236,359431,1,6,3:2:0:0:
246,239,360289,70,0,L|251:269,1,23.9999992675781,2|0,0:0|0:0,0:0:0:0:
190,29,360631,6,0,L|172:63,1,23.9999992675781,2|0,0:0|0:0,0:0:0:0:
190,29,361146,2,0,L|172:63,1,23.9999992675781,2|0,0:0|0:0,0:0:0:0:
239,264,361660,70,0,L|244:294,1,23.9999992675781,2|0,0:0|0:0,0:0:0:0:
190,29,362003,6,0,L|186:65,1,23.9999992675781,2|0,0:0|0:0,0:0:0:0:
190,29,362517,2,0,L|186:65,1,23.9999992675781,2|0,0:0|0:0,0:0:0:0:
232,289,363031,70,0,L|237:319,1,23.9999992675781,2|0,0:0|0:0,0:0:0:0:
190,29,363374,70,0,L|201:66,1,23.9999992675781,2|0,0:0|0:0,0:0:0:0:
190,29,363889,2,0,L|201:66,1,23.9999992675781,2|0,0:0|0:0,0:0:0:0:
190,29,364403,2,0,L|201:66,1,23.9999992675781,2|0,0:0|0:0,0:0:0:0:
232,174,364574,22,0,L|226:218,7,23.9999992675781,2|2|2|2|2|2|2|2,0:0|0:0|0:0|0:0|0:0|0:0|0:0|0:0,0:0:0:0:
212,266,364917,70,0,B|165:273|165:273|77:262,1,103.999995239258,4|0,3:2|0:0,0:0:0:0:
312,80,365260,2,0,L|304:202,1,103.999995239258,8|2,0:0|0:0,0:0:0:0:
108,265,365603,1,2,0:0:0:0:
432,199,365774,1,0,3:0:0:0:
127,103,365946,1,8,0:0:0:0:
311,334,366117,6,0,L|434:310,1,103.999995239258,2|0,0:0|3:0,0:0:0:0:
196,344,366460,1,2,0:0:0:0:
495,250,366631,2,0,P|513:197|470:133,1,103.999995239258,8|2,0:0|0:0,0:0:0:0:
195,63,366974,1,2,0:0:0:0:
235,278,367146,1,0,3:0:0:0:
376,27,367317,1,8,0:0:0:0:
413,314,367489,70,0,B|380:323|380:323|305:315,1,103.999995239258,2|0,0:0|3:0,0:0:0:0:
148,295,367831,1,0,0:0:0:0:
479,258,368003,2,0,P|499:319|482:365,1,103.999995239258,8|2,0:0|0:0,0:0:0:0:
310,315,368346,1,2,0:0:0:0:
229,36,368517,1,0,3:0:0:0:
86,247,368689,1,8,0:0:0:0:
255,129,368860,6,0,L|376:136,1,103.999995239258,2|0,0:0|3:0,0:0:0:0:
512,139,369203,1,2,0:0:0:0:
281,222,369374,2,0,B|239:229|239:229|160:207,1,103.999995239258,8|2,0:0|0:0,0:0:0:0:
239,37,369717,1,2,0:0:0:0:
314,320,369889,1,0,3:0:0:0:
86,247,370060,2,0,B|79:233|72:218|72:218|80:173|70:129|70:129|75:152|105:163,1,155.999992858887,8|0,0:0|0:0,0:0:0:0:
89,155,370403,70,0,L|123:149,7,25.9999988098145,0|0|0|0|0|0|0|0,3:0|0:0|0:0|0:0|0:0|0:0|0:0|0:0,0:0:0:0:
86,247,370746,2,0,L|52:241,6,25.9999988098145,8|0|0|0|2|0|0,0:0|0:0|0:0|0:0|0:0|0:0|0:0,0:0:0:0:
108,338,371089,1,2,0:0:0:0:
0,172,371260,1,0,3:0:0:0:
366,224,371431,1,8,0:0:0:0:
187,101,371603,6,0,B|182:60|182:60|199:-2,1,103.999995239258,2|0,0:0|3:0,0:0:0:0:
408,156,371946,1,2,0:0:0:0:
189,258,372117,2,0,L|82:246,1,103.999995239258,8|2,0:0|0:0,0:0:0:0:
332,351,372460,1,2,0:0:0:0:
282,14,372631,1,0,3:0:0:0:
85,246,372803,1,8,0:0:0:0:
264,226,372974,70,0,B|303:217|303:217|380:226,1,103.999995239258,2|0,0:0|3:0,0:0:0:0:
219,339,373317,1,0,0:0:0:0:
296,118,373489,2,0,L|281:6,1,103.999995239258,8|2,0:0|0:0,0:0:0:0:
50,141,373831,1,2,0:0:0:0:
366,224,374003,1,0,3:0:0:0:
105,342,374174,1,8,0:0:0:0:
165,166,374346,6,0,B|187:53,1,103.999995239258,2|0,0:0|3:0,0:0:0:0:
358,226,374689,1,2,0:0:0:0:
209,351,374860,2,0,L|100:342,1,103.999995239258,8|2,0:0|0:0,0:0:0:0:
184,63,375203,1,2,0:0:0:0:
217,356,375374,1,0,3:0:0:0:
404,148,375546,2,0,B|512:164|512:164|436:188,1,155.999992858887,8|2,0:0|0:0,0:0:0:0:
289,142,375889,69,4,3:2:0:0:
225,361,376060,1,0,0:0:0:0:
103,206,376231,2,0,B|63:200|63:200|-7:211,1,103.999995239258,8|2,0:0|0:0,0:0:0:0:
236,367,376574,1,2,0:0:0:0:
239,81,376746,1,0,3:0:0:0:
54,282,376917,1,8,0:0:0:0:
247,86,377089,6,0,B|286:76|286:76|359:91,1,103.999995239258,2|0,0:0|3:0,0:0:0:0:
384,258,377431,1,2,0:0:0:0:
157,116,377603,2,0,P|154:66|184:16,1,103.999995239258,8|2,0:0|0:0,0:0:0:0:
427,107,377946,1,2,0:0:0:0:
117,219,378117,1,0,3:0:0:0:
391,270,378289,1,8,0:0:0:0:
182,27,378460,1,2,0:0:0:0:
124,224,378631,69,0,3:0:0:0:
421,178,378803,1,0,0:0:0:0:
160,328,378974,2,0,P|99:318|41:313,1,95.9999970703126,8|0,0:1|0:0,0:0:0:0:
171,18,379317,1,8,0:0:0:0:
257,293,379489,1,0,3:0:0:0:
375,90,379660,2,0,P|420:82|475:93,1,95.9999970703126,8|0,0:1|0:0,0:0:0:0:
291,233,380003,21,8,0:0:0:0:
260,223,380089,1,8,0:0:0:0:
229,228,380174,1,0,3:0:0:0:
204,247,380260,1,0,3:0:0:0:
156,209,380346,5,8,0:0:0:0:
192,180,380431,1,8,0:0:0:0:
238,189,380517,1,0,3:0:0:0:
262,228,380603,1,0,3:0:0:0:
256,291,380689,5,8,3:0:0:0:
317,295,380774,1,8,3:0:0:0:
357,248,380860,1,8,3:0:0:0:
342,188,380946,1,8,3:0:0:0:
308,139,381031,37,4,3:0:0:0:
299,81,381117,1,4,3:0:0:0:
339,40,381203,1,4,3:0:0:0:
397,46,381289,1,4,3:0:0:0:
425,96,381374,70,0,L|414:202,1,103.999995239258,4|0,3:2|0:0,0:0:0:0:
193,350,381717,2,0,L|204:244,1,103.999995239258,8|2,0:0|0:0,0:0:0:0:
207,220,381974,1,0,0:0:0:0:
209,194,382060,1,2,0:0:0:0:
39,246,382231,1,0,3:0:0:0:
292,321,382403,1,8,0:0:0:0:
187,115,382574,6,0,B|182:76|182:76|193:7,1,103.999995239258,2|0,0:0|3:0,0:0:0:0:
207,220,382917,1,2,0:0:0:0:
329,60,383089,2,0,L|446:67,1,103.999995239258,8|2,0:0|0:0,0:0:0:0:
458,69,383346,1,0,0:0:0:0:
483,72,383431,1,2,0:0:0:0:
207,220,383603,1,0,3:0:0:0:
329,60,383774,1,8,0:0:0:0:
396,250,383946,70,0,L|384:364,1,103.999995239258,2|0,0:0|3:0,0:0:0:0:
368,155,384289,1,0,0:0:0:0:
240,310,384460,2,0,P|170:310|119:263,1,103.999995239258,8|2,0:0|0:0,0:0:0:0:
115,265,384717,1,0,0:0:0:0:
94,231,384803,1,2,0:0:0:0:
295,241,384974,1,0,3:0:0:0:
27,285,385146,1,8,0:0:0:0:
191,138,385317,6,0,B|202:95|202:95|193:18,1,103.999995239258,2|0,0:0|3:0,0:0:0:0:
42,52,385660,1,2,0:0:0:0:
94,231,385831,2,0,L|214:234,1,103.999995239258,8|2,0:0|0:0,0:0:0:0:
247,237,386089,1,0,0:0:0:0:
295,241,386174,1,2,0:0:0:0:
35,289,386346,1,0,3:0:0:0:
288,164,386517,2,0,L|326:169,1,25.9999988098145,8|2,0:0|0:0,0:0:0:0:
303,133,386603,2,0,L|341:134,1,25.9999988098145,2|2,0:0|0:0,0:0:0:0:
302,98,386689,2,0,L|340:96,1,25.9999988098145,2|2,0:0|0:0,0:0:0:0:
286,68,386774,2,0,L|323:62,1,25.9999988098145,2|2,0:0|0:0,0:0:0:0:
228,116,386860,70,0,B|188:124|188:124|114:113,1,103.999995239258,0|0,3:0|0:0,0:0:0:0:
295,241,387203,2,0,B|335:233|335:233|409:244,1,103.999995239258,8|2,0:0|0:0,0:0:0:0:
482,258,387460,1,0,0:0:0:0:
482,258,387546,1,2,0:0:0:0:
284,383,387717,1,0,3:0:0:0:
302,98,387889,1,8,0:0:0:0:
163,259,388060,6,0,L|55:248,1,103.999995239258,2|0,0:0|3:0,0:0:0:0:
284,383,388403,1,2,0:0:0:0:
59,248,388574,2,0,P|45:193|67:141,1,103.999995239258,8|2,0:0|0:0,0:0:0:0:
127,105,388831,1,0,0:0:0:0:
127,105,388917,1,2,0:0:0:0:
101,336,389089,1,0,3:0:0:0:
54,74,389260,1,8,0:0:0:0:
205,209,389431,70,0,L|317:217,1,103.999995239258,2|0,0:0|3:0,0:0:0:0:
281,39,389774,1,0,0:0:0:0:
152,265,389946,2,0,P|210:286|251:270,1,103.999995239258,8|2,0:0|0:0,0:0:0:0:
283,250,390203,1,0,0:0:0:0:
308,216,390289,1,2,0:0:0:0:
159,362,390460,1,0,3:0:0:0:
240,122,390631,1,8,0:0:0:0:
321,317,390803,6,0,L|437:333,1,103.999995239258,2|0,0:0|3:0,0:0:0:0:
205,209,391146,1,2,0:0:0:0:
481,265,391317,2,0,P|500:209|471:159,1,103.999995239258,8|2,0:0|0:0,0:0:0:0:
459,146,391574,1,0,3:0:0:0:
428,132,391660,2,0,P|402:129|361:144,1,51.999997619629,2|0,0:0|0:0,0:0:0:0:
425,331,391831,2,0,P|460:348|484:349,1,51.999997619629,0|0,3:0|0:0,0:0:0:0:
307,203,392003,2,0,B|273:197|273:197|186:211,1,103.999995239258,8|0,0:0|0:0,0:0:0:0:
84,313,392346,38,0,L|178:327,1,80,4|2,3:2|0:0,0:0:0:0:
249,339,392689,1,8,0:0:0:0:
18,343,392860,1,2,0:0:0:0:
11,304,392946,1,0,0:0:0:0:
27,268,393031,1,2,0:0:0:0:
249,339,393203,1,8,0:0:0:0:
55,239,393374,1,2,0:0:0:0:
90,221,393460,1,0,0:0:0:0:
130,219,393546,1,2,0:0:0:0:
167,233,393631,1,0,0:0:0:0:
196,261,393717,6,0,P|242:270|285:254,1,80,0|2,3:0|0:0,0:0:0:0:
334,152,394060,1,8,0:0:0:0:
406,292,394231,1,2,0:0:0:0:
400,331,394317,1,0,0:0:0:0:
394,371,394403,1,2,0:0:0:0:
234,187,394574,1,8,0:0:0:0:
338,15,394746,1,2,0:0:0:0:
362,45,394831,1,0,0:0:0:0:
370,84,394917,1,2,0:0:0:0:
360,122,395003,1,0,0:0:0:0:
333,151,395089,69,0,3:0:0:0:
463,9,395260,1,2,0:0:0:0:
277,82,395431,2,0,L|195:75,1,80,8|2,0:0|0:0,0:0:0:0:
181,87,395689,1,0,0:0:0:0:
165,99,395774,1,2,0:0:0:0:
333,151,395946,2,0,P|369:104|365:63,1,80,8|2,0:0|0:0,0:0:0:0:
361,67,396203,1,0,0:0:0:0:
352,48,396289,1,2,0:0:0:0:
343,30,396374,1,0,0:0:0:0:
334,11,396460,5,0,3:0:0:0:
457,139,396631,1,2,0:0:0:0:
264,211,396803,2,0,L|179:199,1,80,8|2,0:0|0:0,0:0:0:0:
145,192,397060,1,0,0:0:0:0:
105,185,397146,1,2,0:0:0:0:
333,151,397317,2,0,P|355:200|346:248,1,80,8|2,0:0|0:0,0:0:0:0:
338,260,397574,1,0,0:0:0:0:
326,298,397660,1,2,0:0:0:0:
327,338,397746,1,0,0:0:0:0:
339,375,397831,69,4,3:2:0:0:
469,244,398003,1,2,0:0:0:0:
241,215,398174,1,8,0:0:0:0:
411,315,398346,1,2,0:0:0:0:
411,315,398431,1,0,0:0:0:0:
411,315,398517,1,2,0:0:0:0:
445,141,398689,1,8,0:0:0:0:
241,215,398860,1,2,0:0:0:0:
224,251,398946,1,0,0:0:0:0:
222,290,399031,1,2,0:0:0:0:
234,328,399117,1,0,0:0:0:0:
259,360,399203,5,0,3:0:0:0:
156,176,399374,1,2,0:0:0:0:
95,342,399546,1,8,0:0:0:0:
312,279,399717,1,2,0:0:0:0:
312,279,399803,1,0,0:0:0:0:
312,279,399889,1,2,0:0:0:0:
127,260,400060,1,8,0:0:0:0:
293,104,400231,1,2,0:0:0:0:
327,140,400317,1,0,0:0:0:0:
342,187,400403,1,2,0:0:0:0:
337,236,400489,1,0,0:0:0:0:
311,278,400574,69,8,0:0:0:0:
161,116,400746,1,0,3:0:0:0:
275,296,400917,5,8,0:0:0:0:
159,89,401089,1,0,3:0:0:0:
329,314,401260,69,8,0:0:0:0:
164,63,401431,1,0,3:0:0:0:
294,333,401603,5,8,0:0:0:0:
174,38,401774,1,0,3:0:0:0:
87,268,401946,37,8,0:0:0:0:
116,293,402031,1,8,0:0:0:0:
155,300,402117,1,0,3:0:0:0:
192,286,402203,1,0,3:0:0:0:
210,344,402289,37,8,0:0:0:0:
249,310,402374,1,8,0:0:0:0:
248,259,402460,1,0,3:0:0:0:
207,228,402546,1,0,3:0:0:0:
149,234,402631,5,8,3:0:0:0:
166,174,402717,1,8,3:0:0:0:
163,112,402803,1,8,3:0:0:0:
141,54,402889,1,8,3:0:0:0:
91,95,402974,69,4,3:0:0:0:
105,108,403060,1,4,3:0:0:0:
123,117,403146,1,4,3:0:0:0:
143,117,403231,1,4,3:0:0:0:
162,111,403317,1,4,3:2:0:0:
