osu file format v14

[General]
AudioFilename: audio.mp3
AudioLeadIn: 0
PreviewTime: 128245
Countdown: 0
SampleSet: Normal
StackLeniency: 0.7
Mode: 0
LetterboxInBreaks: 0
WidescreenStoryboard: 0

[Editor]
Bookmarks: 18551,100837,105408,109980
DistanceSpacing: 1.2
BeatDivisor: 4
GridSize: 16
TimelineZoom: 1.7

[Metadata]
Title:Country rounds (Sqeepo Remix)
TitleUnicode:Country rounds (Sqeepo Remix)
Artist:Kings & Folk
ArtistUnicode:Kings & Folk
Creator:TheLeviathan
Version:Easy
Source:
Tags:
BeatmapID:1647728
BeatmapSetID:784880

[Difficulty]
HPDrainRate:3
CircleSize:3
OverallDifficulty:3
ApproachRate:3
SliderMultiplier:0.8
SliderTickRate:1

[Events]
//Background and Video events
0,0,"winter_is_coming___remaster_by_jjcanvas-d996ayx.jpg",0,0
//Break Periods
2,91875,99378
//Storyboard Layer 0 (Background)
//Storyboard Layer 1 (Fail)
//Storyboard Layer 2 (Pass)
//Storyboard Layer 3 (Foreground)
//Storyboard Sound Samples

[TimingPoints]
246,571.428571428571,4,1,0,60,1,0
55103,-100,4,1,0,60,0,1
91674,-100,4,1,0,60,0,0
128245,-100,4,1,0,60,0,1
183103,-100,4,1,0,60,0,0

[Colours]
Combo1 : 0,91,183
Combo2 : 0,128,64
Combo3 : 196,196,0
Combo4 : 204,102,0

[HitObjects]
90,59,18532,6,0,P|167:61|240:114,1,160
200,196,20246,1,0,0:0:0:0:
207,291,20818,6,0,P|267:257|288:168,1,160
266,80,22532,1,0,0:0:0:0:
175,49,23104,6,0,P|103:61|32:125,1,160
31,211,24818,1,0,0:0:0:0:
38,306,25389,6,0,P|103:355|189:348,1,160
232,272,27104,1,0,0:0:0:0:
327,276,27675,6,0,L|418:288,1,80
498,258,28818,1,0,0:0:0:0:
417,206,29389,1,0,0:0:0:0:
324,180,29961,6,0,L|245:182,1,80
147,182,31104,1,0,0:0:0:0:
62,136,31675,1,0,0:0:0:0:
146,90,32246,6,0,L|238:74,1,80
296,12,33389,1,0,0:0:0:0:
384,48,33961,1,0,0:0:0:0:
477,68,34532,6,0,P|418:135|350:136,1,160
257,117,36246,1,0,0:0:0:0:
161,123,36818,6,0,L|70:140,1,80
20,211,37961,2,0,L|111:231,1,80
146,311,39104,6,0,L|232:312,1,80
312,352,40246,2,0,L|396:303,1,80
388,215,41389,6,0,L|474:202,2,80
294,235,43104,1,0,0:0:0:0:
200,213,43675,6,0,L|120:178,1,80
47,126,44818,2,0,L|126:90,1,80
190,27,45961,6,0,P|246:17|282:19,1,80
287,111,47104,2,0,P|329:143|365:154,1,80
450,155,48246,6,0,P|455:104|435:66,1,80
359,33,49389,2,0,L|276:19,1,80
184,19,50532,5,0,0:0:0:0:
98,62,51104,1,0,0:0:0:0:
184,103,51675,1,0,0:0:0:0:
98,146,52246,1,0,0:0:0:0:
185,185,52818,6,0,P|231:265|124:331,1,240
55,268,55104,5,0,0:0:0:0:
47,172,55675,2,0,P|60:115|81:88,2,80
133,214,57389,6,0,P|178:185|217:178,1,80
280,236,58532,1,0,0:0:0:0:
371,266,59104,1,0,0:0:0:0:
455,220,59675,6,0,P|455:167|436:126,2,80
453,316,61389,1,0,0:0:0:0:
362,348,61961,6,0,B|276:360|276:360|276:360,1,80
187,353,63104,2,0,L|111:318,1,80
48,249,64246,5,0,0:0:0:0:
141,226,64818,2,0,L|226:206,1,80
303,253,65961,1,0,0:0:0:0:
396,231,66532,6,0,P|424:186|427:146,1,80
341,117,67675,2,0,P|300:94|278:61,1,80
364,20,68818,5,0,0:0:0:0:
447,66,69389,2,0,L|439:152,1,80
430,241,70532,1,0,0:0:0:0:
347,192,71104,6,0,L|271:145,2,80
337,287,72818,1,0,0:0:0:0:
424,326,73389,6,0,P|465:297|486:260,1,80
493,177,74532,1,0,0:0:0:0:
467,84,75104,1,0,0:0:0:0:
383,36,75675,6,0,L|287:37,1,80
226,95,76818,2,0,L|139:126,1,80
75,61,77961,5,0,0:0:0:0:
59,155,78532,2,0,L|41:251,2,80
155,156,80246,6,0,P|206:173|234:191,1,80
233,282,81389,2,0,P|289:295|321:292,1,80
391,241,82532,5,0,0:0:0:0:
470,294,83104,1,0,0:0:0:0:
385,339,83675,2,0,P|332:353|295:354,1,80
223,306,84818,5,0,0:0:0:0:
132,338,85389,1,0,0:0:0:0:
140,242,85961,2,0,P|159:196|193:166,1,80
273,197,87104,6,0,P|314:204|365:201,1,80
444,229,88246,2,0,P|480:212|505:171,1,80
501,83,89389,5,0,0:0:0:0:
416,36,89961,1,0,0:0:0:0:
338,93,90532,1,0,0:0:0:0:
261,34,91104,1,0,0:0:0:0:
185,93,91675,5,0,0:0:0:0:
248,190,100818,5,0,0:0:0:0:
256,192,105389,12,0,109389,0:0:0:0:
423,319,109961,6,0,L|361:251,1,80
280,297,111104,2,0,L|275:208,1,80
180,204,112246,2,0,L|216:123,1,80
141,66,113389,2,0,L|220:28,1,80
308,16,114532,6,0,L|301:98,1,80
396,104,115675,2,0,L|354:183,1,80
441,223,116818,2,0,L|365:271,1,80
410,354,117961,2,0,L|312:355,1,80
234,347,119104,5,0,0:0:0:0:
169,275,119675,1,0,0:0:0:0:
121,358,120246,1,0,0:0:0:0:
63,281,120818,1,0,0:0:0:0:
13,199,121389,6,0,L|14:108,2,80
102,163,123104,1,0,0:0:0:0:
165,91,123675,5,0,0:0:0:0:
237,28,124246,1,0,0:0:0:0:
301,99,124818,1,0,0:0:0:0:
363,171,125389,1,0,0:0:0:0:
433,235,125961,6,0,B|476:155|476:155|466:73,1,160
388,31,127675,1,0,0:0:0:0:
331,108,128246,6,0,P|280:130|240:135,1,80
206,52,129389,2,0,P|156:41|118:41,1,80
31,49,130531,6,0,L|28:135,1,80
119,159,131674,2,0,L|160:233,1,80
253,222,132817,5,0,0:0:0:0:
337,267,133388,2,0,P|296:304|259:319,2,80
395,190,135103,5,0,0:0:0:0:
460,120,135674,1,0,0:0:0:0:
388,55,136246,1,0,0:0:0:0:
321,123,136817,1,0,0:0:0:0:
270,41,137388,6,0,P|232:25|181:23,1,80
97,29,138531,2,0,L|56:119,1,80
148,146,139674,6,0,L|203:212,1,80
180,301,140817,2,0,L|266:338,1,80
343,298,141960,6,0,L|422:273,2,80
253,332,143674,1,0,0:0:0:0:
156,329,144246,6,0,L|92:277,1,80
3,245,145388,2,0,L|28:162,1,80
122,167,146531,6,0,P|169:151|200:129,1,80
164,42,147674,1,0,0:0:0:0:
257,21,148246,1,0,0:0:0:0:
348,48,148817,5,0,0:0:0:0:
429,98,149388,2,0,L|473:174,1,80
484,262,150531,1,0,0:0:0:0:
404,316,151103,6,0,L|317:297,1,80
236,333,152245,2,0,L|176:261,1,80
123,197,153388,5,0,0:0:0:0:
218,191,153960,2,0,L|306:188,2,80
256,102,155674,5,0,0:0:0:0:
165,69,156245,2,0,L|87:49,1,80
10,106,157388,1,0,0:0:0:0:
31,199,157960,6,0,L|46:283,1,80
127,326,159103,2,0,L|143:245,1,80
146,151,160245,5,0,0:0:0:0:
207,77,160817,2,0,P|246:73|303:77,1,80
282,170,161960,1,0,0:0:0:0:
361,223,162531,6,0,P|415:214|446:197,1,80
492,124,163674,2,0,P|492:81|467:35,1,80
382,33,164817,5,0,0:0:0:0:
286,45,165388,2,0,L|203:60,2,80
346,119,167103,5,0,0:0:0:0:
426,171,167674,2,0,L|397:255,1,80
445,331,168817,1,0,0:0:0:0:
349,332,169388,6,0,L|257:331,1,80
173,336,170531,1,0,0:0:0:0:
78,354,171103,1,0,0:0:0:0:
102,261,171674,5,0,0:0:0:0:
196,241,172245,1,0,0:0:0:0:
288,213,172817,2,0,L|381:187,1,80
405,104,173960,6,0,L|312:88,1,80
271,11,175103,2,0,L|188:52,1,80
126,108,176245,6,0,P|84:119|39:120,2,80
216,139,177960,1,0,0:0:0:0:
291,198,178531,6,0,P|333:218|372:227,2,80
199,226,180245,1,0,0:0:0:0:
116,274,180817,6,0,P|72:302|37:312,2,80
202,315,182531,1,0,0:0:0:0:
288,272,183103,6,0,P|344:256|375:251,1,80
417,332,184245,2,0,P|466:300|482:275,1,80
500,189,185388,2,0,L|472:105,1,80
412,39,186531,2,0,L|380:122,1,80
359,206,187674,6,0,P|306:215|275:215,1,80
254,122,188817,2,0,P|218:139|176:169,1,80
157,253,189960,2,0,P|104:246|67:230,1,80
29,154,191103,2,0,P|51:108|76:78,1,80
164,89,192245,6,0,L|256:93,1,80
304,17,193388,2,0,L|385:54,1,80
472,57,194531,2,0,L|471:147,1,80
482,232,195674,2,0,L|403:202,1,80
327,257,196817,6,0,L|248:283,1,80
175,342,197960,2,0,P|134:300|124:265,1,80
28,264,199103,2,0,P|35:215|59:179,1,80
20,97,200245,2,0,P|66:68|106:61,1,80
174,107,201388,6,0,B|251:168|251:168|328:158|328:158|398:183,1,240
355,269,203674,6,0,B|269:281|269:281|189:259|189:259|118:265,1,240
42,206,205960,6,0,B|26:120|26:120|61:51|61:51|146:20,1,240
225,43,208245,6,0,B|290:102|290:102|372:101|372:101|434:41,1,240
508,95,210531,6,0,P|466:170|513:317,1,240
426,363,212817,6,0,P|351:320|203:365,1,240
124,314,215103,6,0,P|163:237|95:104,1,240
180,53,217388,6,0,P|265:97|409:57,1,240
