osu file format v14

[General]
AudioFilename: audio.mp3
AudioLeadIn: 0
PreviewTime: -1
Countdown: 1
SampleSet: Soft
StackLeniency: 0.2
Mode: 0
LetterboxInBreaks: 0
WidescreenStoryboard: 0

[Editor]
DistanceSpacing: 1.5
BeatDivisor: 8
GridSize: 8
TimelineZoom: 2.5

[Metadata]
Title:Dearly Beloved (Leg Day Remix)
TitleUnicode:Dearly Beloved (Leg Day Remix)
Artist:Kingdom Hearts
ArtistUnicode:Kingdom Hearts
Creator:Sophia
Version:~
Source:
Tags:
BeatmapID:1324722
BeatmapSetID:628340

[Difficulty]
HPDrainRate:6
CircleSize:5
OverallDifficulty:7
ApproachRate:8
SliderMultiplier:1.4
SliderTickRate:1

[Events]
//Background and Video events
0,0,"sakura_tree.jpg",0,0
//Break Periods
//Storyboard Layer 0 (Background)
//Storyboard Layer 1 (Fail)
//Storyboard Layer 2 (Pass)
//Storyboard Layer 3 (Foreground)
//Storyboard Sound Samples

[TimingPoints]
27555,857.142857142857,4,2,0,30,1,0
82412,-100,4,2,0,70,0,0
165126,-200,4,2,0,70,0,0
168126,-100,4,2,0,70,0,0
189126,-200,4,2,0,70,0,0
192126,-100,4,2,0,30,0,0

[HitObjects]
256,192,27554,5,0,0:0:0:0:
296,144,28412,1,0,0:0:0:0:
336,96,29269,1,0,0:0:0:0:
256,192,30126,1,0,0:0:0:0:
336,96,30983,5,0,0:0:0:0:
376,144,31840,1,0,0:0:0:0:
416,192,32697,1,0,0:0:0:0:
256,192,33554,1,0,0:0:0:0:
416,192,34412,5,0,0:0:0:0:
376,240,35269,1,0,0:0:0:0:
336,288,36126,1,0,0:0:0:0:
256,192,36983,6,0,L|232:192,2,17.5
336,288,37840,5,0,0:0:0:0:
296,240,38697,1,0,0:0:0:0:
256,192,39554,1,0,0:0:0:0:
256,192,40412,1,2,0:0:0:0:
256,192,41269,5,0,0:0:0:0:
216,144,42126,1,0,0:0:0:0:
176,96,42983,1,0,0:0:0:0:
256,192,43840,1,0,0:0:0:0:
176,96,44697,5,0,0:0:0:0:
136,144,45554,1,0,0:0:0:0:
96,192,46411,1,0,0:0:0:0:
256,192,47268,1,0,0:0:0:0:
96,192,48126,5,0,0:0:0:0:
136,240,48983,1,0,0:0:0:0:
176,288,49840,1,0,0:0:0:0:
256,192,50697,1,0,0:0:0:0:
176,288,51554,5,0,0:0:0:0:
216,240,52411,1,0,0:0:0:0:
256,192,53268,1,0,0:0:0:0:
256,192,54126,1,0,0:0:0:0:
256,192,54983,5,0,0:0:0:0:
256,128,55412,2,0,L|224:128,4,17.5
256,64,56269,1,0,0:0:0:0:
320,64,56483,2,0,L|344:64,2,17.5
320,128,57126,6,0,L|344:128,4,17.5
320,192,57769,1,0,0:0:0:0:
320,256,57983,1,0,0:0:0:0:
320,320,58197,2,0,L|320:352,2,17.5
384,320,58840,6,0,L|416:320,4,17.5,0|0|0|0|8,0:0|0:0|0:0|0:0|0:0,0:0:0:0:
384,256,59697,1,0,0:0:0:0:
384,192,59912,1,0,0:0:0:0:
384,128,60126,1,0,0:0:0:0:
384,64,60554,6,0,L|384:40,4,17.5,0|0|0|0|8,0:0|0:0|0:0|0:0|0:0,0:0:0:0:
320,64,61197,1,0,0:0:0:0:
384,64,61412,1,0,0:0:0:0:
448,64,61626,2,0,L|472:64,2,17.5
448,128,62269,6,0,L|472:128,4,17.5,0|0|0|0|8,0:0|0:0|0:0|0:0|0:0,0:0:0:0:
448,192,63126,1,0,0:0:0:0:
448,256,63340,2,0,L|480:256,2,17.5
448,320,63983,6,0,L|472:320,4,17.5,0|0|0|0|8,0:0|0:0|0:0|0:0|0:0,0:0:0:0:
384,320,64626,1,0,0:0:0:0:
320,320,64840,1,0,0:0:0:0:
256,320,65054,2,0,L|256:296,2,17.5
192,320,65697,6,0,L|192:288,4,17.5,0|0|0|0|8,0:0|0:0|0:0|0:0|0:0,0:0:0:0:
128,320,66554,1,0,0:0:0:0:
64,320,66769,1,0,0:0:0:0:
0,320,66983,1,0,0:0:0:0:
0,256,67412,6,0,L|-24:256,4,17.5,0|0|0|0|8,0:0|0:0|0:0|0:0|0:0,0:0:0:0:
64,256,68054,1,0,0:0:0:0:
128,256,68269,1,0,0:0:0:0:
192,256,68483,2,0,L|216:256,2,17.5
192,192,69126,6,0,L|224:192,4,17.5,0|0|0|0|8,0:0|0:0|0:0|0:0|0:0,0:0:0:0:
128,192,69983,1,0,0:0:0:0:
64,192,70197,2,0,L|32:192,2,17.5
64,128,70840,6,0,L|40:128,4,17.5,0|0|0|0|8,0:0|0:0|0:0|0:0|0:0,0:0:0:0:
128,128,71483,1,0,0:0:0:0:
192,128,71697,1,0,0:0:0:0:
256,128,71912,2,0,L|256:160,2,17.5
256,64,72554,6,0,L|256:32,4,17.5,0|0|0|0|8,0:0|0:0|0:0|0:0|0:0,0:0:0:0:
192,64,73412,1,0,0:0:0:0:
128,64,73626,1,0,0:0:0:0:
64,64,73840,1,0,0:0:0:0:
0,64,74269,6,0,L|-24:64,4,17.5,0|0|0|0|8,0:0|0:0|0:0|0:0|0:0,0:0:0:0:
0,0,74912,1,0,0:0:0:0:
64,0,75126,1,0,0:0:0:0:
128,0,75340,2,0,L|128:-24,2,17.5
192,0,75769,1,0,0:0:0:0:
256,0,75983,2,0,L|256:-24,4,17.5
320,0,76626,1,0,0:0:0:0:
384,0,76840,1,0,0:0:0:0:
448,0,77054,2,0,L|472:0,2,17.5
448,64,77483,1,0,0:0:0:0:
448,128,77697,2,0,L|472:128,4,17.5
448,192,78340,1,0,0:0:0:0:
384,192,78554,1,0,0:0:0:0:
320,192,78769,1,0,0:0:0:0:
256,192,78983,5,0,0:0:0:0:
256,192,79840,1,0,0:0:0:0:
256,192,80697,1,0,0:0:0:0:
256,192,81554,1,0,0:0:0:0:
256,192,81983,1,0,0:0:0:0:
256,128,82126,1,0,0:0:0:0:
256,64,82269,1,0,0:0:0:0:
256,0,82412,6,0,P|296:8|308:15,1,46.6666666666667
328,72,82840,2,0,P|352:88|369:86,1,46.6666666666667
416,40,83269,2,0,P|440:56|448:77,1,46.6666666666667
504,112,83697,2,0,P|488:144|473:160,1,46.6666666666667
488,224,84126,2,0,P|456:232|433:233,1,46.6666666666667
352,224,84554,2,0,P|336:192|336:171,1,46.6666666666667
400,168,84983,2,0,P|400:136|383:106,1,46.6666666666667
328,96,85412,5,0,0:0:0:0:
272,136,85554,1,0,0:0:0:0:
216,176,85697,1,0,0:0:0:0:
160,216,85840,6,0,P|136:240|135:258,1,46.6666666666667
72,288,86269,2,0,P|96:312|114:319,1,46.6666666666667
120,384,86697,2,0,P|160:368|174:352,1,46.6666666666667
176,288,87126,2,0,P|208:288|237:304,1,46.6666666666667
240,232,87554,2,0,P|272:240|284:262,1,46.6666666666667
312,320,87983,2,0,P|336:304|350:284,1,46.6666666666667
360,216,88412,5,0,0:0:0:0:
312,176,88554,1,0,0:0:0:0:
264,136,88697,1,0,0:0:0:0:
216,96,88840,1,0,0:0:0:0:
168,56,88983,1,0,0:0:0:0:
120,16,89126,1,0,0:0:0:0:
56,32,89269,6,0,P|40:72|48:84,1,46.6666666666667
16,143,89697,2,0,P|48:143|75:126,1,46.6666666666667
40,216,90126,2,0,P|64:208|91:192,1,46.6666666666667
200,128,90554,2,0,P|168:160|154:169,1,46.6666666666667
80,280,90983,2,0,P|104:272|135:257,1,46.6666666666667
231,192,91412,2,0,P|215:208|191:224,1,46.6666666666667
208,344,91840,2,0,P|208:312|195:289,1,46.6666666666667
288,288,92269,2,0,P|272:256|252:248,1,46.6666666666667
360,296,92697,6,0,P|360:272|368:243,1,46.6666666666667
408,360,93126,2,0,P|416:336|420:300,1,46.6666666666667
432,160,93554,2,0,P|440:192|436:220,1,46.6666666666667
394,87,93983,2,0,P|378:111|372:142,1,46.6666666666667
328,63,94412,2,0,P|344:47|373:21,1,46.6666666666667
264,32,94840,2,0,P|256:64|263:84,1,46.6666666666667
176,192,95269,2,0,P|216:184|230:176,1,46.6666666666667
288,152,95697,1,0,0:0:0:0:
288,152,96126,6,0,P|288:184|272:216,1,46.6666666666667
360,200,96554,2,0,P|352:224|328:248,1,46.6666666666667
408,264,96983,2,0,P|400:288|368:304,1,46.6666666666667
424,352,97412,2,0,P|392:360|360:360,1,46.6666666666667
296,352,97840,2,0,P|296:320|304:304,1,46.6666666666667
216,320,98269,2,0,P|224:288|240:272,1,46.6666666666667
136,296,98697,2,0,P|136:264|152:256,1,46.6666666666667
48,240,99126,1,0,0:0:0:0:
48,240,99340,5,0,0:0:0:0:
48,240,99554,2,0,P|64:208|80:208,1,46.6666666666667
16,144,99983,2,0,P|40:128|72:128,1,46.6666666666667
40,56,100412,2,0,P|64:56|88:64,1,46.6666666666667
136,16,100840,2,0,P|168:40|168:56,1,46.6666666666667
248,16,101269,2,0,P|256:48|248:72,1,46.6666666666667
336,32,101697,2,0,P|336:56|328:80,1,46.6666666666667
432,48,102126,2,0,P|432:80|416:96,1,46.6666666666667
504,112,102554,5,0,0:0:0:0:
448,160,102697,1,0,0:0:0:0:
392,208,102840,1,0,0:0:0:0:
336,256,102983,6,0,L|320:280,2,23.3333333333333
272,216,103412,2,0,P|248:224|240:224,2,23.3333333333333
256,144,103840,2,0,P|232:128|232:120,2,23.3333333333333
288,80,104269,2,0,P|280:64|280:56,2,23.3333333333333
360,88,104697,2,0,P|368:64|376:56,2,23.3333333333333
424,136,105126,2,0,P|440:120|448:120,2,23.3333333333333
424,208,105554,2,0,P|448:216|456:224,2,23.3333333333333
368,256,105983,2,0,B|384:272|392:288,2,23.3333333333333
288,264,106412,6,0,L|296:288,2,23.3333333333333
216,240,106840,2,0,L|224:264,2,23.3333333333333
144,208,107269,2,0,L|152:240,2,23.3333333333333
80,168,107697,2,0,L|88:200,2,23.3333333333333
48,88,108126,2,0,L|40:128,2,23.3333333333333
120,56,108554,2,0,L|112:96,2,23.3333333333333
192,32,108983,1,0,0:0:0:0:
256,192,109840,5,0,0:0:0:0:
256,128,110697,1,0,0:0:0:0:
256,64,111554,1,0,0:0:0:0:
256,192,112412,1,0,0:0:0:0:
256,192,113269,5,0,0:0:0:0:
304,144,114126,1,0,0:0:0:0:
352,96,114983,1,0,0:0:0:0:
256,192,115840,1,0,0:0:0:0:
256,192,116697,5,0,0:0:0:0:
320,192,117554,1,0,0:0:0:0:
384,192,118412,1,0,0:0:0:0:
256,192,119269,1,0,0:0:0:0:
256,192,120126,5,0,0:0:0:0:
304,240,120983,1,0,0:0:0:0:
352,288,121840,1,0,0:0:0:0:
256,192,122697,1,0,0:0:0:0:
256,192,123554,5,0,0:0:0:0:
256,256,124411,1,0,0:0:0:0:
256,320,125269,1,0,0:0:0:0:
256,192,126126,1,0,0:0:0:0:
256,192,126983,5,0,0:0:0:0:
208,240,127840,1,0,0:0:0:0:
160,288,128697,1,0,0:0:0:0:
256,192,129554,1,0,0:0:0:0:
256,192,130412,5,0,0:0:0:0:
192,192,131269,1,0,0:0:0:0:
128,192,132127,1,0,0:0:0:0:
256,192,132984,1,0,0:0:0:0:
256,192,133840,5,0,0:0:0:0:
208,144,134697,1,0,0:0:0:0:
160,96,135554,1,0,0:0:0:0:
256,192,136411,5,0,0:0:0:0:
208,152,136554,1,0,0:0:0:0:
208,88,136697,1,0,0:0:0:0:
256,48,136840,1,0,0:0:0:0:
304,88,136983,1,0,0:0:0:0:
304,152,137126,1,0,0:0:0:0:
256,192,137269,5,0,0:0:0:0:
256,264,137697,6,0,L|280:264,4,17.5
256,336,138554,5,0,0:0:0:0:
184,336,138769,2,0,L|184:360,2,17.5
112,336,139412,6,0,L|112:360,4,17.5
40,336,140054,1,0,0:0:0:0:
40,264,140269,1,0,0:0:0:0:
40,192,140483,2,0,L|16:192,2,17.5
40,120,141126,6,0,L|16:120,4,17.5
40,48,141983,5,0,0:0:0:0:
112,48,142197,1,0,0:0:0:0:
184,48,142412,1,0,0:0:0:0:
256,48,142840,6,0,L|256:24,4,17.5
328,48,143483,1,0,0:0:0:0:
400,48,143697,1,0,0:0:0:0:
472,48,143912,2,0,L|472:16,2,17.5
472,120,144554,6,0,L|496:120,4,17.5
472,192,145412,5,0,0:0:0:0:
472,264,145626,2,0,L|496:264,2,17.5
472,336,146269,6,0,L|496:336,4,17.5
400,336,146912,1,0,0:0:0:0:
328,336,147126,1,0,0:0:0:0:
256,336,147340,2,0,L|256:360,2,17.5
184,336,147983,6,0,L|184:360,4,17.5
112,336,148840,5,0,0:0:0:0:
40,336,149054,2,0,L|40:360,2,17.5
40,264,149697,6,0,L|16:264,4,17.5
40,192,150340,1,0,0:0:0:0:
40,120,150554,1,0,0:0:0:0:
40,48,150769,2,0,L|16:48,2,17.5
112,48,151412,6,0,L|112:16,4,17.5
184,48,152269,5,0,0:0:0:0:
256,48,152483,2,0,L|256:24,2,17.5
328,48,153126,6,0,L|328:24,4,17.5
400,48,153769,1,0,0:0:0:0:
472,48,153983,1,0,0:0:0:0:
472,120,154197,2,0,L|496:120,2,17.5
472,192,154840,6,0,L|504:192,4,17.5
472,264,155697,5,0,0:0:0:0:
472,336,155912,2,0,L|496:336,2,17.5
400,336,156554,6,0,L|400:368,4,17.5
328,336,157197,1,0,0:0:0:0:
256,336,157412,1,0,0:0:0:0:
184,336,157626,2,0,L|184:360,2,17.5
112,336,158054,1,0,0:0:0:0:
40,336,158269,2,0,L|40:360,4,17.5
40,264,158912,1,0,0:0:0:0:
40,192,159126,1,0,0:0:0:0:
40,120,159340,2,0,L|16:120,2,17.5
40,48,159769,1,0,0:0:0:0:
112,48,159983,2,0,L|112:24,4,17.5
184,48,160626,1,0,0:0:0:0:
256,48,160840,1,0,0:0:0:0:
328,48,161054,5,0,0:0:0:0:
328,96,161162,1,0,0:0:0:0:
328,144,161269,2,0,P|352:152|368:152,2,23.3333333333333
328,192,161697,2,0,L|312:192,2,11.6666666666667
328,240,161983,2,0,L|360:240,2,23.3333333333333
296,272,162412,1,0,0:0:0:0:
240,280,162554,2,0,L|240:264,2,11.6666666666667
184,280,162840,1,0,0:0:0:0:
144,256,162983,1,0,0:0:0:0:
128,216,163126,1,0,0:0:0:0:
136,176,163269,1,0,0:0:0:0:
160,144,163412,1,0,0:0:0:0:
200,144,163554,1,0,0:0:0:0:
232,168,163697,1,0,0:0:0:0:
256,192,163840,5,0,0:0:0:0:
288,160,163983,1,0,0:0:0:0:
320,136,164126,1,0,0:0:0:0:
360,128,164269,1,0,0:0:0:0:
400,136,164412,1,0,0:0:0:0:
432,160,164554,1,0,0:0:0:0:
464,192,164697,1,0,0:0:0:0:
368,248,165126,6,0,P|360:264|352:264,1,23.3333333333333
344,240,165554,1,0,0:0:0:0:
248,67,165983,6,0,P|266:65|270:72,1,23.3333333333333
253,91,166411,1,0,0:0:0:0:
151,260,166840,6,0,P|141:246|145:239,1,23.3333333333333
170,244,167268,1,0,0:0:0:0:
368,248,167697,6,0,P|360:264|352:264,1,23.3333333333333
344,240,168126,2,0,P|312:248|280:240,1,46.6666666666667
304,184,168554,2,0,P|280:184|256:176,1,46.6666666666667
280,112,168983,2,0,P|256:112|240:96,1,46.6666666666667
304,48,169412,2,0,P|288:32|304:16,1,46.6666666666667
368,64,169840,2,0,P|376:40|400:32,1,46.6666666666667
416,120,170269,2,0,P|432:96|456:88,1,46.6666666666667
432,192,170697,2,0,P|464:168|480:160,1,46.6666666666667
480,240,171126,5,0,0:0:0:0:
416,288,171269,1,0,0:0:0:0:
336,296,171412,1,0,0:0:0:0:
264,256,171554,6,0,P|240:272|240:280,2,23.3333333333333
248,184,171983,2,0,L|224:200,2,23.3333333333333
192,128,172412,2,0,L|184:152,2,23.3333333333333
120,96,172840,2,0,L|128:128,2,23.3333333333333
56,144,173269,2,0,L|72:160,2,23.3333333333333
16,200,173697,2,0,L|48:216,2,23.3333333333333
32,272,174126,2,0,P|56:264|64:256,2,23.3333333333333
88,328,174554,2,0,L|104:304,2,23.3333333333333
192,320,174983,6,0,L|176:296,2,23.3333333333333
208,240,175412,1,0,0:0:0:0:
216,232,175554,1,0,0:0:0:0:
224,224,175697,1,0,0:0:0:0:
264,304,175840,2,0,L|248:280,2,23.3333333333333
232,216,176269,1,0,0:0:0:0:
240,208,176412,1,0,0:0:0:0:
248,200,176554,1,0,0:0:0:0:
216,112,176697,6,0,L|232:136,2,23.3333333333333
256,192,177126,1,0,0:0:0:0:
264,184,177269,1,0,0:0:0:0:
272,176,177412,1,0,0:0:0:0:
264,64,177554,2,0,L|280:88,2,23.3333333333333
280,168,177983,1,0,0:0:0:0:
288,160,178126,1,0,0:0:0:0:
296,152,178269,1,0,0:0:0:0:
304,144,178412,6,0,P|336:136|352:144,1,46.6666666666667
384,88,178840,2,0,P|408:112|408:136,1,46.6666666666667
464,160,179269,2,0,P|448:184|424:192,1,46.6666666666667
416,256,179697,2,0,P|392:240|376:216,1,46.6666666666667
328,256,180126,2,0,P|304:240|312:216,1,46.6666666666667
248,280,180554,2,0,P|232:256|240:240,1,46.6666666666667
168,256,180983,2,0,P|160:224|176:224,1,46.6666666666667
96,192,181412,1,0,0:0:0:0:
96,192,181626,5,0,0:0:0:0:
80,128,181840,2,0,P|104:120|136:128,1,46.6666666666667
128,56,182269,2,0,P|168:72|184:88,1,46.6666666666667
216,24,182697,2,0,P|232:48|224:72,1,46.6666666666667
296,56,183126,2,0,P|288:96|280:112,1,46.6666666666667
344,120,183554,2,0,L|336:144,2,23.3333333333333
408,160,183983,2,0,L|384:176,2,23.3333333333333
432,232,184412,2,0,L|408:232,2,23.3333333333333
328,216,184840,5,0,0:0:0:0:
256,232,184983,1,0,0:0:0:0:
184,200,185126,1,0,0:0:0:0:
136,136,185269,6,0,L|120:120,2,23.3333333333333
88,192,185697,1,0,0:0:0:0:
88,192,185840,1,0,0:0:0:0:
88,192,185983,1,0,0:0:0:0:
40,256,186126,2,0,L|32:232,2,23.3333333333333
88,320,186554,1,0,0:0:0:0:
88,320,186697,1,0,0:0:0:0:
88,320,186840,1,0,0:0:0:0:
160,288,186983,6,0,L|144:272,2,23.3333333333333
224,336,187412,1,0,0:0:0:0:
224,336,187554,1,0,0:0:0:0:
224,336,187697,1,0,0:0:0:0:
272,272,187840,2,0,L|248:264,2,23.3333333333333
336,312,188269,1,0,0:0:0:0:
336,312,188412,1,0,0:0:0:0:
336,312,188554,1,0,0:0:0:0:
336,312,188697,5,0,0:0:0:0:
256,96,189126,6,0,L|256:128,1,23.3333333333333
256,136,189554,1,0,0:0:0:0:
339,240,189983,6,0,L|311:223,1,23.3333333333333
304,219,190411,1,0,0:0:0:0:
172,240,190840,6,0,L|200:224,1,23.3333333333333
207,220,191268,1,0,0:0:0:0:
256,192,192126,6,0,L|256:176,1,11.6666666666667
256,192,192983,5,0,0:0:0:0:
232,176,193197,1,0,0:0:0:0:
208,168,193412,1,0,0:0:0:0:
176,176,193626,1,0,0:0:0:0:
152,192,193840,2,0,L|136:192,1,11.6666666666667
256,192,194697,6,0,L|256:176,1,11.6666666666667
256,192,195554,6,0,L|256:176,1,11.6666666666667
256,192,196412,5,0,0:0:0:0:
288,168,196626,1,0,0:0:0:0:
312,160,196841,1,0,0:0:0:0:
344,168,197055,1,0,0:0:0:0:
376,192,197269,2,0,L|392:192,1,11.6666666666667
256,192,198126,5,0,0:0:0:0:
256,192,198983,6,0,L|256:176,1,11.6666666666667
256,192,199840,5,0,0:0:0:0:
160,192,200269,1,0,0:0:0:0:
64,192,200697,2,0,L|64:176,1,11.6666666666667
256,192,201554,6,0,L|256:176,1,11.6666666666667
448,192,202412,6,0,L|448:176,1,11.6666666666667
256,192,203269,5,0,0:0:0:0:
352,128,203697,1,0,0:0:0:0:
448,192,204126,2,0,L|464:192,1,11.6666666666667
352,192,204554,1,0,0:0:0:0:
448,256,204983,2,0,L|464:256,1,11.6666666666667
352,256,205412,1,0,0:0:0:0:
448,320,205841,2,0,L|464:320,1,11.6666666666667
256,192,206697,5,0,0:0:0:0:
216,144,206912,1,0,0:0:0:0:
256,96,207126,1,0,0:0:0:0:
304,56,207340,1,0,0:0:0:0:
256,24,207554,2,0,L|256:8,1,11.6666666666667
256,192,208412,6,0,L|256:176,2,11.6666666666667
256,376,209269,6,0,L|256:352,1,23.3333333333333
256,328,209483,2,0,L|256:312,1,11.6666666666667
256,192,210983,6,0,L|256:176,4,11.6666666666667
