osu file format v14

[General]
AudioFilename: audio.mp3
AudioLeadIn: 0
PreviewTime: 204014
Countdown: 0
SampleSet: Normal
StackLeniency: 0.5
Mode: 0
LetterboxInBreaks: 0
WidescreenStoryboard: 1

[Editor]
Bookmarks: 28014,60014,108014,124014,140014,156014,172014,188014,204014,236014
DistanceSpacing: 0.5
BeatDivisor: 4
GridSize: 16
TimelineZoom: 1

[Metadata]
Title:Dum Surfer
TitleUnicode:Dum Surfer
Artist:King Krule
ArtistUnicode:King Krule
Creator:dsco
Version:Hard
Source:
Tags:post punk indie rock
BeatmapID:1566511
BeatmapSetID:716193

[Difficulty]
HPDrainRate:4
CircleSize:3
OverallDifficulty:5
ApproachRate:4
SliderMultiplier:1.7
SliderTickRate:1

[Events]
//Background and Video events
0,0,"bg.jpg",0,0
//Break Periods
//Storyboard Layer 0 (Background)
//Storyboard Layer 1 (Fail)
//Storyboard Layer 2 (Pass)
//Storyboard Layer 3 (Foreground)
//Storyboard Sound Samples

[TimingPoints]
28014,500,4,1,0,50,1,0
204014,-100,4,1,0,60,0,1
236014,-100,4,1,0,60,0,0

[Colours]
Combo1 : 169,173,186
Combo2 : 191,182,181

[HitObjects]
59,94,28014,5,0,3:1:0:0:
59,94,28514,2,0,P|80:135|85:183,1,85,8|0,1:1|3:1,0:0:0:0:
57,271,29014,1,0,3:1:0:0:
155,246,29264,1,8,1:1:0:0:
37,265,29514,1,8,1:1:0:0:
126,345,29764,6,0,L|309:359,1,170,0|0,3:1|3:1,0:0:0:0:
397,367,30514,1,8,0:1:0:0:
353,274,30764,1,0,3:1:0:0:
353,274,31014,2,0,P|343:223|349:181,1,85,0|8,3:1|0:1,0:0:0:0:
260,42,31514,2,0,P|269:83|266:125,1,85,8|0,0:1|0:1,0:0:0:0:
192,196,32014,5,0,3:1:0:0:
192,196,32514,2,0,L|88:187,1,85,8|0,0:1|3:1,0:0:0:0:
20,242,33014,1,0,3:1:0:0:
105,295,33264,1,8,0:1:0:0:
0,241,33514,1,8,0:1:0:0:
102,182,33764,6,0,P|134:135|132:8,1,170,0|0,3:1|3:1,0:0:0:0:
237,0,34514,1,8,0:1:0:0:
300,85,34764,1,0,3:1:0:0:
300,85,35014,2,0,P|343:100|392:104,1,85,0|8,3:1|0:1,0:0:0:0:
479,171,35514,2,0,P|436:186|387:190,1,85,8|0,0:1|0:1,0:0:0:0:
300,257,36014,5,0,3:1:0:0:
300,257,36514,2,0,P|257:242|208:238,1,85,8|0,0:1|3:1,0:0:0:0:
118,260,37014,1,0,3:1:0:0:
43,329,37264,1,8,0:1:0:0:
136,277,37514,1,8,0:1:0:0:
162,162,37764,6,0,P|171:117|169:66,1,85,0|0,3:1|0:1,0:0:0:0:
267,2,38264,2,0,P|271:44|283:84,1,85,0|8,3:1|0:1,0:0:0:0:
359,152,38764,1,0,3:1:0:0:
359,152,39014,2,0,L|456:164,1,85,0|8,3:1|0:1,0:0:0:0:
483,256,39514,2,0,L|398:245,1,85,8|0,0:1|0:1,0:0:0:0:
336,326,40014,5,0,3:1:0:0:
336,326,40514,2,0,P|293:298|247:290,1,85,8|0,0:1|3:1,0:0:0:0:
160,313,41014,1,0,3:1:0:0:
196,217,41264,1,8,0:1:0:0:
163,332,41514,1,8,0:1:0:0:
78,251,41764,6,0,P|51:203|29:78,1,170,0|0,3:1|3:1,0:0:0:0:
85,6,42514,2,0,P|129:10|167:24,1,85,8|0,0:1|3:1,0:0:0:0:
217,113,43014,1,0,3:1:0:0:
314,82,43264,1,8,0:1:0:0:
201,120,43514,2,0,P|181:172|179:221,1,85,8|0,0:1|0:1,0:0:0:0:
246,278,44014,5,0,3:1:0:0:
246,278,44514,1,8,0:1:0:0:
176,352,44764,2,0,P|134:366|78:362,1,85,0|0,3:1|3:1,0:0:0:0:
5,317,45264,1,8,0:1:0:0:
96,379,45514,1,8,0:1:0:0:
94,263,45764,1,0,0:1:0:0:
94,263,46014,6,0,L|116:82,1,170,0|8,3:1|0:1,0:0:0:0:
158,2,46764,1,0,3:1:0:0:
254,24,47014,2,0,L|349:16,2,85,0|8|8,3:1|0:1|0:1,0:0:0:0:
222,120,47764,1,0,0:1:0:0:
258,216,48014,5,0,3:1:0:0:
258,216,48514,2,0,P|302:201|354:200,1,85,8|0,0:1|3:1,0:0:0:0:
430,247,49014,1,0,3:1:0:0:
512,187,49264,1,8,0:1:0:0:
432,269,49514,1,8,0:1:0:0:
340,198,49764,6,0,P|332:156|329:101,1,85,0|0,3:1|0:1,0:0:0:0:
240,5,50264,2,0,P|232:47|229:90,1,85,0|8,3:1|0:1,0:0:0:0:
138,137,50764,1,0,3:1:0:0:
138,137,51014,2,0,P|145:178|149:221,1,85,0|8,3:1|0:1,0:0:0:0:
237,329,51514,2,0,P|244:287|248:244,1,85,8|0,0:1|0:1,0:0:0:0:
343,209,52014,6,0,L|438:204,1,85,0|2,3:1|0:2,0:0:0:0:
336,223,52514,1,8,0:1:0:0:
258,150,52764,1,0,3:1:0:0:
258,150,53014,2,0,P|230:94|232:-13,1,170,0|8,3:1|0:1,0:0:0:0:
103,76,53764,1,0,3:1:0:0:
103,76,54014,2,0,P|125:157|183:218,1,170,0|8,3:1|0:1,0:0:0:0:
136,307,54764,1,0,3:1:0:0:
136,307,55014,2,0,P|61:269|12:201,1,170,0|8,3:1|0:1,0:0:0:0:
0,352,55764,1,2,0:1:0:0:
0,352,56014,5,2,0:2:0:0:
256,192,56514,12,2,59514,0:2:0:0:
203,66,60014,5,2,3:0:0:0:
203,66,60514,1,8,0:1:0:0:
282,129,60764,2,0,L|382:125,1,85,0|0,3:1|3:1,0:0:0:0:
439,53,61264,1,8,0:1:0:0:
366,142,61514,1,8,0:1:0:0:
420,228,61764,2,0,P|428:275|424:320,1,85,2|0,3:0|3:1,0:0:0:0:
336,362,62264,2,0,L|153:345,1,170,0|0,0:1|3:1,0:0:0:0:
66,328,63014,2,0,P|97:294|112:257,1,85,0|8,3:1|0:1,0:0:0:0:
213,248,63514,2,0,P|222:203|217:163,1,85,8|2,0:1|0:2,0:0:0:0:
300,105,64014,6,0,L|404:97,1,85,2|2,3:0|0:1,0:0:0:0:
296,118,64514,1,8,0:1:0:0:
229,40,64764,2,0,L|125:32,1,85,0|0,3:1|3:1,0:0:0:0:
55,83,65264,1,8,0:1:0:0:
141,18,65514,1,8,0:1:0:0:
154,124,65764,2,0,L|145:213,1,85,2|0,3:0|3:1,0:0:0:0:
65,272,66264,2,0,P|131:242|238:243,1,170,0|0,0:1|3:1,0:0:0:0:
322,277,67014,2,0,L|340:379,1,85,0|8,3:1|0:1,0:0:0:0:
440,302,67514,2,0,L|454:218,1,85,8|2,0:1|0:2,0:0:0:0:
349,173,68014,5,2,3:0:0:0:
349,173,68514,1,8,0:1:0:0:
287,91,68764,2,0,P|242:103|178:99,1,85,0|0,3:1|3:1,0:0:0:0:
109,63,69264,1,8,0:1:0:0:
208,115,69514,1,8,0:1:0:0:
113,174,69764,2,0,P|82:250|96:347,1,170,2|0,3:0|3:1,0:0:0:0:
190,360,70514,1,8,0:1:0:0:
209,259,70764,1,0,3:1:0:0:
187,377,71014,2,0,P|233:380|289:366,1,85,0|8,3:1|0:1,0:0:0:0:
328,286,71514,2,0,P|374:283|430:297,1,85,8|2,0:1|0:2,0:0:0:0:
504,347,72014,5,2,3:0:0:0:
504,347,72514,1,8,0:1:0:0:
425,281,72764,2,0,P|420:243|429:186,1,85,0|0,3:1|3:1,0:0:0:0:
495,122,73264,1,8,0:1:0:0:
410,195,73514,1,8,0:1:0:0:
304,157,73764,1,2,3:0:0:0:
304,157,74014,2,0,L|121:141,1,170,2|8,0:1|0:1,0:0:0:0:
39,177,74764,1,0,3:1:0:0:
39,177,75014,2,0,P|19:219|16:259,1,85,0|10,3:1|0:1,0:0:0:0:
130,329,75514,1,8,0:1:0:0:
117,311,75639,1,8,0:1:0:0:
112,291,75764,1,2,0:2:0:0:
203,246,76014,5,2,3:0:0:0:
203,246,76514,2,0,L|301:258,1,85,8|0,0:1|3:1,0:0:0:0:
388,270,77014,1,0,3:1:0:0:
349,175,77264,1,8,0:1:0:0:
387,286,77514,1,8,0:1:0:0:
465,198,77764,2,0,P|461:141|503:19,1,170,2|0,3:0|3:1,0:0:0:0:
396,0,78514,2,0,P|355:-10|310:-14,1,85,8|0,0:1|3:1,0:0:0:0:
219,27,79014,2,0,P|208:67|204:112,1,85,0|8,3:1|0:1,0:0:0:0:
110,212,79514,2,0,P|102:170|103:128,1,85,8|2,0:1|0:2,0:0:0:0:
21,66,80014,5,2,3:0:0:0:
21,66,80514,2,0,P|63:74|116:77,1,85,8|0,0:1|3:1,0:0:0:0:
199,36,81014,1,0,3:1:0:0:
285,89,81264,1,8,0:1:0:0:
193,22,81514,1,8,0:1:0:0:
104,89,81764,2,0,P|88:135|87:180,1,85,2|0,3:0|0:1,0:0:0:0:
9,217,82264,2,0,P|18:264|39:304,1,85,0|8,3:1|0:1,0:0:0:0:
124,346,82764,1,0,3:1:0:0:
124,346,83014,2,0,L|216:339,1,85,0|8,3:1|0:1,0:0:0:0:
273,260,83514,2,0,L|365:253,1,85,8|2,0:1|0:2,0:0:0:0:
422,174,84014,5,2,3:0:0:0:
422,174,84514,2,0,P|397:131|390:83,1,85,8|0,0:1|3:1,0:0:0:0:
304,40,85014,1,0,3:1:0:0:
240,120,85264,1,8,0:1:0:0:
322,33,85514,1,8,0:1:0:0:
206,6,85764,2,0,L|28:17,1,170,2|0,3:0|3:1,0:0:0:0:
19,117,86514,1,8,0:1:0:0:
120,111,86764,1,0,3:1:0:0:
0,118,87014,2,0,P|-15:171|-16:209,1,85,0|8,3:1|0:1,0:0:0:0:
105,235,87514,2,0,P|120:288|121:326,1,85,8|2,0:1|0:2,0:0:0:0:
43,383,88014,5,2,3:0:0:0:
43,383,88514,2,0,P|79:371|148:364,1,85,8|0,0:1|3:1,0:0:0:0:
212,310,89014,1,0,3:1:0:0:
304,353,89264,1,8,0:1:0:0:
194,310,89514,1,8,0:1:0:0:
237,200,89764,2,0,P|254:152|256:98,1,85,2|0,3:0|0:1,0:0:0:0:
343,50,90264,2,0,P|348:92|363:131,1,85,0|8,3:1|0:1,0:0:0:0:
458,167,90764,1,0,3:1:0:0:
381,234,91014,2,0,L|371:337,1,85,0|8,3:1|0:1,0:0:0:0:
370,340,91389,1,2,0:2:0:0:
367,361,91514,2,0,L|282:369,1,85,8|2,0:1|0:2,0:0:0:0:
181,380,92014,5,2,3:0:0:0:
181,380,92514,2,0,P|166:326|166:283,1,85,8|0,0:1|3:1,0:0:0:0:
190,198,93014,1,0,3:1:0:0:
90,222,93264,1,8,0:1:0:0:
207,208,93514,1,8,0:1:0:0:
324,194,93764,2,0,L|496:207,1,170,2|0,3:0|3:1,0:0:0:0:
468,107,94514,1,8,0:1:0:0:
507,12,94764,1,0,3:1:0:0:
449,114,95014,2,0,P|405:118|341:95,1,85,0|8,3:1|0:1,0:0:0:0:
301,28,95514,2,0,P|257:24|193:47,1,85,8|2,0:1|0:2,0:0:0:0:
133,91,96014,5,2,3:0:0:0:
133,91,96514,2,0,L|124:190,1,85,8|0,0:1|3:1,0:0:0:0:
194,248,97014,1,0,3:1:0:0:
292,224,97264,1,8,0:1:0:0:
176,254,97514,1,8,0:1:0:0:
263,341,97764,2,0,P|330:328|371:328,1,85,2|0,3:0|0:1,0:0:0:0:
445,351,98264,2,0,P|432:284|432:243,1,85,0|8,3:1|0:1,0:0:0:0:
481,177,98764,1,0,3:1:0:0:
481,177,99014,2,0,P|494:110|494:69,1,85,0|8,3:1|0:1,0:0:0:0:
431,13,99514,2,0,P|364:0|323:0,1,85,8|2,0:1|0:2,0:0:0:0:
265,60,100014,5,2,3:0:0:0:
265,60,100514,2,0,P|221:73|167:74,1,85,8|0,0:1|3:1,0:0:0:0:
94,21,101014,1,0,3:1:0:0:
0,61,101264,1,8,0:1:0:0:
95,2,101514,1,8,0:1:0:0:
87,123,101764,2,0,L|81:216,1,85,2|0,3:0|0:1,0:0:0:0:
172,253,102264,2,0,L|177:168,1,85,0|8,3:1|0:1,0:0:0:0:
274,136,102764,1,0,3:1:0:0:
274,136,103014,2,0,P|322:124|366:127,1,85,0|8,3:1|0:1,0:0:0:0:
414,40,103514,2,0,P|448:75|467:115,1,85,8|2,0:1|0:2,0:0:0:0:
426,201,104014,5,2,3:0:0:0:
426,201,104514,1,8,0:1:0:0:
372,330,104764,1,2,3:0:0:0:
372,330,105014,2,0,P|322:306|190:291,1,170,2|8,3:0|0:1,0:0:0:0:
111,218,105764,1,2,3:0:0:0:
111,218,106014,2,0,P|162:198|295:195,1,170,2|8,3:0|0:1,0:0:0:0:
386,127,106764,1,2,0:2:0:0:
386,127,107014,2,0,P|336:103|273:86,1,85,0|8,3:1|0:1,0:0:0:0:
206,100,107514,1,8,0:1:0:0:
253,9,107764,1,2,0:2:0:0:
201,118,108014,6,0,P|151:127|101:122,1,85,0|0,3:0|0:1,0:0:0:0:
22,86,108514,1,8,0:1:0:0:
36,187,108764,2,0,L|23:250,2,42.5,0|2|0,3:1|0:2|0:0,0:0:0:0:
117,125,109264,1,8,0:1:0:0:
23,178,109514,1,8,0:1:0:0:
116,233,109764,2,0,P|166:219|310:239,1,170,0|2,3:1|0:2,0:0:0:0:
360,294,110514,1,8,0:1:0:0:
452,250,110764,1,0,3:1:0:0:
452,250,111014,2,0,P|466:200|468:139,1,85,0|8,3:1|0:1,0:0:0:0:
382,112,111514,1,8,0:1:0:0:
473,67,111764,2,0,P|407:75|301:38,1,170,2|2,0:2|0:2,0:0:0:0:
212,10,112514,6,0,P|146:2|40:39,1,170,8|0,0:1|3:1,0:0:0:0:
0,124,113264,1,8,0:1:0:0:
38,21,113514,1,8,0:1:0:0:
124,95,113764,2,0,P|174:115|235:115,1,85,0|0,3:1|0:1,0:0:0:0:
294,167,114264,1,0,0:1:0:0:
312,157,114389,1,0,0:1:0:0:
332,149,114514,1,8,0:1:0:0:
353,145,114639,1,0,0:1:0:0:
374,143,114764,1,0,0:1:0:0:
462,196,115014,2,0,L|471:294,1,85,0|8,0:1|0:1,0:0:0:0:
395,351,115514,1,8,0:1:0:0:
395,351,115764,2,0,P|329:319|208:308,1,170,2|2,0:2|0:2,0:0:0:0:
134,329,116514,6,0,P|150:260|148:224,1,85,8|0,0:1|3:1,0:0:0:0:
118,148,117014,1,0,3:1:0:0:
218,167,117264,1,8,0:1:0:0:
104,157,117514,2,0,P|88:88|90:52,1,85,8|0,0:1|0:1,0:0:0:0:
90,53,117889,1,2,0:2:0:0:
95,32,118014,2,0,L|4:19,2,85,0|2|8,3:1|0:2|0:1,0:0:0:0:
195,46,118764,2,0,P|237:28|306:27,1,85,0|0,0:1|0:1,0:0:0:0:
373,53,119264,1,8,0:1:0:0:
272,8,119514,1,8,0:1:0:0:
284,118,119764,1,2,0:2:0:0:
286,139,119889,1,2,0:2:0:0:
288,160,120014,6,0,P|333:177|381:211,1,85,0|0,3:1|0:1,0:0:0:0:
351,371,120514,2,0,P|341:330|324:292,1,85,8|0,0:1|3:1,0:0:0:0:
233,244,121014,1,0,3:1:0:0:
134,270,121264,1,8,0:1:0:0:
246,260,121514,1,8,0:1:0:0:
181,168,121764,2,0,P|170:109|174:63,1,85,2|0,0:2|3:1,0:0:0:0:
305,1,122264,2,0,P|284:38|272:79,1,85,2|8,0:2|0:1,0:0:0:0:
339,155,122764,1,0,3:1:0:0:
292,245,123014,2,0,L|212:239,2,42.5,8|8|2,0:1|0:1|0:2,0:0:0:0:
364,317,123514,2,0,L|444:311,2,42.5,8|8|2,0:1|0:1|0:2,0:0:0:0:
279,374,124014,6,0,P|242:359|179:350,1,85,0|0,3:1|0:1,0:0:0:0:
97,367,124514,1,8,0:1:0:0:
126,269,124764,2,0,L|118:199,2,42.5,0|2|0,3:1|0:2|0:0,0:0:0:0:
197,350,125264,1,8,0:1:0:0:
111,278,125514,1,8,0:1:0:0:
217,240,125764,2,0,L|408:260,1,170,0|0,3:1|3:0,0:0:0:0:
462,190,126514,1,8,0:1:0:0:
386,122,126764,2,0,P|371:73|371:27,1,85,0|0,3:1|3:1,0:0:0:0:
467,9,127264,1,8,0:1:0:0:
356,44,127514,2,0,L|260:35,1,85,8|2,0:1|0:2,0:0:0:0:
169,26,128014,5,0,3:1:0:0:
169,26,128514,2,0,P|200:89|197:195,1,170,8|0,0:1|3:1,0:0:0:0:
108,204,129264,1,8,0:1:0:0:
209,184,129514,1,8,0:1:0:0:
176,282,129764,2,0,P|161:327|164:378,1,85,0|0,3:1|0:1,0:0:0:0:
270,379,130264,1,0,0:1:0:0:
291,376,130389,1,0,0:1:0:0:
312,374,130514,1,8,0:1:0:0:
333,372,130639,1,0,0:1:0:0:
354,370,130764,2,0,P|368:324|365:273,1,85,0|0,0:1|0:1,0:0:0:0:
466,318,131264,1,8,0:1:0:0:
356,289,131514,1,8,0:1:0:0:
356,289,131764,2,0,P|341:243|395:109,1,170,2|2,0:2|0:2,0:0:0:0:
327,38,132514,6,0,P|275:61|212:68,1,85,8|0,0:1|3:1,0:0:0:0:
156,20,133014,1,0,3:1:0:0:
255,78,133264,1,8,0:1:0:0:
198,180,133514,6,0,P|175:232|168:295,1,85,8|0,0:1|0:1,0:0:0:0:
168,280,133889,1,2,0:2:0:0:
169,301,134014,2,0,L|64:322,2,85,0|2|8,3:1|0:2|0:1,0:0:0:0:
260,346,134764,2,0,P|297:313|360:296,1,85,0|0,3:1|3:1,0:0:0:0:
427,326,135264,1,8,0:1:0:0:
320,286,135514,1,8,0:1:0:0:
409,214,135764,1,2,0:2:0:0:
409,214,136014,6,0,P|429:173|436:123,1,85,0|8,3:1|0:1,0:0:0:0:
401,38,136514,1,8,0:1:0:0:
306,76,136764,1,0,3:1:0:0:
214,31,137014,2,0,L|111:22,2,85,8|2|2,0:1|0:2|0:2,0:0:0:0:
320,80,137764,1,8,0:1:0:0:
231,130,138014,6,0,P|214:169|210:218,1,85,2|0,3:0|3:1,0:0:0:0:
332,277,138514,1,8,0:1:0:0:
322,259,138639,1,8,0:1:0:0:
315,239,138764,1,2,0:2:0:0:
438,145,139014,5,8,0:1:0:0:
428,163,139139,1,8,0:1:0:0:
421,183,139264,1,8,0:1:0:0:
417,204,139389,1,8,0:1:0:0:
416,225,139514,2,0,P|423:267|434:290,1,42.5,8|8,0:1|0:1,0:0:0:0:
512,338,139764,1,2,0:2:0:0:
417,282,140014,5,2,3:1:0:0:
314,324,140264,2,0,L|310:373,2,42.5,2|0|8,0:2|0:1|0:1,0:0:0:0:
230,266,140764,2,0,L|233:223,2,42.5,0|2|0,0:1|0:2|3:1,0:0:0:0:
137,309,141264,2,0,L|133:358,2,42.5,8|2|8,0:1|0:2|0:1,0:0:0:0:
53,251,141764,1,0,0:1:0:0:
54,229,141889,1,2,0:2:0:0:
56,208,142014,5,2,3:1:0:0:
183,194,142264,2,0,P|154:161|120:29,1,170,0|0,3:1|0:1,0:0:0:0:
213,6,143014,1,0,0:1:0:0:
310,36,143264,1,8,0:1:0:0:
203,16,143514,1,8,0:1:0:0:
240,119,143764,2,0,P|341:79|437:82,1,170,2|0,3:0|0:0,0:0:0:0:
494,117,144514,2,0,P|467:155|455:195,1,85,8|0,0:1|3:1,0:0:0:0:
491,286,145014,1,0,3:1:0:0:
413,360,145264,1,8,0:1:0:0:
511,288,145514,1,8,0:1:0:0:
441,189,145764,2,0,L|268:168,1,170,2|2,3:0|0:2,0:0:0:0:
189,228,146514,6,0,P|168:180|166:135,1,85,8|0,0:1|3:1,0:0:0:0:
82,87,147014,6,0,P|66:124|61:152,1,42.5,0|2,3:1|0:2,0:0:0:0:
63,147,147264,1,8,0:1:0:0:
259,105,147514,2,0,P|234:72|213:54,1,42.5,8|2,0:1|0:2,0:0:0:0:
216,58,147764,1,0,0:1:0:0:
165,148,148014,1,0,3:1:0:0:
167,169,148139,2,0,P|178:209|208:249,1,85,0|0,0:1|0:0,0:0:0:0:
219,258,148514,6,0,L|317:249,1,85,8|0,0:1|0:1,0:0:0:0:
405,237,149014,1,0,3:1:0:0:
455,149,149264,1,8,0:1:0:0:
409,255,149514,1,8,0:1:0:0:
341,162,149764,2,0,P|301:127|172:95,1,170,2|2,3:1|0:2,0:0:0:0:
90,115,150514,2,0,L|76:215,1,85,8|0,0:1|3:1,0:0:0:0:
61,299,151014,1,0,3:1:0:0:
146,353,151264,1,8,0:1:0:0:
45,289,151514,1,8,0:1:0:0:
45,289,152014,6,0,P|108:259|162:258,1,85,2|0,3:0|0:0,0:0:0:0:
218,291,152514,1,8,0:1:0:0:
235,303,152639,1,0,0:1:0:0:
254,312,152764,1,2,0:2:0:0:
350,279,153014,1,0,3:1:0:0:
442,323,153264,1,8,0:1:0:0:
333,276,153514,1,8,0:1:0:0:
429,206,153764,2,0,P|411:157|417:102,1,85,2|0,0:2|3:1,0:0:0:0:
336,54,154264,2,0,P|316:91|310:133,1,85,0|8,3:1|0:1,0:0:0:0:
229,195,154764,2,0,P|211:146|217:91,1,85,0|2,3:1|0:2,0:0:0:0:
136,43,155264,1,8,0:1:0:0:
227,113,155514,1,8,0:1:0:0:
121,157,155764,1,2,0:2:0:0:
121,157,156014,5,0,3:0:0:0:
256,192,156514,12,0,160014,3:0:0:0:
256,192,161014,12,0,164014,3:0:0:0:
256,192,165014,12,0,168014,3:0:0:0:
256,192,169014,12,2,172014,3:1:0:0:
347,140,172514,6,0,P|361:182|355:231,1,85,8|0,0:1|3:1,0:0:0:0:
283,292,173014,1,0,3:1:0:0:
380,322,173264,1,8,0:1:0:0:
265,300,173514,1,8,0:1:0:0:
155,339,173764,1,0,3:1:0:0:
155,339,174264,6,0,P|174:289|173:235,1,85,2|8,0:2|0:1,0:0:0:0:
111,178,174764,1,0,3:1:0:0:
111,178,175264,1,8,0:1:0:0:
191,260,175514,2,0,L|295:252,1,85,8|2,0:1|0:2,0:0:0:0:
377,242,176014,5,0,3:1:0:0:
377,242,176514,2,0,P|355:192|360:136,1,85,8|0,0:1|0:1,0:0:0:0:
439,105,177014,1,0,0:1:0:0:
348,59,177264,1,8,0:1:0:0:
458,107,177514,1,8,0:1:0:0:
354,162,177764,2,0,P|313:147|252:147,1,85,2|0,0:2|0:1,0:0:0:0:
176,181,178264,1,2,0:2:0:0:
195,80,178514,1,8,0:1:0:0:
272,144,178764,2,0,P|313:159|374:159,1,85,2|0,0:2|0:1,0:0:0:0:
450,125,179264,1,8,0:1:0:0:
431,226,179514,1,8,0:1:0:0:
412,327,179764,1,2,0:2:0:0:
408,347,179889,1,2,0:2:0:0:
408,372,180014,5,0,3:1:0:0:
408,372,180514,2,0,P|363:345|278:333,1,127.5,8|2,0:1|0:2,0:0:0:0:
268,335,181014,1,0,0:1:0:0:
299,238,181264,1,8,0:1:0:0:
263,352,181514,1,8,0:1:0:0:
183,264,181764,2,0,P|134:250|79:251,1,85,2|0,0:2|0:1,0:0:0:0:
1,275,182264,1,2,0:2:0:0:
27,175,182514,1,8,0:1:0:0:
100,248,182764,2,0,P|149:262|204:261,1,85,2|0,0:2|0:1,0:0:0:0:
282,237,183264,1,8,0:1:0:0:
256,337,183514,1,8,0:1:0:0:
356,310,183764,1,2,0:2:0:0:
376,315,183889,1,2,0:2:0:0:
401,324,184014,5,0,3:1:0:0:
401,324,184514,2,0,P|378:259|396:170,1,127.5,8|2,0:1|0:2,0:0:0:0:
391,181,185014,1,0,0:1:0:0:
495,168,185264,1,8,0:1:0:0:
373,183,185514,1,8,0:1:0:0:
251,197,185764,2,0,P|225:156|221:106,1,85,2|0,0:2|0:1,0:0:0:0:
297,55,186264,1,2,0:2:0:0:
200,20,186514,1,8,0:1:0:0:
220,121,186764,2,0,P|245:161|249:211,1,85,2|0,0:2|0:1,0:0:0:0:
173,264,187264,1,8,0:1:0:0:
271,299,187514,1,8,0:1:0:0:
191,365,187764,1,2,0:2:0:0:
170,368,187889,1,2,0:2:0:0:
153,375,188014,5,0,3:1:0:0:
153,375,188514,2,0,L|40:359,1,85,8|0,0:1|3:1,0:0:0:0:
30,268,189014,1,0,3:1:0:0:
131,283,189264,1,8,0:1:0:0:
12,266,189514,1,8,0:1:0:0:
87,172,189764,1,0,3:1:0:0:
87,172,190264,6,0,P|132:196|182:203,1,85,2|8,0:2|0:1,0:0:0:0:
253,152,190764,1,0,3:1:0:0:
253,152,191264,5,8,0:1:0:0:
165,202,191514,2,0,L|156:313,1,85,8|2,0:1|0:2,0:0:0:0:
156,307,191889,1,2,0:2:0:0:
158,332,192014,5,0,3:1:0:0:
158,332,192514,2,0,P|232:303|298:303,1,127.5,8|2,0:1|0:2,0:0:0:0:
299,304,193014,1,0,0:1:0:0:
374,236,193264,1,8,0:1:0:0:
301,318,193514,1,8,0:1:0:0:
267,214,193764,2,0,P|281:169|281:129,1,85,2|0,0:2|0:1,0:0:0:0:
207,60,194264,1,2,0:2:0:0:
305,31,194514,1,8,0:1:0:0:
281,131,194764,2,0,P|267:176|267:216,1,85,2|0,0:2|0:1,0:0:0:0:
341,285,195264,1,8,0:1:0:0:
243,314,195514,1,8,0:1:0:0:
145,343,195764,1,2,0:2:0:0:
124,336,195889,1,2,0:2:0:0:
108,334,196014,5,0,3:1:0:0:
108,334,196514,2,0,P|132:292|134:199,1,127.5,8|2,0:1|0:2,0:0:0:0:
129,192,197014,1,0,0:1:0:0:
186,107,197264,1,8,0:1:0:0:
111,189,197514,1,8,0:1:0:0:
193,265,197764,2,0,P|238:288|311:284,1,85,2|0,0:2|0:1,0:0:0:0:
365,250,198264,1,2,0:2:0:0:
282,189,198514,1,8,0:1:0:0:
271,291,198764,2,0,P|226:268|153:272,1,85,2|0,0:2|0:1,0:0:0:0:
99,306,199264,1,8,0:1:0:0:
182,367,199514,1,8,0:1:0:0:
192,264,199764,1,2,0:2:0:0:
194,242,199889,1,2,0:2:0:0:
200,225,200014,5,0,3:1:0:0:
200,225,200514,2,0,P|291:260|355:254,1,127.5,8|2,0:1|0:2,0:0:0:0:
341,256,201014,1,0,0:1:0:0:
431,210,201264,1,8,0:1:0:0:
345,274,201514,1,8,0:1:0:0:
333,167,201764,2,0,P|359:122|350:64,1,85,2|0,0:2|0:1,0:0:0:0:
300,8,202264,1,2,0:2:0:0:
403,0,202514,1,8,0:1:0:0:
359,90,202764,2,0,P|333:135|342:193,1,85,2|0,0:2|0:1,0:0:0:0:
392,249,203264,1,8,0:1:0:0:
289,257,203514,1,8,0:1:0:0:
332,166,203764,1,2,0:2:0:0:
349,340,204014,6,0,P|284:309|202:317,1,127.5,4|0,3:1|0:0,0:0:0:0:
210,316,204514,2,0,L|119:307,1,85,8|0,0:1|3:1,0:0:0:0:
23,298,205014,1,0,3:1:0:0:
130,320,205264,2,0,P|152:279|150:223,1,85,8|8,0:1|0:1,0:0:0:0:
33,111,205764,2,0,P|37:153|58:190,1,85,2|0,3:0|0:1,0:0:0:0:
151,229,206264,1,0,3:1:0:0:
249,200,206514,2,0,L|352:207,1,85,8|2,0:1|0:2,0:0:0:0:
435,213,207014,2,0,P|419:140|444:64,2,127.5,2|0|0,0:2|0:0|0:0,0:0:0:0:
477,306,208014,6,0,L|339:296,1,127.5,4|0,3:1|0:0,0:0:0:0:
329,295,208514,2,0,P|337:254|315:188,1,85,8|0,0:1|3:1,0:0:0:0:
251,146,209014,1,0,3:1:0:0:
343,217,209264,2,0,L|442:210,1,85,8|8,0:1|0:1,0:0:0:0:
497,135,209764,2,0,P|511:95|512:53,1,85,2|0,3:0|0:1,0:0:0:0:
430,201,210264,1,0,3:1:0:0:
372,116,210514,2,0,L|271:107,1,85,8|2,0:1|0:2,0:0:0:0:
207,43,211014,2,0,P|165:27|73:35,2,127.5,2|0|0,0:2|0:0|0:0,0:0:0:0:
184,143,212014,6,0,L|164:291,1,127.5,4|0,3:1|0:0,0:0:0:0:
164,290,212514,2,0,P|216:270|265:270,1,85,8|0,0:1|3:1,0:0:0:0:
341,301,213014,1,0,3:1:0:0:
433,257,213264,2,0,P|417:215|421:144,1,85,8|8,0:1|0:1,0:0:0:0:
512,28,213764,2,0,P|509:70|494:110,1,85,2|0,3:0|0:1,0:0:0:0:
416,163,214264,1,0,3:1:0:0:
336,98,214514,2,0,L|248:93,1,85,8|2,0:1|0:2,0:0:0:0:
152,122,215014,2,0,P|132:69|168:-23,2,127.5,2|0|0,0:1|0:0|0:0,0:0:0:0:
219,198,216014,6,0,P|239:251|203:343,1,127.5,4|0,3:1|0:0,0:0:0:0:
211,336,216514,2,0,L|98:328,1,85,8|2,0:1|3:0,0:0:0:0:
23,377,217014,1,2,3:0:0:0:
119,315,217264,1,8,0:1:0:0:
11,369,217514,1,8,0:1:0:0:
23,247,217764,2,0,L|8:67,1,170,2|2,3:0|3:0,0:0:0:0:
89,14,218514,2,0,P|136:-2|188:0,1,85,8|0,0:1|3:1,0:0:0:0:
256,52,219014,1,0,3:1:0:0:
348,9,219264,1,8,0:1:0:0:
239,59,219514,2,0,L|233:150,1,85,8|2,0:1|0:2,0:0:0:0:
234,246,220014,6,0,P|290:219|383:220,1,127.5,4|0,3:1|0:0,0:0:0:0:
375,218,220514,2,0,P|415:185|430:127,1,85,8|0,0:1|3:1,0:0:0:0:
383,63,221014,1,0,3:1:0:0:
442,159,221264,2,0,L|452:251,1,85,8|8,0:1|0:1,0:0:0:0:
347,384,221764,2,0,L|356:299,1,85,2|0,3:0|0:1,0:0:0:0:
442,244,222264,1,0,3:1:0:0:
350,197,222514,2,0,P|297:205|237:196,1,85,8|2,0:1|0:2,0:0:0:0:
197,126,223014,2,0,L|206:27,2,85,2|0|0,0:2|0:0|0:0,0:0:0:0:
115,187,223764,1,2,0:2:0:0:
179,266,224014,6,0,P|244:245|334:251,1,127.5,4|0,3:1|0:0,0:0:0:0:
324,243,224514,2,0,L|317:158,1,85,8|0,0:1|3:1,0:0:0:0:
389,86,225014,1,0,3:1:0:0:
306,154,225264,2,0,P|260:149|212:125,1,85,8|8,0:1|0:1,0:0:0:0:
167,48,225764,2,0,P|121:53|73:77,1,85,2|0,3:0|0:1,0:0:0:0:
214,138,226264,1,0,3:1:0:0:
132,199,226514,2,0,P|121:240|123:296,1,85,8|2,0:1|0:2,0:0:0:0:
171,370,227014,2,0,L|18:360,2,127.5,2|0|0,0:2|0:0|0:0,0:0:0:0:
264,329,228014,6,0,P|323:352|424:349,1,127.5,4|0,3:1|0:0,0:0:0:0:
407,352,228514,2,0,P|390:300|399:236,1,85,8|0,0:1|3:1,0:0:0:0:
486,233,229014,1,0,3:1:0:0:
381,261,229264,2,0,P|397:209|388:145,1,85,8|8,0:1|0:1,0:0:0:0:
290,33,229764,2,0,P|291:75|306:114,1,85,2|0,3:0|0:1,0:0:0:0:
389,175,230264,1,0,3:1:0:0:
296,218,230514,2,0,L|176:208,1,85,8|0,0:1|3:0,0:0:0:0:
109,201,231014,1,0,3:1:0:0:
168,116,231264,1,8,0:1:0:0:
98,211,231514,1,8,0:1:0:0:
51,103,231764,1,2,0:2:0:0:
179,124,232014,6,0,L|333:113,1,127.5,4|0,3:1|0:0,0:0:0:0:
327,111,232514,2,0,P|352:74|361:23,1,85,8|2,0:1|3:1,0:0:0:0:
493,61,233014,1,2,3:1:0:0:
410,169,233264,2,0,P|419:210|443:244,1,85,8|8,0:1|0:1,0:0:0:0:
322,373,233764,1,2,3:0:0:0:
322,373,234014,6,0,P|346:339|356:298,1,85,8|0,0:1|3:1,0:0:0:0:
311,206,234514,1,8,0:1:0:0:
137,138,234764,2,0,L|236:131,1,85,2|2,3:0|2:1,0:0:0:0:
303,195,235264,1,8,0:1:0:0:
210,122,235514,1,8,0:1:0:0:
327,77,235764,1,2,0:2:0:0:
311,206,236014,5,4,3:1:0:0:
