osu file format v14

[General]
AudioFilename: audio.mp3
AudioLeadIn: 0
PreviewTime: 65237
Countdown: 0
SampleSet: Soft
StackLeniency: 0.4
Mode: 0
LetterboxInBreaks: 0
WidescreenStoryboard: 1

[Editor]
Bookmarks: 51547,63789,65341,76375,80858
DistanceSpacing: 0.5
BeatDivisor: 12
GridSize: 8
TimelineZoom: 2.3

[Metadata]
Title:Prayer X (TV Size)
TitleUnicode:Prayer X (TV Size)
Artist:King Gnu
ArtistUnicode:King Gnu
Creator:KaedeharaKazuha
Version:gary00737's Light Insane
Source:BANANA FISH
Tags:Addy2607 Kaedehara Kazuha gary00737 Lobelia [_Abhor_] Abhor gokugohan12468 Kyouren KittyAdventure -ascended- -_ascended_- Ascended バナナフィッシュ anime 1st first ending ed outro theme song 1 one japanese rock pop jpop jrock j-pop j-rock Sympa PERIMETRON 常田大希 勢喜遊 新井和輝 井口理 Daiki Tsuneta Yu Seki Kazuki Arai Satoru Iguchi Ash Lynx Aslan Jade Callenreese 奥村英二 Okumura Eiji Shounen Shonen Shōnen Ai 少年愛 Boys Boys' Love BL
BeatmapID:3524663
BeatmapSetID:1724620

[Difficulty]
HPDrainRate:4
CircleSize:4
OverallDifficulty:5
ApproachRate:6
SliderMultiplier:1.74
SliderTickRate:1

[Events]
//Background and Video events
0,0,"BG.jpg",0,0
Video,-200,"banana.mp4"
//Break Periods
//Storyboard Layer 0 (Background)
//Storyboard Layer 1 (Fail)
//Storyboard Layer 2 (Pass)
//Storyboard Layer 3 (Foreground)
//Storyboard Layer 4 (Overlay)
//Storyboard Sound Samples

[TimingPoints]
502,845.070422535211,4,2,1,40,1,0
1347,800,4,2,1,40,1,0
1747,769.230769230769,4,2,1,40,1,0
2900,750,4,2,1,40,1,0
3275,882.352941176471,4,2,1,40,1,0
4598,833.333333333333,4,2,1,40,1,0
5431,857.142857142857,4,2,1,40,1,0
8859,821.917808219178,4,2,1,40,1,0
11324,845.070422535211,4,2,1,40,1,0
12169,909.090909090909,4,2,1,40,1,0
12623,1666.66666666667,4,2,1,40,1,0
12623,-50,4,2,1,40,0,0
13039,895.522388059701,4,2,1,40,1,0
13486,869.565217391304,4,2,1,40,1,0
13920,882.352941176471,4,2,1,50,1,0
15684,659.340659340659,4,2,1,50,1,0
16013,810.810810810811,4,2,1,50,1,0
17229,800,4,2,1,50,1,0
17629,689.655172413793,4,2,1,50,1,0
17801,1090.90909090909,4,2,1,50,1,0
18073,869.565217391304,4,2,1,50,1,0
19812,833.333333333333,4,2,1,50,1,0
23145,869.565217391304,4,2,1,50,1,0
24014,833.333333333333,4,2,1,50,1,0
24847,869.565217391304,4,2,1,50,1,0
27020,814.111261872456,4,2,1,50,1,0
29462,689.655172413793,4,2,1,60,1,0
40496,-100,4,2,1,50,0,0
40841,-100,4,2,2,50,0,0
62565,-100,4,2,1,40,0,0
63944,-71.4285714285714,4,2,1,40,0,0
65324,-62.5,4,2,1,75,0,1
87048,-200,4,2,1,75,0,1
87393,-200,4,2,1,75,0,0
87436,-200,4,2,1,5,0,0

[Colours]
Combo1 : 215,215,166
Combo2 : 139,170,186
Combo3 : 61,99,118
Combo4 : 126,129,56

[HitObjects]
291,153,502,6,0,P|297:95|301:58,2,87,2|2|2,0:0|0:0|0:0,0:0:0:0:
284,265,1747,2,0,P|280:278|276:298,1,29,2|0,0:0|0:0,0:0:0:0:
294,255,2131,2,0,P|253:228|208:231,1,87,2|2,0:3|0:0,0:0:0:0:
77,307,2900,2,0,P|119:305|154:280,1,87,2|2,0:3|0:0,0:0:0:0:
64,71,4157,5,2,0:0:0:0:
68,67,4377,1,2,0:0:0:0:
72,63,4598,2,0,P|69:88|66:114,1,43.5,2|2,0:3|0:0,0:0:0:0:
45,183,5014,2,0,P|20:180|-6:177,1,43.5,2|2,0:0|0:0,0:0:0:0:
122,163,5431,2,0,P|166:157|213:152,1,87,2|2,0:0|0:0,0:0:0:0:
298,143,6073,1,2,0:0:0:0:
302,139,6288,2,0,P|305:168|309:199,2,58,2|2|0,0:0|0:0|0:0,0:0:0:0:
366,82,7145,6,0,P|410:76|457:71,1,87,2|2,0:0|0:3,0:0:0:0:
500,233,8002,2,0,P|455:281|375:268,1,145,2|0,0:0|0:0,0:0:0:0:
359,254,8859,6,0,P|353:297|348:340,1,87,2|2,0:3|0:3,0:0:0:0:
205,380,9680,2,0,P|196:304|186:230,1,145,2|0,0:0|0:0,0:0:0:0:
174,241,10502,2,0,P|130:235|83:230,1,87,2|2,0:3|0:3,0:0:0:0:
3,105,11324,2,0,P|46:100|89:94,1,87,2|2,0:0|0:0,0:0:0:0:
267,67,12169,6,0,P|245:64|223:61,1,43.5,2|2,0:0|0:0,0:0:0:0:
184,45,12623,2,0,P|178:88|173:131,1,87,2|2,0:0|0:0,0:0:0:0:
160,291,13486,1,2,0:0:0:0:
160,291,13920,6,0,P|193:270|234:273,1,72.5,2|2,0:0|0:0,0:0:0:0:
354,344,14728,1,2,0:0:0:0:
354,344,15170,2,0,P|359:293|366:243,1,101.5,2|2,0:0|0:3,0:0:0:0:
473,139,16013,1,2,0:0:0:0:
477,135,16418,2,0,P|433:130|390:124,1,87,2|2,0:0|0:0,0:0:0:0:
233,62,17229,6,0,P|190:67|147:73,1,87,2|2,0:0|0:0,0:0:0:0:
131,78,17801,1,2,0:0:0:0:
39,79,18073,2,0,P|44:122|50:165,1,87,2|2,0:0|0:0,0:0:0:0:
79,242,18725,2,0,P|37:263|-7:253,1,87,2|0,0:0|0:0,0:0:0:0:
131,174,19377,2,0,P|152:171|174:168,1,43.5,2|2,0:0|0:0,0:0:0:0:
248,210,19812,2,0,P|244:238|240:267,2,58,2|2|2,0:0|0:0|0:0,0:0:0:0:
310,152,20645,6,0,B|398:137|370:223|468:200,1,174,2|2,0:0|0:0,0:0:0:0:
460,23,21895,2,0,P|454:66|449:109,1,87,2|2,0:0|0:3,0:0:0:0:
334,315,23145,2,0,P|328:271|322:228,1,87,2|2,0:0|0:0,0:0:0:0:
217,242,24014,2,0,P|222:285|228:328,1,87,2|2,0:3|0:3,0:0:0:0:
137,224,24847,5,2,0:3:0:0:
192,163,25064,2,0,P|194:141|197:119,2,43.5,2|2|2,0:0|0:0|0:0,0:0:0:0:
131,231,25716,2,0,P|93:252|43:242,1,87,2|2,0:0|0:0,0:0:0:0:
1,178,26368,2,0,P|7:134|12:91,1,87,2|2,0:0|0:0,0:0:0:0:
29,11,27020,1,2,0:0:0:0:
256,192,27155,12,6,29461,3:2:0:0:
274,78,30151,6,0,P|268:121|263:164,1,87,10|2,0:0|0:0,0:0:0:0:
257,251,30726,1,0,3:0:0:0:
265,259,30841,2,0,P|221:253|178:248,1,87,2|0,3:2|3:0,0:0:0:0:
84,250,31530,2,0,P|90:206|95:163,1,87,10|2,0:0|0:0,0:0:0:0:
40,83,32220,6,0,B|104:91|132:46|132:46|137:89|162:109,1,174,6|10,3:2|0:0,0:0:0:0:
223,45,33255,1,2,0:0:0:0:
307,106,33484,1,0,3:0:0:0:
315,114,33599,2,0,P|309:70|304:27,1,87,2|0,3:2|3:0,0:0:0:0:
399,17,34289,2,0,P|405:61|410:104,1,87,10|2,0:0|0:0,0:0:0:0:
500,159,34979,6,0,P|455:135|381:220,1,174,6|10,3:2|0:0,0:0:0:0:
404,312,36013,1,2,0:0:0:0:
299,263,36243,1,0,3:0:0:0:
307,271,36358,2,0,P|263:277|220:282,1,87,2|0,3:2|3:0,0:0:0:0:
132,360,37048,2,0,P|175:365|218:370,1,87,10|2,0:0|0:0,0:0:0:0:
150,240,37737,6,0,B|106:234|40:228|40:228|12:245|10:282,1,174,6|10,3:2|0:0,0:0:0:0:
112,360,38772,1,2,0:0:0:0:
159,239,39002,1,0,3:0:0:0:
167,247,39117,2,0,P|161:203|156:160,1,87,2|2,3:2|3:2,0:0:0:0:
211,98,39634,1,8,0:0:0:0:
293,91,39806,2,0,P|290:112|287:134,1,43.5,10|8,0:0|0:3,0:0:0:0:
375,84,40151,2,0,P|372:105|369:127,1,43.5,4|0,0:3|3:0,0:0:0:0:
457,77,40496,5,2,0:0:0:0:
487,321,41013,1,2,3:2:0:0:
491,317,41186,2,0,B|407:294|430:381|324:347,1,174,10|2,0:0|3:2,0:0:0:0:
235,239,42220,1,2,3:2:0:0:
113,353,42565,2,0,P|157:347|200:342,1,87,8|2,0:0|0:0,0:0:0:0:
303,176,43255,6,0,P|244:146|178:165,1,130.5,2|2,3:2|3:2,0:0:0:0:
164,183,43944,2,0,P|158:226|153:269,1,87,8|0,0:0|0:0,0:0:0:0:
124,86,44634,2,0,P|129:42|134:0,1,87,0|0,3:0|3:0,0:0:0:0:
0,142,45324,2,0,P|36:165|79:163,1,87,10|2,0:0|0:0,0:0:0:0:
271,146,46013,6,0,B|241:142|201:138|201:138|170:153|161:191,1,130.5,2|2,3:2|3:2,0:0:0:0:
142,212,46703,2,0,P|147:255|152:298,1,87,8|2,0:0|0:0,0:0:0:0:
282,348,47393,1,2,3:2:0:0:
286,344,47565,2,0,B|291:323|291:323|282:302,1,43.5,2|2,0:0|3:2,0:0:0:0:
347,53,48082,2,0,P|330:92|339:134,1,87,10|2,0:0|0:0,0:0:0:0:
510,203,48772,6,0,B|484:193|484:193|417:202,1,87,2|2,3:2|0:0,0:0:0:0:
328,241,49289,1,0,3:0:0:0:
332,237,49462,2,0,L|241:225,1,87,10|2,0:0|0:0,0:0:0:0:
80,336,50151,2,0,L|170:324,1,87,0|0,3:0|3:0,0:0:0:0:
162,197,50841,2,0,B|153:218|153:218|158:239,2,43.5,8|2|0,0:0|0:0|0:0,0:0:0:0:
300,156,51530,5,2,0:3:0:0:
448,70,52048,1,2,3:2:0:0:
452,66,52220,2,0,B|420:96|376:88|376:88|334:51|287:61,1,174,10|0,0:0|3:0,0:0:0:0:
144,190,53255,1,2,3:2:0:0:
310,242,53599,2,0,P|304:198|299:155,1,87,10|0,0:0|0:0,0:0:0:0:
76,138,54289,6,0,P|135:108|201:127,1,130.5,2|2,3:2|3:2,0:0:0:0:
215,145,54979,2,0,P|221:188|226:231,1,87,8|2,0:0|0:0,0:0:0:0:
111,355,55668,2,0,P|116:311|121:268,1,87,0|0,3:0|3:0,0:0:0:0:
287,297,56358,2,0,P|250:320|208:318,1,87,8|2,0:0|0:0,0:0:0:0:
317,210,57048,6,0,B|347:206|387:202|387:202|418:217|424:246,1,130.5,2|0,3:2|3:0,0:0:0:0:
430,278,57737,2,0,P|435:235|440:192,1,87,10|2,0:0|0:0,0:0:0:0:
443,30,58427,2,0,B|464:25|464:25|485:34,2,43.5,2|2|0,3:2|0:0|3:0,0:0:0:0:
436,195,59117,1,10,0:0:0:0:
440,191,59289,2,0,P|401:174|359:183,1,87,2|2,0:0|0:0,0:0:0:0:
293,250,59806,6,0,B|267:260|267:260|208:252,1,87,2|2,3:2|3:2,0:0:0:0:
117,285,60324,1,0,0:0:0:0:
121,281,60496,2,0,P|107:327|115:368,1,87,10|2,0:0|0:0,0:0:0:0:
180,165,61186,2,0,P|194:119|186:78,1,87,2|2,3:2|3:2,0:0:0:0:
11,70,61875,2,0,P|-3:116|5:157,1,87,10|2,0:0|0:0,0:0:0:0:
71,294,62565,6,0,B|40:279|5:292|5:292|31:247|91:267|91:267|161:330|235:279,1,319,2|0,0:0|0:0,0:0:0:0:
305,253,63944,2,0,B|314:220|314:220|350:203|350:203|310:365|310:365|267:388|267:388|279:343|279:343|391:287,1,446.59998637085,2|0,0:0|0:0,0:0:0:0:
420,233,65324,6,0,L|441:145,1,69.6,4|0,3:1|0:0,0:0:0:0:
384,76,65668,2,0,P|360:52|323:45,1,69.6,2|0,0:0|0:0,0:0:0:0:
201,134,66013,2,0,P|242:155|322:116,1,139.2,10|2,0:0|0:0,0:0:0:0:
249,1,66588,1,0,3:0:0:0:
257,9,66703,2,0,B|250:46|250:46|258:84,1,69.6,0|0,3:0|0:0,0:0:0:0:
211,221,67048,2,0,B|218:184|218:184|210:146,1,69.6,2|0,3:2|0:0,0:0:0:0:
137,56,67393,2,0,B|91:47|91:47|49:54|49:54|-10:44,1,139.2,8|2,0:0|0:0,0:0:0:0:
102,335,68082,6,0,P|98:287|91:247,1,69.6,4|0,3:2|0:0,0:0:0:0:
67,184,68427,1,2,0:0:0:0:
71,180,68599,2,0,P|105:184|140:187,1,69.6,2|8,0:0|0:0,0:0:0:0:
226,149,68944,2,0,P|221:183|218:218,1,69.6,2|0,0:0|0:0,0:0:0:0:
256,288,69347,1,0,3:0:0:0:
264,296,69462,2,0,P|229:299|195:304,1,69.6,0|0,3:0|0:0,0:0:0:0:
307,220,69806,2,0,P|341:217|376:212,1,69.6,2|2,3:2|0:0,0:0:0:0:
510,165,70151,2,0,P|459:111|394:128,1,139.2,10|2,0:0|0:0,0:0:0:0:
303,224,70668,1,2,0:0:0:0:
307,220,70841,6,0,P|302:150|292:81,1,139.2,4|2,3:2|0:3,0:0:0:0:
71,100,71530,2,0,P|75:169|85:238,1,139.2,10|2,0:0|0:0,0:0:0:0:
150,278,72105,1,0,3:0:0:0:
158,286,72220,2,0,P|192:281|227:278,1,69.6,0|0,3:0|0:0,0:0:0:0:
73,246,72565,2,0,P|38:241|3:238,1,69.6,0|0,3:0|0:0,0:0:0:0:
225,203,72910,2,0,B|300:184|277:271|367:247,1,139.2,10|2,0:0|0:0,0:0:0:0:
484,51,73599,6,0,L|463:293,1,232,4|0,3:2|0:0,0:0:0:0:
463,295,74289,2,0,P|418:250|338:255,1,139.2,8|2,0:0|0:0,0:0:0:0:
232,279,74864,1,0,3:0:0:0:
240,287,74979,2,0,P|258:235|254:203,1,69.6,2|0,3:2|0:0,0:0:0:0:
218,91,75324,2,0,P|200:143|204:175,1,69.6,2|0,3:2|0:0,0:0:0:0:
105,227,75668,2,0,P|139:232|174:235,1,69.6,8|0,0:0|0:0,0:0:0:0:
352,150,76013,2,0,P|318:145|283:142,1,69.6,2|0,0:0|0:0,0:0:0:0:
99,151,76358,6,0,P|42:186|34:253,1,139.2,4|2,3:1|0:0,0:0:0:0:
176,315,76875,1,0,0:0:0:0:
180,311,77048,2,0,P|237:276|245:209,1,139.2,10|2,0:0|0:0,0:0:0:0:
181,81,77622,1,0,3:0:0:0:
189,89,77737,2,0,P|184:123|181:158,1,69.6,0|0,3:0|0:0,0:0:0:0:
268,121,78082,2,0,P|272:86|275:51,1,69.6,2|0,3:2|0:0,0:0:0:0:
115,13,78427,2,0,P|105:81|99:151,1,139.2,10|2,0:0|0:0,0:0:0:0:
253,348,79117,6,0,P|261:308|253:279,1,69.6,6|0,3:2|0:0,0:0:0:0:
169,245,79462,1,2,0:0:0:0:
173,241,79634,1,2,0:0:0:0:
177,237,79806,2,0,P|142:232|107:229,2,69.6,10|0|2,0:0|0:0|0:0,0:0:0:0:
287,194,80381,1,2,3:2:0:0:
295,202,80496,2,0,P|299:167|302:132,1,69.6,0|0,3:0|0:0,0:0:0:0:
256,0,80841,2,0,P|251:34|248:69,1,69.6,2|2,3:2|0:0,0:0:0:0:
345,71,81186,6,0,B|311:59|311:59|277:60,1,69.6,10|0,0:0|0:0,0:0:0:0:
248,69,81416,2,0,P|213:65|178:61,1,69.6,2|0,0:0|0:0,0:0:0:0:
149,56,81645,1,2,0:0:0:0:
7,176,81875,6,0,B|130:144|81:265|226:223,1,232,6|0,3:2|0:0,0:0:0:0:
273,168,82565,2,0,B|266:205|266:205|274:243,1,69.6,10|0,0:0|0:0,0:0:0:0:
417,246,82910,2,0,B|435:202|435:202|417:152,1,92.8,2|0,0:0|3:0,0:0:0:0:
376,68,83255,2,0,P|362:133|349:204,1,139.2,0|0,3:0|3:0,0:0:0:0:
213,373,83944,2,0,P|209:338|205:303,1,69.6,10|0,0:0|0:0,0:0:0:0:
123,246,84289,2,0,P|88:249|53:253,1,69.6,2|0,0:0|0:0,0:0:0:0:
208,209,84634,6,0,B|245:199|294:197|294:197|362:227|362:227|427:212|484:210,1,278.4,4|8,3:2|0:0,0:0:0:0:
421,300,85496,2,0,P|416:334|413:369,2,69.6,2|2|2,0:0|0:0|0:0,0:0:0:0:
486,200,86013,2,0,P|510:133|465:62,1,139.2,2|2,3:2|3:2,0:0:0:0:
356,21,86530,2,0,B|291:14|291:14|289:19|289:19|204:9,1,139.2,2|2,0:0|0:0,0:0:0:0:
115,78,87048,6,0,P|136:74|160:72,1,43.5,2|0,0:0|0:0,0:0:0:0:
