osu file format v14

[General]
AudioFilename: audio.mp3
AudioLeadIn: 0
PreviewTime: 65237
Countdown: 0
SampleSet: Soft
StackLeniency: 0.4
Mode: 0
LetterboxInBreaks: 0
WidescreenStoryboard: 1

[Editor]
Bookmarks: 40513,51547,65341,76375
DistanceSpacing: 1.2
BeatDivisor: 16
GridSize: 8
TimelineZoom: 2.3

[Metadata]
Title:Prayer X (TV Size)
TitleUnicode:Prayer X (TV Size)
Artist:King Gnu
ArtistUnicode:King Gnu
Creator:KaedeharaKazuha
Version:Lobelia's Normal
Source:BANANA FISH
Tags:Addy2607 Kaedehara Kazuha gary00737 Lobelia [_Abhor_] Abhor gokugohan12468 Kyouren KittyAdventure -ascended- -_ascended_- Ascended バナナフィッシュ anime 1st first ending ed outro theme song 1 one japanese rock pop jpop jrock j-pop j-rock Sympa PERIMETRON 常田大希 勢喜遊 新井和輝 井口理 Daiki Tsuneta Yu Seki Kazuki Arai Satoru Iguchi Ash Lynx Aslan Jade Callenreese 奥村英二 Okumura Eiji Shounen Shonen Shōnen Ai 少年愛 Boys Boys' Love BL
BeatmapID:3524665
BeatmapSetID:1724620

[Difficulty]
HPDrainRate:3
CircleSize:3
OverallDifficulty:3
ApproachRate:5
SliderMultiplier:1.6
SliderTickRate:1

[Events]
//Background and Video events
0,0,"BG.jpg",0,0
Video,-200,"banana.mp4"
//Break Periods
//Storyboard Layer 0 (Background)
//Storyboard Layer 1 (Fail)
//Storyboard Layer 2 (Pass)
//Storyboard Layer 3 (Foreground)
//Storyboard Layer 4 (Overlay)
//Storyboard Sound Samples

[TimingPoints]
502,845.070422535211,4,2,1,40,1,0
1347,800,4,2,1,40,1,0
1747,769.230769230769,4,2,1,40,1,0
2900,750,4,2,1,40,1,0
3275,882.352941176471,4,2,1,40,1,0
4598,833.333333333333,4,2,1,40,1,0
5431,857.142857142857,4,2,1,40,1,0
8859,821.917808219178,4,2,1,40,1,0
11324,845.070422535211,4,2,1,40,1,0
12169,909.090909090909,4,2,1,40,1,0
12623,1666.66666666667,4,2,1,40,1,0
13039,895.522388059701,4,2,1,40,1,0
13486,869.565217391304,4,2,1,40,1,0
13920,882.352941176471,4,2,1,50,1,0
15684,659.340659340659,4,2,1,50,1,0
16013,810.810810810811,4,2,1,50,1,0
17229,800,4,2,1,50,1,0
17629,689.655172413793,4,2,1,50,1,0
17801,1090.90909090909,4,2,1,50,1,0
18073,869.565217391304,4,2,1,50,1,0
19812,833.333333333333,4,2,1,50,1,0
23145,869.565217391304,4,2,1,50,1,0
24014,833.333333333333,4,2,1,50,1,0
24847,869.565217391304,4,2,1,50,1,0
27020,814.111261872456,4,2,1,50,1,0
29462,689.655172413793,4,2,1,60,1,0
40495,-100,4,2,1,50,0,0
40840,-100,4,2,2,50,0,0
62565,-100,4,2,1,40,0,0
65324,-100,4,2,1,75,0,1
87436,-100,4,2,1,5,0,1
87737,-100,4,2,1,5,0,0

[Colours]
Combo1 : 215,215,166
Combo2 : 139,170,186
Combo3 : 61,99,118
Combo4 : 126,129,56

[HitObjects]
204,153,502,6,0,P|197:98|181:53,2,80,2|2|2,0:0|0:0|0:0,0:0:0:0:
143,227,1747,2,0,P|220:248|285:205,1,160,2|2,0:0|0:0,0:0:0:0:
340,132,2900,1,2,0:3:0:0:
278,67,3275,2,0,P|352:42|418:83,1,160,2|2,0:0|0:0,0:0:0:0:
439,123,4377,1,2,0:0:0:0:
439,123,4598,2,0,P|417:195|422:284,1,160,2|2,0:3|0:0,0:0:0:0:
370,360,5859,2,0,P|293:338|244:377,1,133.333333333333,2|2,0:0|0:0,0:0:0:0:
129,329,7145,6,0,L|121:226,1,80,2|2,0:0|0:3,0:0:0:0:
114,153,8002,1,2,0:0:0:0:
277,37,8859,2,0,L|272:129,1,80,2|2,0:3|0:3,0:0:0:0:
264,212,9680,2,0,P|302:221|342:202,1,80,2|2,0:0|0:0,0:0:0:0:
389,197,10297,1,2,0:0:0:0:
389,197,10502,2,0,L|376:292,1,80,2|2,0:3|0:3,0:0:0:0:
364,370,11324,1,2,0:0:0:0:
282,318,11746,1,2,0:0:0:0:
202,358,12169,6,0,P|170:375|113:365,1,80,2|2,0:0|0:0,0:0:0:0:
52,323,13039,2,0,P|45:281|68:229,1,80,2|2,0:0|0:0,0:0:0:0:
115,173,13920,6,0,L|101:70,2,80,2|2|2,0:0|0:0|0:0,0:0:0:0:
197,221,15243,2,0,P|242:228|292:212,1,80,2|2,0:0|0:3,0:0:0:0:
360,202,16013,1,2,0:0:0:0:
444,156,16418,2,0,P|456:193|446:241,1,80,2|2,0:0|0:0,0:0:0:0:
379,300,17229,1,2,0:0:0:0:
291,348,17629,2,0,L|243:343,1,40,2|2,0:0|0:0,0:0:0:0:
209,348,18073,2,0,P|228:283|201:226,1,120,2|2,0:0|0:0,0:0:0:0:
117,126,19377,6,0,P|111:106|135:50,1,80,2|2,0:0|0:0,0:0:0:0:
193,37,20089,2,0,P|208:61|253:77,2,53.3333333333333,2|2|2,0:0|0:0|0:0,0:0:0:0:
370,111,21478,1,2,0:0:0:0:
388,205,21895,2,0,B|306:219|334:160|227:183,1,160,2|2,0:0|0:3,0:0:0:0:
188,261,23145,1,2,0:0:0:0:
99,223,23579,1,2,0:0:0:0:
0,237,24014,2,0,P|5:196|18:154,1,80,2|2,0:3|0:3,0:0:0:0:
143,101,25064,6,0,L|126:29,2,40,2|2|2,0:0|0:0|0:0,0:0:0:0:
143,149,25716,2,0,P|191:156|238:138,1,80,2|2,0:0|0:0,0:0:0:0:
266,163,26368,2,0,P|303:156|360:166,1,80,2|2,0:0|0:0,0:0:0:0:
389,185,27020,2,0,P|344:296|138:264,1,360,2|0,0:0|0:0,0:0:0:0:
201,107,29462,5,6,3:2:0:0:
175,14,29806,1,2,0:0:0:0:
100,74,30151,2,0,P|78:68|17:67,2,80,10|2|2,0:0|0:0|3:2,0:0:0:0:
193,51,31186,2,0,L|203:105,1,40,0|0,3:0|0:0,0:0:0:0:
218,134,31530,2,0,P|258:131|302:115,1,80,10|2,0:0|0:0,0:0:0:0:
386,85,32220,1,6,3:2:0:0:
445,160,32565,1,2,0:0:0:0:
399,244,32910,2,0,P|434:257|495:236,2,80,10|2|2,0:0|0:0|3:2,0:0:0:0:
217,181,34289,2,0,P|212:213|211:262,1,80,10|2,0:0|0:0,0:0:0:0:
220,356,34979,5,6,3:2:0:0:
300,302,35324,1,2,0:0:0:0:
309,206,35668,2,0,P|308:160|299:108,2,80,10|2|2,0:0|0:0|3:2,0:0:0:0:
215,229,36703,2,0,P|200:250|192:273,1,40,0|0,3:0|0:0,0:0:0:0:
156,292,37048,2,0,P|113:305|77:296,1,80,10|2,0:0|0:0,0:0:0:0:
26,217,37737,1,6,3:2:0:0:
56,125,38082,1,2,0:0:0:0:
149,146,38427,2,0,L|134:55,2,80,10|2|2,0:0|0:0|3:2,0:0:0:0:
240,177,39462,2,0,L|296:165,1,40,2|8,3:2|0:0,0:0:0:0:
326,164,39806,2,0,L|304:265,1,80,10|4,0:0|0:3,0:0:0:0:
294,337,40496,5,2,0:0:0:0:
387,360,40841,1,2,0:0:0:0:
466,306,41186,2,0,P|467:266|457:227,1,80,10|2,0:0|0:0,0:0:0:0:
427,136,41875,1,2,3:2:0:0:
449,42,42220,1,2,3:2:0:0:
357,69,42565,2,0,P|322:61|254:71,1,80,8|2,0:0|0:0,0:0:0:0:
188,99,43255,2,0,L|196:178,1,80,2|2,3:2|0:0,0:0:0:0:
203,226,43772,2,0,P|143:254|85:211,1,120,2|0,3:2|0:0,0:0:0:0:
22,173,44634,1,0,3:0:0:0:
19,316,45151,2,0,P|55:358|128:344,1,120,2|2,0:0|0:0,0:0:0:0:
209,335,46013,5,2,3:2:0:0:
296,294,46358,1,2,0:0:0:0:
376,346,46703,2,0,P|376:309|397:267,1,80,8|2,0:0|0:0,0:0:0:0:
460,201,47393,1,2,3:2:0:0:
506,117,47737,1,2,3:2:0:0:
423,67,48082,2,0,P|383:83|338:74,1,80,10|2,0:0|0:0,0:0:0:0:
257,42,48772,1,2,3:2:0:0:
164,14,49117,1,2,0:0:0:0:
76,53,49462,2,0,L|67:138,1,80,10|2,0:0|0:0,0:0:0:0:
47,226,50151,1,0,3:0:0:0:
142,237,50496,1,0,3:0:0:0:
87,316,50841,2,0,L|185:325,1,80,8|0,0:0|0:0,0:0:0:0:
262,334,51530,5,2,0:3:0:0:
277,239,51875,2,0,L|286:174,2,40,2|2|10,0:0|3:2|0:0,0:0:0:0:
354,305,52565,1,2,0:0:0:0:
354,305,52737,2,0,P|408:303|450:237,1,120,2|2,0:0|3:2,0:0:0:0:
425,161,53599,2,0,L|415:64,1,80,10|0,0:0|0:0,0:0:0:0:
323,57,54289,2,0,L|334:151,1,80,2|2,3:2|0:0,0:0:0:0:
340,183,54806,2,0,P|292:181|235:97,1,120,2|2,3:2|0:0,0:0:0:0:
197,48,55668,1,0,3:0:0:0:
101,43,56013,1,0,3:0:0:0:
31,109,56358,2,0,P|38:132|39:212,1,80,8|2,0:0|0:0,0:0:0:0:
42,283,57048,5,2,3:2:0:0:
132,251,57393,1,2,0:0:0:0:
207,309,57737,1,10,0:0:0:0:
304,302,58082,2,0,L|317:248,2,40,2|2|2,0:0|0:0|3:2,0:0:0:0:
341,331,58599,1,2,0:0:0:0:
426,287,58944,2,0,L|404:163,1,120,2|0,0:0|0:0,0:0:0:0:
347,91,59806,2,0,P|308:107|266:97,1,80,2|2,3:2|3:2,0:0:0:0:
175,91,60496,2,0,P|136:84|99:100,1,80,10|2,0:0|0:0,0:0:0:0:
67,191,61186,1,2,3:2:0:0:
156,224,61530,1,2,3:2:0:0:
222,293,61875,1,10,0:0:0:0:
312,324,62220,1,2,0:0:0:0:
407,329,62565,6,0,P|454:306|355:182,1,280,2|0,0:0|0:0,0:0:0:0:
134,95,65324,6,0,P|176:93|231:82,2,80,4|2|10,3:1|0:0|0:0,0:0:0:0:
56,37,66358,2,0,P|45:110|44:163,1,120,2|0,0:0|0:0,0:0:0:0:
47,204,67048,1,2,3:2:0:0:
62,298,67393,1,8,0:0:0:0:
135,236,67737,1,2,0:0:0:0:
150,331,68082,2,0,P|202:347|253:343,1,80,4|2,3:2|0:0,0:0:0:0:
269,323,68599,2,0,P|304:308|355:317,1,80,2|2,0:0|0:0,0:0:0:0:
392,323,69117,1,0,0:0:0:0:
392,323,69289,2,0,P|414:325|452:319,1,40,2|0,0:0|3:0,0:0:0:0:
451,229,69806,2,0,L|399:215,1,40,2|2,3:2|0:0,0:0:0:0:
365,205,70151,2,0,P|360:159|362:100,1,80,10|2,0:0|0:0,0:0:0:0:
273,83,70841,6,0,P|260:123|256:170,1,80,4|2,3:2|0:3,0:0:0:0:
233,253,71530,1,10,0:0:0:0:
280,336,71875,2,0,P|213:348|144:288,1,160,2|0,0:0|3:0,0:0:0:0:
153,196,72910,1,10,0:0:0:0:
207,117,73255,2,0,P|159:99|64:160,1,160,2|2,0:0|0:3,0:0:0:0:
62,243,74289,1,8,0:0:0:0:
145,292,74634,2,0,P|178:293|205:285,1,40,2|2,0:0|0:0,0:0:0:0:
223,263,74979,2,0,P|259:256|317:263,1,80,2|2,3:2|3:2,0:0:0:0:
390,298,75668,2,0,L|397:201,1,80,8|2,0:0|0:0,0:0:0:0:
399,121,76358,6,0,P|425:112|481:102,2,80,4|2|10,3:1|0:0|0:0,0:0:0:0:
315,169,77393,2,0,P|266:166|228:136,1,80,2|0,0:0|3:0,0:0:0:0:
231,54,78082,1,2,3:2:0:0:
147,8,78427,1,10,0:0:0:0:
89,84,78772,1,2,0:0:0:0:
119,175,79117,2,0,P|119:212|128:276,1,80,6|2,3:2|0:0,0:0:0:0:
132,302,79634,1,2,0:0:0:0:
132,302,79806,2,0,P|171:292|240:296,1,80,10|2,0:0|0:0,0:0:0:0:
258,287,80324,2,0,P|284:292|310:301,1,40,0|0,0:0|3:0,0:0:0:0:
391,312,80841,2,0,P|413:310|442:305,2,40,2|2|10,3:2|0:0|0:0,0:0:0:0:
373,250,81416,2,0,L|366:179,1,53.3333333333333,2|2,0:0|0:0,0:0:0:0:
346,136,81875,6,0,P|300:158|255:155,1,80,6|2,3:2|0:3,0:0:0:0:
177,144,82565,1,10,0:0:0:0:
109,76,82910,2,0,P|79:147|115:216,1,160,2|0,0:0|3:0,0:0:0:0:
210,228,83944,1,10,0:0:0:0:
273,155,84289,2,0,B|370:188|348:127|451:165,1,160,2|2,0:0|0:3,0:0:0:0:
448,252,85324,2,0,P|472:247|494:229,2,40,8|2|2,0:0|0:0|0:0,0:0:0:0:
400,257,85841,1,2,0:0:0:0:
400,257,86013,2,0,P|354:245|297:254,1,80,2|2,3:2|3:2,0:0:0:0:
281,272,86530,2,0,P|239:280|177:248,1,80,2|2,0:0|0:0,0:0:0:0:
175,230,87048,2,0,P|130:203|88:296,1,160,2|0,0:0|0:0,0:0:0:0:
