osu file format v14

[General]
AudioFilename: audio.mp3
AudioLeadIn: 0
PreviewTime: 65237
Countdown: 0
SampleSet: Soft
StackLeniency: 0.3
Mode: 0
LetterboxInBreaks: 0
WidescreenStoryboard: 1

[Editor]
Bookmarks: 40497,51547,65341,76375
DistanceSpacing: 0.3
BeatDivisor: 12
GridSize: 8
TimelineZoom: 2.4

[Metadata]
Title:Prayer X (TV Size)
TitleUnicode:Prayer X (TV Size)
Artist:King Gnu
ArtistUnicode:King Gnu
Creator:KaedeharaKazuha
Version:Lobelia's Insane
Source:BANANA FISH
Tags:Addy2607 Kaedehara Kazuha gary00737 Lobelia [_Abhor_] Abhor gokugohan12468 Kyouren KittyAdventure -ascended- -_ascended_- Ascended バナナフィッシュ anime 1st first ending ed outro theme song 1 one japanese rock pop jpop jrock j-pop j-rock Sympa PERIMETRON 常田大希 勢喜遊 新井和輝 井口理 Daiki Tsuneta Yu Seki Kazuki Arai Satoru Iguchi Ash Lynx Aslan Jade Callenreese 奥村英二 Okumura Eiji Shounen Shonen Shōnen Ai 少年愛 Boys Boys' Love BL
BeatmapID:3524664
BeatmapSetID:1724620

[Difficulty]
HPDrainRate:6
CircleSize:6
OverallDifficulty:8
ApproachRate:7.3
SliderMultiplier:2
SliderTickRate:1

[Events]
//Background and Video events
0,0,"BG.jpg",0,0
Video,-200,"banana.mp4"
//Break Periods
//Storyboard Layer 0 (Background)
//Storyboard Layer 1 (Fail)
//Storyboard Layer 2 (Pass)
//Storyboard Layer 3 (Foreground)
//Storyboard Layer 4 (Overlay)
//Storyboard Sound Samples

[TimingPoints]
502,845.070422535211,4,2,1,40,1,0
1347,800,4,2,1,40,1,0
1747,769.230769230769,4,2,1,40,1,0
2900,750,4,2,1,40,1,0
3275,882.352941176471,4,2,1,40,1,0
4598,833.333333333333,4,2,1,40,1,0
5431,857.142857142857,4,2,1,40,1,0
8859,821.917808219178,4,2,1,40,1,0
11324,845.070422535211,4,2,1,40,1,0
12169,909.090909090909,4,2,1,40,1,0
12623,1666.66666666667,4,2,1,40,1,0
13039,895.522388059701,4,2,1,40,1,0
13486,869.565217391304,4,2,1,40,1,0
13920,882.352941176471,4,2,1,50,1,0
15684,659.340659340659,4,2,1,50,1,0
16013,810.810810810811,4,2,1,50,1,0
17229,800,4,2,1,50,1,0
17629,689.655172413793,4,2,1,50,1,0
17801,1090.90909090909,4,2,1,50,1,0
18073,869.565217391304,4,2,1,50,1,0
19812,833.333333333333,4,2,1,50,1,0
23145,869.565217391304,4,2,1,50,1,0
24014,833.333333333333,4,2,1,50,1,0
24847,869.565217391304,4,2,1,50,1,0
27020,814.111261872456,4,2,1,50,1,0
29462,689.655172413793,4,2,1,60,1,0
40496,-100,4,2,1,50,0,0
40841,-100,4,2,2,50,0,0
62565,-200,4,2,1,40,0,0
63944,-200,4,2,1,40,0,0
65324,-66.6666666666667,4,2,1,75,0,1
67737,-133.333333333333,4,2,1,75,0,1
68082,-66.6666666666667,4,2,1,75,0,1
68944,-133.333333333333,4,2,1,75,0,1
70151,-66.6666666666667,4,2,1,75,0,1
70496,-133.333333333333,4,2,1,75,0,1
70841,-66.6666666666667,4,2,1,75,0,1
73255,-133.333333333333,4,2,1,75,0,1
73599,-66.6666666666667,4,2,1,75,0,1
78772,-133.333333333333,4,2,1,75,0,1
79117,-66.6666666666667,4,2,1,75,0,1
84289,-133.333333333333,4,2,1,75,0,1
84634,-66.6666666666667,4,2,1,75,0,1
87393,-100,4,2,1,75,0,0
87436,-100,4,2,1,5,0,0

[Colours]
Combo1 : 215,215,166
Combo2 : 139,170,186
Combo3 : 61,99,118
Combo4 : 126,129,56

[HitObjects]
83,54,502,5,2,0:0:0:0:
146,169,924,1,2,0:0:0:0:
128,106,1347,1,2,0:0:0:0:
158,233,1747,2,0,B|190:309|170:355|121:366|101:335|107:285,1,200,2|2,0:0|0:0,0:0:0:0:
106,289,2900,1,2,0:3:0:0:
290,337,3275,6,0,P|339:348|401:339,1,100,2|2,0:0|0:3,0:0:0:0:
388,342,4157,2,0,P|384:324|374:293,1,50,2|2,0:0|0:0,0:0:0:0:
360,227,4598,2,0,P|367:203|387:167,2,50,2|2|2,0:3|0:0|0:0,0:0:0:0:
350,288,5223,1,2,0:0:0:0:
350,288,5431,5,2,0:0:0:0:
231,316,5859,2,0,P|203:325|180:326,1,50,2|2,0:0|0:0,0:0:0:0:
129,282,6288,2,0,P|119:309|114:355,1,66.6666666666666,2|2,0:0|0:0,0:0:0:0:
115,359,6716,1,2,0:3:0:0:
16,185,7145,6,0,P|47:219|103:203,1,100,2|2,0:0|0:3,0:0:0:0:
252,174,8002,2,0,P|209:193|169:155,1,100,2|2,0:0|0:3,0:0:0:0:
25,71,8859,2,0,P|67:93|105:64,1,100,2|2,0:3|0:3,0:0:0:0:
257,23,9629,6,0,L|257:35,1,12.5,0|2,0:0|0:0,0:0:0:0:
414,56,10091,1,2,0:0:0:0:
414,56,10297,1,2,0:0:0:0:
480,39,10502,2,0,L|461:140,1,100,2|2,0:3|0:3,0:0:0:0:
461,137,11324,1,2,0:0:0:0:
265,97,11746,1,2,0:0:0:0:
393,138,12169,6,0,L|403:175,1,33.3333333333333,2|2,0:0|0:0,0:0:0:0:
445,304,12623,1,2,0:0:0:0:
445,304,12935,2,0,L|440:324,1,12.5,0|2,0:0|0:0,0:0:0:0:
393,138,13486,1,2,0:0:0:0:
387,292,13920,5,2,0:0:0:0:
265,278,14361,1,2,0:0:0:0:
323,304,14802,1,2,0:0:0:0:
205,292,15243,2,0,P|188:334|221:380,1,100,2|2,0:0|0:3,0:0:0:0:
387,292,16013,5,2,0:0:0:0:
265,278,16418,1,2,0:0:0:0:
323,304,16823,1,2,0:0:0:0:
205,292,17229,5,2,0:0:0:0:
205,292,17629,2,0,P|171:299|148:298,1,50,2|2,0:0|0:0,0:0:0:0:
95,267,18073,1,2,0:0:0:0:
95,267,18507,2,0,P|87:291|82:324,1,50,2|2,0:0|0:0,0:0:0:0:
78,376,18942,1,2,0:3:0:0:
153,236,19377,6,0,P|145:214|139:184,1,50,2|2,0:0|0:0,0:0:0:0:
124,130,19812,1,2,0:0:0:0:
124,130,20089,2,0,P|133:98|147:68,1,66.6666666666666,2|2,0:0|0:0,0:0:0:0:
77,181,20645,2,0,P|59:129|51:57,1,100,2|2,0:0|0:3,0:0:0:0:
208,194,21478,6,0,P|211:166|224:135,1,50,2|0,0:0|0:0,0:0:0:0:
279,113,21895,2,0,B|351:116|304:150|384:151,2,100,2|2|2,0:0|0:3|0:3,0:0:0:0:
223,241,23145,6,0,P|211:215|207:181,1,50,2|0,0:0|0:0,0:0:0:0:
280,173,23579,2,0,L|276:197,1,25,2|0,0:0|0:0,0:0:0:0:
437,154,24014,5,2,0:3:0:0:
437,154,24430,1,2,0:3:0:0:
437,154,24847,1,2,0:3:0:0:
386,198,25064,2,0,P|383:217|382:250,2,50,2|2|2,0:0|0:0|0:0,0:0:0:0:
437,154,25716,6,0,P|400:134|344:147,1,100,2|2,0:0|0:0,0:0:0:0:
321,204,26368,2,0,P|293:207|233:158,1,100,2|2,0:0|0:0,0:0:0:0:
221,99,27020,2,0,P|101:88|171:185,1,300,2|0,0:0|0:0,0:0:0:0:
236,167,28444,6,0,B|372:204|324:118|465:148,1,225
468,155,29462,5,6,3:2:0:0:
427,263,29806,1,2,0:0:0:0:
452,145,30151,5,10,0:0:0:0:
427,263,30496,1,2,0:0:0:0:
434,141,30726,5,0,3:0:0:0:
434,141,30841,1,2,3:2:0:0:
434,141,31186,1,0,3:0:0:0:
342,165,31358,6,0,L|345:188,1,16.6666666666667,0|2,0:0|0:3,0:0:0:0:
286,217,31530,6,0,L|276:151,1,50,10|0,0:0|0:0,0:0:0:0:
160,141,31875,2,0,L|167:190,1,50,2|0,0:0|0:0,0:0:0:0:
298,281,32220,5,6,3:2:0:0:
278,167,32565,1,2,0:0:0:0:
261,55,32910,1,10,0:0:0:0:
278,167,33255,1,2,0:0:0:0:
298,281,33484,5,0,3:0:0:0:
298,281,33599,1,2,3:2:0:0:
298,281,33944,1,0,3:0:0:0:
261,55,34289,6,0,L|301:45,7,25,10|0|0|0|2|0|0|0,0:0|0:0|0:0|0:0|0:0|0:0|0:0|0:0,0:0:0:0:
252,60,34979,5,6,3:2:0:0:
76,97,35324,1,2,0:0:0:0:
252,60,35668,5,10,0:0:0:0:
70,87,36013,1,2,0:0:0:0:
249,74,36243,5,0,3:0:0:0:
249,74,36358,1,2,3:2:0:0:
249,74,36703,1,0,3:0:0:0:
303,139,36875,6,0,L|297:170,1,16.6666666666667,0|2,0:0|0:3,0:0:0:0:
356,188,37048,6,0,L|367:133,1,50,10|0,0:0|0:0,0:0:0:0:
488,123,37393,2,0,L|477:178,1,50,2|0,0:0|0:0,0:0:0:0:
343,251,37737,5,6,3:2:0:0:
365,138,38082,1,2,0:0:0:0:
386,34,38427,1,10,0:0:0:0:
365,138,38772,1,2,0:0:0:0:
343,251,39002,5,0,3:0:0:0:
343,251,39117,1,2,3:2:0:0:
386,34,39462,2,0,L|361:36,11,25,2|2|8|2|10|2|8|2|4|2|0|2,3:2|0:3|0:0|0:3|0:0|0:3|0:3|0:3|0:3|0:3|3:0|0:3,0:0:0:0:
403,32,40496,5,2,0:0:0:0:
499,226,40841,6,0,P|481:245|470:276,1,50,2|2,0:0|3:2,0:0:0:0:
489,312,41186,2,0,P|474:287|472:259,1,50,10|2,0:0|0:0,0:0:0:0:
421,265,41530,2,0,L|485:267,1,50,2|2,0:0|0:0,0:0:0:0:
512,209,41875,5,2,3:2:0:0:
466,168,42048,1,2,0:0:0:0:
403,169,42220,1,2,3:2:0:0:
362,215,42393,6,0,B|317:256|360:265|314:301,1,100,2|2,0:0|0:0,0:0:0:0:
256,328,42910,1,2,0:0:0:0:
256,328,43082,1,2,0:0:0:0:
366,381,43255,2,0,B|352:321|323:354|315:296,1,100,2|2,3:2|0:0,0:0:0:0:
274,250,43772,1,2,3:2:0:0:
274,250,44117,2,0,P|266:218|265:196,2,50,2|0|2,0:0|0:0|0:0,0:0:0:0:
315,299,44634,1,0,3:0:0:0:
315,299,44979,5,0,3:0:0:0:
376,286,45151,1,2,0:0:0:0:
432,312,45324,2,0,P|439:265|464:206,1,100,10|2,0:0|0:0,0:0:0:0:
508,96,46013,5,2,3:2:0:0:
447,119,46186,1,2,0:0:0:0:
382,108,46358,1,2,0:0:0:0:
294,83,46530,2,0,P|306:121|348:167,1,100,2|2,3:2|0:0,0:0:0:0:
382,108,47048,2,0,P|384:81|393:55,1,50,2|2,0:0|0:0,0:0:0:0:
508,96,47393,5,2,3:2:0:0:
447,119,47566,1,2,0:0:0:0:
382,108,47738,1,2,3:2:0:0:
382,108,48082,2,0,B|327:114|357:151|298:156,1,100,10|2,0:0|0:0,0:0:0:0:
150,204,48772,6,0,P|117:179|85:120,1,100,2|2,3:2|0:0,0:0:0:0:
214,228,49289,1,0,3:0:0:0:
118,222,49462,2,0,P|94:176|88:118,1,100,10|2,0:0|0:0,0:0:0:0:
87,128,50151,1,0,3:0:0:0:
150,204,50496,1,0,3:0:0:0:
283,224,50841,5,8,0:0:0:0:
214,228,51186,5,0,0:0:0:0:
344,200,51530,5,2,0:3:0:0:
491,58,51875,1,2,0:0:0:0:
440,99,52048,1,2,3:2:0:0:
499,123,52220,1,10,0:0:0:0:
499,123,52565,5,2,0:0:0:0:
449,165,52737,2,0,P|440:201|437:230,2,50,2|0|2,0:0|3:0|0:0,0:0:0:0:
499,123,53255,1,2,3:2:0:0:
433,278,53599,1,10,0:0:0:0:
433,278,53772,2,0,P|409:286|372:276,1,50,2|0,0:0|0:0,0:0:0:0:
322,264,54117,1,2,0:0:0:0:
322,264,54289,2,0,B|261:267|289:306|232:311,1,100,2|2,3:2|0:0,0:0:0:0:
175,334,54806,2,0,P|189:348|221:367,1,50,2|8,3:2|0:0,0:0:0:0:
123,302,55151,2,0,P|115:341|117:366,1,50,2|2,0:0|0:0,0:0:0:0:
110,243,55496,1,2,0:0:0:0:
48,223,55668,5,0,3:0:0:0:
48,223,56013,1,0,3:0:0:0:
175,334,56358,5,8,0:0:0:0:
236,312,56530,2,0,P|271:304|298:304,2,50,2|2|2,0:0|0:0|0:0,0:0:0:0:
175,334,57048,5,2,3:2:0:0:
111,317,57221,1,2,0:0:0:0:
87,256,57393,1,2,0:0:0:0:
87,256,57737,1,10,0:0:0:0:
19,57,58082,5,2,0:0:0:0:
19,57,58255,1,2,0:0:0:0:
77,84,58427,1,2,3:2:0:0:
141,75,58599,1,2,0:0:0:0:
141,75,58944,5,2,0:0:0:0:
198,43,59117,1,10,0:0:0:0:
261,56,59289,1,2,0:0:0:0:
261,56,59634,5,2,0:0:0:0:
293,112,59806,5,2,3:2:0:0:
353,135,60151,1,2,3:2:0:0:
416,120,60495,1,10,0:0:0:0:
453,66,60841,1,2,0:0:0:0:
416,120,61186,5,2,3:2:0:0:
453,66,61530,1,2,3:2:0:0:
353,135,61875,5,10,0:0:0:0:
416,120,62220,1,2,0:0:0:0:
293,112,62565,6,0,B|231:127|238:205|238:205|172:149|100:197|100:197|107:116|43:104,1,387.5,2|0,0:0|0:0,0:0:0:0:
107,56,65324,6,0,P|170:92|239:57,3,150.000005722046,4|2|10|2,3:1|0:0|0:0|0:0,0:0:0:0:
324,42,66588,1,0,3:0:0:0:
326,54,66703,1,0,3:0:0:0:
326,54,67048,1,2,3:2:0:0:
476,17,67393,6,0,P|464:45|460:80,1,50.0000019073487,8|0,0:0|0:0,0:0:0:0:
346,133,67737,6,0,P|356:160|359:183,1,50.0000019073487,2|0,0:0|0:0,0:0:0:0:
404,263,68082,6,0,P|449:234|416:273,1,150.000005722046,4|2,3:2|0:0,0:0:0:0:
372,362,68599,1,2,0:0:0:0:
349,303,68772,2,0,P|324:285|326:315,2,75.0000028610231,8|2|0,0:0|0:0|0:0,0:0:0:0:
274,239,69347,1,0,3:0:0:0:
272,251,69462,1,0,3:0:0:0:
210,351,69806,1,2,3:2:0:0:
154,372,69979,1,2,0:0:0:0:
101,340,70151,6,0,P|96:303|66:244,1,100.000003814697,10|0,0:0|0:0,0:0:0:0:
131,222,70496,6,0,P|134:200|146:171,1,50.0000019073487,2|2,0:0|0:0,0:0:0:0:
239,85,70841,6,0,B|140:70|182:132|78:114,1,150.000005722046,4|2,3:2|0:3,0:0:0:0:
42,48,71358,1,0,0:0:0:0:
97,79,71530,2,0,B|196:64|154:126|258:108,1,150.000005722046,10|2,0:0|0:0,0:0:0:0:
288,32,72105,1,0,3:0:0:0:
289,42,72220,1,0,3:0:0:0:
289,42,72565,1,0,3:0:0:0:
475,88,72910,6,0,P|440:99|382:66,1,100.000003814697,10|0,0:0|0:0,0:0:0:0:
434,163,73255,6,0,P|455:155|494:166,1,50.0000019073487,2|0,0:0|0:0,0:0:0:0:
504,269,73599,6,0,P|412:220|235:248,1,262.500010013581,4|0,3:2|0:0,0:0:0:0:
215,284,74289,1,8,0:0:0:0:
35,267,74634,5,2,0:0:0:0:
91,303,74806,1,2,0:0:0:0:
155,308,74979,5,2,3:2:0:0:
215,284,75324,1,2,3:2:0:0:
91,303,75668,1,8,0:0:0:0:
258,234,76013,1,2,0:0:0:0:
98,369,76358,6,0,P|34:338|35:267,3,150.000005722046,4|2|10|2,3:1|0:0|0:0|0:0,0:0:0:0:
115,192,77622,1,0,3:0:0:0:
114,205,77737,1,0,3:0:0:0:
114,205,78082,1,2,3:2:0:0:
15,98,78427,6,0,P|58:126|119:114,1,100.000003814697,10|0,0:0|0:0,0:0:0:0:
183,59,78772,6,0,P|161:68|131:65,1,50.0000019073487,2|0,0:0|0:0,0:0:0:0:
282,34,79117,6,0,P|304:122|368:152,1,150.000005722046,6|2,3:2|0:0,0:0:0:0:
410,41,79634,1,2,0:0:0:0:
376,93,79806,2,0,P|348:77|352:29,2,75.0000028610231,10|0|2,0:0|0:0|0:0,0:0:0:0:
501,17,80381,1,2,3:2:0:0:
498,29,80496,1,0,3:0:0:0:
453,107,80841,5,2,3:2:0:0:
466,168,81013,1,2,0:0:0:0:
480,228,81186,1,10,0:0:0:0:
512,125,81416,5,2,0:0:0:0:
419,211,81645,5,2,0:0:0:0:
294,173,81875,6,0,B|214:151|231:226|146:197,1,150.000005722046,6|2,3:2|0:3,0:0:0:0:
97,135,82393,1,0,0:0:0:0:
154,171,82565,2,0,B|234:149|217:224|302:195,1,150.000005722046,10|2,0:0|0:0,0:0:0:0:
355,117,83140,1,0,3:0:0:0:
352,130,83255,1,0,3:0:0:0:
352,130,83599,1,0,3:0:0:0:
480,228,83944,6,0,P|453:242|389:224,1,100.000003814697,10|0,0:0|0:0,0:0:0:0:
363,292,84289,6,0,P|344:282|306:281,1,50.0000019073487,2|0,0:0|0:0,0:0:0:0:
150,354,84634,6,0,P|224:319|218:148,1,262.500010013581,4|0,3:2|0:0,0:0:0:0:
178,116,85324,1,8,0:0:0:0:
96,176,85496,2,0,P|121:186|171:177,2,75.0000028610231,2|2|2,0:0|0:0|0:0,0:0:0:0:
88,166,85898,1,0,3:0:0:0:
85,152,86013,1,2,3:2:0:0:
85,152,86358,1,2,3:2:0:0:
173,13,86703,6,0,P|167:29|167:53,7,37.5000014305115,8|2|2|2|2|2|2|2,0:0|0:3|0:0|0:3|0:0|0:3|0:3|0:3,0:0:0:0:
228,43,87393,5,0,0:0:0:0:
