osu file format v14

[General]
AudioFilename: audio.mp3
AudioLeadIn: 0
PreviewTime: 65237
Countdown: 0
SampleSet: Soft
StackLeniency: 0.2
Mode: 0
LetterboxInBreaks: 0
WidescreenStoryboard: 0

[Editor]
DistanceSpacing: 0.6
BeatDivisor: 16
GridSize: 32
TimelineZoom: 1.8

[Metadata]
Title:Prayer X (TV Size)
TitleUnicode:Prayer X (TV Size)
Artist:King Gnu
ArtistUnicode:King Gnu
Creator:KaedeharaKazuha
Version:Kyouren's Soulmate
Source:BANANA FISH
Tags:Addy2607 Kaedehara Kazuha gary00737 Lobelia [_Abhor_] Abhor gokugohan12468 Kyouren KittyAdventure -ascended- -_ascended_- Ascended バナナフィッシュ anime 1st first ending ed outro theme song 1 one japanese rock pop jpop jrock j-pop j-rock Sympa PERIMETRON 常田大希 勢喜遊 新井和輝 井口理 Daiki Tsuneta Yu Seki Kazuki Arai Satoru Iguchi Ash Lynx Aslan Jade Callenreese 奥村英二 Okumura Eiji Shounen Shonen Shōnen Ai 少年愛 Boys Boys' Love BL
BeatmapID:3525220
BeatmapSetID:1724620

[Difficulty]
HPDrainRate:5
CircleSize:5
OverallDifficulty:7.5
ApproachRate:8.5
SliderMultiplier:1.74
SliderTickRate:1

[Events]
//Background and Video events
0,0,"BG.jpg",0,0
Video,-200,"banana.mp4"
//Break Periods
//Storyboard Layer 0 (Background)
//Storyboard Layer 1 (Fail)
//Storyboard Layer 2 (Pass)
//Storyboard Layer 3 (Foreground)
//Storyboard Layer 4 (Overlay)
//Storyboard Sound Samples

[TimingPoints]
502,845.070422535211,4,2,1,40,1,0
1347,800,4,2,1,40,1,0
1747,769.230769230769,4,2,1,40,1,0
1747,-200,4,2,1,40,0,0
2131,-100,4,2,1,40,0,0
2900,750,4,2,1,40,1,0
3275,882.352941176471,4,2,1,40,1,0
4598,833.333333333333,4,2,1,40,1,0
5431,857.142857142857,4,2,1,40,1,0
8859,821.917808219178,4,2,1,40,1,0
11324,845.070422535211,4,2,1,40,1,0
11746,-285.714285714286,4,2,1,40,0,0
12169,909.090909090909,4,2,1,40,1,0
12623,1666.66666666667,4,2,1,40,1,0
13039,895.522388059701,4,2,1,40,1,0
13486,869.565217391304,4,2,1,40,1,0
13920,882.352941176471,4,2,1,50,1,0
15684,659.340659340659,4,2,1,50,1,0
16013,810.810810810811,4,2,1,50,1,0
16823,-200,4,2,1,50,0,0
17229,800,4,2,1,50,1,0
17629,689.655172413793,4,2,1,50,1,0
17801,1090.90909090909,4,2,1,50,1,0
18073,869.565217391304,4,2,1,50,1,0
18507,-285.714285714286,4,2,1,50,0,0
18942,-100,4,2,1,50,0,0
19812,833.333333333333,4,2,1,50,1,0
23145,869.565217391304,4,2,1,50,1,0
24014,833.333333333333,4,2,1,50,1,0
24847,869.565217391304,4,2,1,50,1,0
27020,814.111261872456,4,2,1,50,1,0
27020,-418.410041841004,4,2,1,50,0,0
29360,-418.410041841004,4,2,1,5,0,0
29462,689.655172413793,4,2,1,60,1,0
29462,-50,4,2,1,60,0,0
40496,-66.6666666666667,4,2,1,50,0,0
40840,-66.6666666666667,4,2,2,50,0,0
62565,-400,4,2,1,40,0,0
63772,-400,4,2,1,5,0,0
63944,-1000,4,2,1,40,0,0
65151,-1000,4,2,1,5,0,0
65324,-40,4,2,1,75,0,0
69289,-100,4,2,1,75,0,0
69462,-40,4,2,1,75,0,0
78772,-200,4,2,1,75,0,0
79117,-40,4,2,1,75,0,0
87393,-266.666666666667,4,2,1,75,0,0
87436,-266.666666666667,4,2,1,5,0,0
88082,-266.666666666667,4,2,1,5,0,0

[Colours]
Combo1 : 215,215,166
Combo2 : 139,170,186
Combo3 : 61,99,118
Combo4 : 126,129,56

[HitObjects]
45,190,502,5,2,0:0:0:0:
32,106,924,1,2,0:0:0:0:
83,38,1347,1,2,0:0:0:0:
167,27,1747,2,0,L|169:12,1,14.5,2|0,0:0|0:0,0:0:0:0:
234,79,2131,5,2,0:3:0:0:
83,38,2516,1,2,0:0:0:0:
45,190,2900,1,2,0:3:0:0:
45,190,3275,1,2,0:0:0:0:
196,231,3716,5,2,0:3:0:0:
140,140,4157,1,2,0:0:0:0:
140,140,4377,1,2,0:0:0:0:
140,140,4598,5,2,0:3:0:0:
45,190,4806,1,2,0:0:0:0:
105,270,5223,1,2,0:0:0:0:
196,231,5431,5,2,0:0:0:0:
196,231,5859,1,2,0:0:0:0:
290,190,6073,1,2,0:0:0:0:
365,265,6288,2,0,P|374:306|360:347,1,87,2|2,0:0|0:3,0:0:0:0:
290,190,7145,6,0,L|420:180,1,130.5,2|0,0:0|0:0,0:0:0:0:
450,110,8002,2,0,P|426:74|385:60,1,87,2|2,0:0|0:3,0:0:0:0:
310,60,8645,1,0,0:0:0:0:
255,10,8859,6,0,P|218:62|229:124,1,130.5,2|0,0:3|0:0,0:0:0:0:
175,185,9680,2,0,L|88:174,1,87,2|2,0:0|0:0,0:0:0:0:
15,200,10297,1,2,0:0:0:0:
15,200,10502,5,2,0:3:0:0:
2,284,10913,1,2,0:3:0:0:
53,352,11324,1,2,0:0:0:0:
137,363,11746,2,0,L|138:378,1,15.2249995353699,2|2,0:0|0:3,0:0:0:0:
204,311,12169,5,2,0:0:0:0:
206,304,12623,1,2,0:0:0:0:
204,311,13039,5,2,0:0:0:0:
225,230,13486,1,2,0:0:0:0:
15,200,13920,6,0,P|-2:160|3:118,1,87,2|2,0:0|0:0,0:0:0:0:
67,334,14802,2,0,P|27:318|2:284,2,87,2|2|2,0:0|0:0|0:3,0:0:0:0:
235,240,16012,5,2,0:0:0:0:
190,170,16417,1,2,0:0:0:0:
220,100,16823,2,0,L|241:96,1,21.75,2|2,0:0|0:3,0:0:0:0:
235,240,17229,5,2,0:0:0:0:
350,160,17629,1,2,0:0:0:0:
350,160,17801,1,2,0:0:0:0:
350,160,18073,5,2,0:0:0:0:
220,100,18507,2,0,L|221:84,1,15.2249995353699,2|2,0:0|0:0,0:0:0:0:
105,190,18942,1,2,0:3:0:0:
45,240,19377,5,2,0:0:0:0:
30,165,19594,1,2,0:0:0:0:
85,110,19812,5,2,0:0:0:0:
30,165,20089,5,2,0:0:0:0:
45,240,20367,5,2,0:0:0:0:
115,270,20645,6,0,B|187:261|172:288|243:278,1,130.5,2|0,0:0|0:0,0:0:0:0:
310,315,21478,2,0,B|331:278|331:278|311:238,1,87,2|2,0:0|0:0,0:0:0:0:
250,34,22312,2,0,P|278:90|340:102,1,130.5,2|0,0:3|0:0,0:0:0:0:
410,140,23145,2,0,L|418:53,1,87,2|2,0:0|0:0,0:0:0:0:
355,15,23797,1,0,0:0:0:0:
355,15,24014,5,2,0:3:0:0:
255,195,24430,1,2,0:3:0:0:
250,34,24847,1,2,0:3:0:0:
310,85,25064,5,2,0:0:0:0:
238,112,25281,1,2,0:0:0:0:
165,140,25499,1,2,0:0:0:0:
255,195,25716,5,2,0:0:0:0:
250,270,26151,1,2,0:0:0:0:
250,270,26368,1,2,0:0:0:0:
245,345,26803,1,2,0:0:0:0:
10,190,27020,6,0,P|30:138|85:146,1,119.625,2|0,0:0|0:0,0:0:0:0:
85,146,29462,6,0,P|139:148|158:97,1,116,6|0,3:2|0:0,0:0:0:0:
90,60,29806,1,2,0:0:0:0:
200,270,30151,2,0,L|315:255,1,116,10|0,0:0|0:0,0:0:0:0:
375,300,30496,1,2,0:0:0:0:
370,315,30726,1,0,3:0:0:0:
449,305,30841,6,0,P|476:254|457:201,1,116,2|0,3:2|0:0,0:0:0:0:
385,170,31186,2,0,P|366:116|392:66,1,116,0|2,3:0|0:3,0:0:0:0:
465,40,31530,5,10,0:0:0:0:
255,135,31875,1,2,0:0:0:0:
80,25,32220,6,0,B|102:59|102:59|90:133,1,116,6|0,3:2|0:0,0:0:0:0:
30,180,32565,1,2,0:0:0:0:
20,360,32910,2,0,P|56:317|113:313,1,116,10|0,0:0|0:0,0:0:0:0:
175,365,33255,1,2,0:0:0:0:
170,375,33484,1,0,3:0:0:0:
255,340,33599,6,0,L|245:224,1,116,2|0,3:2|0:0,0:0:0:0:
190,160,33944,2,0,B|260:155|226:127|296:119,1,116,0|2,3:0|0:3,0:0:0:0:
360,75,34289,2,0,L|356:17,2,58,10|0|0,0:0|0:0|0:0,0:0:0:0:
365,160,34634,2,0,L|369:218,2,58,2|0|0,0:0|0:0|0:0,0:0:0:0:
430,265,34979,6,0,P|375:259|336:299,1,116,6|0,3:2|0:0,0:0:0:0:
406,344,35324,1,2,0:0:0:0:
296,119,35668,2,0,B|226:127|260:155|190:160,1,116,10|0,0:0|0:0,0:0:0:0:
125,115,36013,1,2,0:0:0:0:
130,100,36243,1,0,3:0:0:0:
10,190,36358,6,0,P|65:191|87:242,1,116,2|0,3:2|0:0,0:0:0:0:
60,320,36703,2,0,P|116:307|173:297,1,116,0|2,3:0|0:3,0:0:0:0:
230,350,37048,1,10,0:0:0:0:
190,160,37393,1,2,0:0:0:0:
495,195,37737,6,0,B|443:189|443:189|443:193|443:193|383:186,1,116,6|0,3:2|0:0,0:0:0:0:
330,240,38082,1,2,0:0:0:0:
500,50,38427,2,0,B|440:57|440:57|440:53|440:53|388:59,1,116,10|0,0:0|0:0,0:0:0:0:
325,20,38772,5,2,0:0:0:0:
320,30,39002,1,0,3:0:0:0:
240,20,39117,2,0,L|254:135,1,116,2|0,3:2|0:0,0:0:0:0:
195,185,39462,5,2,3:2:0:0:
42,150,39634,1,8,0:0:0:0:
100,100,39806,6,0,L|94:42,2,58,10|0|0,0:0|0:0|0:0,0:0:0:0:
90,210,40151,2,0,L|95:267,2,58,4|0|0,0:3|0:0|0:0,0:0:0:0:
34,320,40496,6,0,P|98:316|146:358,1,130.50000497818,2|2,0:0|0:0,0:0:0:0:
200,200,41013,1,2,3:2:0:0:
200,200,41186,2,0,P|180:226|178:258,1,65.2500024890901,10|2,0:0|0:0,0:0:0:0:
220,325,41530,1,2,0:0:0:0:
220,325,41703,1,2,0:0:0:0:
310,220,41875,6,0,P|278:229|258:254,1,65.2500024890901,2|2,3:2|0:0,0:0:0:0:
385,300,42220,2,0,P|353:290|322:299,1,65.2500024890901,2|2,3:2|0:0,0:0:0:0:
200,200,42565,2,0,P|180:226|178:258,1,65.2500024890901,8|2,0:0|0:0,0:0:0:0:
220,325,42910,1,2,0:0:0:0:
200,200,43082,5,2,0:0:0:0:
145,140,43255,2,0,B|74:130|93:160|16:152,1,130.50000497818,2|2,3:2|0:0,0:0:0:0:
16,152,43772,1,2,3:2:0:0:
180,50,43944,1,8,0:0:0:0:
180,50,44117,2,0,B|208:65|208:65|213:98,1,65.2500024890901,2|0,0:0|0:0,0:0:0:0:
90,250,44462,5,2,0:0:0:0:
155,295,44634,2,0,L|284:280,1,130.50000497818,0|0,3:0|3:0,0:0:0:0:
345,130,45151,1,2,0:0:0:0:
345,210,45324,2,0,P|313:209|289:188,1,65.2500024890901,10|0,0:0|0:0,0:0:0:0:
430,110,45668,2,0,P|421:141|414:173,1,65.2500024890901,2|0,0:0|0:0,0:0:0:0:
247,73,46013,5,2,3:2:0:0:
247,73,46186,2,0,P|312:70|374:53,1,130.50000497818,2|2,0:0|3:2,0:0:0:0:
180,30,46703,2,0,P|165:58|169:90,1,65.2500024890901,8|2,0:0|0:0,0:0:0:0:
289,188,47048,5,2,0:0:0:0:
215,161,47220,1,2,0:0:0:0:
211,287,47393,1,2,3:2:0:0:
286,266,47565,1,2,0:0:0:0:
166,221,47737,2,0,P|136:210|104:207,1,65.2500024890901,2|0,3:2|0:0,0:0:0:0:
286,266,48082,2,0,P|316:277|348:280,1,65.2500024890901,10|0,0:0|0:0,0:0:0:0:
211,287,48427,2,0,P|186:307|169:334,1,65.2500024890901,2|0,0:0|0:0,0:0:0:0:
289,188,48772,6,0,P|297:123|281:60,1,130.50000497818,2|2,3:2|0:0,0:0:0:0:
166,221,49289,1,0,3:0:0:0:
215,161,49462,2,0,P|210:128|196:99,1,65.2500024890901,10|0,0:0|0:0,0:0:0:0:
120,110,49806,2,0,P|97:86|68:71,1,65.2500024890901,2|2,0:0|0:0,0:0:0:0:
10,310,50151,5,0,3:0:0:0:
82,298,50324,1,2,0:0:0:0:
166,221,50496,1,0,3:0:0:0:
238,233,50669,1,2,0:0:0:0:
335,345,50841,2,0,P|398:344|440:297,1,130.50000497818,8|0,0:0|0:0,0:0:0:0:
430,220,51530,5,2,0:3:0:0:
255,25,51875,1,2,0:0:0:0:
270,100,52048,1,2,3:2:0:0:
255,25,52220,2,0,B|182:33|204:56|131:64,1,130.50000497818,10|2,0:0|0:0,0:0:0:0:
60,30,52737,1,2,0:0:0:0:
15,95,52910,6,0,P|22:126|28:158,1,65.2500024890901,0|2,3:0|0:0,0:0:0:0:
166,221,53255,2,0,P|172:188|179:157,1,65.2500024890901,2|0,3:2|0:0,0:0:0:0:
5,330,53599,1,10,0:0:0:0:
50,270,53772,2,0,B|123:278|101:301|174:309,1,130.50000497818,2|2,0:0|0:0,0:0:0:0:
271,170,54289,6,0,P|207:173|166:221,1,130.50000497818,2|2,3:2|0:0,0:0:0:0:
300,365,54806,1,2,3:2:0:0:
355,310,54979,2,0,L|362:245,1,65.2500024890901,8|2,0:0|0:0,0:0:0:0:
425,200,55324,1,2,0:0:0:0:
433,197,55496,1,2,0:0:0:0:
299,15,55668,6,0,P|284:43|285:76,1,65.2500024890901,0|0,3:0|0:0,0:0:0:0:
365,90,56013,2,0,P|379:61|378:28,1,65.2500024890901,0|0,3:0|0:0,0:0:0:0:
215,120,56358,1,8,0:0:0:0:
150,80,56530,1,2,0:0:0:0:
75,95,56703,1,2,0:0:0:0:
40,165,56875,1,2,0:0:0:0:
70,235,57048,5,2,3:2:0:0:
75,95,57220,1,2,0:0:0:0:
215,120,57393,2,0,B|223:153|223:153|212:182,1,65.2500024890901,2|0,0:0|3:0,0:0:0:0:
70,235,57737,2,0,P|133:237|171:287,1,130.50000497818,10|2,0:0|0:0,0:0:0:0:
185,365,58255,1,2,0:0:0:0:
395,325,58427,5,2,3:2:0:0:
340,220,58599,2,0,B|332:274|332:274|319:286|319:286|312:343,1,130.50000497818,2|2,0:0|0:0,0:0:0:0:
305,115,59117,1,10,0:0:0:0:
245,165,59289,2,0,B|249:191|249:191|255:198|255:198|259:226,1,65.2500024890901,2|0,0:0|0:0,0:0:0:0:
259,227,59634,1,2,0:0:0:0:
305,115,59806,6,0,B|309:85|309:85|315:78|315:78|319:52,1,65.2500024890901,2|0,3:2|0:0,0:0:0:0:
220,10,60151,2,0,B|224:36|224:36|230:43|230:43|234:72,1,65.2500024890901,2|0,3:2|0:0,0:0:0:0:
375,145,60496,2,0,B|379:115|379:115|385:108|385:108|389:82,1,65.2500024890901,10|0,0:0|0:0,0:0:0:0:
150,50,60841,2,0,B|154:76|154:76|160:83|160:83|164:112,1,65.2500024890901,2|0,0:0|0:0,0:0:0:0:
259,227,61186,6,0,B|255:198|255:198|249:191|249:191|245:165,1,65.2500024890901,2|0,3:2|0:0,0:0:0:0:
90,125,61530,2,0,B|94:151|94:151|100:158|100:158|104:187,1,65.2500024890901,2|0,3:2|0:0,0:0:0:0:
300,110,61875,2,0,B|276:92|276:92|267:91|267:91|246:76,1,65.2500024890901,10|0,0:0|0:0,0:0:0:0:
55,245,62220,2,0,B|76:260|76:260|85:261|85:261|108:278,1,65.2500024890901,2|0,0:0|0:0,0:0:0:0:
200,15,62565,6,0,P|163:23|140:53,1,76.125,2|0,0:0|0:0,0:0:0:0:
90,125,63944,6,0,P|83:111|71:101,1,30.45,2|0,0:0|0:0,0:0:0:0:
25,160,65324,6,0,B|110:145|84:189|166:171,1,145,4|0,3:1|0:0,0:0:0:0:
225,115,65668,2,0,P|251:75|221:112,1,145,2|0,0:0|0:0,0:0:0:0:
240,200,66013,2,0,B|246:266|246:266|243:269|243:269|250:343,1,145,10|0,0:0|0:0,0:0:0:0:
320,370,66358,1,2,0:0:0:0:
165,250,66588,5,0,3:0:0:0:
240,200,66703,2,0,B|325:207|289:243|373:247,1,145,0|0,3:0|0:0,0:0:0:0:
485,145,67048,2,0,B|443:145|421:117|421:117|405:151|365:160,1,145,2|0,3:2|0:0,0:0:0:0:
393,327,67393,1,8,0:0:0:0:
393,327,67737,2,0,B|404:338|421:342|421:342|308:336,1,145,2|0,0:0|0:0,0:0:0:0:
240,200,68082,6,0,B|234:266|234:266|237:269|237:269|230:343,1,145,4|0,3:2|0:0,0:0:0:0:
155,380,68427,2,0,B|149:324|149:324|152:322|152:322|147:273,1,108.75,2|2,0:0|0:0,0:0:0:0:
10,150,68772,1,8,0:0:0:0:
65,300,68944,2,0,B|71:244|71:244|68:242|68:242|73:193,1,108.75,2|0,0:0|0:0,0:0:0:0:
85,15,69289,6,0,L|86:0,1,14.5,2|0,0:0|3:0,0:0:0:0:
10,40,69462,2,0,B|95:25|69:69|151:51,1,145,0|0,3:0|0:0,0:0:0:0:
215,15,69806,1,2,3:2:0:0:
270,60,69979,1,2,0:0:0:0:
210,150,70151,1,10,0:0:0:0:
210,150,70496,2,0,P|260:133|308:157,1,108.75,2|2,0:0|0:0,0:0:0:0:
450,180,70841,6,0,P|300:202|291:352,1,326.25,4|0,3:2|0:0,0:0:0:0:
365,335,71530,2,0,P|456:337|421:252,1,217.5,10|2,0:0|0:0,0:0:0:0:
210,150,72105,5,0,3:0:0:0:
145,195,72220,2,0,B|64:188|89:232|7:224,1,145,0|0,3:0|0:0,0:0:0:0:
125,270,72565,2,0,B|65:312|65:312|115:362,1,145,0|0,3:0|0:0,0:0:0:0:
185,325,72910,1,10,0:0:0:0:
185,325,73255,1,2,0:0:0:0:
495,185,73599,6,0,P|448:42|300:65,1,326.25,4|0,3:2|0:0,0:0:0:0:
300,65,74289,2,0,P|279:167|353:241,1,217.5,8|2,0:0|0:0,0:0:0:0:
435,245,74806,2,0,L|427:280,1,36.25,2|0,0:0|3:0,0:0:0:0:
475,340,74979,6,0,P|406:322|347:360,1,145,2|0,3:2|0:0,0:0:0:0:
280,325,75324,2,0,P|209:326|155:279,1,145,2|0,3:2|0:0,0:0:0:0:
80,295,75668,2,0,B|75:216|120:240|118:158,1,145,8|0,0:0|0:0,0:0:0:0:
40,170,76013,2,0,B|45:91|0:115|1:33,1,145,2|0,0:0|0:0,0:0:0:0:
210,70,76358,6,0,P|151:30|82:44,1,145,4|0,3:1|0:0,0:0:0:0:
118,159,76703,2,0,B|188:155|188:155|187:158|187:158|258:154,1,145,2|0,0:0|0:0,0:0:0:0:
435,110,77048,2,0,P|376:70|307:84,1,145,10|0,0:0|0:0,0:0:0:0:
362,148,77393,1,2,0:0:0:0:
495,300,77622,5,0,3:0:0:0:
425,340,77737,2,0,P|378:287|308:291,1,145,0|0,3:0|0:0,0:0:0:0:
230,295,78082,2,0,P|183:347|113:343,1,145,2|0,3:2|0:0,0:0:0:0:
45,370,78427,1,10,0:0:0:0:
30,210,78772,2,0,L|32:188,1,21.75,2|0,0:0|0:0,0:0:0:0:
5,115,79117,6,0,P|103:92|154:180,1,217.5,6|2,3:2|0:0,0:0:0:0:
154,180,79634,1,2,0:0:0:0:
380,55,79806,2,0,P|281:32|230:120,1,217.5,10|2,0:0|0:0,0:0:0:0:
485,195,80381,5,2,3:2:0:0:
430,245,80496,2,0,B|345:230|371:274|289:256,1,145,0|0,3:0|0:0,0:0:0:0:
230,210,80841,2,0,P|196:250|203:302,1,108.75,2|2,3:2|0:0,0:0:0:0:
275,335,81186,2,0,B|340:364|340:364|399:319,2,145,10|2|2,0:0|0:0|0:0,0:0:0:0:
307,43,81875,6,0,B|332:27|343:-10|343:-10|324:184|324:184|319:148|300:123,1,326.25,6|0,3:2|0:0,0:0:0:0:
235,80,82565,2,0,B|119:76|149:156|36:148,1,217.5,10|2,0:0|0:0,0:0:0:0:
75,355,83140,5,0,3:0:0:0:
10,300,83255,2,0,B|48:291|64:257|64:257|86:285|129:286,1,145,0|0,3:0|0:0,0:0:0:0:
235,285,83599,2,0,B|237:271|248:259|248:259|206:273|190:310|204:352,1,145,0|0,3:0|0:0,0:0:0:0:
310,310,83944,2,0,P|315:209|218:181,1,217.5,10|2,0:0|0:0,0:0:0:0:
375,365,84634,6,0,P|493:270|429:133,1,326.25,4|0,3:2|0:0,0:0:0:0:
375,65,85324,1,8,0:0:0:0:
290,70,85496,1,2,0:0:0:0:
260,145,85668,1,2,0:0:0:0:
315,210,85841,2,0,L|310:246,1,36.25,2|0,0:0|3:0,0:0:0:0:
375,290,86013,38,0,P|305:280|251:326,1,145,2|0,3:2|0:0,0:0:0:0:
185,365,86358,1,2,3:2:0:0:
20,260,86588,1,0,0:0:0:0:
60,190,86703,2,0,P|129:180|183:226,1,145,8|0,0:0|0:0,0:0:0:0:
290,70,87048,2,0,P|220:60|166:106,1,145,2|0,0:0|0:0,0:0:0:0:
245,155,87393,38,0,P|245:133|248:155,1,65.2500024890901
