osu file format v14

[General]
AudioFilename: audio.mp3
AudioLeadIn: 0
PreviewTime: 65237
Countdown: 0
SampleSet: Soft
StackLeniency: 0.4
Mode: 0
LetterboxInBreaks: 0
WidescreenStoryboard: 1

[Editor]
DistanceSpacing: 0.7
BeatDivisor: 12
GridSize: 16
TimelineZoom: 1.8

[Metadata]
Title:Prayer X (TV Size)
TitleUnicode:Prayer X (TV Size)
Artist:King Gnu
ArtistUnicode:King Gnu
Creator:KaedeharaKazuha
Version:Insane
Source:BANANA FISH
Tags:Addy2607 Kaedehara Kazuha gary00737 Lobelia [_Abhor_] Abhor gokugohan12468 Kyouren KittyAdventure -ascended- -_ascended_- Ascended バナナフィッシュ anime 1st first ending ed outro theme song 1 one japanese rock pop jpop jrock j-pop j-rock Sympa PERIMETRON 常田大希 勢喜遊 新井和輝 井口理 Daiki Tsuneta Yu Seki Kazuki Arai Satoru Iguchi Ash Lynx Aslan Jade Callenreese 奥村英二 Okumura Eiji Shounen Shonen Shōnen Ai 少年愛 Boys Boys' Love BL
BeatmapID:3526238
BeatmapSetID:1724620

[Difficulty]
HPDrainRate:5
CircleSize:3.8
OverallDifficulty:6
ApproachRate:7
SliderMultiplier:2
SliderTickRate:1

[Events]
//Background and Video events
Video,-200,"banana.mp4"
0,0,"BG.jpg",0,0
//Break Periods
//Storyboard Layer 0 (Background)
//Storyboard Layer 1 (Fail)
//Storyboard Layer 2 (Pass)
//Storyboard Layer 3 (Foreground)
//Storyboard Layer 4 (Overlay)
//Storyboard Sound Samples

[TimingPoints]
502,845.070422535211,4,2,1,40,1,0
502,-166.666666666667,4,2,1,40,0,0
1347,800,4,2,1,40,1,0
1347,-166.666666666667,4,2,1,40,0,0
1747,769.230769230769,4,2,1,40,1,0
1747,-166.666666666667,4,2,1,40,0,0
2900,750,4,2,1,40,1,0
2900,-166.666666666667,4,2,1,40,0,0
3275,882.352941176471,4,2,1,40,1,0
3275,-166.666666666667,4,2,1,40,0,0
4598,833.333333333333,4,2,1,40,1,0
4598,-166.666666666667,4,2,1,40,0,0
5431,857.142857142857,4,2,1,40,1,0
5431,-166.666666666667,4,2,1,40,0,0
8859,821.917808219178,4,2,1,40,1,0
8859,-166.666666666667,4,2,1,40,0,0
11324,845.070422535211,4,2,1,40,1,0
11324,-166.666666666667,4,2,1,40,0,0
12169,909.090909090909,4,2,1,40,1,0
12169,-166.666666666667,4,2,1,40,0,0
12623,1666.66666666667,4,2,1,40,1,0
13039,895.522388059701,4,2,1,40,1,0
13039,-166.666666666667,4,2,1,40,0,0
13486,869.565217391304,4,2,1,40,1,0
13920,882.352941176471,4,2,1,50,1,0
13920,-142.857142857143,4,2,1,50,0,0
15684,659.340659340659,4,2,1,50,1,0
16013,810.810810810811,4,2,1,50,1,0
16013,-142.857142857143,4,2,1,50,0,0
17229,800,4,2,1,50,1,0
17229,-142.857142857143,4,2,1,50,0,0
17629,689.655172413793,4,2,1,50,1,0
17629,-142.857142857143,4,2,1,50,0,0
17801,1090.90909090909,4,2,1,50,1,0
18073,869.565217391304,4,2,1,50,1,0
18073,-142.857142857143,4,2,1,50,0,0
19812,833.333333333333,4,2,1,50,1,0
19812,-142.857142857143,4,2,1,50,0,0
23145,869.565217391304,4,2,1,50,1,0
23145,-142.857142857143,4,2,1,50,0,0
24014,833.333333333333,4,2,1,50,1,0
24014,-142.857142857143,4,2,1,50,0,0
24847,869.565217391304,4,2,1,50,1,0
24847,-142.857142857143,4,2,1,50,0,0
27020,814.111261872456,4,2,1,50,1,0
27020,-142.857142857143,4,2,1,50,0,0
29462,689.655172413793,4,2,1,60,1,0
29462,-100,4,2,1,60,0,0
40495,-100,4,2,1,50,0,0
40841,-111.111111111111,4,2,2,50,0,0
62565,-125,4,2,1,40,0,0
65324,-86.9565217391304,4,2,1,75,0,1
87393,-86.9565217391304,4,2,1,75,0,0
87436,-86.9565217391304,4,2,1,5,0,0

[Colours]
Combo1 : 215,215,166
Combo2 : 139,170,186
Combo3 : 61,99,118
Combo4 : 126,129,56

[HitObjects]
87,179,502,6,0,P|81:142|70:109,2,59.9999981689454,2|2|2,0:0|0:0|0:0,0:0:0:0:
2,72,1747,2,0,P|52:42|123:42,1,119.999996337891,2|2,0:0|0:0,0:0:0:0:
219,143,2900,2,0,P|183:135|152:141,1,59.9999981689454,2|2,0:3|0:0,0:0:0:0:
294,20,3716,5,2,0:3:0:0:
347,85,4157,2,0,P|343:108|341:126,1,29.9999990844727,2|2,0:0|0:0,0:0:0:0:
409,29,4598,2,0,P|405:6|403:-12,2,29.9999990844727,2|2|2,0:3|0:0|0:0,0:0:0:0:
473,89,5223,1,2,0:0:0:0:
473,89,5431,2,0,P|466:128|462:159,1,59.9999981689454,2|2,0:0|0:0,0:0:0:0:
395,245,6073,1,2,0:0:0:0:
395,245,6288,2,0,P|388:206|384:175,1,59.9999981689454,2|2,0:0|0:3,0:0:0:0:
496,329,7145,6,0,P|444:330|377:351,1,119.999996337891,2|2,0:0|0:0,0:0:0:0:
16,329,8859,2,0,P|68:330|135:351,1,119.999996337891,2|2,0:3|0:0,0:0:0:0:
252,380,10091,2,0,P|254:362|256:340,1,29.9999990844727,2|2,0:0|0:0,0:0:0:0:
296,279,10502,6,0,P|288:229|286:213,1,59.9999981689454,2|2,0:3|0:3,0:0:0:0:
247,74,11324,2,0,P|239:124|237:140,1,59.9999981689454,2|2,0:0|0:0,0:0:0:0:
362,124,12169,2,0,P|342:121|329:119,2,29.9999990844727,2|2|2,0:0|0:0|0:0,0:0:0:0:
207,211,13039,2,0,P|177:215|147:219,1,59.9999981689454,2|2,0:0|0:0,0:0:0:0:
17,96,13920,6,0,P|10:57|3:20,2,69.9999978637696,2|2|2,0:0|0:0|0:0,0:0:0:0:
75,174,15243,2,0,P|68:213|61:250,1,69.9999978637696,2|2,0:0|0:3,0:0:0:0:
10,379,16013,2,0,P|43:372|90:366,2,69.9999978637696,2|2|2,0:0|0:0|0:0,0:0:0:0:
246,283,17229,6,0,P|211:278|177:271,1,69.9999978637696,2|2,0:0|0:0,0:0:0:0:
160,349,17801,1,2,0:0:0:0:
160,349,18073,2,0,P|194:353|228:360,1,69.9999978637696,2|2,0:0|0:0,0:0:0:0:
307,335,18725,1,2,0:0:0:0:
372,384,18942,5,2,0:3:0:0:
511,256,19377,2,0,P|507:238|503:221,1,34.9999989318848,2|2,0:0|0:0,0:0:0:0:
467,153,19812,2,0,P|469:118|474:89,2,46.6666652425131,2|2|2,0:0|0:0|0:0,0:0:0:0:
390,250,20645,6,0,P|341:244|274:267,1,116.666663106283,2|0,0:0|0:0,0:0:0:0:
207,234,21478,2,0,P|186:206|196:169,1,69.9999978637696,2|2,0:0|0:0,0:0:0:0:
16,102,22312,6,0,P|65:96|132:119,1,116.666663106283,2|0,0:3|0:0,0:0:0:0:
199,86,23145,2,0,P|220:58|210:21,1,69.9999978637696,2|2,0:0|0:0,0:0:0:0:
57,180,24014,6,0,P|60:214|62:249,1,69.9999978637696,2|2,0:3|0:3,0:0:0:0:
11,370,24847,2,0,P|12:352|13:335,1,34.9999989318848,2|2,0:3|0:0,0:0:0:0:
128,364,25281,2,0,P|110:362|93:361,1,34.9999989318848,2|2,0:0|0:0,0:0:0:0:
198,309,25716,2,0,P|234:305|271:302,1,69.9999978637696,2|2,0:0|0:0,0:0:0:0:
133,256,26368,2,0,P|96:252|59:249,1,69.9999978637696,2|2,0:0|0:0,0:0:0:0:
196,202,27020,1,2,0:0:0:0:
256,192,27223,12,0,29258,0:0:0:0:
406,317,29462,6,0,P|444:308|515:300,1,100,6|2,3:2|0:0,0:0:0:0:
315,363,30151,2,0,P|312:336|303:292,1,66.6666666666667,10|0,0:0|0:0,0:0:0:0:
370,235,30496,2,0,P|372:208|381:164,1,66.6666666666667,2|0,0:0|3:0,0:0:0:0:
332,103,30841,1,2,3:2:0:0:
458,217,31186,1,0,3:0:0:0:
234,348,31530,2,0,P|194:345|160:337,1,66.6666666666667,10|0,0:0|0:0,0:0:0:0:
92,375,31875,2,0,P|52:378|18:386,1,66.6666666666667,2|0,0:0|0:0,0:0:0:0:
0,304,32220,6,0,P|48:293|98:290,1,100,6|2,3:2|0:0,0:0:0:0:
319,173,32910,2,0,P|339:147|337:115,1,66.6666666666667,10|0,0:0|0:0,0:0:0:0:
259,92,33255,2,0,P|238:117|240:149,1,66.6666666666667,2|0,0:0|3:0,0:0:0:0:
261,233,33599,2,0,P|208:224|158:227,1,100,2|0,3:2|3:0,0:0:0:0:
8,162,34289,2,0,P|4:116|-3:86,1,66.6666666666667,10|0,0:0|0:0,0:0:0:0:
85,83,34634,2,0,P|89:129|96:159,1,66.6666666666667,2|0,0:0|0:0,0:0:0:0:
27,17,34979,6,0,P|75:10|139:3,1,100,6|2,3:2|0:0,0:0:0:0:
339,1,35668,2,0,P|319:31|325:67,1,66.6666666666667,10|0,0:0|0:0,0:0:0:0:
443,92,36013,2,0,P|427:59|392:46,1,66.6666666666667,2|0,0:0|3:0,0:0:0:0:
368,126,36358,2,0,P|376:181|382:232,1,100,2|0,3:2|3:0,0:0:0:0:
510,350,37048,2,0,P|477:346|435:344,1,66.6666666666667,10|0,0:0|0:0,0:0:0:0:
367,379,37393,2,0,P|334:383|292:385,1,66.6666666666667,2|0,0:0|0:0,0:0:0:0:
224,348,37737,6,0,P|196:312|214:259,1,100,6|2,3:2|0:0,0:0:0:0:
389,159,38427,2,0,P|384:196|380:229,1,66.6666666666667,10|0,0:0|0:0,0:0:0:0:
464,261,38772,2,0,P|468:223|472:190,1,66.6666666666667,2|0,0:0|3:0,0:0:0:0:
454,93,39117,6,0,P|418:62|365:71,1,100,2|2,3:2|3:2,0:0:0:0:
296,161,39634,1,8,0:0:0:0:
228,54,39806,2,0,P|224:12|220:-8,1,50,10|8,0:0|0:3,0:0:0:0:
296,161,40151,2,0,P|292:203|288:223,1,50,4|0,0:3|3:0,0:0:0:0:
277,294,40496,5,2,0:0:0:0:
170,143,40841,6,0,P|193:139|223:136,1,44.999998626709,2|2,0:0|3:2,0:0:0:0:
75,81,41186,2,0,P|98:85|128:88,1,44.999998626709,10|2,0:0|0:0,0:0:0:0:
0,168,41530,2,0,P|23:164|53:161,1,44.999998626709,2|2,0:0|0:0,0:0:0:0:
124,261,41875,6,0,P|120:220|117:206,2,44.999998626709,2|2|2,3:2|0:0|3:2,0:0:0:0:
88,352,42393,2,0,P|36:352|-5:364,1,89.9999972534181,2|2,0:0|0:0,0:0:0:0:
33,260,42910,1,2,0:0:0:0:
33,260,43082,1,2,0:0:0:0:
169,333,43255,6,0,P|204:359|245:342,1,89.9999972534181,2|2,3:2|0:0,0:0:0:0:
326,366,43772,2,0,P|318:307|308:253,1,89.9999972534181,2|2,3:2|0:0,0:0:0:0:
512,178,44462,1,2,0:0:0:0:
442,119,44634,6,0,P|436:163|428:207,1,89.9999972534181,0|0,3:0|3:0,0:0:0:0:
512,178,45151,1,2,0:0:0:0:
357,150,45324,2,0,P|318:154|263:169,1,89.9999972534181,10|2,0:0|0:0,0:0:0:0:
71,240,46013,5,2,3:2:0:0:
71,240,46186,2,0,P|67:262|66:284,1,44.999998626709,2|2,0:0|0:0,0:0:0:0:
24,170,46530,2,0,P|-1:140|13:86,1,89.9999972534181,2|2,3:2|0:0,0:0:0:0:
127,103,47048,2,0,P|92:111|75:116,1,44.999998626709,2|2,0:0|0:0,0:0:0:0:
7,14,47393,6,0,P|42:22|59:27,2,44.999998626709,2|2|2,3:2|0:0|3:2,0:0:0:0:
203,70,48082,2,0,P|270:85|303:95,1,89.9999972534181,10|2,0:0|0:0,0:0:0:0:
290,91,48599,1,0,0:0:0:0:
430,1,48772,6,0,P|363:16|330:26,1,89.9999972534181,2|2,3:2|0:0,0:0:0:0:
342,22,49289,1,0,3:0:0:0:
395,179,49462,2,0,P|400:136|408:78,1,89.9999972534181,10|2,0:0|0:0,0:0:0:0:
332,227,49979,2,0,P|303:263|315:307,1,89.9999972534181,2|2,0:0|0:0,0:0:0:0:
419,328,50496,1,0,3:0:0:0:
419,328,50668,2,0,P|448:292|436:248,1,89.9999972534181,2|2,0:0|0:0,0:0:0:0:
395,179,51186,1,0,0:0:0:0:
260,372,51530,5,2,0:3:0:0:
202,213,51875,2,0,P|206:176|208:156,1,44.999998626709,2|2,0:0|3:2,0:0:0:0:
265,97,52220,2,0,P|258:38|255:6,1,89.9999972534181,10|2,0:0|0:0,0:0:0:0:
135,90,52737,6,0,P|74:88|47:120,1,89.9999972534181,2|2,0:0|0:0,0:0:0:0:
1,46,53255,2,0,P|4:12|7:-9,1,44.999998626709,2|0,3:2|0:0,0:0:0:0:
113,167,53599,1,10,0:0:0:0:
113,167,53772,2,0,P|120:225|124:268,1,89.9999972534181,2|2,0:0|0:0,0:0:0:0:
14,364,54289,6,0,P|51:338|101:353,1,89.9999972534181,2|2,3:2|0:0,0:0:0:0:
201,274,54806,2,0,P|164:248|114:263,1,89.9999972534181,2|2,3:2|0:0,0:0:0:0:
176,384,55324,1,2,0:0:0:0:
283,311,55496,6,0,P|275:232|262:170,1,134.999995880127,2|0,0:0|3:0,0:0:0:0:
461,18,56358,2,0,P|457:51|455:75,1,44.999998626709,8|2,0:0|0:0,0:0:0:0:
378,51,56703,2,0,P|382:18|384:-6,1,44.999998626709,2|2,0:0|0:0,0:0:0:0:
410,126,57048,6,0,P|412:160|414:180,1,44.999998626709,2|2,3:2|0:0,0:0:0:0:
474,222,57393,2,0,P|472:256|470:276,1,44.999998626709,2|0,0:0|3:0,0:0:0:0:
422,353,57737,2,0,P|461:351|511:375,1,89.9999972534181,10|2,0:0|0:0,0:0:0:0:
506,371,58255,1,2,0:0:0:0:
386,273,58427,5,2,3:2:0:0:
334,340,58599,2,0,P|296:338|237:367,1,89.9999972534181,2|2,0:0|0:0,0:0:0:0:
180,270,59117,1,10,0:0:0:0:
228,206,59289,2,0,P|266:204|325:233,1,89.9999972534181,2|2,0:0|0:0,0:0:0:0:
474,222,59806,6,0,P|485:205|482:170,1,44.999998626709,2|0,3:2|0:0,0:0:0:0:
380,148,60151,2,0,P|389:166|421:180,1,44.999998626709,2|0,3:2|0:0,0:0:0:0:
491,103,60496,2,0,P|470:101|441:122,1,44.999998626709,10|0,0:0|0:0,0:0:0:0:
389,255,60841,1,2,0:0:0:0:
275,104,61186,6,0,P|282:72|288:51,1,44.999998626709,2|0,3:2|0:0,0:0:0:0:
193,3,61530,2,0,P|200:35|206:56,1,44.999998626709,2|0,3:2|0:0,0:0:0:0:
111,104,61875,2,0,P|118:72|124:51,1,44.999998626709,10|0,0:0|0:0,0:0:0:0:
29,3,62220,2,0,P|36:35|42:56,1,44.999998626709,2|0,0:0|0:0,0:0:0:0:
0,186,62565,6,0,B|52:126|126:209|87:206|137:321|218:247|218:247|230:201|166:108|33:242|86:347,1,560,2|0,0:0|0:0,0:0:0:0:
340,363,65324,6,0,P|378:353|422:381,1,76.6666681289673,4|0,3:1|0:0,0:0:0:0:
461,305,65668,2,0,P|433:277|435:224,1,76.6666681289673,2|0,0:0|0:0,0:0:0:0:
351,230,66013,2,0,P|340:267|294:292,1,76.6666681289673,10|0,0:0|0:0,0:0:0:0:
252,352,66358,6,0,P|209:323|142:347,1,115.000002193451,2|0,0:0|3:0,0:0:0:0:
15,384,67048,1,2,3:2:0:0:
9,185,67393,2,0,P|18:232|25:272,1,76.6666681289673,8|0,0:0|0:0,0:0:0:0:
102,228,67737,2,0,P|93:181|86:141,1,76.6666681289673,2|0,0:0|0:0,0:0:0:0:
0,42,68082,6,0,P|36:77|96:60,1,115.000002193451,4|2,3:2|0:0,0:0:0:0:
202,12,68599,2,0,P|238:18|266:22,1,57.5000010967255,2|8,0:0|0:0,0:0:0:0:
372,86,68944,2,0,P|336:92|308:96,1,57.5000010967255,2|0,0:0|0:0,0:0:0:0:
227,169,69347,1,0,3:0:0:0:
223,156,69462,5,0,3:0:0:0:
402,367,69806,1,2,3:2:0:0:
457,296,69979,1,2,0:0:0:0:
340,303,70151,2,0,P|282:315|226:335,1,115.000002193451,10|2,0:0|0:0,0:0:0:0:
389,233,70726,1,2,0:0:0:0:
388,224,70841,6,0,P|383:167|373:106,1,115.000002193451,4|2,3:2|0:3,0:0:0:0:
155,85,71530,2,0,P|115:92|70:107,1,76.6666681289673,10|0,0:0|0:0,0:0:0:0:
56,25,71875,2,0,P|96:18|141:3,1,76.6666681289673,2|0,0:0|3:0,0:0:0:0:
240,31,72220,6,0,P|231:89|226:153,1,115.000002193451,0|0,3:0|3:0,0:0:0:0:
85,301,72910,2,0,P|125:308|170:323,1,76.6666681289673,10|0,0:0|0:0,0:0:0:0:
184,241,73255,2,0,P|144:234|99:219,1,76.6666681289673,2|0,0:0|0:0,0:0:0:0:
0,247,73600,6,0,P|9:305|14:369,2,115.000002193451,4|2|8,3:2|0:3|0:0,0:0:0:0:
81,103,74634,1,2,0:0:0:0:
200,163,74864,1,0,3:0:0:0:
211,160,74979,6,0,P|254:150|292:149,1,76.6666681289673,2|0,3:2|0:0,0:0:0:0:
268,66,75324,2,0,P|225:76|187:77,1,76.6666681289673,2|0,3:2|0:0,0:0:0:0:
336,14,75668,2,0,P|356:53|345:90,1,76.6666681289673,8|0,0:0|0:0,0:0:0:0:
430,139,76013,2,0,P|450:100|439:63,1,76.6666681289673,2|0,0:0|0:0,0:0:0:0:
341,211,76358,6,0,P|347:263|349:294,1,76.6666681289673,4|0,3:1|0:0,0:0:0:0:
430,310,76703,2,0,P|424:258|422:227,1,76.6666681289673,2|0,0:0|0:0,0:0:0:0:
334,208,77048,2,0,P|340:260|342:291,1,76.6666681289673,10|0,0:0|0:0,0:0:0:0:
277,374,77393,2,0,P|339:371|390:385,1,115.000002193451,2|0,0:0|3:0,0:0:0:0:
194,326,78082,6,0,P|174:297|181:255,1,76.6666681289673,2|0,3:2|0:0,0:0:0:0:
108,233,78427,2,0,P|123:201|162:186,1,76.6666681289673,10|0,0:0|0:0,0:0:0:0:
145,112,78772,2,0,P|180:109|212:136,1,76.6666681289673,2|0,0:0|0:0,0:0:0:0:
353,194,79117,6,0,P|295:191|239:204,1,115.000002193451,6|2,3:2|0:0,0:0:0:0:
94,314,79634,1,2,0:0:0:0:
16,247,79806,2,0,P|18:189|5:133,1,115.000002193451,10|2,0:0|0:0,0:0:0:0:
0,0,80381,1,2,3:2:0:0:
3,11,80496,5,0,3:0:0:0:
166,84,80841,2,0,P|130:83|105:96,1,57.5000010967255,2|2,3:2|0:0,0:0:0:0:
220,16,81186,2,0,P|253:1|299:12,2,76.6666681289673,10|2|2,0:0|0:0|0:0,0:0:0:0:
151,163,81875,6,0,P|170:220|159:281,1,115.000002193451,6|2,3:2|0:3,0:0:0:0:
321,358,82565,2,0,P|364:353|406:359,1,76.6666681289673,10|0,0:0|0:0,0:0:0:0:
397,272,82910,2,0,P|359:275|322:271,1,76.6666681289673,2|0,0:0|3:0,0:0:0:0:
239,361,83255,6,0,P|181:354|125:361,1,115.000002193451,0|0,3:0|3:0,0:0:0:0:
65,157,83944,2,0,P|98:180|103:225,1,76.6666681289673,10|0,0:0|0:0,0:0:0:0:
0,289,84289,2,0,P|3:248|39:222,1,76.6666681289673,2|0,0:0|0:0,0:0:0:0:
178,149,84634,6,0,P|248:157|301:169,2,115.000002193451,4|2|8,3:2|0:3|0:0,0:0:0:0:
114,79,85496,2,0,P|113:46|108:16,2,57.5000010967255,2|2|2,0:0|0:0|0:0,0:0:0:0:
179,233,86013,6,0,P|174:274|170:298,1,57.5000010967255,2|0,3:2|0:0,0:0:0:0:
113,349,86358,1,2,3:2:0:0:
257,381,86530,2,0,P|252:340|248:316,1,57.5000010967255,2|8,0:0|0:0,0:0:0:0:
179,233,86875,1,2,0:0:0:0:
344,342,87048,2,0,P|420:359|469:374,1,115.000002193451,2|0,0:0|0:0,0:0:0:0:
