osu file format v14

[General]
AudioFilename: audio.mp3
AudioLeadIn: 0
PreviewTime: 65237
Countdown: 0
SampleSet: Soft
StackLeniency: 0.4
Mode: 0
LetterboxInBreaks: 0
WidescreenStoryboard: 1

[Editor]
DistanceSpacing: 1.8
BeatDivisor: 12
GridSize: 8
TimelineZoom: 1.4

[Metadata]
Title:Prayer X (TV Size)
TitleUnicode:Prayer X (TV Size)
Artist:King Gnu
ArtistUnicode:King Gnu
Creator:KaedeharaKazuha
Version:Hard
Source:BANANA FISH
Tags:Addy2607 Kaedehara Kazuha gary00737 Lobelia [_Abhor_] Abhor gokugohan12468 Kyouren KittyAdventure -ascended- -_ascended_- Ascended バナナフィッシュ anime 1st first ending ed outro theme song 1 one japanese rock pop jpop jrock j-pop j-rock Sympa PERIMETRON 常田大希 勢喜遊 新井和輝 井口理 Daiki Tsuneta Yu Seki Kazuki Arai Satoru Iguchi Ash Lynx Aslan Jade Callenreese 奥村英二 Okumura Eiji Shounen Shonen Shōnen Ai 少年愛 Boys Boys' Love BL
BeatmapID:3525797
BeatmapSetID:1724620

[Difficulty]
HPDrainRate:3.5
CircleSize:3.5
OverallDifficulty:4
ApproachRate:5.5
SliderMultiplier:1.8
SliderTickRate:1

[Events]
//Background and Video events
0,0,"BG.jpg",0,0
Video,-200,"banana.mp4"
//Break Periods
//Storyboard Layer 0 (Background)
//Storyboard Layer 1 (Fail)
//Storyboard Layer 2 (Pass)
//Storyboard Layer 3 (Foreground)
//Storyboard Layer 4 (Overlay)
//Storyboard Sound Samples

[TimingPoints]
502,845.070422535211,4,2,1,40,1,0
1347,800,4,2,1,40,1,0
1747,769.230769230769,4,2,1,40,1,0
2900,750,4,2,1,40,1,0
3275,882.352941176471,4,2,1,40,1,0
4598,833.333333333333,4,2,1,40,1,0
5431,857.142857142857,4,2,1,40,1,0
8859,821.917808219178,4,2,1,40,1,0
11324,845.070422535211,4,2,1,40,1,0
12169,909.090909090909,4,2,1,40,1,0
12623,1666.66666666667,4,2,1,40,1,0
13039,895.522388059701,4,2,1,40,1,0
13486,869.565217391304,4,2,1,40,1,0
13920,882.352941176471,4,2,1,50,1,0
15684,659.340659340659,4,2,1,50,1,0
16013,810.810810810811,4,2,1,50,1,0
17229,800,4,2,1,50,1,0
17629,689.655172413793,4,2,1,50,1,0
17801,1090.90909090909,4,2,1,50,1,0
18073,869.565217391304,4,2,1,50,1,0
19812,833.333333333333,4,2,1,50,1,0
23145,869.565217391304,4,2,1,50,1,0
24014,833.333333333333,4,2,1,50,1,0
24847,869.565217391304,4,2,1,50,1,0
27020,814.111261872456,4,2,1,50,1,0
29462,689.655172413793,4,2,1,60,1,0
40495,-111.111111111111,4,2,1,50,0,0
40840,-111.111111111111,4,2,2,50,0,0
62565,-100,4,2,1,40,0,0
65324,-90.9090909090909,4,2,1,75,0,1
87393,-100,4,2,1,75,0,0
87436,-100,4,2,1,5,0,0

[Colours]
Combo1 : 215,215,166
Combo2 : 139,170,186
Combo3 : 61,99,118
Combo4 : 126,129,56

[HitObjects]
51,280,502,6,0,L|62:377,2,90,2|2|2,0:0|0:0|0:0,0:0:0:0:
8,146,1747,2,0,B|47:110|100:148|83:157|132:198|173:161,1,180,2|2,0:0|0:0,0:0:0:0:
193,26,2900,2,0,P|149:50|145:88,1,90,2|2,0:3|0:0,0:0:0:0:
199,244,3716,6,0,B|241:224|241:224|280:251,1,90,2|2,0:3|0:0,0:0:0:0:
338,300,4377,1,2,0:0:0:0:
394,235,4598,2,0,L|385:181,1,45,2|2,0:3|0:0,0:0:0:0:
453,299,5014,2,0,L|444:353,1,45,2|2,0:0|0:0,0:0:0:0:
505,229,5431,2,0,L|489:134,1,90,2|2,0:0|0:0,0:0:0:0:
431,84,6073,1,2,0:0:0:0:
431,84,6288,2,0,P|388:99|339:87,1,90,2|2,0:0|0:3,0:0:0:0:
201,14,7145,6,0,P|205:58|205:108,1,90,2|2,0:0|0:3,0:0:0:0:
75,201,8002,2,0,P|29:235|54:318,1,150,2|0,0:0|0:0,0:0:0:0:
100,341,8859,2,0,P|143:334|195:331,1,90,2|2,0:3|0:3,0:0:0:0:
342,383,9680,1,2,0:0:0:0:
419,242,10091,1,2,0:0:0:0:
419,242,10297,1,2,0:0:0:0:
362,184,10502,6,0,P|311:184|265:190,1,90,2|2,0:3|0:3,0:0:0:0:
128,255,11324,2,0,P|130:202|125:163,1,90,2|2,0:0|0:0,0:0:0:0:
43,38,12169,2,0,L|-3:48,2,45,2|2|2,0:0|0:0|0:0,0:0:0:0:
188,0,13039,2,0,P|230:10|279:19,1,90,2|2,0:0|0:0,0:0:0:0:
434,6,13920,6,0,P|424:31|417:58,1,45,2|0,0:0|0:0,0:0:0:0:
358,102,14361,2,0,P|368:127|375:147,1,45,2|0,0:0|0:0,0:0:0:0:
442,187,14802,2,0,P|432:212|425:239,1,45,2|0,0:0|0:0,0:0:0:0:
381,296,15243,2,0,P|340:299|298:329,1,90,2|2,0:0|0:3,0:0:0:0:
169,334,16013,6,0,P|144:332|124:320,1,45,2|0,0:0|0:0,0:0:0:0:
104,244,16418,2,0,P|117:223|138:212,1,45,2|0,0:0|0:0,0:0:0:0:
214,232,16823,2,0,P|225:254|224:277,1,45,2|2,0:0|0:3,0:0:0:0:
192,147,17229,6,0,P|241:147|285:157,1,90,2|2,0:0|0:0,0:0:0:0:
338,212,17801,1,2,0:0:0:0:
407,137,18073,2,0,P|399:83|396:39,1,90,2|2,0:0|0:0,0:0:0:0:
465,4,18725,1,2,0:0:0:0:
505,73,18942,5,2,0:3:0:0:
321,15,19377,2,0,P|295:18|269:25,1,45,2|2,0:0|0:0,0:0:0:0:
223,88,19812,2,0,P|234:127|235:160,2,60,2|2|2,0:0|0:0|0:0,0:0:0:0:
136,23,20645,6,0,P|58:14|44:68,1,135,2|0,0:0|0:0,0:0:0:0:
8,129,21478,2,0,P|18:157|25:188,1,45,2|0,0:0|0:0,0:0:0:0:
6,251,21895,1,2,0:0:0:0:
134,349,22312,2,0,P|191:352|279:367,1,135,2|0,0:3|0:0,0:0:0:0:
336,327,23145,2,0,P|356:301|351:275,1,45,2|0,0:0|0:0,0:0:0:0:
308,224,23579,1,2,0:0:0:0:
157,146,24014,6,0,P|90:154|55:160,2,90,2|2|2,0:3|0:3|0:3,0:0:0:0:
201,78,25064,2,0,P|195:43|191:25,2,45,2|2|2,0:0|0:0|0:0,0:0:0:0:
277,103,25716,2,0,P|315:86|368:94,1,90,2|2,0:0|0:0,0:0:0:0:
420,35,26368,2,0,P|457:53|485:98,1,90,2|2,0:0|0:0,0:0:0:0:
442,169,27020,1,2,0:0:0:0:
256,192,27223,12,0,29055,0:0:0:0:
9,111,29462,6,0,P|51:115|109:133,1,90,6|2,3:2|0:0,0:0:0:0:
212,27,30151,2,0,P|254:23|312:5,1,90,10|2,0:0|0:0,0:0:0:0:
388,62,30726,1,0,3:0:0:0:
386,72,30841,2,0,P|377:114|371:174,1,90,2|0,3:2|3:0,0:0:0:0:
408,309,31530,2,0,P|375:314|339:326,1,60,10|0,0:0|0:0,0:0:0:0:
318,362,31875,2,0,P|285:357|249:345,1,60,2|0,0:0|0:0,0:0:0:0:
222,313,32220,6,0,P|167:322|121:333,1,90,6|2,3:2|0:0,0:0:0:0:
51,200,32910,2,0,P|106:191|152:180,1,90,10|2,0:0|0:0,0:0:0:0:
234,219,33484,1,0,3:0:0:0:
243,226,33599,2,0,P|287:241|331:219,1,90,2|0,3:2|3:0,0:0:0:0:
457,147,34289,2,0,P|456:101|453:77,1,60,10|0,0:0|0:0,0:0:0:0:
433,40,34634,2,0,P|387:40|363:43,1,60,2|0,0:0|0:0,0:0:0:0:
337,79,34979,6,0,P|299:104|258:93,1,90,6|2,3:2|0:0,0:0:0:0:
124,19,35668,2,0,P|86:-6|45:5,1,90,10|2,0:0|0:0,0:0:0:0:
1,97,36243,1,0,3:0:0:0:
4,106,36358,2,0,P|13:153|16:203,1,90,2|0,3:2|3:0,0:0:0:0:
104,320,37048,2,0,P|138:327|176:322,1,60,10|0,0:0|0:0,0:0:0:0:
205,353,37393,2,0,P|239:346|277:351,1,60,2|0,0:0|0:0,0:0:0:0:
311,329,37737,6,0,P|332:296|313:247,1,90,6|2,3:2|0:0,0:0:0:0:
183,174,38427,2,0,P|136:176|94:185,1,90,10|2,0:0|0:0,0:0:0:0:
63,87,39002,1,0,3:0:0:0:
71,79,39117,2,0,P|118:77|160:68,1,90,2|2,3:2|3:2,0:0:0:0:
221,22,39634,1,8,0:0:0:0:
290,54,39806,2,0,L|285:104,1,45,10|8,0:0|0:3,0:0:0:0:
345,195,40151,2,0,L|341:151,1,45,4|0,0:3|3:0,0:0:0:0:
387,89,40496,5,2,0:0:0:0:
469,218,40841,2,0,L|464:260,1,40.4999987640381,2|2,0:0|3:2,0:0:0:0:
501,326,41186,2,0,L|506:368,2,40.4999987640381,10|2|2,0:0|0:0|0:0,0:0:0:0:
354,277,41875,2,0,L|265:288,1,80.9999975280763,2|2,3:2|3:2,0:0:0:0:
221,344,42393,2,0,L|132:333,1,80.9999975280763,2|2,0:0|0:0,0:0:0:0:
76,372,42910,1,2,0:0:0:0:
0,238,43255,6,0,P|-15:203|5:161,1,80.9999975280763,2|2,3:2|0:0,0:0:0:0:
67,126,43772,2,0,L|62:84,1,40.4999987640381,2|8,3:2|0:0,0:0:0:0:
51,9,44117,1,2,0:0:0:0:
208,25,44462,1,2,0:0:0:0:
208,25,44634,2,0,L|218:109,1,80.9999975280763,0|0,3:0|3:0,0:0:0:0:
265,172,45151,1,2,0:0:0:0:
265,172,45324,2,0,L|259:215,1,40.4999987640381,10|0,0:0|0:0,0:0:0:0:
199,260,45668,1,2,0:0:0:0:
314,370,46013,5,2,3:2:0:0:
314,370,46186,2,0,P|340:367|358:365,1,40.4999987640381,2|2,0:0|0:0,0:0:0:0:
429,384,46530,2,0,P|455:365|452:314,1,80.9999975280763,2|2,3:2|0:0,0:0:0:0:
420,250,47048,1,2,0:0:0:0:
471,104,47393,2,0,P|492:106|520:109,2,40.4999987640381,2|2|2,3:2|0:0|3:2,0:0:0:0:
347,12,48082,2,0,P|304:16|260:27,1,80.9999975280763,10|2,0:0|0:0,0:0:0:0:
118,65,48772,6,0,P|122:108|133:152,1,80.9999975280763,2|2,3:2|0:0,0:0:0:0:
76,200,49289,1,0,3:0:0:0:
76,200,49462,2,0,P|72:243|61:287,1,80.9999975280763,10|2,0:0|0:0,0:0:0:0:
51,356,49979,2,0,P|94:352|138:342,1,80.9999975280763,2|2,0:0|0:0,0:0:0:0:
270,279,50668,2,0,P|313:283|357:294,1,80.9999975280763,2|2,0:0|0:0,0:0:0:0:
401,349,51186,1,0,0:0:0:0:
509,240,51530,5,2,0:3:0:0:
429,108,51875,2,0,L|436:65,1,40.4999987640381,2|2,0:0|3:2,0:0:0:0:
380,14,52220,2,0,P|334:20|288:23,1,80.9999975280763,10|2,0:0|0:0,0:0:0:0:
229,50,52737,2,0,P|211:97|228:128,1,80.9999975280763,2|2,0:0|0:0,0:0:0:0:
285,168,53255,1,2,3:2:0:0:
228,312,53599,1,10,0:0:0:0:
228,312,53772,2,0,P|196:298|150:312,1,80.9999975280763,2|2,0:0|0:0,0:0:0:0:
77,291,54289,6,0,P|53:256|67:216,1,80.9999975280763,2|2,3:2|0:0,0:0:0:0:
106,157,54806,2,0,P|96:101|89:71,1,80.9999975280763,2|2,3:2|0:0,0:0:0:0:
164,48,55324,1,2,0:0:0:0:
164,48,55496,2,0,P|213:54|254:59,1,80.9999975280763,2|0,0:0|0:0,0:0:0:0:
309,15,56013,1,0,3:0:0:0:
446,85,56358,2,0,P|443:112|440:132,1,40.4999987640381,8|2,0:0|0:0,0:0:0:0:
480,191,56703,1,2,0:0:0:0:
362,290,57048,6,0,P|327:284|313:282,1,40.4999987640381,2|2,3:2|0:0,0:0:0:0:
266,336,57393,2,0,P|231:342|217:344,1,40.4999987640381,2|0,0:0|3:0,0:0:0:0:
173,286,57737,2,0,P|116:276|93:273,1,80.9999975280763,10|2,0:0|0:0,0:0:0:0:
75,132,58427,5,2,3:2:0:0:
75,132,58599,2,0,P|131:141|154:144,1,80.9999975280763,2|2,0:0|0:0,0:0:0:0:
230,107,59117,1,10,0:0:0:0:
230,107,59289,2,0,P|286:98|309:95,1,80.9999975280763,2|2,0:0|0:0,0:0:0:0:
391,102,59806,6,0,P|385:167|384:193,1,80.9999975280763,2|2,3:2|3:2,0:0:0:0:
500,284,60496,2,0,P|506:349|507:375,1,80.9999975280763,10|2,0:0|0:0,0:0:0:0:
353,380,61186,2,0,P|347:315|346:289,1,80.9999975280763,2|2,3:2|3:2,0:0:0:0:
463,190,61875,2,0,P|469:125|470:99,1,80.9999975280763,10|2,0:0|0:0,0:0:0:0:
335,1,62565,1,2,0:0:0:0:
256,192,62737,12,0,64979,0:0:0:0:
335,1,65324,6,0,P|344:37|353:104,1,99.0000030212403,4|2,3:1|0:0,0:0:0:0:
510,180,66013,2,0,P|501:216|492:283,1,99.0000030212403,10|2,0:0|0:0,0:0:0:0:
404,358,66588,1,0,3:0:0:0:
391,355,66703,2,0,P|332:348|281:347,1,99.0000030212403,0|2,3:0|3:2,0:0:0:0:
115,373,67393,2,0,P|116:343|111:322,1,49.5000015106202,8|0,0:0|0:0,0:0:0:0:
42,266,67737,2,0,P|42:236|48:197,1,66.0000020141602,2|0,0:0|0:0,0:0:0:0:
53,190,68082,6,0,P|99:193|159:206,1,99.0000030212403,4|2,3:2|0:0,0:0:0:0:
229,160,68599,2,0,P|230:131|239:104,1,49.5000015106202,2|8,0:0|0:0,0:0:0:0:
289,39,68944,2,0,P|335:42|408:22,1,115.50000352478,2|0,0:0|3:0,0:0:0:0:
414,19,69462,1,0,3:0:0:0:
509,169,69806,2,0,L|503:229,1,49.5000015106202,2|2,3:2|0:0,0:0:0:0:
509,307,70151,2,0,P|459:289|408:290,1,99.0000030212403,10|2,0:0|0:0,0:0:0:0:
306,342,70726,1,2,0:0:0:0:
297,334,70841,6,0,P|305:269|302:224,1,99.0000030212403,4|2,3:2|0:3,0:0:0:0:
346,62,71530,2,0,P|281:70|236:67,1,99.0000030212403,10|2,0:0|0:0,0:0:0:0:
139,17,72105,1,0,3:0:0:0:
130,25,72220,2,0,P|138:90|135:135,1,99.0000030212403,0|0,3:0|3:0,0:0:0:0:
11,251,72910,2,0,P|-13:210|6:167,1,99.0000030212403,10|2,0:0|0:0,0:0:0:0:
176,221,73599,6,0,P|231:213|281:205,2,99.0000030212403,4|2|8,3:2|0:3|0:0,0:0:0:0:
350,259,74634,2,0,P|380:263|409:267,1,49.5000015106202,2|2,0:0|0:0,0:0:0:0:
482,299,74979,2,0,P|478:246|474:191,1,99.0000030212403,2|2,3:2|3:2,0:0:0:0:
497,23,75668,2,0,P|462:26|443:29,1,49.5000015106202,8|0,0:0|0:0,0:0:0:0:
386,92,76013,2,0,P|351:89|332:86,1,49.5000015106202,2|0,0:0|0:0,0:0:0:0:
281,16,76358,6,0,P|237:1|193:37,1,99.0000030212403,4|2,3:1|0:0,0:0:0:0:
214,206,77048,2,0,P|220:249|229:315,1,99.0000030212403,10|2,0:0|0:0,0:0:0:0:
342,334,77622,1,0,3:0:0:0:
349,325,77737,2,0,P|343:282|334:216,1,99.0000030212403,0|2,3:0|3:2,0:0:0:0:
201,108,78427,2,0,P|149:108|96:114,1,99.0000030212403,10|2,0:0|0:0,0:0:0:0:
2,261,79117,6,0,P|10:312|18:372,1,99.0000030212403,6|2,3:2|0:0,0:0:0:0:
102,382,79634,1,2,0:0:0:0:
171,326,79806,2,0,P|163:275|155:218,1,99.0000030212403,10|2,0:0|0:0,0:0:0:0:
57,161,80381,1,2,3:2:0:0:
51,170,80496,1,0,3:0:0:0:
165,33,80841,2,0,P|203:39|223:43,1,49.5000015106202,2|2,3:2|0:0,0:0:0:0:
293,81,81186,2,0,P|330:69|360:65,2,66.0000020141602,10|2|2,0:0|0:0|0:0,0:0:0:0:
227,180,81875,6,0,P|236:248|242:286,1,99.0000030212403,6|2,3:2|0:3,0:0:0:0:
395,366,82565,2,0,P|443:358|493:352,1,99.0000030212403,10|2,0:0|0:0,0:0:0:0:
460,237,83140,1,0,3:0:0:0:
449,239,83255,2,0,P|381:248|343:254,1,99.0000030212403,0|0,3:0|3:0,0:0:0:0:
199,346,83944,2,0,P|158:375|108:358,1,99.0000030212403,10|2,0:0|0:0,0:0:0:0:
13,213,84634,6,0,L|21:105,2,99.0000030212403,4|2|8,3:2|0:3|0:0,0:0:0:0:
76,276,85496,1,2,0:0:0:0:
146,221,85668,2,0,L|150:166,1,49.5000015106202,2|2,0:0|0:0,0:0:0:0:
118,87,86013,2,0,P|169:92|227:101,1,99.0000030212403,2|2,3:2|3:2,0:0:0:0:
302,74,86530,2,0,P|294:122|289:172,1,99.0000030212403,2|2,0:0|0:0,0:0:0:0:
323,255,87048,2,0,P|274:247|224:242,1,99.0000030212403,2|0,0:0|0:0,0:0:0:0:
