osu file format v14

[General]
AudioFilename: audio.mp3
AudioLeadIn: 0
PreviewTime: 65237
Countdown: 0
SampleSet: Soft
StackLeniency: 0.2
Mode: 0
LetterboxInBreaks: 0
WidescreenStoryboard: 1

[Editor]
DistanceSpacing: 0.6
BeatDivisor: 6
GridSize: 32
TimelineZoom: 2

[Metadata]
Title:Prayer X (TV Size)
TitleUnicode:Prayer X (TV Size)
Artist:King Gnu
ArtistUnicode:King Gnu
Creator:KaedeharaKazuha
Version:Ascended's Insane
Source:BANANA FISH
Tags:Addy2607 Kaedehara Kazuha gary00737 Lobelia [_Abhor_] Abhor gokugohan12468 Kyouren KittyAdventure -ascended- -_ascended_- Ascended バナナフィッシュ anime 1st first ending ed outro theme song 1 one japanese rock pop jpop jrock j-pop j-rock Sympa PERIMETRON 常田大希 勢喜遊 新井和輝 井口理 Daiki Tsuneta Yu Seki Kazuki Arai Satoru Iguchi Ash Lynx Aslan Jade Callenreese 奥村英二 Okumura Eiji Shounen Shonen Shōnen Ai 少年愛 Boys Boys' Love BL
BeatmapID:3535711
BeatmapSetID:1724620

[Difficulty]
HPDrainRate:5
CircleSize:4.5
OverallDifficulty:8
ApproachRate:8
SliderMultiplier:2.3
SliderTickRate:1

[Events]
//Background and Video events
0,0,"BG.jpg",0,0
Video,-200,"banana.mp4"
//Break Periods
//Storyboard Layer 0 (Background)
//Storyboard Layer 1 (Fail)
//Storyboard Layer 2 (Pass)
//Storyboard Layer 3 (Foreground)
//Storyboard Layer 4 (Overlay)
//Storyboard Sound Samples

[TimingPoints]
502,845.070422535211,4,2,1,40,1,0
502,-200,4,2,1,40,0,0
1347,800,4,2,1,40,1,0
1747,769.230769230769,4,2,1,40,1,0
1747,-133.333333333333,4,2,1,40,0,0
2900,750,4,2,1,40,1,0
2900,-200,4,2,1,40,0,0
3275,882.352941176471,4,2,1,40,1,0
3716,-200,4,2,1,40,0,0
4598,833.333333333333,4,2,1,40,1,0
5431,857.142857142857,4,2,1,40,1,0
7145,-133.333333333333,4,2,1,40,0,0
8859,821.917808219178,4,2,1,40,1,0
10502,-200,4,2,1,40,0,0
11324,845.070422535211,4,2,1,40,1,0
12169,909.090909090909,4,2,1,40,1,0
12169,-133.333333333333,4,2,1,40,0,0
12623,1666.66666666667,4,2,1,40,1,0
13039,895.522388059701,4,2,1,40,1,0
13039,-133.333333333333,4,2,1,40,0,0
13486,869.565217391304,4,2,1,40,1,0
13920,882.352941176471,4,2,1,50,1,0
15684,659.340659340659,4,2,1,50,1,0
16013,810.810810810811,4,2,1,50,1,0
17229,800,4,2,1,50,1,0
17629,689.655172413793,4,2,1,50,1,0
17801,1090.90909090909,4,2,1,50,1,0
18073,869.565217391304,4,2,1,50,1,0
19812,833.333333333333,4,2,1,50,1,0
23145,869.565217391304,4,2,1,50,1,0
24014,833.333333333333,4,2,1,50,1,0
24014,-133.333333333333,4,2,1,50,0,0
24847,869.565217391304,4,2,1,50,1,0
25716,-83.3333333333333,4,2,1,50,0,0
26368,-66.6666666666667,4,2,1,50,0,0
27020,814.111261872456,4,2,1,50,1,0
27020,-400,4,2,1,50,0,0
29462,689.655172413793,4,2,1,60,1,0
29462,-66.6666666666667,4,2,1,60,0,0
30841,-50,4,2,1,60,0,0
32220,-66.6666666666667,4,2,1,60,0,0
32910,-100,4,2,1,60,0,0
33599,-66.6666666666667,4,2,1,60,0,0
34979,-66.6666666666667,4,2,1,60,0,0
36358,-76.9230769230769,4,2,1,60,0,0
37737,-66.6666666666667,4,2,1,60,0,0
38427,-100,4,2,1,60,0,0
39002,-83.3333333333333,4,2,1,60,0,0
40496,-100,4,2,1,50,0,0
40840,-100,4,2,2,50,0,0
50151,-76.9230769230769,4,2,2,50,0,0
51530,-100,4,2,2,50,0,0
53599,-83.3333333333333,4,2,2,50,0,0
62565,-102.040816326531,4,2,1,40,0,0
63772,-400,4,2,1,40,0,0
63944,-1000,4,2,1,40,0,0
65151,-1000,4,2,1,40,0,0
65324,-40,4,2,1,75,0,1
66588,-52.6315789473684,4,2,1,75,0,1
67048,-66.6666666666667,4,2,1,75,0,1
68082,-50,4,2,1,75,0,1
68944,-50,4,2,1,75,0,1
70841,-43.4782608695652,4,2,1,75,0,1
71530,-66.6666666666667,4,2,1,75,0,1
72105,-40,4,2,1,75,0,1
73599,-40,4,2,1,75,0,1
74289,-66.6666666666667,4,2,1,75,0,1
74864,-50,4,2,1,75,0,1
75668,-45.4545454545455,4,2,1,75,0,1
76358,-40,4,2,1,75,0,1
77622,-52.6315789473684,4,2,1,75,0,1
78082,-66.6666666666667,4,2,1,75,0,1
79117,-50,4,2,1,75,0,1
79806,-66.6666666666667,4,2,1,75,0,1
81186,-55.5555555555556,4,2,1,75,0,1
82565,-58.8235294117647,4,2,1,75,0,1
82910,-43.4782608695652,4,2,1,75,0,1
83255,-47.6190476190476,4,2,1,75,0,1
83944,-125,4,2,1,75,0,1
84289,-33.3333333333333,4,2,1,75,0,1
84634,-45.4545454545455,4,2,1,75,0,1
87393,-266.666666666667,4,2,1,75,0,0
87436,-266.666666666667,4,2,1,5,0,0
88082,-266.666666666667,4,2,1,5,0,0

[Colours]
Combo1 : 215,215,166
Combo2 : 139,170,186
Combo3 : 61,99,118
Combo4 : 126,129,56

[HitObjects]
458,379,502,6,0,P|484:363|514:356,1,57.5,2|2,0:0|0:0,0:0:0:0:
474,198,1347,1,2,0:0:0:0:
478,202,1747,2,0,P|445:290|359:281,1,172.500006580353,2|2,0:0|0:0,0:0:0:0:
310,337,2900,2,0,P|279:313|275:288,1,57.5,2|2,0:3|0:0,0:0:0:0:
307,126,3716,6,0,P|313:152|320:183,1,57.5,2|2,0:3|0:0,0:0:0:0:
234,167,4377,1,2,0:0:0:0:
303,207,4598,2,0,P|315:150|328:94,1,115,2|2,0:3|0:0,0:0:0:0:
493,11,5431,5,2,0:0:0:0:
410,63,5859,1,2,0:0:0:0:
414,67,6073,1,2,0:0:0:0:
418,71,6288,2,0,P|452:108|490:95,2,86.25,2|0|0,0:0|0:0|0:0,0:0:0:0:
346,5,7145,6,0,P|265:0|236:75,1,172.500006580353,2|2,0:0|0:0,0:0:0:0:
112,30,8859,2,0,P|133:99|164:269,1,230,2|2,0:3|0:0,0:0:0:0:
10,364,10502,6,0,B|29:314|84:354|100:303,1,115,2|2,0:3|0:0,0:0:0:0:
53,245,11746,1,2,0:0:0:0:
178,332,12169,6,0,P|219:324|233:282,1,86.25,2|2,0:0|0:0,0:0:0:0:
311,264,13039,2,0,P|303:223|261:209,1,86.25,2|2,0:0|0:0,0:0:0:0:
310,364,13920,6,0,P|360:342|429:330,1,115,2|2,0:0|0:0,0:0:0:0:
418,231,14802,2,0,B|421:214|441:203|441:203|397:209|388:252,2,115,2|2|2,0:0|0:0|0:3,0:0:0:0:
426,121,16013,1,2,0:0:0:0:
426,121,16418,2,0,B|441:206|510:157|510:157,1,115,2|2,0:0|0:0,0:0:0:0:
497,73,17229,5,2,0:0:0:0:
267,139,17629,2,0,P|262:112|255:75,1,57.5,2|2,0:0|0:0,0:0:0:0:
323,38,18073,2,0,P|333:94|344:151,2,115,2|2|2,0:0|0:0|0:3,0:0:0:0:
178,124,19377,6,0,P|149:118|121:113,1,57.5,2|2,0:0|0:0,0:0:0:0:
11,84,19812,5,2,0:0:0:0:
26,77,20089,5,2,0:0:0:0:
24,94,20367,5,2,0:0:0:0:
114,23,20645,6,0,B|164:111|43:73|0:128|12:193,1,230,2|2,0:0|0:0,0:0:0:0:
16,196,21895,1,2,0:0:0:0:
254,329,22312,6,0,B|144:286|196:225|84:173,1,230,2|2,0:3|0:0,0:0:0:0:
87,179,23579,1,2,0:0:0:0:
8,312,24014,6,0,B|45:292|25:272|67:251,2,86.2500032901765,2|2|2,0:3|0:3|0:3,0:0:0:0:
33,381,25064,1,2,0:0:0:0:
102,351,25281,2,0,P|130:338|158:330,1,57.5,2|2,0:0|0:0,0:0:0:0:
243,369,25716,6,0,P|196:329|204:254,1,137.999995788574,2|2,0:0|0:0,0:0:0:0:
358,333,26368,2,0,P|427:303|412:216,1,172.500006580353,2|2,0:0|0:0,0:0:0:0:
247,143,27020,6,0,P|272:247|283:297,1,158.125,2|0,0:0|0:0,0:0:0:0:
161,370,29462,5,6,3:2:0:0:
161,370,29519,2,0,P|119:359|77:350,1,86.2500032901765,2|0,0:0|0:0,0:0:0:0:
18,297,29806,2,0,B|85:373|97:264|97:264,1,115.000004386902,2|2,0:0|0:3,0:0:0:0:
107,175,30151,2,0,P|109:252|187:248,1,172.500006580353,10|2,0:0|0:0,0:0:0:0:
0,82,30726,5,0,3:0:0:0:
10,4,30841,2,0,B|-11:73|83:142|162:102|121:41|76:61,2,230,2|0|10,3:2|3:0|0:0,0:0:0:0:
14,0,31875,1,2,0:0:0:0:
242,114,32220,6,0,B|247:98|268:85|268:85|182:91|185:167,1,172.500006580353,6|2,3:2|0:0,0:0:0:0:
304,305,32910,2,0,P|288:261|271:194,1,115,10|2,0:0|0:0,0:0:0:0:
360,38,33484,5,0,3:0:0:0:
346,108,33599,2,0,P|323:28|243:8,2,172.500006580353,2|0|10,3:2|3:0|0:0,0:0:0:0:
342,112,34634,1,2,0:0:0:0:
486,315,34979,6,0,P|431:295|375:282,1,115,6|0,3:2|0:0,0:0:0:0:
401,206,35324,2,0,P|351:183|321:232,1,115.000004386902,2|2,0:0|0:3,0:0:0:0:
241,300,35668,2,0,B|343:194|341:348|341:348,1,172.500006580353,10|2,0:0|0:0,0:0:0:0:
105,333,36243,5,0,3:0:0:0:
181,351,36358,2,0,P|96:361|22:379,2,149.499993156433,2|0|10,3:2|3:0|0:0,0:0:0:0:
185,355,37393,1,2,0:0:0:0:
71,47,37737,6,0,B|48:69|12:26|81:-18|154:45|132:99,1,172.500006580353,6|2,3:2|0:0,0:0:0:0:
92,264,38427,2,0,P|40:245|48:192,1,115,10|2,0:0|0:0,0:0:0:0:
206,166,39002,5,0,3:0:0:0:
265,214,39117,2,0,P|198:194|131:179,1,137.999995788574,2|2,3:2|3:2,0:0:0:0:
127,183,39634,1,8,0:0:0:0:
185,301,39806,5,10,0:0:0:0:
217,321,39979,1,8,0:3:0:0:
294,315,40151,1,4,0:3:0:0:
338,243,40324,1,0,3:0:0:0:
281,134,40496,6,0,P|268:77|256:11,1,115,2|2,0:0|0:0,0:0:0:0:
432,0,41186,2,0,P|489:14|494:76,1,115,10|2,0:0|0:0,0:0:0:0:
495,67,41703,1,2,0:0:0:0:
512,151,41875,6,0,B|452:232|436:124|436:124,1,115,2|2,3:2|3:2,0:0:0:0:
347,60,42393,2,0,P|353:88|358:116,1,57.5,2|8,0:0|0:0,0:0:0:0:
322,219,42737,1,2,0:0:0:0:
326,223,42910,2,0,P|360:209|376:189,1,57.5,2|2,0:0|0:0,0:0:0:0:
275,101,43255,6,0,B|237:95|205:83|205:83|185:95|189:120,1,115,2|2,3:2|0:0,0:0:0:0:
186,193,43772,2,0,P|145:185|129:165,1,57.5,2|8,3:2|0:0,0:0:0:0:
91,43,44117,2,0,P|106:75|110:104,1,57.5,2|0,0:0|0:0,0:0:0:0:
69,271,44462,5,2,0:0:0:0:
39,187,44634,2,0,B|43:171|56:163|56:163|5:174|10:224,2,115,0|0|10,3:0|3:0|0:0,0:0:0:0:
0,380,45668,6,0,B|8:387|8:387|45:348|101:344,1,115,2|2,0:0|3:2,0:0:0:0:
175,372,46186,1,2,0:0:0:0:
339,300,46530,5,2,3:2:0:0:
274,338,46703,2,0,P|225:310|231:251,1,115,8|2,0:0|0:0,0:0:0:0:
270,139,47220,5,2,0:0:0:0:
335,186,47393,2,0,B|324:210|301:199|291:221,2,57.5,2|2|2,3:2|0:0|3:2,0:0:0:0:
440,333,48082,2,0,P|420:304|398:216,1,115,10|2,0:0|0:0,0:0:0:0:
419,0,48772,6,0,B|434:102|495:12|495:12,1,115,2|2,3:2|0:0,0:0:0:0:
414,157,49289,1,0,3:0:0:0:
486,111,49462,2,0,P|437:89|373:83,1,115,10|2,0:0|0:0,0:0:0:0:
290,159,49979,1,2,0:0:0:0:
302,44,50151,6,0,P|283:75|248:85,1,74.7499965782167,0|2,3:0|0:0,0:0:0:0:
145,75,50496,2,0,P|166:112|179:145,1,74.7499965782167,0|2,3:0|0:0,0:0:0:0:
111,199,50841,6,0,B|80:152|132:64|239:132|296:36|220:-13,1,298.999986312867,8|2,0:0|0:3,0:0:0:0:
199,239,51875,6,0,P|218:244|199:237,1,57.5,2|2,0:0|3:2,0:0:0:0:
174,312,52220,2,0,P|225:287|282:277,1,115,10|2,0:0|0:0,0:0:0:0:
379,362,52737,6,0,P|407:354|419:326,1,57.5,2|0,0:0|3:0,0:0:0:0:
364,221,53082,1,2,0:0:0:0:
367,225,53255,2,0,P|365:255|356:280,1,57.5,2|0,3:2|0:0,0:0:0:0:
482,384,53599,5,10,0:0:0:0:
512,323,53772,2,0,B|507:257|440:273|429:227|453:211,1,137.999995788574,2|2,0:0|0:0,0:0:0:0:
471,89,54289,6,0,B|440:206|373:103|373:103,1,137.999995788574,2|2,3:2|0:0,0:0:0:0:
420,9,54806,2,0,P|410:37|389:16,1,68.9999978942872,2|8,3:2|0:0,0:0:0:0:
249,32,55151,1,2,0:0:0:0:
253,36,55324,2,0,P|289:42|320:56,1,68.9999978942872,2|2,0:0|0:0,0:0:0:0:
183,8,55668,6,0,B|177:16|177:16|218:58|225:132,2,137.999995788574,0|0|8,3:0|3:0|0:0,0:0:0:0:
195,200,56530,1,2,0:0:0:0:
199,204,56703,2,0,P|158:182|156:149,1,68.9999978942872,2|2,0:0|0:0,0:0:0:0:
317,164,57048,5,2,3:2:0:0:
321,168,57220,1,2,0:0:0:0:
289,242,57393,2,0,P|310:200|402:203,1,137.999995788574,2|10,0:0|0:0,0:0:0:0:
143,358,58082,6,0,P|176:350|223:340,1,68.9999978942872,2|2,0:0|0:0,0:0:0:0:
355,312,58427,1,2,3:2:0:0:
292,369,58599,2,0,B|283:298|183:325|221:262,1,137.999995788574,2|2,0:0|0:0,0:0:0:0:
308,151,59117,5,10,0:0:0:0:
379,200,59289,2,0,P|383:168|393:129,1,68.9999978942872,2|0,0:0|0:0,0:0:0:0:
367,34,59634,1,2,0:0:0:0:
296,71,59806,6,0,B|262:58|281:42|244:28,1,68.9999978942872,2|0,3:2|0:0,0:0:0:0:
96,59,60151,2,0,P|137:50|149:21,1,68.9999978942872,2|0,3:2|0:0,0:0:0:0:
212,92,60496,6,0,P|219:137|232:168,1,68.9999978942872,10|0,0:0|0:0,0:0:0:0:
86,141,60841,2,0,B|200:130|87:166|87:166,1,103.499996841431,2|0,0:0|0:0,0:0:0:0:
7,142,61186,6,0,P|18:175|22:209,1,68.9999978942872,2|0,3:2|0:0,0:0:0:0:
170,241,61530,2,0,P|148:267|115:274,1,68.9999978942872,2|0,3:2|0:0,0:0:0:0:
0,290,61875,6,0,P|-1:314|3:291,1,68.9999978942872,10|0,0:0|0:0,0:0:0:0:
182,384,62220,2,0,P|181:360|185:383,1,68.9999978942872,2|0,0:0|0:0,0:0:0:0:
40,383,62565,6,0,B|88:378|101:329|101:329|85:262|85:262|103:224|143:224|143:224|289:254|289:254|255:269|245:309,1,450.799995872803,2|2,0:0|0:0,0:0:0:0:
482,80,65324,6,0,B|460:15|561:44|584:-18|425:-63|369:80|411:129,2,287.5,4|2|10,3:1|0:0|0:0,0:0:0:0:
486,84,66358,1,2,0:0:0:0:
314,248,66588,5,0,3:0:0:0:
255,186,66703,2,0,P|278:254|285:327,1,145.666662776947,0|0,3:0|0:0,0:0:0:0:
382,196,67048,2,0,B|313:249|401:270,1,115.000004386902,2|0,3:2|0:0,0:0:0:0:
512,204,67393,2,0,P|456:216|513:211,1,172.500006580353,8|2,0:0|0:0,0:0:0:0:
135,207,68082,6,0,P|220:185|232:57,1,230,4|2,3:2|0:0,0:0:0:0:
71,52,68599,6,0,B|59:34|41:29|41:29|90:22|111:74,1,115,2|8,0:0|0:0,0:0:0:0:
143,127,68944,2,0,P|150:74|165:13,1,115,2|0,0:0|0:0,0:0:0:0:
107,333,69347,5,0,3:0:0:0:
176,293,69462,2,0,P|99:289|75:135,2,230,0|2|10,3:0|3:2|0:0,0:0:0:0:
269,109,70496,5,2,0:0:0:0:
250,240,70668,1,2,0:0:0:0:
231,369,70841,2,0,B|344:307|478:331|478:331|530:297|520:232|456:213,1,396.750007567406,4|0,3:2|0:0,0:0:0:0:
394,185,71530,6,0,B|368:195|337:187|337:187|368:195|390:223,1,115,10|0,0:0|0:0,0:0:0:0:
466,223,71875,1,2,0:0:0:0:
269,109,72105,5,0,3:0:0:0:
274,32,72220,2,0,P|301:173|322:315,2,287.5,0|0|10,3:0|3:0|0:0,0:0:0:0:
270,28,73255,1,2,0:0:0:0:
76,382,73599,6,0,B|-7:221|185:70|351:205|201:317|92:261,1,479.166666666667,4|0,3:2|0:0,0:0:0:0:
29,314,74289,2,0,P|-3:288|1:243,1,86.2500032901765,8|2,0:0|0:3,0:0:0:0:
46,140,74634,1,2,0:0:0:0:
231,384,74864,5,0,3:0:0:0:
150,361,74979,2,0,P|227:346|306:334,1,153.333333333333,2|0,3:2|0:0,0:0:0:0:
371,384,75324,6,0,B|517:359|375:296|375:296,1,153.333333333333,2|0,3:2|0:0,0:0:0:0:
358,214,75668,2,0,B|330:235|351:273|433:294|470:264|444:234,1,168.666671813965,8|0,0:0|0:0,0:0:0:0:
359,123,76013,2,0,P|336:197|239:196,1,168.666671813965,2|0,0:0|0:0,0:0:0:0:
150,361,76358,6,0,B|203:221|25:166|-3:272|78:258|84:314,2,287.5,4|2|10,3:1|0:0|0:0,0:0:0:0:
148,367,77393,1,2,0:0:0:0:
229,78,77622,5,0,3:0:0:0:
287,138,77737,2,0,P|271:67|244:0,1,145.666662776947,0|0,3:0|0:0,0:0:0:0:
362,98,78082,2,0,P|376:44|336:6,1,115.000004386902,2|0,3:2|0:0,0:0:0:0:
452,32,78427,2,0,P|504:10|450:27,1,172.500006580353,10|2,0:0|0:0,0:0:0:0:
33,56,79117,6,0,B|39:70|39:70|158:68|199:188,1,230,6|2,3:2|0:0,0:0:0:0:
161,350,79634,1,2,0:0:0:0:
224,290,79806,2,0,B|206:127|129:275|129:275,1,172.500006580353,10|2,0:0|0:0,0:0:0:0:
348,368,80381,5,2,3:2:0:0:
424,320,80496,2,0,P|336:339|253:373,1,172.500006580353,0|2,3:0|3:2,0:0:0:0:
499,16,81186,6,0,B|491:27|489:39|489:39|478:18|496:0,1,68.9999978942872,10|0,0:0|0:0,0:0:0:0:
461,187,81416,6,0,B|456:178|446:168|446:168|469:169|479:196,1,68.9999978942872,2|2,0:0|0:3,0:0:0:0:
330,64,81645,6,0,B|343:63|354:60|354:60|342:80|317:75,1,68.9999978942872,2|0,0:0|0:0,0:0:0:0:
428,96,81875,6,0,P|326:72|225:53,1,206.999993682861,6|2,3:2|0:3,0:0:0:0:
24,119,82565,6,0,P|17:162|27:120,1,130.333335819244,10|0,0:0|0:0,0:0:0:0:
15,155,82910,2,0,P|19:125|12:154,1,88.1666683483124,2|0,0:0|0:0,0:0:0:0:
87,62,83140,5,0,3:0:0:0:
33,1,83255,2,0,P|52:102|76:244,1,241.499992630005,0|0,3:0|3:0,0:0:0:0:
440,369,83944,6,0,P|416:367|439:373,1,69,10|0,0:0|0:0,0:0:0:0:
410,360,84289,2,0,P|447:368|408:366,1,115.000004386902,2|0,0:0|0:0,0:0:0:0:
331,317,84519,5,0,0:0:0:0:
262,361,84634,2,0,P|368:340|518:315,2,253.000007720948,4|2|8,3:2|0:3|0:0,0:0:0:0:
143,321,85496,1,2,0:0:0:0:
21,346,85668,1,2,0:0:0:0:
319,241,85898,5,0,3:0:0:0:
392,225,86013,2,0,B|293:181|220:178|220:178|195:132|234:103,1,253.000007720947,2|2,3:2|3:2,0:0:0:0:
320,2,86530,1,2,0:0:0:0:
377,62,86703,2,0,B|362:183|299:78|299:78,1,126.500003860474,8|2,0:0|0:0,0:0:0:0:
454,152,87048,5,2,0:0:0:0:
458,136,87134,1,2,0:3:0:0:
462,120,87220,1,2,0:3:0:0:
466,105,87306,1,2,0:3:0:0:
469,90,87393,1,0,0:0:0:0:
