osu file format v14

[General]
AudioFilename: audio.mp3
AudioLeadIn: 0
PreviewTime: 65237
Countdown: 0
SampleSet: Soft
StackLeniency: 0.4
Mode: 0
LetterboxInBreaks: 0
WidescreenStoryboard: 0

[Editor]
DistanceSpacing: 0.7
BeatDivisor: 12
GridSize: 16
TimelineZoom: 1.8

[Metadata]
Title:Prayer X (TV Size)
TitleUnicode:Prayer X (TV Size)
Artist:King Gnu
ArtistUnicode:King Gnu
Creator:KaedeharaKazuha
Version:Another
Source:BANANA FISH
Tags:Addy2607 Kaedehara Kazuha gary00737 Lobelia [_Abhor_] Abhor gokugohan12468 Kyouren KittyAdventure -ascended- -_ascended_- Ascended バナナフィッシュ anime 1st first ending ed outro theme song 1 one japanese rock pop jpop jrock j-pop j-rock Sympa PERIMETRON 常田大希 勢喜遊 新井和輝 井口理 Daiki Tsuneta Yu Seki Kazuki Arai Satoru Iguchi Ash Lynx Aslan Jade Callenreese 奥村英二 Okumura Eiji Shounen Shonen Shōnen Ai 少年愛 Boys Boys' Love BL
BeatmapID:3524614
BeatmapSetID:1724620

[Difficulty]
HPDrainRate:6
CircleSize:4
OverallDifficulty:7
ApproachRate:8.2
SliderMultiplier:2.5
SliderTickRate:1

[Events]
//Background and Video events
Video,-200,"banana.mp4"
0,0,"BG.jpg",0,0
//Break Periods
//Storyboard Layer 0 (Background)
//Storyboard Layer 1 (Fail)
//Storyboard Layer 2 (Pass)
//Storyboard Layer 3 (Foreground)
//Storyboard Layer 4 (Overlay)
//Storyboard Sound Samples

[TimingPoints]
502,845.070422535211,4,2,1,40,1,0
502,-166.666666666667,4,2,1,40,0,0
1347,800,4,2,1,40,1,0
1347,-166.666666666667,4,2,1,40,0,0
1747,769.230769230769,4,2,1,40,1,0
1747,-166.666666666667,4,2,1,40,0,0
2900,750,4,2,1,40,1,0
2900,-166.666666666667,4,2,1,40,0,0
3275,882.352941176471,4,2,1,40,1,0
3275,-166.666666666667,4,2,1,40,0,0
4598,833.333333333333,4,2,1,40,1,0
4598,-166.666666666667,4,2,1,40,0,0
5431,857.142857142857,4,2,1,40,1,0
5431,-166.666666666667,4,2,1,40,0,0
8859,821.917808219178,4,2,1,40,1,0
8859,-166.666666666667,4,2,1,40,0,0
11324,845.070422535211,4,2,1,40,1,0
11324,-166.666666666667,4,2,1,40,0,0
12169,909.090909090909,4,2,1,40,1,0
12169,-166.666666666667,4,2,1,40,0,0
12623,1666.66666666667,4,2,1,40,1,0
13039,895.522388059701,4,2,1,40,1,0
13039,-166.666666666667,4,2,1,40,0,0
13486,869.565217391304,4,2,1,40,1,0
13920,882.352941176471,4,2,1,50,1,0
13920,-142.857142857143,4,2,1,50,0,0
15684,659.340659340659,4,2,1,50,1,0
16013,810.810810810811,4,2,1,50,1,0
16013,-142.857142857143,4,2,1,50,0,0
17229,800,4,2,1,50,1,0
17229,-142.857142857143,4,2,1,50,0,0
17629,689.655172413793,4,2,1,50,1,0
17629,-142.857142857143,4,2,1,50,0,0
17801,1090.90909090909,4,2,1,50,1,0
18073,869.565217391304,4,2,1,50,1,0
18073,-142.857142857143,4,2,1,50,0,0
19812,833.333333333333,4,2,1,50,1,0
19812,-142.857142857143,4,2,1,50,0,0
23145,869.565217391304,4,2,1,50,1,0
23145,-142.857142857143,4,2,1,50,0,0
24014,833.333333333333,4,2,1,50,1,0
24014,-142.857142857143,4,2,1,50,0,0
24847,869.565217391304,4,2,1,50,1,0
24847,-142.857142857143,4,2,1,50,0,0
27020,814.111261872456,4,2,1,50,1,0
27020,-142.857142857143,4,2,1,50,0,0
29462,689.655172413793,4,2,1,60,1,0
29462,-100,4,2,1,60,0,0
40495,-100,4,2,1,50,0,0
40841,-117.647058823529,4,2,2,50,0,0
62565,-142.857142857143,4,2,1,40,0,0
65324,-74.0740740740741,4,2,1,75,0,1
87393,-74.0740740740741,4,2,1,75,0,0
87436,-74.0740740740741,4,2,1,5,0,0

[Colours]
Combo1 : 215,215,166
Combo2 : 139,170,186
Combo3 : 61,99,118
Combo4 : 126,129,56

[HitObjects]
9,362,502,6,0,P|41:348|86:361,2,74.9999977111817,2|2|2,0:0|0:0|0:0,0:0:0:0:
226,250,1747,2,0,P|155:230|96:284,1,149.999995422363,2|2,0:0|0:0,0:0:0:0:
166,384,2900,2,0,P|168:341|171:306,1,74.9999977111817,2|2,0:3|0:0,0:0:0:0:
42,189,3716,6,0,P|24:147|40:116,1,74.9999977111817,2|2,0:3|0:0,0:0:0:0:
73,50,4377,1,2,0:0:0:0:
73,50,4598,2,0,P|68:26|65:7,2,37.4999988555909,2|2|2,0:3|0:0|0:0,0:0:0:0:
145,94,5223,1,2,0:0:0:0:
145,94,5431,6,0,P|184:93|225:100,1,74.9999977111817,2|2,0:0|0:0,0:0:0:0:
228,11,6073,1,2,0:0:0:0:
228,11,6288,2,0,P|189:12|148:5,1,74.9999977111817,2|2,0:0|0:3,0:0:0:0:
290,166,7145,6,0,B|345:128|373:210|438:167,1,149.999995422363,2|2,0:0|0:0,0:0:0:0:
231,96,8859,2,0,P|194:144|224:231,1,149.999995422363,2|2,0:3|0:0,0:0:0:0:
344,372,10091,1,2,0:0:0:0:
344,372,10297,1,2,0:0:0:0:
280,316,10502,6,0,B|240:306|213:336|225:347|183:389|145:363,1,149.999995422363,2|2,0:3|0:0,0:0:0:0:
39,277,11746,2,0,P|60:276|87:271,1,37.4999988555909,2|2,0:0|0:3,0:0:0:0:
153,248,12169,2,0,P|155:268|157:294,2,37.4999988555909,2|2|2,0:0|0:0|0:0,0:0:0:0:
45,120,13039,2,0,P|31:86|46:53,1,74.9999977111817,2|2,0:0|0:0,0:0:0:0:
203,147,13920,6,0,P|159:154|117:162,2,87.499997329712,2|2|2,0:0|0:0|0:0,0:0:0:0:
320,50,15243,2,0,P|276:35|242:60,1,87.499997329712,2|2,0:0|0:3,0:0:0:0:
300,209,16013,2,0,P|293:165|289:122,2,87.499997329712,2|2|2,0:0|0:0|0:0,0:0:0:0:
287,347,17229,6,0,P|322:341|356:338,1,65.624997997284,2|0,0:0|0:0,0:0:0:0:
360,343,17629,2,0,P|390:347|419:350,1,43.749998664856,2|2,0:0|0:0,0:0:0:0:
511,275,18073,2,0,P|469:258|437:283,1,87.499997329712,2|2,0:0|0:0,0:0:0:0:
438,280,18725,1,2,0:0:0:0:
373,234,18942,1,2,0:3:0:0:
492,47,19377,2,0,P|488:72|487:103,1,43.749998664856,2|2,0:0|0:0,0:0:0:0:
444,161,19812,2,0,P|481:163|511:171,2,58.3333315531413,2|2|2,0:0|0:0|0:0,0:0:0:0:
380,109,20645,6,0,P|320:156|242:132,1,153.124995326996,2|0,0:0|0:0,0:0:0:0:
245,132,21478,2,0,P|216:138|189:146,1,43.749998664856,2|0,0:0|0:0,0:0:0:0:
140,182,21895,1,2,0:0:0:0:
3,42,22312,2,0,P|75:37|154:62,1,153.124995326996,2|0,0:3|0:0,0:0:0:0:
160,65,23145,2,0,P|191:62|219:58,1,43.749998664856,2|0,0:0|0:0,0:0:0:0:
264,14,23579,1,2,0:0:0:0:
69,115,24014,6,0,P|29:171|70:271,1,174.999994659424,2|2,0:3|0:3,0:0:0:0:
115,328,25064,2,0,P|111:361|110:386,2,43.749998664856,2|2|2,0:0|0:0|0:0,0:0:0:0:
182,262,25716,2,0,P|226:280|269:258,1,87.499997329712,2|2,0:0|0:0,0:0:0:0:
295,334,26368,2,0,P|332:304|335:256,1,87.499997329712,2|2,0:0|0:0,0:0:0:0:
301,196,27020,1,2,0:0:0:0:
256,192,27087,12,0,29258,0:0:0:0:
461,25,29462,5,6,3:2:0:0:
456,30,29519,2,0,P|413:22|376:40,1,83.3333333333333,2|0,0:0|0:0,0:0:0:0:
374,45,29806,2,0,P|377:90|381:139,1,83.3333333333333,2|2,0:0|0:3,0:0:0:0:
438,188,30151,2,0,P|435:233|431:282,1,83.3333333333333,10|0,0:0|0:0,0:0:0:0:
512,239,30496,1,2,0:0:0:0:
294,149,30726,1,0,3:0:0:0:
287,162,30841,6,0,P|256:187|208:174,1,83.3333333333333,2|0,3:2|0:0,0:0:0:0:
154,136,31186,2,0,P|154:84|147:52,1,83.3333333333333,0|2,3:0|0:3,0:0:0:0:
199,1,31530,1,10,0:0:0:0:
380,128,31875,1,2,0:0:0:0:
270,286,32220,5,6,3:2:0:0:
262,287,32278,2,0,P|221:289|177:295,1,83.3333333333333,2|0,0:0|0:0,0:0:0:0:
171,295,32565,2,0,P|131:313|115:355,1,83.3333333333333,2|2,0:0|0:3,0:0:0:0:
43,322,32910,2,0,P|47:278|19:243,1,83.3333333333333,10|0,0:0|0:0,0:0:0:0:
112,231,33255,1,2,0:0:0:0:
24,132,33484,1,0,3:0:0:0:
11,123,33599,6,0,P|-4:81|19:46,1,83.3333333333333,2|0,3:2|0:0,0:0:0:0:
119,47,33944,2,0,P|134:88|110:123,1,83.3333333333333,0|2,3:0|0:3,0:0:0:0:
189,177,34289,2,0,P|217:142|259:146,1,83.3333333333333,10|0,0:0|0:0,0:0:0:0:
266,51,34634,2,0,P|221:43|203:5,1,83.3333333333333,2|0,0:0|0:0,0:0:0:0:
344,108,34979,5,6,3:2:0:0:
343,116,35036,2,0,P|343:158|336:211,1,83.3333333333333,2|0,0:0|0:0,0:0:0:0:
339,207,35324,2,0,P|372:236|418:223,1,83.3333333333333,2|2,0:0|0:3,0:0:0:0:
503,132,35668,2,0,P|470:161|423:148,1,83.3333333333333,10|0,0:0|0:0,0:0:0:0:
444,68,36013,1,2,0:0:0:0:
512,247,36243,1,0,3:0:0:0:
502,257,36358,6,0,P|481:289|499:334,1,83.3333333333333,2|0,3:2|0:0,0:0:0:0:
430,363,36703,2,0,P|378:365|339:379,1,83.3333333333333,0|2,3:0|0:3,0:0:0:0:
292,325,37048,1,10,0:0:0:0:
116,376,37393,1,2,0:0:0:0:
17,193,37737,5,6,3:2:0:0:
23,189,37795,2,0,P|63:186|112:209,1,83.3333333333333,2|0,0:0|0:0,0:0:0:0:
110,204,38082,2,0,P|105:159|99:113,1,83.3333333333333,2|2,0:0|0:3,0:0:0:0:
213,144,38427,2,0,P|208:189|202:235,1,83.3333333333333,10|0,0:0|0:0,0:0:0:0:
143,285,38772,1,2,0:0:0:0:
163,61,39002,2,0,P|164:47|166:33,1,20.8333333333333,0|2,3:0|0:0,0:0:0:0:
161,71,39117,6,0,P|206:51|280:90,1,125,2|2,3:2|3:2,0:0:0:0:
433,6,39634,1,8,0:0:0:0:
505,188,39806,1,10,0:0:0:0:
311,161,39979,1,8,0:3:0:0:
487,96,40151,1,4,0:3:0:0:
414,186,40324,1,0,3:0:0:0:
373,79,40496,5,2,0:0:0:0:
256,223,40841,6,0,P|224:218|194:216,1,53.125001013279,2|2,0:0|3:2,0:0:0:0:
127,321,41186,2,0,P|132:289|134:259,1,53.125001013279,10|2,0:0|0:0,0:0:0:0:
22,200,41530,2,0,P|54:205|84:207,1,53.125001013279,2|2,0:0|0:0,0:0:0:0:
152,106,41875,6,0,P|147:138|145:168,2,53.125001013279,2|2|2,3:2|0:0|3:2,0:0:0:0:
103,21,42393,2,0,P|151:24|218:28,1,106.250002026558,2|2,0:0|0:0,0:0:0:0:
277,85,42910,2,0,P|301:81|333:78,1,53.125001013279,2|2,0:0|0:0,0:0:0:0:
470,15,43255,6,0,P|427:53|428:105,1,106.250002026558,2|2,3:2|0:0,0:0:0:0:
502,214,43772,2,0,P|493:188|467:164,1,53.125001013279,2|8,3:2|0:0,0:0:0:0:
333,181,44117,2,0,P|357:185|387:171,1,53.125001013279,2|0,0:0|0:0,0:0:0:0:
277,85,44462,1,2,0:0:0:0:
226,146,44634,6,0,P|238:205|246:261,1,106.250002026558,0|0,3:0|3:0,0:0:0:0:
381,379,45151,1,2,0:0:0:0:
437,317,45324,2,0,P|468:324|493:332,1,53.125001013279,10|0,0:0|0:0,0:0:0:0:
377,259,45668,2,0,P|346:266|321:274,1,53.125001013279,2|0,0:0|0:0,0:0:0:0:
206,361,46013,5,2,3:2:0:0:
206,361,46186,2,0,P|175:354|150:346,1,53.125001013279,2|2,0:0|0:0,0:0:0:0:
8,308,46530,2,0,P|66:294|113:279,1,106.250002026558,2|2,3:2|0:0,0:0:0:0:
241,206,47048,5,2,0:0:0:0:
208,286,47220,1,2,0:0:0:0:
52,219,47393,5,2,3:2:0:0:
15,150,47565,1,2,0:0:0:0:
67,88,47737,2,0,P|99:93|124:99,1,53.125001013279,2|0,3:2|0:0,0:0:0:0:
203,0,48082,2,0,P|196:30|192:57,1,53.125001013279,10|0,0:0|0:0,0:0:0:0:
158,216,48427,2,0,P|165:186|169:159,1,53.125001013279,2|0,0:0|0:0,0:0:0:0:
355,143,48772,6,0,P|295:133|248:122,1,106.250002026558,2|2,3:2|0:0,0:0:0:0:
346,11,49289,1,0,3:0:0:0:
406,65,49462,2,0,P|457:52|510:45,1,106.250002026558,10|2,0:0|0:0,0:0:0:0:
478,188,49979,6,0,P|472:158|466:123,1,53.125001013279,2|0,0:0|3:0,0:0:0:0:
402,286,50324,2,0,P|408:256|414:221,1,53.125001013279,2|0,0:0|3:0,0:0:0:0:
506,376,50668,2,0,P|500:346|494:311,1,53.125001013279,2|8,0:0|0:0,0:0:0:0:
329,327,51013,2,0,P|286:326|219:345,1,106.250002026558,2|0,0:0|0:0,0:0:0:0:
156,380,51530,1,2,0:3:0:0:
288,247,51875,6,0,P|284:211|277:185,1,53.125001013279,2|2,0:0|3:2,0:0:0:0:
349,125,52220,2,0,P|355:64|367:21,1,106.250002026558,10|2,0:0|0:0,0:0:0:0:
422,207,52737,6,0,P|387:204|362:201,1,53.125001013279,2|0,0:0|3:0,0:0:0:0:
265,112,53082,1,2,0:0:0:0:
265,112,53255,2,0,P|230:115|205:118,1,53.125001013279,2|0,3:2|0:0,0:0:0:0:
132,199,53599,1,10,0:0:0:0:
132,199,53772,2,0,P|64:185|18:177,1,106.250002026558,2|2,0:0|0:0,0:0:0:0:
111,11,54289,6,0,P|124:62|131:127,1,106.250002026558,2|2,3:2|0:0,0:0:0:0:
244,189,54806,2,0,P|237:214|234:247,1,53.125001013279,2|8,3:2|0:0,0:0:0:0:
21,364,55151,1,2,0:0:0:0:
0,287,55324,1,2,0:0:0:0:
98,341,55496,6,0,P|158:347|209:354,1,106.250002026558,2|0,0:0|0:0,0:0:0:0:
269,306,56013,1,0,3:0:0:0:
507,381,56358,5,8,0:0:0:0:
440,329,56530,2,0,P|442:299|445:272,2,53.125001013279,2|2|2,0:0|0:0|0:0,0:0:0:0:
512,220,57048,6,0,P|510:190|507:163,1,53.125001013279,2|2,3:2|0:0,0:0:0:0:
394,121,57393,2,0,P|424:119|451:116,1,53.125001013279,2|0,0:0|3:0,0:0:0:0:
493,3,57737,2,0,P|495:33|498:60,1,53.125001013279,10|0,0:0|0:0,0:0:0:0:
427,200,58082,5,2,0:0:0:0:
370,258,58255,1,2,0:0:0:0:
291,98,58427,5,2,3:2:0:0:
322,178,58599,2,0,P|261:172|204:169,1,106.250002026558,2|2,0:0|0:0,0:0:0:0:
88,30,59117,1,10,0:0:0:0:
57,110,59289,2,0,P|118:104|175:101,1,106.250002026558,2|2,0:0|0:0,0:0:0:0:
15,222,59806,6,0,P|4:194|9:170,1,53.125001013279,2|0,3:2|0:0,0:0:0:0:
50,317,60151,2,0,P|20:312|1:296,1,53.125001013279,2|0,3:2|0:0,0:0:0:0:
149,334,60496,2,0,P|130:357|106:365,1,53.125001013279,10|0,0:0|0:0,0:0:0:0:
213,256,60841,2,0,P|224:283|219:307,1,53.125001013279,2|0,0:0|0:0,0:0:0:0:
138,189,61186,6,0,P|142:161|149:125,1,53.125001013279,2|0,3:2|0:0,0:0:0:0:
274,181,61530,2,0,P|246:177|210:170,1,53.125001013279,2|0,3:2|0:0,0:0:0:0:
266,45,61875,2,0,P|262:73|255:109,1,53.125001013279,10|0,0:0|0:0,0:0:0:0:
130,53,62220,2,0,P|158:57|194:64,1,53.125001013279,2|0,0:0|0:0,0:0:0:0:
357,29,62565,6,0,B|386:86|425:98|476:96|507:108|530:74|537:47|539:12|528:2|467:-35|405:-44|397:-7|434:120|394:169|401:244|445:247|512:279|551:187|495:156,1,612.499981307984,2|0,0:0|0:0,0:0:0:0:
252,228,65324,6,0,P|200:203|148:222,1,112.500000429153,4|0,3:1|0:0,0:0:0:0:
136,371,65668,2,0,P|183:338|193:283,1,112.500000429153,2|0,0:0|0:0,0:0:0:0:
69,202,66013,2,0,P|73:259|115:295,1,112.500000429153,10|0,0:0|0:0,0:0:0:0:
151,220,66358,1,2,0:0:0:0:
0,128,66588,1,0,3:0:0:0:
52,61,66703,6,0,P|100:68|185:75,1,112.500000429153,0|0,3:0|0:0,0:0:0:0:
234,14,67048,2,0,P|282:7|367:0,1,112.500000429153,2|0,3:2|0:0,0:0:0:0:
357,104,67393,2,0,P|309:111|224:118,1,112.500000429153,8|0,0:0|0:0,0:0:0:0:
419,42,67737,2,0,P|477:32|492:101,1,140.625000536442,2|0,0:0|0:0,0:0:0:0:
489,105,68082,6,0,P|495:159|501:229,1,112.500000429153,4|0,3:2|0:0,0:0:0:0:
508,301,68427,1,2,0:0:0:0:
401,203,68599,2,0,P|354:201|325:233,1,84.3750003218651,2|8,0:0|0:0,0:0:0:0:
376,373,68944,2,0,P|401:333|388:292,1,84.3750003218651,2|0,0:0|0:0,0:0:0:0:
229,228,69289,2,0,P|231:214|234:195,1,28.1250001072884,2|0,0:0|3:0,0:0:0:0:
245,117,69462,1,0,3:0:0:0:
165,370,69806,5,2,3:2:0:0:
317,319,69979,1,2,0:0:0:0:
119,258,70151,2,0,P|67:265|3:281,1,112.500000429153,10|0,0:0|0:0,0:0:0:0:
29,198,70496,1,2,0:0:0:0:
265,384,70726,1,2,0:0:0:0:
317,319,70841,6,0,P|366:321|485:353,1,168.75000064373,4|2,3:2|0:3,0:0:0:0:
379,125,71530,2,0,P|347:160|364:222,1,112.500000429153,10|0,0:0|0:0,0:0:0:0:
459,236,71875,2,0,P|491:201|474:139,1,112.500000429153,2|0,0:0|3:0,0:0:0:0:
458,35,72220,6,0,P|400:40|291:64,1,168.75000064373,0|0,3:0|3:0,0:0:0:0:
25,115,72910,2,0,P|10:166|44:209,1,112.500000429153,10|0,0:0|0:0,0:0:0:0:
142,187,73255,2,0,P|157:136|124:94,1,112.500000429153,2|0,0:0|0:0,0:0:0:0:
5,0,73600,6,0,P|63:5|172:27,1,168.75000064373,4|2,3:2|0:3,0:0:0:0:
115,346,74289,2,0,P|109:308|103:248,1,84.3750003218651,8|2,0:0|0:3,0:0:0:0:
243,383,74634,1,2,0:0:0:0:
104,262,74864,1,0,3:0:0:0:
142,187,74979,6,0,P|198:192|255:201,1,112.500000429153,2|0,3:2|0:0,0:0:0:0:
267,110,75324,2,0,P|211:105|154:96,1,112.500000429153,2|0,3:2|0:0,0:0:0:0:
335,57,75668,6,0,P|382:38|438:79,1,112.500000429153,8|0,0:0|0:0,0:0:0:0:
416,260,76013,2,0,P|369:279|313:238,1,112.500000429153,2|0,0:0|0:0,0:0:0:0:
155,96,76358,6,0,P|102:81|82:132,1,112.500000429153,4|0,3:1|0:0,0:0:0:0:
0,211,76703,2,0,P|53:196|73:247,1,112.500000429153,2|0,0:0|0:0,0:0:0:0:
190,305,77048,2,0,P|137:290|117:341,1,112.500000429153,10|0,0:0|0:0,0:0:0:0:
48,384,77393,1,2,0:0:0:0:
215,181,77622,1,0,3:0:0:0:
288,221,77737,6,0,P|337:212|412:204,1,112.500000429153,0|0,3:0|0:0,0:0:0:0:
452,135,78082,2,0,P|443:86|435:11,1,112.500000429153,2|0,3:2|0:0,0:0:0:0:
348,21,78427,2,0,P|357:70|365:145,1,112.500000429153,10|0,0:0|0:0,0:0:0:0:
483,213,78772,2,0,P|533:261|500:337,1,140.625000536442,2|0,0:0|0:0,0:0:0:0:
511,331,79117,6,0,P|456:329|393:337,1,112.500000429153,6|0,3:2|0:0,0:0:0:0:
330,384,79462,1,2,0:0:0:0:
409,247,79634,1,2,0:0:0:0:
238,320,79806,2,0,P|181:316|123:304,1,112.500000429153,10|0,0:0|0:0,0:0:0:0:
47,329,80151,2,0,P|29:362|37:389,1,56.2500002145767,2|0,0:0|0:0,0:0:0:0:
84,223,80381,1,2,3:2:0:0:
18,172,80496,1,0,3:0:0:0:
112,379,80841,5,2,3:2:0:0:
231,246,81013,1,2,0:0:0:0:
108,115,81186,2,0,P|94:73|101:50,1,56.2500002145767,10|0,0:0|0:0,0:0:0:0:
225,103,81416,2,0,P|195:136|172:141,1,56.2500002145767,2|2,0:0|0:3,0:0:0:0:
157,8,81645,2,0,P|200:16|216:34,1,56.2500002145767,2|0,0:0|0:0,0:0:0:0:
292,172,81875,6,0,P|375:176|473:190,1,168.75000064373,6|2,3:2|0:3,0:0:0:0:
132,347,82565,2,0,P|72:359|10:389,1,112.500000429153,10|0,0:0|0:0,0:0:0:0:
0,291,82910,2,0,P|60:279|122:249,1,112.500000429153,2|0,0:0|3:0,0:0:0:0:
197,281,83255,6,0,P|239:330|334:298,1,168.75000064373,0|0,3:0|3:0,0:0:0:0:
406,56,83944,2,0,P|457:78|512:88,1,112.500000429153,10|0,0:0|0:0,0:0:0:0:
487,177,84289,2,0,P|435:154|380:144,1,112.500000429153,2|0,0:0|0:0,0:0:0:0:
292,63,84634,6,0,P|234:6|156:28,1,168.75000064373,4|2,3:2|0:3,0:0:0:0:
119,303,85324,2,0,P|108:260|91:219,1,84.3750003218651,8|2,0:0|0:0,0:0:0:0:
213,89,85668,2,0,P|197:128|187:169,1,84.3750003218651,2|2,0:0|0:0,0:0:0:0:
22,150,86013,6,0,P|61:147|127:135,1,84.3750003218651,2|0,3:2|0:0,0:0:0:0:
199,340,86358,1,2,3:2:0:0:
285,258,86530,2,0,P|246:255|180:243,1,84.3750003218651,2|8,0:0|0:0,0:0:0:0:
128,58,86875,1,2,0:0:0:0:
284,161,87048,2,0,P|351:173|463:167,1,168.75000064373,2|0,0:0|0:0,0:0:0:0:
