osu file format v14

[General]
AudioFilename: audio.mp3
AudioLeadIn: 0
PreviewTime: 125832
Countdown: 0
SampleSet: Soft
StackLeniency: 0.4
Mode: 0
LetterboxInBreaks: 0
EpilepsyWarning: 1
WidescreenStoryboard: 1

[Editor]
Bookmarks: 41004,65832,87901,98935,121004,126521,148590,170659,192728
DistanceSpacing: 1.3
BeatDivisor: 2
GridSize: 16
TimelineZoom: 1.5

[Metadata]
Title:Prayer X
TitleUnicode:Prayer X
Artist:King Gnu
ArtistUnicode:King Gnu
Creator:KaedeharaKazuha
Version:Necho's Epinephrine
Source:BANANA FISH
Tags:Addy2607 Kaedehara Kazuha Ametrin Necho Reincaration Atlust Suzuki_1112 Otosaka-Yu Kyouren gokugohan12468 KittyAdventure first 1st ED Ending 1 one japanese pop jpop j-pop jrock j-rock rock anime Sympa PERIMETRON 常田大希 勢喜遊 新井和輝 井口理 Daiki Tsuneta Yu Seki Kazuki Arai Satoru Iguchi Ash Lynx Aslan Jade Callenreese 奥村英二 Okumura Eiji Shounen Shonen Shōnen Ai 少年愛 Boys Boys' Love BL バナナフィッシュ
BeatmapID:4463454
BeatmapSetID:2123851

[Difficulty]
HPDrainRate:5
CircleSize:4
OverallDifficulty:7
ApproachRate:9
SliderMultiplier:1.6
SliderTickRate:1

[Events]
//Background and Video events
0,0,"BG.jpg",0,0
//Break Periods
//Storyboard Layer 0 (Background)
//Storyboard Layer 1 (Fail)
//Storyboard Layer 2 (Pass)
//Storyboard Layer 3 (Foreground)
Sprite,Foreground,TopLeft,"SB\mapped by.png",0,156 S,0,0,,0.45 F,0,35487,37487,0,1 C,0,35487,41004,90,90,90 F,0,39004,41004,1,0
Sprite,Foreground,TopLeft,"SB\reincarnation.png",115,175 S,0,0,,0.45 F,0,35487,37487,0,1 C,0,35487,41004,90,90,90 F,0,39004,41004,1,0
//Storyboard Layer 4 (Overlay)
//Storyboard Sound Samples

[TimingPoints]
1010,845.070422535211,4,2,1,40,1,0
1855,800,4,2,1,40,1,0
2255,769.230769230769,4,2,1,40,1,0
3408,750,4,2,1,40,1,0
3783,882.352941176471,4,2,1,40,1,0
5106,833.333333333333,4,2,1,40,1,0
5939,857.142857142857,4,2,1,40,1,0
9367,821.917808219178,4,2,1,40,1,0
11832,845.070422535211,4,2,1,40,1,0
12677,909.090909090909,4,2,1,40,1,0
13131,1666.66666666667,4,2,1,40,1,0
13547,895.522388059701,4,2,1,40,1,0
13994,869.565217391304,4,2,1,40,1,0
14428,882.352941176471,4,2,1,40,1,0
16192,659.340659340659,4,2,1,40,1,0
16521,810.810810810811,4,2,1,40,1,0
17737,800,4,2,1,40,1,0
18137,689.655172413793,4,2,1,40,1,0
18309,1090.90909090909,4,2,1,40,1,0
18581,869.565217391304,4,2,1,40,1,0
20320,833.333333333333,4,2,1,40,1,0
23653,869.565217391304,4,2,1,40,1,0
24522,833.333333333333,4,2,1,40,1,0
25355,869.565217391304,4,2,1,40,1,0
27528,814.111261872456,4,2,1,40,1,0
29766,-100,4,2,1,50,0,0
29970,689.655172413793,4,2,1,60,1,0
36176,-33.3333333333333,4,2,1,60,0,0
36521,-100,4,2,1,60,0,0
38935,-33.3333333333333,4,2,1,60,0,0
39280,-100,4,2,1,60,0,0
41004,-100,4,2,1,50,0,0
63073,-200,4,2,1,50,0,0
65832,-66.6666666666667,4,2,1,70,0,1
87901,-66.6666666666667,4,2,1,60,0,0
88590,-33.3333333333333,4,2,1,60,0,0
88935,-66.6666666666667,4,2,1,60,0,0
91349,-33.3333333333333,4,2,1,60,0,0
91694,-66.6666666666667,4,2,1,60,0,0
94107,-33.3333333333333,4,2,1,60,0,0
94452,-66.6666666666667,4,2,1,60,0,0
96866,-33.3333333333333,4,2,1,60,0,0
97211,-66.6666666666667,4,2,1,60,0,0
98935,-66.6666666666667,4,2,1,50,0,0
100314,-100,4,2,1,50,0,0
121004,-200,4,2,1,50,0,0
125832,-100,4,2,1,60,0,0
126521,-66.6666666666667,4,2,1,70,0,1
148590,-100,4,2,1,70,0,0
151694,-66.6666666666667,4,2,1,70,0,1
170659,-50,4,2,1,60,0,0
171349,-33.3333333333333,4,2,1,60,0,0
171694,-50,4,2,1,60,0,0
174107,-33.3333333333333,4,2,1,60,0,0
174452,-50,4,2,1,60,0,0
176866,-33.3333333333333,4,2,1,60,0,0
177556,-50,4,2,1,60,0,0
179625,-33.3333333333333,4,2,1,60,0,0
180314,-50,4,2,1,60,0,0
182383,-33.3333333333333,4,2,1,60,0,0
183073,-50,4,2,1,60,0,0
185142,-33.3333333333333,4,2,1,60,0,0
185487,-50,4,2,1,60,0,0
187901,-33.3333333333333,4,2,1,60,0,0
188245,-50,4,2,1,60,0,0
190659,-33.3333333333333,4,2,1,60,0,0
191004,-50,4,2,1,60,0,0

[Colours]
Combo1 : 103,103,75
Combo2 : 219,219,183

[HitObjects]
256,192,27528,12,0,29766,2:2:0:0:
103,230,29970,6,0,P|79:227|63:220,1,26.6666666666667,4|0,2:2|0:0,0:0:0:0:
159,303,30314,2,0,P|165:335|161:380,1,53.3333333333333,0|0,2:2|2:2,0:0:0:0:
133,150,30659,2,0,P|127:118|131:73,1,53.3333333333333,8|0,2:2|3:3,0:0:0:0:
89,258,31004,2,0,P|65:280|24:299,1,53.3333333333333,0|0,3:3|3:3,0:0:0:0:
210,176,31349,2,0,P|234:154|275:135,1,53.3333333333333,0|0,3:3|2:2,0:0:0:0:
325,188,31694,1,0,3:3:0:0:
490,372,32038,6,0,P|473:325|471:300,1,53.3333333333333,8|0,2:2|2:2,0:0:0:0:
402,164,32383,2,0,P|408:132|412:117,2,26.6666666666667,0|0|0,3:3|0:0|2:2,0:0:0:0:
355,233,32728,6,0,P|329:196|321:173,1,53.3333333333333,4|0,2:2|2:2,0:0:0:0:
394,0,33073,2,0,P|374:41|359:59,1,53.3333333333333,0|0,2:2|2:2,0:0:0:0:
173,85,33418,2,0,P|218:80|241:85,1,53.3333333333333,8|0,2:2|3:3,0:0:0:0:
114,145,33763,2,0,P|80:147|63:144,1,26.6666666666667,0|0,3:3|0:0,0:0:0:0:
247,213,33992,1,0,3:3:0:0:
257,229,34107,2,0,P|277:272|283:296,1,53.3333333333333,0|0,3:3|2:2,0:0:0:0:
234,340,34452,5,0,3:3:0:0:
244,330,34538,1,0,0:0:0:0:
256,323,34625,1,0,0:0:0:0:
274,317,34711,1,0,0:0:0:0:
296,316,34797,1,8,2:2:0:0:
323,323,34883,1,0,2:2:0:0:
350,335,34970,1,0,2:2:0:0:
374,353,35056,1,0,2:2:0:0:
413,375,35142,6,0,P|427:378|446:382,2,26.6666666666667,0|0|0,2:2|0:0|0:0,0:0:0:0:
464,197,35487,6,0,P|477:249|484:265,1,53.3333333333333,4|0,2:2|2:2,0:0:0:0:
338,380,35832,2,0,P|325:328|318:312,1,53.3333333333333,0|0,2:2|2:2,0:0:0:0:
365,183,36176,6,0,P|383:270|307:324,1,160.000006103516,8|0,2:2|3:3,0:0:0:0:
280,237,36521,6,0,P|315:242|327:249,1,26.6666666666667,0|0,3:3|0:0,0:0:0:0:
162,321,36751,1,0,3:3:0:0:
142,327,36866,2,0,P|98:335|79:335,1,53.3333333333333,0|0,3:3|2:2,0:0:0:0:
30,276,37211,1,0,3:3:0:0:
142,116,37556,6,0,P|130:72|126:49,1,53.3333333333333,8|0,2:2|2:2,0:0:0:0:
351,71,37901,2,0,P|364:35|369:25,2,26.6666666666667,0|0|0,3:3|0:0|2:2,0:0:0:0:
460,166,38245,6,0,P|419:130|401:118,1,53.3333333333333,4|0,2:2|2:2,0:0:0:0:
257,188,38590,2,0,P|225:177|191:172,1,53.3333333333333,0|0,2:2|2:2,0:0:0:0:
21,292,38935,6,0,P|103:298|152:216,1,160.000006103516,8|0,2:2|3:3,0:0:0:0:
73,194,39280,6,0,P|68:216|70:242,1,26.6666666666667,0|0,3:3|0:0,0:0:0:0:
197,96,39510,1,0,3:3:0:0:
212,87,39625,2,0,P|239:75|283:67,1,53.3333333333333,0|0,3:3|2:2,0:0:0:0:
283,142,39970,5,0,3:3:0:0:
294,148,40056,1,0,0:0:0:0:
307,160,40142,1,8,2:2:0:0:
320,179,40228,1,0,0:0:0:0:
339,200,40314,1,0,3:3:0:0:
365,217,40401,1,0,2:2:0:0:
398,228,40487,1,0,2:2:0:0:
443,234,40573,1,0,2:2:0:0:
493,224,40659,6,0,P|505:216|517:198,2,26.6666666666667,0|0|0,3:3|0:0|0:0,0:0:0:0:
133,335,41004,6,0,P|90:327|80:326,1,40,0|0,2:2|0:0,0:0:0:0:
1,286,41349,2,0,P|26:279|44:269,1,40,0|0,2:2|3:3,0:0:0:0:
87,126,41694,2,0,P|81:169|79:223,1,80,8|0,2:2|2:2,0:0:0:0:
249,358,42211,1,0,2:2:0:0:
401,142,42383,2,0,P|399:82|392:51,2,80,0|0|8,3:3|3:3|2:2,0:0:0:0:
108,338,43763,6,0,P|149:320|189:312,1,80,0|0,3:3|2:2,0:0:0:0:
249,358,44280,1,0,3:3:0:0:
127,238,44452,2,0,P|141:190|144:147,1,80,8|0,2:2|2:2,0:0:0:0:
421,42,45142,2,0,P|425:93|436:135,1,80,0|0,3:3|3:3,0:0:0:0:
490,180,45659,1,0,2:2:0:0:
377,309,45832,2,0,P|310:302|293:283,1,80,8|0,2:2|2:2,0:0:0:0:
306,156,46521,6,0,P|317:189|319:201,1,40,0|0,3:3|2:2,0:0:0:0:
71,345,47038,1,0,3:3:0:0:
23,285,47211,2,0,P|34:236|47:197,1,80,8|0,2:2|2:2,0:0:0:0:
117,176,47728,1,0,2:2:0:0:
318,305,47901,2,0,P|325:336|326:352,2,40,0|0|0,3:3|2:2|3:3,0:0:0:0:
181,118,48590,2,0,P|186:70|197:36,1,80,8|0,2:2|2:2,0:0:0:0:
436,227,49280,6,0,P|448:272|454:313,1,80,0|0,3:3|2:2,0:0:0:0:
401,365,49797,1,0,3:3:0:0:
281,221,49969,2,0,P|247:206|229:202,1,40,8|0,2:2|0:0,0:0:0:0:
216,197,50314,1,0,2:2:0:0:
162,255,50487,1,0,2:2:0:0:
60,147,50659,2,0,P|69:106|85:68,1,80,0|0,3:3|3:3,0:0:0:0:
158,47,51176,1,0,2:2:0:0:
320,232,51349,6,0,P|390:247|453:251,1,120,8|0,2:2|2:2,0:0:0:0:
283,164,52038,6,0,P|245:170|194:185,1,80,0|0,2:2|2:2,0:0:0:0:
159,246,52556,1,0,3:3:0:0:
368,170,52728,6,0,P|380:119|385:78,1,80,8|0,2:2|2:2,0:0:0:0:
328,38,53245,1,0,2:2:0:0:
320,232,53418,2,0,P|335:263|350:281,1,40,0|0,3:3|2:2,0:0:0:0:
363,291,53763,1,0,3:3:0:0:
258,76,54107,2,0,P|253:109|253:132,1,53.3333333333333,8|0,2:2|0:0,0:0:0:0:
158,334,54625,1,0,2:2:0:0:
85,356,54797,6,0,P|78:307|75:266,1,80,0|0,3:3|2:2,0:0:0:0:
130,218,55314,1,0,3:3:0:0:
296,185,55487,2,0,P|302:140|304:103,1,80,8|0,2:2|2:2,0:0:0:0:
249,49,56004,1,0,2:2:0:0:
259,283,56176,6,0,P|314:264|344:259,1,80,0|0,3:3|3:3,0:0:0:0:
407,296,56694,1,0,2:2:0:0:
216,213,56866,1,8,2:2:0:0:
137,197,57038,2,0,P|127:165|124:142,2,40,0|0|0,2:2|2:2|2:2,0:0:0:0:
335,260,57556,6,0,P|329:296|322:313,1,40,0|0,3:3|2:2,0:0:0:0:
259,338,57901,1,0,2:2:0:0:
381,364,58073,1,0,3:0:0:0:
321,162,58245,2,0,P|325:221|332:251,1,80,8|0,2:2|2:2,0:0:0:0:
410,264,58763,1,0,2:2:0:0:
370,51,58935,6,0,P|366:81|367:105,1,40,0|0,3:3|2:2,0:0:0:0:
425,144,59280,1,0,3:0:0:0:
298,17,59452,2,0,P|271:5|250:0,2,40,0|8|0,2:2|2:2|2:2,0:0:0:0:
68,102,60142,5,0,2:2:0:0:
13,204,60314,2,0,P|62:187|106:176,1,80,0|0,3:3|3:3,0:0:0:0:
425,110,61004,2,0,P|437:80|446:26,1,80,8|0,2:2|2:2,0:0:0:0:
178,241,61694,6,0,P|185:284|199:315,1,60,0|0,3:3|0:0,0:0:0:0:
267,312,62038,2,0,P|275:341|286:364,1,40,0|0,3:3|2:2,0:0:0:0:
325,254,62383,1,8,2:2:0:0:
40,51,62728,1,0,2:2:0:0:
325,254,63073,6,0,P|316:317|173:310,1,240,0|0,2:2|0:0,0:0:0:0:
459,134,65832,6,0,P|473:68|480:5,1,120.000004577637,4|0,2:2|2:2,0:0:0:0:
391,169,66349,1,0,0:0:0:0:
313,176,66521,2,0,P|250:121|233:97,1,80.0000030517579,8|0,2:2|2:2,0:0:0:0:
310,73,66866,2,0,P|320:47|325:30,2,40.000001525879,0|0|0,2:2|0:0|3:3,0:0:0:0:
184,172,67211,6,0,P|116:156|83:153,1,80.0000030517579,0|0,3:3|2:2,0:0:0:0:
95,160,67556,1,0,3:3:0:0:
374,259,67901,2,0,P|416:239|472:227,1,80.0000030517579,8|0,2:2|2:2,0:0:0:0:
367,338,68245,2,0,P|323:330|293:318,1,60.0000022888184,0|0,2:2|0:0,0:0:0:0:
97,70,68590,6,0,P|94:122|83:170,1,80.0000030517579,4|0,2:2|2:2,0:0:0:0:
55,233,68935,2,0,P|68:277|80:299,1,60.0000022888184,0|0,2:2|0:0,0:0:0:0:
355,147,69280,1,8,2:2:0:0:
304,208,69452,2,0,P|346:189|377:182,1,60.0000022888185
440,209,69855,1,0,3:3:0:0:
440,209,69969,6,0,P|449:157|453:106,1,80.0000030517579,0|0,3:3|0:0,0:0:0:0:
462,109,70314,1,0,3:3:0:0:
248,16,70487,1,0,3:3:0:0:
75,165,70659,2,0,P|62:114|52:45,1,120.000004577637,8|0,2:2|3:3,0:0:0:0:
146,230,71234,1,0,2:2:0:0:
146,230,71349,6,0,P|198:205|278:191,1,120.000004577637,4|0,2:2|2:2,0:0:0:0:
333,229,71866,1,0,0:0:0:0:
75,165,72038,2,0,P|63:241|61:294,1,120.000004577637,8|0,2:2|2:2,0:0:0:0:
129,322,72556,1,0,0:0:0:0:
330,150,72728,2,0,P|288:112|223:118,1,120.000004577637,0|0,3:3|3:3,0:0:0:0:
475,14,73418,6,0,P|486:55|497:122,1,80.0000030517579,8|0,2:2|2:2,0:0:0:0:
413,97,73763,2,0,P|376:132|383:176,1,80.0000030517579,0|0,3:3|3:3,0:0:0:0:
498,238,74107,6,0,P|462:217|426:209,1,60.0000022888184,4|0,2:2|0:0,0:0:0:0:
227,38,74452,2,0,P|214:68|208:121,1,60.0000022888184,0|0,2:2|0:0,0:0:0:0:
135,214,74797,6,0,P|176:188|251:175,1,120.000004577637,8|0,2:2|2:2,0:0:0:0:
313,237,75372,1,0,3:3:0:0:
313,237,75487,6,0,P|287:167|283:103,1,120.000004577637,0|0,3:3|3:3,0:0:0:0:
487,252,76176,2,0,P|484:299|469:355,1,80.0000030517579,8|0,2:2|2:2,0:0:0:0:
392,328,76521,2,0,P|395:281|410:225,1,80.0000030517579,8|0,2:2|2:2,0:0:0:0:
278,301,76866,6,0,P|208:295|146:275,1,120.000004577637,4|0,2:2|2:2,0:0:0:0:
17,43,77556,2,0,P|33:96|46:162,1,120.000004577637,8|0,2:2|3:3,0:0:0:0:
16,234,78073,1,0,0:0:0:0:
118,68,78245,2,0,P|178:51|230:43,1,80.0000030517579,0|0,3:3|2:2,0:0:0:0:
281,74,78590,6,0,P|277:116|259:168,1,80.0000030517579,0|0,3:3|2:2,0:0:0:0:
411,252,78935,2,0,P|376:227|340:185,1,80.0000030517579,8|0,2:2|2:2,0:0:0:0:
191,275,79280,2,0,P|229:257|283:247,1,80.0000030517579,0|0,3:3|2:2,0:0:0:0:
152,350,79625,6,0,P|73:334|16:329,1,120.000004577637,4|0,2:2|2:2,0:0:0:0:
63,257,80142,1,0,0:0:0:0:
246,369,80314,2,0,P|227:278|224:247,1,120.000004577637,8|0,2:2|2:2,0:0:0:0:
352,102,80889,1,0,3:3:0:0:
352,102,81004,6,0,P|390:82|475:64,1,120.000004577637,0|0,3:3|3:3,0:0:0:0:
511,0,81521,1,0,3:3:0:0:
320,172,81694,2,0,P|279:140|278:80,2,80.0000030517579,8|0|0,2:2|2:2|2:2,0:0:0:0:
502,207,82383,6,0,P|492:250|479:273,1,60.0000022888184,4|0,2:2|0:0,0:0:0:0:
226,272,82728,2,0,P|253:254|295:236,1,60.0000022888184,0|0,2:2|0:0,0:0:0:0:
121,360,83073,2,0,P|79:344|-3:327,1,120.000004577637,8|0,2:2|2:2,0:0:0:0:
79,247,83648,1,0,3:3:0:0:
79,247,83763,6,0,P|61:180|60:117,1,120.000004577637,0|0,3:3|3:3,0:0:0:0:
476,232,84452,2,0,P|468:310|457:353,1,120.000004577637,8|0,2:2|2:2,0:0:0:0:
117,98,85142,6,0,P|158:87|180:85,1,60.0000022888184,4|0,2:2|0:0,0:0:0:0:
426,130,85487,2,0,P|435:90|437:52,1,60.0000022888184,0|0,2:2|0:0,0:0:0:0:
293,277,85832,1,8,2:2:0:0:
382,362,86004,6,0,P|371:324|368:298,2,60.0000022888184,0|0|0,0:0|2:2|0:0,0:0:0:0:
459,336,86521,2,0,P|468:257|485:199,1,120.000004577637,0|0,3:3|3:3,0:0:0:0:
331,184,87038,2,0,P|368:143|431:162,1,120.000004577637
315,259,87556,5,8,2:2:0:0:
299,267,87642,1,0,0:0:0:0:
272,275,87728,1,0,0:0:0:0:
226,275,87814,1,0,0:0:0:0:
171,264,87901,6,0,P|154:261|126:242,1,40.000001525879,4|0,2:2|0:0,0:0:0:0:
35,353,88245,2,0,P|53:306|61:262,1,80.0000030517579,0|0,2:2|3:3,0:0:0:0:
24,69,88590,6,0,P|8:117|112:184,1,160.000006103516,8|0,2:2|3:3,0:0:0:0:
85,115,88935,6,0,P|128:102|185:107,1,80.0000030517579,0|0,3:3|2:2,0:0:0:0:
184,110,89280,1,0,3:3:0:0:
477,306,89740,2,0,P|470:290|470:261,1,40.000001525879,0|0,0:0|2:2,0:0:0:0:
469,268,89969,6,0,P|463:347|452:376,1,80.0000030517579,8|0,2:2|2:2,0:0:0:0:
395,237,90314,2,0,P|354:221|361:161,1,80.0000030517579,0|0,2:2|2:2,0:0:0:0:
403,131,90659,6,0,P|433:143|452:154,1,40.000001525879,4|0,2:2|0:0,0:0:0:0:
357,62,91004,2,0,P|315:49|265:48,1,80.0000030517579,0|0,2:2|2:2,0:0:0:0:
249,195,91349,6,0,P|215:107|142:40,1,160.000006103516,8|0,2:2|3:3,0:0:0:0:
85,81,91694,6,0,P|73:150|76:182,1,80.0000030517579,0|0,3:3|3:3,0:0:0:0:
19,226,92038,5,0,3:3:0:0:
29,236,92124,1,0,0:0:0:0:
41,243,92211,1,0,0:0:0:0:
59,249,92297,1,0,0:0:0:0:
81,250,92383,1,0,3:3:0:0:
108,243,92469,1,0,0:0:0:0:
135,231,92556,1,0,0:0:0:0:
159,213,92642,1,0,0:0:0:0:
198,191,92728,6,0,P|212:184|248:180,2,30.0000011444092,8|0|0,2:2|2:2|2:2,0:0:0:0:
492,88,93073,2,0,P|482:37|478:-15,1,80.0000030517579,8|0,2:2|0:0,0:0:0:0:
440,151,93418,6,0,P|429:185|418:199,1,40.000001525879,4|0,2:2|0:0,0:0:0:0:
279,234,93763,2,0,P|320:206|367:190,1,80.0000030517579,0|0,2:2|2:2,0:0:0:0:
512,303,94107,6,0,P|427:330|371:244,1,160.000006103516,8|0,2:2|3:3,0:0:0:0:
450,254,94452,6,0,P|436:195|433:161,1,80.0000030517579,0|0,3:3|3:3,0:0:0:0:
440,151,94797,1,0,3:3:0:0:
200,73,95142,2,0,P|208:49|217:31,2,40.000001525879,0|0|0,3:3|0:0|2:2,0:0:0:0:
266,120,95487,2,0,P|315:101|358:95,1,80.0000030517579,8|0,2:2|2:2,0:0:0:0:
478,72,95832,2,0,P|432:66|411:20,1,80.0000030517579,0|0,2:2|2:2,0:0:0:0:
440,151,96176,6,0,P|450:173|463:211,1,40.000001525879,4|0,2:2|0:0,0:0:0:0:
250,238,96521,2,0,P|261:295|289:341,1,80.0000030517579,0|0,2:2|2:2,0:0:0:0:
246,156,96866,6,0,P|194:99|90:143,1,160.000006103516,8|0,2:2|3:3,0:0:0:0:
93,221,97211,2,0,P|148:197|172:162,1,80.0000030517579,0|0,3:3|2:2,0:0:0:0:
23,180,97556,1,8,2:2:0:0:
16,197,97642,1,8,2:2:0:0:
211,287,97900,1,8,2:2:0:0:
224,306,97986,1,0,0:0:0:0:
243,327,98072,1,0,3:3:0:0:
269,344,98159,1,0,3:3:0:0:
302,355,98245,1,8,2:2:0:0:
347,361,98331,1,0,2:2:0:0:
397,351,98417,1,0,2:2:0:0:
442,320,98504,1,0,2:2:0:0:
480,270,98590,6,0,P|493:245|495:226,2,40.000001525879,8|0|0,2:2|0:0|0:0,0:0:0:0:
412,220,98935,6,0,P|352:219|317:162,1,120.000004577637,4|0,2:2|0:0,0:0:0:0:
49,74,100314,6,0,P|92:64|144:58,1,80,0|0,3:3|0:0,0:0:0:0:
397,189,101004,2,0,P|354:179|302:173,1,80,0|0,3:3|0:0,0:0:0:0:
251,216,101521,1,0,2:2:0:0:
467,144,101694,6,0,P|478:73|478:49,1,80,0|0,3:3|2:2,0:0:0:0:
416,20,102211,1,0,3:3:0:0:
251,216,102383,2,0,P|240:145|240:121,1,80,8|0,2:2|2:2,0:0:0:0:
496,246,103073,6,0,P|493:293|486:336,1,80,0|0,3:3|3:3,0:0:0:0:
422,370,103590,1,0,2:2:0:0:
251,216,103763,2,0,P|213:208|157:203,1,80,8|0,2:2|3:3,0:0:0:0:
30,68,104452,6,0,P|26:37|25:22,1,40,0|0,3:3|2:2,0:0:0:0:
111,22,104797,2,0,P|115:53|116:68,1,40,0|0,2:2|3:3,0:0:0:0:
98,234,105142,1,8,2:2:0:0:
57,306,105314,2,0,P|67:266|75:213,1,80,0|0,2:2|2:2,0:0:0:0:
268,280,105832,6,0,P|289:300|298:317,2,40,0|0|0,3:3|2:2|3:3,0:0:0:0:
122,108,106521,1,8,2:2:0:0:
199,134,106694,2,0,P|223:133|251:124,1,40,0|0,2:2|3:3,0:0:0:0:
302,78,107038,1,0,2:2:0:0:
375,317,107211,2,0,P|378:275|387:225,1,80,0|0,3:3|0:0,0:0:0:0:
199,134,107728,5,0,3:3:0:0:
122,108,107901,2,0,P|95:63|84:27,1,80,8|0,2:2|2:2,0:0:0:0:
201,217,108590,2,0,P|195:266|183:307,1,80,0|0,3:3|3:3,0:0:0:0:
334,88,109280,2,0,P|381:73|406:69,1,53.3333333333333,8|0,2:2|0:0,0:0:0:0:
475,83,109625,2,0,P|469:60|465:34,1,40,0|0,3:3|0:0,0:0:0:0:
201,217,109969,6,0,P|140:201|122:199,1,80,0|0,3:3|2:2,0:0:0:0:
59,245,110487,1,0,3:3:0:0:
279,193,110659,2,0,P|309:182|323:174,1,40,8|0,2:2|2:2,0:0:0:0:
502,358,111176,5,0,2:2:0:0:
466,285,111349,2,0,P|467:253|470:239,2,40,0|0|0,3:3|2:2|3:3,0:0:0:0:
285,233,111866,2,0,P|244:241|203:254,1,80,0|0,2:2|2:2,0:0:0:0:
364,260,112383,2,0,P|382:287|390:302,1,40,0|0,3:3|2:2,0:0:0:0:
147,193,112728,6,0,P|151:160|158:141,1,40,0|0,3:3|0:0,0:0:0:0:
213,102,113073,1,0,2:2:0:0:
207,252,113245,2,0,P|235:223|255:212,1,40,0|8,3:3|2:2,0:0:0:0:
230,328,113590,2,0,P|259:340|273:344,1,40,0|0,2:2|3:3,0:0:0:0:
404,141,113935,1,0,2:2:0:0:
326,111,114107,6,0,P|321:89|318:64,1,40,0|0,3:3|2:2,0:0:0:0:
375,270,114452,1,0,3:3:0:0:
438,222,114625,2,0,P|465:200|495:159,1,80,0|0,2:2|2:2,0:0:0:0:
375,270,115142,2,0,P|369:299|369:318,1,40,0|0,3:3|2:2,0:0:0:0:
250,144,115487,6,0,P|225:136|211:134,1,40,0|0,3:3|2:2,0:0:0:0:
368,309,115832,2,0,P|393:317|407:319,1,40,0|0,2:2|3:3,0:0:0:0:
333,133,116176,5,8,2:2:0:0:
395,82,116349,2,0,P|402:53|404:36,2,40,0|0|0,2:2|3:3|2:2,0:0:0:0:
263,281,116866,2,0,P|296:268|311:256,1,40,0|0,3:3|2:2,0:0:0:0:
357,210,117211,1,0,3:3:0:0:
183,304,117383,2,0,P|127:293|87:290,1,80,0|0,2:2|2:2,0:0:0:0:
357,210,117901,2,0,P|369:244|372:259,1,40,0|0,3:3|2:2,0:0:0:0:
148,103,118245,6,0,P|110:77|94:68,1,53.3333333333333,0|0,3:3|0:0,0:0:0:0:
144,181,118590,2,0,P|154:205|158:220,1,40,0|0,2:2|3:3,0:0:0:0:
329,78,118935,2,0,P|375:64|414:57,1,80,8|0,2:2|3:3,0:0:0:0:
480,83,119452,1,0,2:2:0:0:
157,218,119625,6,0,P|123:204|69:189,1,80,0|0,3:3|3:3,0:0:0:0:
13,227,120142,1,0,2:2:0:0:
251,97,120314,2,0,P|297:83|336:76,1,80,8|0,2:2|2:2,0:0:0:0:
462,300,121004,6,0,P|408:342|412:236,1,240,0|0,2:2|0:0,0:0:0:0:
256,192,123533,12,0,125717,0:0:0:0:
186,178,125832,6,0,P|180:219|179:265,1,80,0|0,3:3|3:3,0:0:0:0:
304,101,126521,6,0,P|352:80|429:67,1,120.000004577637,4|0,2:2|2:2,0:0:0:0:
491,94,127038,1,0,0:0:0:0:
225,107,127211,2,0,P|202:71|173:-1,1,120.000004577637,8|0,2:2|2:2,0:0:0:0:
272,172,127728,1,0,0:0:0:0:
387,263,127901,2,0,P|408:216|435:131,1,120.000004577637,0|0,3:3|3:3,0:0:0:0:
202,210,128590,2,0,P|213:263|229:301,1,80.0000030517579,8|0,2:2|2:2,0:0:0:0:
381,297,128935,2,0,P|342:320|291:333,1,80.0000030517579,0|0,3:3|2:2,0:0:0:0:
272,172,129280,6,0,P|327:147|406:126,1,120.000004577637,4|0,2:2|2:2,0:0:0:0:
455,165,129797,1,0,0:0:0:0:
200,130,129969,2,0,P|181:92|173:60,1,60.0000022888184,8|0,2:2|0:0,0:0:0:0:
203,367,130314,1,0,3:3:0:0:
128,347,130544,1,0,3:3:0:0:
122,349,130659,6,0,P|103:248|95:217,1,120.000004577637,0|0,3:3|3:3,0:0:0:0:
34,188,131176,1,0,3:3:0:0:
305,100,131349,2,0,P|318:50|326:-4,2,90.0000034332277,8|0|0,2:2|0:0|0:0,0:0:0:0:
188,274,132038,6,0,P|209:301|232:319,1,60.0000022888184,4|0,2:2|0:0,0:0:0:0:
460,178,132383,2,0,P|423:189|399:202,1,60.0000022888184,0|0,2:2|0:0,0:0:0:0:
299,362,132728,2,0,P|349:341|413:323,1,120.000004577637,8|0,2:2|2:2,0:0:0:0:
332,137,133303,1,0,3:3:0:0:
332,137,133418,2,0,P|308:200|298:258,1,120.000004577637,0|0,3:3|3:3,0:0:0:0:
408,113,133935,1,0,2:2:0:0:
182,56,134107,6,0,P|117:38|108:36,1,40.000001525879,8|0,2:2|2:2,0:0:0:0:
38,124,134337,2,0,P|46:65|50:54,1,40.000001525879,0|0,2:2|3:3,0:0:0:0:
115,176,134567,2,0,P|119:198|128:224,1,40.000001525879,0|0,2:2|2:2,0:0:0:0:
125,215,134797,6,0,P|190:182|199:180,1,60.0000022888184,4|0,2:2|0:0,0:0:0:0:
82,365,135142,2,0,P|46:351|20:335,1,60.0000022888184,0|0,2:2|0:0,0:0:0:0:
250,213,135487,2,0,P|274:145|284:85,1,120.000004577637,8|0,2:2|3:3,0:0:0:0:
409,323,136061,1,0,3:3:0:0:
409,323,136176,2,0,P|340:293|295:279,1,120.000004577637,0|0,3:3|3:3,0:0:0:0:
10,214,136866,2,0,P|77:190|104:172,1,80.0000030517579,8|0,2:2|2:2,0:0:0:0:
68,26,137211,2,0,P|50:77|41:129,1,80.0000030517579,0|0,3:3|3:3,0:0:0:0:
170,186,137556,6,0,P|240:200|298:202,1,120.000004577637,4|0,2:2|2:2,0:0:0:0:
512,0,138245,2,0,P|453:6|391:23,1,120.000004577637,8|0,2:2|2:2,0:0:0:0:
286,290,138763,1,0,0:0:0:0:
355,343,138935,2,0,P|364:279|365:241,1,80.0000030517579,0|0,3:3|2:2,0:0:0:0:
230,123,139280,2,0,P|246:191|300:198,1,120.000004577637,0|8,3:3|2:2,0:0:0:0:
149,26,139969,2,0,P|109:39|91:50,1,60.0000022888184,0|0,3:3|0:0,0:0:0:0:
0,255,140314,6,0,P|77:280|144:287,1,120.000004577637,4|0,2:2|2:2,0:0:0:0:
184,249,140832,1,0,0:0:0:0:
374,380,141004,2,0,P|399:358|420:331,1,60.0000022888184,8|0,2:2|0:0,0:0:0:0:
276,162,141349,2,0,P|283:189|295:216,1,40.000001525879,0|0,3:3|2:2,0:0:0:0:
292,204,141579,1,0,3:3:0:0:
297,207,141694,6,0,P|325:126|337:75,1,120.000004577637,0|0,3:3|3:3,0:0:0:0:
288,30,142211,1,0,2:2:0:0:
129,258,142383,2,0,P|108:195|101:159,2,80.0000030517579,8|0|0,2:2|2:2|2:2,0:0:0:0:
137,264,143073,2,0,P|224:301|260:308,1,120.000004577637,4|0,2:2|2:2,0:0:0:0:
325,280,143590,1,0,0:0:0:0:
330,86,143763,6,0,P|420:68|457:59,1,120.000004577637,8|0,2:2|2:2,0:0:0:0:
94,175,144337,1,0,3:3:0:0:
94,175,144452,2,0,P|66:209|35:282,1,120.000004577637,0|0,3:3|3:3,0:0:0:0:
201,25,145142,6,0,P|230:66|263:140,1,120.000004577637,8|0,2:2|3:3,0:0:0:0:
446,351,145832,6,0,P|462:315|468:285,1,60.0000022888184,4|0,2:2|0:0,0:0:0:0:
307,190,146349,2,0,P|357:175|383:164,1,60.0000022888184,0|8,0:0|2:2,0:0:0:0:
106,335,146694,6,0,P|139:264|157:203,1,120.000004577637
189,46,147211,2,0,P|141:61|118:74,1,60.0000022888184,8|0,2:2|0:0,0:0:0:0:
364,172,147556,2,0,P|412:157|435:144,1,60.0000022888184,8|0,2:2|0:0,0:0:0:0:
202,319,147901,5,8,2:2:0:0:
220,331,147987,1,0,0:0:0:0:
244,337,148073,1,0,0:0:0:0:
273,338,148159,1,0,0:0:0:0:
306,334,148245,1,8,2:2:0:0:
345,318,148332,1,0,0:0:0:0:
379,278,148418,2,0,P|390:260|396:237,1,30.0000011444092
364,172,148590,6,0,P|344:103|333:44,1,120,4|0,2:2|0:0,0:0:0:0:
325,244,149280,2,0,P|345:313|356:372,1,120,4|0,2:2|0:0,0:0:0:0:
181,133,149969,6,0,P|161:64|150:5,1,120,4|0,2:2|0:0,0:0:0:0:
142,205,150659,1,8,2:2:0:0:
142,205,150832,2,0,P|162:274|168:306,1,80
169,307,151349,1,4,2:2:0:0:
263,150,151694,6,0,P|311:167|338:187,1,60.0000022888184,0|0,2:2|0:0,0:0:0:0:
101,352,152038,1,8,2:2:0:0:
249,326,152211,2,0,P|259:273|263:228,1,90.0000034332277
185,198,152613,1,0,3:3:0:0:
180,194,152728,2,0,P|139:170|63:135,1,120.000004577637,0|0,3:3|3:3,0:0:0:0:
5,172,153245,1,0,2:2:0:0:
241,72,153418,2,0,P|298:65|365:43,1,120.000004577637,8|0,2:2|3:3,0:0:0:0:
486,198,153992,1,0,2:2:0:0:
486,198,154107,6,0,P|399:165|354:157,1,120.000004577637,4|0,2:2|2:2,0:0:0:0:
103,344,154797,6,0,P|132:292|155:232,1,120.000004577637,8|0,2:2|2:2,0:0:0:0:
469,316,155372,1,0,3:3:0:0:
469,316,155487,2,0,P|484:235|487:179,1,120.000004577637,0|0,3:3|3:3,0:0:0:0:
56,28,156176,6,0,P|69:96|99:167,1,120.000004577637,8|0,2:2|3:3,0:0:0:0:
485,295,156751,1,0,2:2:0:0:
485,295,156866,2,0,P|496:198|497:103,1,180.000006866455,4|0,2:2|0:0,0:0:0:0:
492,33,157556,1,8,2:2:0:0:
104,267,157901,2,0,P|93:226|92:212,1,40.000001525879,0|0,2:2|2:2,0:0:0:0:
98,231,158130,1,0,3:3:0:0:
102,234,158245,2,0,P|200:269|234:274,1,120.000004577637,0|0,3:3|3:3,0:0:0:0:
415,110,158935,2,0,P|333:80|305:76,1,80.0000030517579,8|0,2:2|2:2,0:0:0:0:
218,189,159280,2,0,P|233:144|259:101,1,80.0000030517579,0|0,3:3|2:2,0:0:0:0:
290,232,159625,6,0,P|310:302|320:366,1,120.000004577637,4|0,2:2|2:2,0:0:0:0:
478,166,160314,2,0,P|492:120|507:45,1,120.000004577637,8|0,2:2|2:2,0:0:0:0:
290,232,160889,5,0,3:3:0:0:
290,232,161004,2,0,P|264:171|251:123,1,80.0000030517579,0|0,3:3|2:2,0:0:0:0:
349,16,161349,6,0,P|334:67|310:113,1,80.0000030517579,0|0,3:3|2:2,0:0:0:0:
190,102,161694,2,0,P|124:76|94:92,1,80.0000030517579,8|0,2:2|2:2,0:0:0:0:
47,126,162038,2,0,P|34:175|41:199,1,60.0000022888184,0|0,3:3|0:0,0:0:0:0:
267,344,162383,6,0,P|363:324|408:318,1,120.000004577637,4|0,2:2|2:2,0:0:0:0:
459,350,162901,1,0,0:0:0:0:
273,169,163073,2,0,P|293:96|309:53,1,120.000004577637,8|0,2:2|2:2,0:0:0:0:
359,232,163648,1,0,3:3:0:0:
359,232,163763,2,0,P|406:209|486:186,1,120.000004577637,0|0,3:3|3:3,0:0:0:0:
503,119,164280,1,0,2:2:0:0:
308,54,164452,6,0,P|234:40|208:41,2,80.0000030517579,8|0|0,2:2|2:2|2:2,0:0:0:0:
275,244,165142,2,0,P|298:334|315:376,1,120.000004577637,4|0,2:2|3:3,0:0:0:0:
384,370,165659,1,0,0:0:0:0:
117,196,165832,2,0,P|128:140|152:79,1,120.000004577637,8|0,2:2|2:2,0:0:0:0:
14,284,166406,1,0,3:3:0:0:
14,284,166521,2,0,P|49:352|99:342,1,120.000004577637,4|0,2:2|3:3,0:0:0:0:
465,182,167211,6,0,P|394:148|344:135,1,120.000004577637,8|0,2:2|2:2,0:0:0:0:
165,358,167786,1,0,2:2:0:0:
165,358,167901,2,0,P|218:355|243:349,1,60.0000022888184,4|0,2:2|0:0,0:0:0:0:
299,78,168245,2,0,P|273:122|280:153,1,60.0000022888184,0|0,2:2|0:0,0:0:0:0:
315,196,168590,1,8,2:2:0:0:
149,20,168820,1,0,3:3:0:0:
149,20,168935,2,0,P|113:34|44:43,1,80.0000030517579,8|0,2:2|3:3,0:0:0:0:
62,43,169280,6,0,P|125:62|144:72,1,80.0000030517579,8|0,2:2|3:3,0:0:0:0:
329,231,169625,2,0,P|374:219|396:209,1,40.000001525879,8|0,2:2|2:2,0:0:0:0:
373,215,169855,1,0,3:3:0:0:
377,211,169969,2,0,P|364:168|348:133,1,60.0000022888184,8|0,2:2|0:0,0:0:0:0:
207,361,170314,2,0,P|230:310|244:262,1,80.0000030517579,8|8,2:2|2:2,0:0:0:0:
236,270,170659,5,4,2:2:0:0:
157,58,171004,6,0,P|69:35|9:29,1,106.666666666667,0|0,2:2|2:2,0:0:0:0:
208,125,171349,2,0,P|299:139|350:35,1,160.000006103516,8|0,2:2|3:3,0:0:0:0:
123,131,171694,2,0,P|98:180|99:259,1,106.666666666667,0|0,3:3|3:3,0:0:0:0:
104,251,172038,1,0,3:3:0:0:
413,128,172383,2,0,P|450:118|475:116,2,53.3333333333333,0|0|0,3:3|0:0|2:2,0:0:0:0:
217,360,172728,2,0,P|182:288|177:280,2,53.3333333333333,8|0|0,2:2|0:0|2:2,0:0:0:0:
18,168,173073,2,0,P|43:103|57:76,2,53.3333333333333,0|0|0,3:3|0:0|3:3,0:0:0:0:
264,263,173418,6,0,P|309:278|328:295,1,53.3333333333333,4|0,2:2|0:0,0:0:0:0:
106,285,173763,2,0,P|138:221|204:216,1,106.666666666667,0|0,3:3|2:2,0:0:0:0:
313,281,174107,2,0,P|253:234|286:133,1,160.000006103516,8|0,2:2|3:3,0:0:0:0:
390,255,174452,2,0,P|385:327|328:359,1,106.666666666667,0|0,3:3|3:3,0:0:0:0:
346,356,174797,1,0,3:3:0:0:
242,129,174969,5,0,0:0:0:0:
232,119,175055,1,0,0:0:0:0:
220,112,175142,1,0,3:3:0:0:
202,106,175228,1,0,0:0:0:0:
180,105,175314,1,0,0:0:0:0:
153,112,175400,1,0,0:0:0:0:
126,124,175487,1,8,2:2:0:0:
93,150,175573,6,0,P|79:153|46:164,2,40,0|0|0,2:2|2:2|2:2,0:0:0:0:
148,82,175832,2,0,P|162:79|195:68,2,40,8|0|0,2:2|2:2|2:2,0:0:0:0:
13,280,176176,6,0,P|64:331|117:310,1,106.666666666667,4|0,2:2|2:2,0:0:0:0:
267,219,176521,2,0,P|211:232|141:260,1,106.666666666667,0|0,2:2|2:2,0:0:0:0:
333,277,176866,2,0,P|466:313|520:324,1,160.000006103516,8|0,2:2|3:3,0:0:0:0:
500,313,177211,1,0,3:3:0:0:
237,145,177441,5,0,3:3:0:0:
237,145,177556,2,0,P|216:78|206:0,1,106.666666666667,0|0,3:3|2:2,0:0:0:0:
267,219,177901,2,0,P|260:249|247:271,2,53.3333333333333,0|0|0,3:3|0:0|2:2,0:0:0:0:
93,361,178245,6,0,P|77:339|68:305,2,53.3333333333333,8|0|0,2:2|0:0|2:2,0:0:0:0:
208,28,178590,2,0,P|241:37|265:49,2,53.3333333333333,0|0|0,3:3|0:0|2:2,0:0:0:0:
0,122,178935,1,4,2:2:0:0:
0,122,179050,2,0,P|63:94|90:87,1,53.3333333333333,0|0,0:0|2:2,0:0:0:0:
178,210,179280,2,0,P|166:156|155:77,1,106.666666666667,0|0,2:2|2:2,0:0:0:0:
261,233,179625,6,0,P|253:311|150:328,1,160.000006103516,8|0,2:2|3:3,0:0:0:0:
159,327,179969,1,0,3:3:0:0:
296,159,180199,1,0,3:3:0:0:
296,159,180314,6,0,P|372:127|437:119,1,106.666666666667,0|0,3:3|2:2,0:0:0:0:
474,165,180659,5,0,3:3:0:0:
456,173,180745,1,0,0:0:0:0:
429,176,180832,1,0,0:0:0:0:
392,170,180918,1,0,0:0:0:0:
364,158,181004,1,8,2:2:0:0:
325,141,181090,1,0,2:2:0:0:
278,127,181176,1,0,2:2:0:0:
226,117,181263,1,0,2:2:0:0:
171,117,181349,1,8,2:2:0:0:
108,135,181435,1,0,2:2:0:0:
48,170,181521,6,0,P|23:184|4:192,1,40,0|0,2:2|2:2,0:0:0:0:
209,36,181694,6,0,P|306:26|354:24,1,106.666666666667,4|0,2:2|2:2,0:0:0:0:
131,13,182038,2,0,P|34:23|-14:25,1,106.666666666667,0|0,2:2|2:2,0:0:0:0:
149,91,182383,2,0,P|172:199|157:306,1,160.000006103516,8|0,2:2|3:3,0:0:0:0:
162,275,182728,1,0,3:3:0:0:
457,339,182958,5,0,3:3:0:0:
457,339,183073,2,0,P|437:258|431:193,1,106.666666666667,0|0,3:3|2:2,0:0:0:0:
359,291,183418,2,0,P|333:303|304:309,2,53.3333333333333,0|0|0,3:3|0:0|2:2,0:0:0:0:
479,152,183763,2,0,P|489:102|493:16,1,106.666666666667,8|0,2:2|3:3,0:0:0:0:
298,233,184107,2,0,P|252:209|228:189,1,53.3333333333333,0|0,3:3|0:0,0:0:0:0:
365,188,184337,5,0,2:2:0:0:
365,188,184452,2,0,P|444:158|507:149,1,106.666666666667,4|0,2:2|2:2,0:0:0:0:
293,143,184797,2,0,P|293:75|308:6,1,106.666666666667,0|0,2:2|2:2,0:0:0:0:
227,195,185142,6,0,P|143:190|94:289,1,160.000006103516,8|0,2:2|3:3,0:0:0:0:
389,310,185487,2,0,P|461:320|542:327,1,106.666666666667,0|0,3:3|3:3,0:0:0:0:
438,240,185832,5,0,3:3:0:0:
408,229,185918,1,0,0:0:0:0:
384,211,186004,1,0,0:0:0:0:
363,174,186090,1,0,0:0:0:0:
355,130,186176,1,0,3:3:0:0:
328,82,186263,1,0,0:0:0:0:
287,55,186349,1,0,0:0:0:0:
235,56,186435,1,0,0:0:0:0:
188,85,186521,1,8,0:0:0:0:
158,135,186607,1,0,2:2:0:0:
122,181,186694,1,0,2:2:0:0:
69,211,186780,1,0,2:2:0:0:
10,221,186866,6,0,P|20:179|23:172,2,40,8|0|0,0:0|2:2|2:2,0:0:0:0:
320,351,187211,6,0,P|247:305|217:260,1,106.666666666667,4|0,2:2|2:2,0:0:0:0:
253,93,187556,2,0,P|215:140|200:210,1,106.666666666667,0|0,2:2|2:2,0:0:0:0:
450,188,187901,6,0,P|370:218|253:212,1,160.000006103516,8|0,2:2|3:3,0:0:0:0:
103,127,188245,2,0,P|171:183|231:205,1,106.666666666667,0|0,3:3|3:3,0:0:0:0:
198,188,188590,1,0,3:3:0:0:
482,114,188935,2,0,P|492:82|493:58,2,53.3333333333333,0|0|0,3:3|0:0|2:2,0:0:0:0:
182,342,189280,6,0,P|245:317|253:317,2,53.3333333333333,8|0|0,2:2|0:0|3:3,0:0:0:0:
436,239,189625,2,0,P|439:212|449:187,2,53.3333333333333,0|0|0,3:3|0:0|2:2,0:0:0:0:
182,342,189969,5,4,2:2:0:0:
182,342,190084,2,0,P|162:287|154:251,1,53.3333333333333,0|0,0:0|2:2,0:0:0:0:
276,117,190314,2,0,P|231:158|165:202,1,106.666666666667,0|0,2:2|2:2,0:0:0:0:
409,286,190659,6,0,P|310:273|194:233,1,160.000006103516,8|0,2:2|2:2,0:0:0:0:
105,172,191004,2,0,P|166:186|199:201,1,53.3333333333333,0|0,2:2|0:0,0:0:0:0:
26,159,191263,1,0,0:0:0:0:
26,159,191349,2,0,P|15:76|15:37,1,106.666666666667,0|0,3:3|2:2,0:0:0:0:
96,87,191694,5,0,3:3:0:0:
137,95,191780,1,0,0:0:0:0:
181,97,191866,1,0,0:0:0:0:
229,95,191952,1,0,0:0:0:0:
277,84,192038,1,8,2:2:0:0:
325,58,192125,1,0,2:2:0:0:
378,38,192211,1,0,2:2:0:0:
437,40,192297,1,0,2:2:0:0:
487,77,192383,1,8,2:2:0:0:
490,143,192469,1,0,2:2:0:0:
457,212,192556,2,0,P|450:240|448:270,1,40,0|0,2:2|2:2,0:0:0:0:
512,381,192728,5,0,2:2:0:0:
