osu file format v14

[General]
AudioFilename: audio.mp3
AudioLeadIn: 0
PreviewTime: 125832
Countdown: 0
SampleSet: Soft
StackLeniency: 0.4
Mode: 0
LetterboxInBreaks: 0
EpilepsyWarning: 1
WidescreenStoryboard: 1

[Editor]
Bookmarks: 41004,65832,87901,98935,121004,126521,148590,170659,192728
DistanceSpacing: 0.9
BeatDivisor: 12
GridSize: 8
TimelineZoom: 1.1

[Metadata]
Title:Prayer X
TitleUnicode:Prayer X
Artist:King Gnu
ArtistUnicode:King Gnu
Creator:KaedeharaKazuha
Version:Light Insane
Source:BANANA FISH
Tags:Addy2607 Kaedehara Kazuha Ametrin Necho Reincaration Atlust Suzuki_1112 Otosaka-Yu Kyouren gokugohan12468 KittyAdventure first 1st ED Ending 1 one japanese pop jpop j-pop jrock j-rock rock anime Sympa PERIMETRON 常田大希 勢喜遊 新井和輝 井口理 Daiki Tsuneta Yu Seki Kazuki Arai Satoru Iguchi Ash Lynx Aslan Jade Callenreese 奥村英二 Okumura Eiji Shounen Shonen Shōnen Ai 少年愛 Boys Boys' Love BL バナナフィッシュ
BeatmapID:4463568
BeatmapSetID:2123851

[Difficulty]
HPDrainRate:5
CircleSize:3.6
OverallDifficulty:6
ApproachRate:8.5
SliderMultiplier:2.6
SliderTickRate:1

[Events]
//Background and Video events
0,0,"BG.jpg",0,0
//Break Periods
//Storyboard Layer 0 (Background)
//Storyboard Layer 1 (Fail)
//Storyboard Layer 2 (Pass)
//Storyboard Layer 3 (Foreground)
Sprite,Foreground,TopLeft,"SB\mapped by.png",0,156 S,0,0,,0.45 F,0,35487,37487,0,1 C,0,35487,41004,90,90,90 F,0,39004,41004,1,0
Sprite,Foreground,TopLeft,"SB\kaedeharakazuha.png",115,175 S,0,0,,0.45 F,0,35487,37487,0,1 C,0,35487,41004,90,90,90 F,0,39004,41004,1,0
//Storyboard Layer 4 (Overlay)
//Storyboard Sound Samples

[TimingPoints]
1010,845.070422535211,4,2,1,40,1,0
1855,800,4,2,1,40,1,0
2255,769.230769230769,4,2,1,40,1,0
3408,750,4,2,1,40,1,0
3783,882.352941176471,4,2,1,40,1,0
5106,833.333333333333,4,2,1,40,1,0
5939,857.142857142857,4,2,1,40,1,0
9367,821.917808219178,4,2,1,40,1,0
11832,845.070422535211,4,2,1,40,1,0
12677,909.090909090909,4,2,1,40,1,0
13131,1666.66666666667,4,2,1,40,1,0
13547,895.522388059701,4,2,1,40,1,0
13994,869.565217391304,4,2,1,40,1,0
14428,882.352941176471,4,2,1,40,1,0
16192,659.340659340659,4,2,1,40,1,0
16521,810.810810810811,4,2,1,40,1,0
17737,800,4,2,1,40,1,0
18137,689.655172413793,4,2,1,40,1,0
18309,1090.90909090909,4,2,1,40,1,0
18581,869.565217391304,4,2,1,40,1,0
20320,833.333333333333,4,2,1,40,1,0
23653,869.565217391304,4,2,1,40,1,0
24522,833.333333333333,4,2,1,40,1,0
25355,869.565217391304,4,2,1,40,1,0
27528,814.111261872456,4,2,1,40,1,0
29766,-100,4,2,1,50,0,0
29970,689.655172413793,4,2,1,60,1,0
29970,-100,4,2,1,60,0,0
41004,-117.647058823529,4,2,1,50,0,0
63073,-1000,4,2,1,50,0,0
65832,-74.0740740740741,4,2,1,70,0,1
87901,-100,4,2,1,60,0,0
98935,-117.647058823529,4,2,1,50,0,0
121004,-500,4,2,1,50,0,0
125832,-117.647058823529,4,2,1,60,0,0
126521,-74.0740740740741,4,2,1,70,0,1
147901,-60.6060606060606,4,2,1,70,0,1
148590,-68.9655172413793,4,2,1,70,0,0
151349,-74.0740740740741,4,2,1,70,0,1
170659,-90.9090909090909,4,2,1,60,0,0

[Colours]
Combo1 : 103,103,75
Combo2 : 219,219,183

[HitObjects]
256,192,27528,12,0,29766,2:2:0:0:
311,2,29970,6,0,P|356:18|359:68,1,86.6666666666667,4|0,2:2|2:2,0:0:0:0:
373,198,30314,2,0,P|365:151|407:124,1,86.6666666666667,0|0,2:2|2:2,0:0:0:0:
512,46,30659,2,0,P|476:76|432:53,1,86.6666666666667,8|0,2:2|3:3,0:0:0:0:
436,59,31004,1,0,3:3:0:0:
255,130,31234,1,0,3:3:0:0:
245,135,31349,6,0,P|149:115|87:108,1,130,0|0,3:3|3:3,0:0:0:0:
0,334,32038,2,0,P|50:341|100:353,1,86.6666666666667,8|0,2:2|2:2,0:0:0:0:
107,265,32383,2,0,P|56:257|6:245,1,86.6666666666667,0|0,3:3|2:2,0:0:0:0:
181,335,32728,6,0,P|228:339|252:295,1,86.6666666666667,4|0,2:2|2:2,0:0:0:0:
319,183,33072,2,0,P|291:222|318:264,1,86.6666666666667,0|0,2:2|2:2,0:0:0:0:
380,379,33417,2,0,P|360:336|310:338,1,86.6666666666667,8|0,2:2|3:3,0:0:0:0:
318,336,33762,1,0,3:3:0:0:
186,200,33992,1,0,3:3:0:0:
178,206,34107,6,0,P|170:126|162:71,1,130,0|0,3:3|3:3,0:0:0:0:
473,12,34682,1,0,2:2:0:0:
481,19,34797,2,0,P|483:39|485:52,3,32.5,8|0|0|0,2:2|2:2|2:2|2:2,0:0:0:0:
436,140,35142,2,0,P|434:120|432:107,3,32.5,0|0|0|0,2:2|2:2|2:2|2:2,0:0:0:0:
496,199,35487,6,0,P|491:248|488:311,1,86.6666666666667,4|0,2:2|2:2,0:0:0:0:
303,373,35832,2,0,P|308:324|311:261,1,86.6666666666667,0|0,2:2|2:2,0:0:0:0:
407,216,36176,2,0,P|402:265|399:328,1,86.6666666666667,8|0,2:2|3:3,0:0:0:0:
405,309,36521,1,0,3:3:0:0:
212,343,36751,1,0,3:3:0:0:
207,350,36866,6,0,P|131:364|55:386,1,130,0|0,3:3|3:3,0:0:0:0:
109,164,37556,2,0,P|140:209|126:240,1,86.6666666666667,8|0,2:2|2:2,0:0:0:0:
40,257,37901,2,0,P|9:212|23:181,1,86.6666666666667,0|0,3:3|2:2,0:0:0:0:
0,49,38245,6,0,P|63:42|107:34,1,86.6666666666667,4|0,2:2|2:2,0:0:0:0:
198,112,38590,2,0,P|240:106|283:102,1,86.6666666666667,0|0,2:2|2:2,0:0:0:0:
333,36,38935,2,0,P|376:32|418:26,1,86.6666666666667,8|0,2:2|3:3,0:0:0:0:
429,31,39280,1,0,3:3:0:0:
506,165,39510,1,0,3:3:0:0:
512,173,39625,6,0,P|501:223|497:275,1,86.6666666666667,0|0,3:3|2:2,0:0:0:0:
502,266,39970,1,0,3:3:0:0:
380,371,40142,1,8,2:2:0:0:
255,305,40314,1,0,3:3:0:0:
244,201,40487,1,0,2:2:0:0:
318,144,40659,1,0,3:3:0:0:
386,182,40832,1,0,2:2:0:0:
382,191,41004,5,0,2:2:0:0:
382,191,41349,6,0,P|421:187|443:186,1,55.2500010538101,0|0,2:2|3:3,0:0:0:0:
498,136,41694,2,0,P|494:97|493:75,1,55.2500010538101,8|0,2:2|2:2,0:0:0:0:
433,34,42038,1,0,2:2:0:0:
285,176,42383,2,0,P|293:261|295:309,1,110.50000210762,0|0,3:3|3:3,0:0:0:0:
217,295,42901,2,0,P|213:239|206:185,1,110.50000210762,0|0,2:2|2:2,0:0:0:0:
240,114,43418,1,0,2:2:0:0:
1,7,43763,6,0,P|27:48|89:43,1,110.50000210762,0|0,3:3|2:2,0:0:0:0:
164,70,44280,2,0,P|190:29|252:34,1,110.50000210762,0|0,3:3|2:2,0:0:0:0:
449,178,44970,1,0,2:2:0:0:
449,178,45142,2,0,P|437:254|435:304,2,110.50000210762,0|0|8,3:3|3:3|2:2,0:0:0:0:
376,89,46176,1,0,2:2:0:0:
237,189,46521,5,0,3:3:0:0:
237,189,46694,2,0,P|234:216|230:243,1,55.2500010538101,0|0,2:2|2:2,0:0:0:0:
196,316,47038,2,0,P|256:322|316:331,1,110.50000210762,0|0,3:3|2:2,0:0:0:0:
361,383,47556,1,0,2:2:0:0:
505,282,47901,2,0,P|508:255|512:228,1,55.2500010538101,0|0,3:3|2:2,0:0:0:0:
451,178,48245,2,0,P|412:216|356:185,2,110.50000210762,0|8|0,3:3|2:2|2:2,0:0:0:0:
511,3,49280,6,0,P|456:13|385:18,1,110.50000210762,0|0,3:3|2:2,0:0:0:0:
353,78,49797,1,0,3:3:0:0:
353,78,49970,2,0,P|297:82|243:92,1,110.50000210762,8|0,2:2|2:2,0:0:0:0:
166,85,50487,2,0,P|125:41|154:-6,1,110.50000210762,0|0,2:2|2:2,0:0:0:0:
320,162,51176,2,0,P|361:206|332:253,1,110.50000210762,0|0,2:2|0:0,0:0:0:0:
343,246,51694,1,0,2:2:0:0:
140,361,52038,5,0,2:2:0:0:
140,361,52383,6,0,P|92:369|70:376,1,55.2500010538101,0|0,2:2|3:3,0:0:0:0:
21,332,52728,2,0,P|7:250|-4:212,1,110.50000210762,8|0,2:2|2:2,0:0:0:0:
17,43,53245,2,0,P|31:125|42:163,1,110.50000210762,0|0,2:2|2:2,0:0:0:0:
110,188,53763,1,0,3:3:0:0:
189,100,54107,1,8,2:2:0:0:
189,100,54280,1,0,2:2:0:0:
365,168,54625,1,0,2:2:0:0:
365,168,54797,6,0,P|432:157|489:152,1,110.50000210762,0|0,3:3|2:2,0:0:0:0:
458,70,55314,2,0,P|391:81|334:86,1,110.50000210762,0|0,3:3|2:2,0:0:0:0:
287,139,55832,1,0,2:2:0:0:
99,18,56176,2,0,P|50:11|12:56,2,110.50000210762,0|0|8,3:3|3:3|2:2,0:0:0:0:
162,74,57038,1,0,2:2:0:0:
162,74,57211,1,0,2:2:0:0:
12,209,57556,6,0,P|21:255|22:270,1,55.2500010538101,0|0,3:3|2:2,0:0:0:0:
100,246,57901,2,0,P|91:200|90:185,1,55.2500010538101,0|0,2:2|3:0,0:0:0:0:
38,136,58245,1,8,2:2:0:0:
2,376,58590,1,0,2:2:0:0:
2,376,58763,1,0,2:2:0:0:
66,330,58935,1,0,3:3:0:0:
66,330,59107,2,0,P|136:338|194:352,1,110.50000210762,0|0,2:2|2:2,0:0:0:0:
254,366,59625,1,8,2:2:0:0:
254,366,59797,2,0,P|262:296|276:238,1,110.50000210762,0|0,2:2|2:2,0:0:0:0:
180,185,60314,6,0,P|175:147|168:116,1,55.2500010538101,0|0,3:3|0:0,0:0:0:0:
252,115,60659,2,0,P|256:152|263:183,1,55.2500010538101,0|0,3:3|2:2,0:0:0:0:
199,59,61004,1,8,2:2:0:0:
328,206,61349,1,0,2:2:0:0:
504,133,61694,6,0,P|508:95|515:64,1,55.2500010538101,0|0,3:3|2:2,0:0:0:0:
432,63,62039,2,0,P|427:100|420:131,1,55.2500010538101,0|0,3:3|2:2,0:0:0:0:
483,7,62384,1,8,2:2:0:0:
335,128,62728,1,0,2:2:0:0:
67,13,63073,6,0,L|78:110,1,97.5,0|0,2:2|2:2,0:0:0:0:
75,124,65832,6,0,P|132:115|205:110,1,117.00000044632,4|0,2:2|2:2,0:0:0:0:
238,45,66176,2,0,P|296:40|354:31,1,117.00000044632,0|0,2:2|2:2,0:0:0:0:
419,72,66521,1,8,2:2:0:0:
326,194,66866,1,0,2:2:0:0:
504,336,67096,1,0,3:3:0:0:
499,345,67211,2,0,P|409:351|321:365,2,175.500000669479,0|0|8,3:3|3:3|2:2,0:0:0:0:
263,137,68245,2,0,P|226:197|260:241,1,117.00000044632,0|0,2:2|2:2,0:0:0:0:
321,286,68590,6,0,P|240:272|131:265,1,175.500000669479,4|0,2:2|2:2,0:0:0:0:
5,193,69107,2,0,P|-21:159|54:62,2,175.500000669479
64,257,69970,1,0,3:3:0:0:
333,116,70314,1,0,3:3:0:0:
333,116,70487,1,0,3:3:0:0:
282,41,70659,2,0,P|194:34|108:20,1,175.500000669479,8|0,2:2|3:3,0:0:0:0:
0,305,71234,1,0,2:2:0:0:
9,312,71349,6,0,P|96:318|182:332,1,175.500000669479,4|0,2:2|2:2,0:0:0:0:
469,271,72038,2,0,P|508:311|486:368,1,117.00000044632,8|0,2:2|2:2,0:0:0:0:
408,381,72383,2,0,P|369:341|391:284,1,117.00000044632,0|0,2:2|3:3,0:0:0:0:
512,185,72728,2,0,P|425:179|339:165,1,175.500000669479,0|0,3:3|3:3,0:0:0:0:
55,186,73418,2,0,P|16:226|38:283,1,117.00000044632,8|0,2:2|2:2,0:0:0:0:
116,296,73763,2,0,P|155:256|133:199,1,117.00000044632,0|0,3:3|3:3,0:0:0:0:
0,69,74108,6,0,P|87:63|173:49,2,175.500000669479,4|0|8,2:2|2:2|2:2,0:0:0:0:
233,235,75142,1,0,2:2:0:0:
335,138,75372,1,0,3:3:0:0:
342,130,75487,2,0,P|335:62|328:8,1,117.00000044632,0|0,3:3|2:2,0:0:0:0:
415,0,75832,2,0,P|422:68|429:122,1,117.00000044632,0|0,3:3|2:2,0:0:0:0:
408,305,76176,2,0,P|401:237|394:183,1,117.00000044632,8|0,2:2|2:2,0:0:0:0:
481,175,76521,2,0,P|488:243|495:297,1,117.00000044632,8|0,2:2|2:2,0:0:0:0:
326,363,76866,6,0,P|298:320|229:332,1,117.00000044632,4|0,2:2|2:2,0:0:0:0:
162,315,77211,2,0,P|134:358|65:346,1,117.00000044632,0|0,2:2|2:2,0:0:0:0:
19,301,77556,1,8,2:2:0:0:
195,150,77901,1,0,3:3:0:0:
43,32,78130,1,0,3:3:0:0:
38,41,78245,2,0,P|53:113|71:229,2,175.500000669479,0|0|8,3:3|3:3|2:2,0:0:0:0:
300,27,79280,2,0,P|309:85|320:143,1,117.00000044632,0|0,3:3|2:2,0:0:0:0:
436,209,79625,6,0,P|502:249|478:340,1,175.500000669479,4|0,2:2|2:2,0:0:0:0:
411,384,80142,1,0,0:0:0:0:
246,323,80314,2,0,P|150:337|58:360,1,175.500000669479,8|0,2:2|2:2,0:0:0:0:
4,287,80889,1,0,3:3:0:0:
0,275,81004,1,0,3:3:0:0:
232,87,81349,1,0,3:3:0:0:
175,32,81521,1,0,3:3:0:0:
117,85,81694,2,0,P|53:70|-10:60,2,117.00000044632,8|0|0,2:2|2:2|2:2,0:0:0:0:
316,8,82383,6,0,P|413:31|512:46,1,175.500000669479,4|0,2:2|2:2,0:0:0:0:
493,357,83073,2,0,P|426:341|358:330,1,117.00000044632,8|0,2:2|2:2,0:0:0:0:
398,249,83418,2,0,P|464:264|532:275,1,117.00000044632,0|0,2:2|3:3,0:0:0:0:
303,287,83763,2,0,P|261:358|180:335,1,175.500000669479,0|0,3:3|3:3,0:0:0:0:
20,184,84452,2,0,P|87:168|155:157,1,117.00000044632,8|0,2:2|2:2,0:0:0:0:
115,76,84797,2,0,P|49:91|-19:102,1,117.00000044632,0|0,2:2|2:2,0:0:0:0:
179,2,85142,6,0,P|220:72|299:52,2,175.500000669479,4|0|8,2:2|2:2|2:2,0:0:0:0:
383,18,86061,1,0,2:2:0:0:
390,26,86176,2,0,P|381:77|378:104,1,58.5000002231598,0|0,2:2|2:2,0:0:0:0:
492,202,86406,1,0,3:3:0:0:
498,211,86521,2,0,P|482:301|476:348,1,117.00000044632,0|0,3:3|2:2,0:0:0:0:
414,371,86866,1,0,3:3:0:0:
239,280,87096,2,0,P|255:190|261:143,1,117.00000044632,0|0,3:3|2:2,0:0:0:0:
311,111,87441,1,0,3:3:0:0:
307,101,87556,1,8,2:2:0:0:
98,11,87786,1,0,2:2:0:0:
93,19,87901,6,0,P|120:62|201:39,1,130,4|0,2:2|2:2,0:0:0:0:
365,8,88475,1,0,3:3:0:0:
373,18,88590,2,0,P|432:27|511:43,2,130,8|0|0,2:2|3:3|3:3,0:0:0:0:
57,202,89970,2,0,P|53:159|45:116,1,86.6666666666667,8|0,2:2|2:2,0:0:0:0:
125,101,90314,2,0,P|129:144|137:187,1,86.6666666666667,0|0,2:2|2:2,0:0:0:0:
61,309,90659,6,0,P|94:283|136:291,1,86.6666666666667,4|0,2:2|2:2,0:0:0:0:
256,383,91004,2,0,P|217:365|203:325,1,86.6666666666667,0|0,2:2|2:2,0:0:0:0:
222,175,91349,2,0,P|225:216|198:248,1,86.6666666666667,8|0,2:2|3:3,0:0:0:0:
191,244,91694,1,0,3:3:0:0:
335,357,91924,1,0,3:3:0:0:
342,350,92038,2,0,P|409:357|490:371,1,130,0|0,3:3|3:3,0:0:0:0:
434,83,92613,1,0,2:2:0:0:
427,92,92728,2,0,L|434:144,3,32.5,8|0|0|0,2:2|2:2|2:2|2:2,0:0:0:0:
491,33,93073,2,0,L|484:-19,3,32.5,8|0|0|0,2:2|2:2|2:2|2:2,0:0:0:0:
493,181,93418,6,0,P|428:170|364:163,1,130,4|0,2:2|2:2,0:0:0:0:
213,109,93992,1,0,2:2:0:0:
205,116,94107,2,0,P|172:64|215:4,2,130,8|0|0,2:2|3:3|3:3,0:0:0:0:
337,243,95142,1,0,3:3:0:0:
163,360,95487,2,0,P|108:365|60:374,1,86.6666666666667,8|0,2:2|2:2,0:0:0:0:
67,291,95832,2,0,P|122:286|170:277,1,86.6666666666667,0|0,2:2|2:2,0:0:0:0:
280,367,96176,6,0,P|313:332|359:334,1,86.6666666666667,4|0,2:2|2:2,0:0:0:0:
499,361,96521,2,0,P|452:349|430:309,1,86.6666666666667,0|0,2:2|2:2,0:0:0:0:
385,175,96866,2,0,P|398:221|374:259,1,86.6666666666667,8|0,2:2|3:3,0:0:0:0:
374,258,97211,1,0,3:3:0:0:
185,154,97556,5,8,2:2:0:0:
188,144,97671,1,0,0:0:0:0:
82,217,97901,1,8,2:2:0:0:
14,166,98073,5,0,3:3:0:0:
14,166,98159,1,0,3:3:0:0:
14,166,98245,2,0,L|6:118,3,32.5,8|0|0|0,2:2|2:2|2:2|2:2,0:0:0:0:
32,27,98590,2,0,L|40:75,3,32.5,8|0|0|0,2:2|2:2|2:2|2:2,0:0:0:0:
111,90,98935,5,4,2:2:0:0:
111,90,101694,6,0,P|171:96|226:105,1,110.50000210762,0|0,3:3|2:2,0:0:0:0:
239,22,102211,2,0,P|179:16|124:7,1,110.50000210762,0|0,3:3|2:2,0:0:0:0:
55,35,102728,1,0,2:2:0:0:
142,183,103073,2,0,P|85:194|24:212,2,110.50000210762,0|0|8,3:3|3:3|2:2,0:0:0:0:
216,234,104107,1,0,3:3:0:0:
283,74,104452,6,0,P|360:69|454:56,1,165.75000316143,0|0,3:3|3:3,0:0:0:0:
507,112,105142,1,8,2:2:0:0:
507,112,105314,2,0,P|508:137|513:169,1,55.2500010538101,0|0,2:2|0:0,0:0:0:0:
459,281,105659,1,0,2:2:0:0:
459,281,105831,2,0,P|463:308|464:335,2,55.2500010538101,0|0|0,3:3|2:2|3:3,0:0:0:0:
216,148,106521,2,0,P|214:123|210:91,1,55.2500010538101,8|0,2:2|2:2,0:0:0:0:
286,83,106866,2,0,P|288:108|292:140,1,55.2500010538101,0|0,3:3|2:2,0:0:0:0:
265,207,107211,5,0,3:3:0:0:
24,27,107728,1,0,3:3:0:0:
24,27,107901,2,0,P|33:87|41:144,1,110.50000210762,8|0,2:2|2:2,0:0:0:0:
19,330,108590,2,0,P|10:275|3:220,1,110.50000210762,0|0,3:3|3:3,0:0:0:0:
106,56,109280,2,0,P|153:78|220:4,1,165.75000316143,8|0,2:2|0:0,0:0:0:0:
220,4,109969,5,0,3:3:0:0:
397,143,110314,1,0,2:2:0:0:
397,143,110487,2,0,P|459:135|527:130,2,110.50000210762,0|0|0,3:3|2:2|2:2,0:0:0:0:
345,207,111349,2,0,P|349:238|351:272,2,55.2500010538101,0|0|0,3:3|2:2|3:3,0:0:0:0:
249,98,111866,2,0,P|200:108|170:53,1,110.50000210762,0|0,2:2|2:2,0:0:0:0:
114,11,112383,1,0,3:3:0:0:
11,172,112728,6,0,P|19:232|25:300,1,110.50000210762,0|0,3:3|2:2,0:0:0:0:
4,360,113245,2,0,P|64:352|132:346,1,110.50000210762,0|0,3:3|2:2,0:0:0:0:
183,381,113763,1,0,3:3:0:0:
361,318,114107,2,0,P|400:360|456:348,2,110.50000210762,0|0|8,3:3|3:3|2:2,0:0:0:0:
411,257,114969,1,0,2:2:0:0:
411,257,115142,1,0,3:3:0:0:
223,95,115487,6,0,P|218:52|213:28,1,55.2500010538101,0|0,3:3|2:2,0:0:0:0:
294,28,115832,2,0,P|299:71|304:95,1,55.2500010538101,0|0,2:2|3:3,0:0:0:0:
274,153,116176,1,8,2:2:0:0:
346,197,116349,1,0,2:2:0:0:
346,197,116521,1,0,3:3:0:0:
188,304,116866,6,0,P|193:347|198:371,1,55.2500010538101,0|0,3:3|2:2,0:0:0:0:
117,371,117211,2,0,P|112:328|107:304,1,55.2500010538101,0|0,3:3|2:2,0:0:0:0:
33,330,117556,2,0,P|35:357|40:384,1,55.2500010538101,8|0,2:2|2:2,0:0:0:0:
62,260,117901,1,0,3:3:0:0:
0,82,118245,6,0,P|22:124|87:117,1,110.50000210762,0|0,3:3|2:2,0:0:0:0:
117,55,118763,1,0,3:3:0:0:
117,55,118935,2,0,P|139:13|204:20,1,110.50000210762,8|0,2:2|3:3,0:0:0:0:
258,69,119452,1,0,2:2:0:0:
258,69,119625,6,0,P|252:114|248:131,1,55.2500010538101,0|0,3:3|2:2,0:0:0:0:
328,137,119970,2,0,P|334:92|338:75,1,55.2500010538101,0|0,3:3|2:2,0:0:0:0:
313,7,120314,1,8,2:2:0:0:
155,155,120659,1,0,2:2:0:0:
336,358,121004,6,0,P|388:351|440:345,1,104,0|0,2:2|0:0,0:0:0:0:
256,192,122556,12,0,125832,3:3:0:0:
512,299,126521,6,0,P|490:335|416:316,1,117.00000044632,4|0,2:2|2:2,0:0:0:0:
368,270,126866,2,0,P|314:255|279:297,1,117.00000044632,0|0,2:2|2:2,0:0:0:0:
273,373,127211,1,8,2:2:0:0:
460,201,127556,1,0,2:2:0:0:
294,32,127786,1,0,3:3:0:0:
307,25,127901,2,0,P|384:35|500:45,2,175.500000669479,0|0|8,3:3|3:3|2:2,0:0:0:0:
60,17,128935,2,0,P|28:55|58:115,1,117.00000044632,0|0,3:3|2:2,0:0:0:0:
6,175,129280,6,0,P|83:155|193:137,1,175.500000669479,4|0,2:2|2:2,0:0:0:0:
316,100,129797,1,0,0:0:0:0:
316,100,129969,2,0,P|329:56|301:22,2,87.7500003347397,8|0|0,2:2|0:0|3:3,0:0:0:0:
133,220,130544,1,0,3:3:0:0:
136,231,130659,1,0,3:3:0:0:
299,367,131004,1,0,3:3:0:0:
299,367,131176,1,0,3:3:0:0:
375,324,131349,2,0,P|436:333|507:348,2,131.62500050211,8|0|0,2:2|0:0|0:0,0:0:0:0:
199,374,132038,6,0,P|106:354|12:340,1,175.500000669479,4|0,2:2|2:2,0:0:0:0:
18,19,132728,2,0,P|76:31|135:40,1,117.00000044632,8|0,2:2|2:2,0:0:0:0:
0,105,133073,2,0,P|57:113|115:126,1,117.00000044632,0|0,2:2|3:3,0:0:0:0:
299,160,133418,2,0,P|269:80|190:100,1,175.500000669479,0|0,3:3|3:3,0:0:0:0:
108,207,133935,1,0,2:2:0:0:
321,310,134107,2,0,P|390:301|464:295,2,131.62500050211,8|0|0,2:2|0:0|0:0,0:0:0:0:
38,355,134797,6,0,P|-18:317|18:217,2,175.500000669479,4|0|8,2:2|2:2|2:2,0:0:0:0:
242,287,135832,1,0,3:3:0:0:
332,356,136061,1,0,3:3:0:0:
341,364,136176,2,0,P|346:291|353:229,1,117.00000044632,0|0,3:3|2:2,0:0:0:0:
430,258,136521,2,0,P|424:316|420:374,1,117.00000044632,0|0,3:3|2:2,0:0:0:0:
284,191,136866,2,0,P|279:118|272:56,1,117.00000044632,8|0,2:2|2:2,0:0:0:0:
195,85,137211,2,0,P|200:143|204:201,1,117.00000044632,0|0,3:3|3:3,0:0:0:0:
0,378,137556,6,0,P|27:332|91:338,1,117.00000044632,4|0,2:2|2:2,0:0:0:0:
164,317,137901,2,0,P|193:364|249:361,1,117.00000044632,0|0,2:2|2:2,0:0:0:0:
314,308,138245,1,8,2:2:0:0:
89,108,138590,1,0,2:2:0:0:
171,0,138820,1,0,3:3:0:0:
180,9,138935,2,0,P|267:23|367:26,2,175.500000669479,0|0|8,3:3|3:3|2:2,0:0:0:0:
0,208,139970,1,0,3:3:0:0:
0,208,140142,1,0,0:0:0:0:
60,267,140314,6,0,P|147:270|234:284,1,175.500000669479,4|0,2:2|2:2,0:0:0:0:
303,242,140832,1,0,0:0:0:0:
365,297,141004,2,0,P|384:338|356:376,2,87.7500003347397,8|0|0,2:2|0:0|3:3,0:0:0:0:
143,187,141579,1,0,3:3:0:0:
140,177,141694,1,0,3:3:0:0:
271,6,142038,1,0,3:3:0:0:
317,70,142211,1,0,2:2:0:0:
382,23,142383,2,0,P|449:28|534:38,2,131.62500050211,8|0|0,2:2|0:0|0:0,0:0:0:0:
142,70,143073,6,0,P|51:82|19:10,1,175.500000669479,4|0,2:2|2:2,0:0:0:0:
267,135,143763,2,0,P|265:190|262:260,1,117.00000044632,8|0,2:2|2:2,0:0:0:0:
348,257,144107,2,0,P|350:202|353:132,1,117.00000044632,0|0,2:2|3:3,0:0:0:0:
435,17,144452,2,0,P|402:86|308:42,1,175.500000669479,0|0,3:3|3:3,0:0:0:0:
168,210,145142,2,0,P|170:265|173:335,1,117.00000044632,8|0,2:2|2:2,0:0:0:0:
87,332,145486,2,0,P|85:277|82:207,1,117.00000044632,0|0,3:3|2:2,0:0:0:0:
0,59,145831,6,0,P|33:128|127:84,1,175.500000669479,4|0,2:2|0:0,0:0:0:0:
173,36,146349,1,0,0:0:0:0:
325,181,146521,1,8,2:2:0:0:
325,181,146694,2,0,P|384:171|508:158,1,175.500000669479
444,14,147211,6,0,P|404:20|322:29,1,117.00000044632,8|0,2:2|3:3,0:0:0:0:
266,107,147556,2,0,P|207:112|150:121,1,117.00000044632,8|0,2:2|3:3,0:0:0:0:
26,88,147901,2,0,B|-31:61|-17:6|23:-45|99:-33|151:58|123:154|60:189,1,357.500003409386,8|8,2:2|2:2,0:0:0:0:
0,230,148590,6,0,P|92:220|333:206,1,314.166676254273,4|0,2:2|2:2,0:0:0:0:
320,284,149280,2,0,P|163:292|6:307,1,314.166676254273,4|0,2:2|2:2,0:0:0:0:
13,384,149970,2,0,P|170:369|327:361,1,314.166676254273,4|0,2:2|3:3,0:0:0:0:
336,367,150659,1,8,2:2:0:0:
417,313,150889,1,0,3:3:0:0:
415,302,151004,1,8,2:2:0:0:
64,176,151349,6,0,P|9:117|76:38,1,175.500000669479,4|0,2:2|2:2,0:0:0:0:
252,7,151866,2,0,P|313:15|436:20,2,175.500000669479
187,60,152728,1,0,3:3:0:0:
315,299,153073,1,0,3:3:0:0:
260,366,153245,1,0,2:2:0:0:
190,321,153418,2,0,P|102:310|15:307,1,175.500000669479,8|0,2:2|3:3,0:0:0:0:
13,13,153992,5,0,2:2:0:0:
2,8,154107,2,0,P|35:73|131:49,1,175.500000669479,4|0,2:2|2:2,0:0:0:0:
413,14,154797,2,0,P|403:75|395:144,1,117.00000044632,8|0,2:2|2:2,0:0:0:0:
313,115,155142,2,0,P|323:54|331:-15,1,117.00000044632,0|0,2:2|3:3,0:0:0:0:
468,188,155487,2,0,P|426:163|359:260,1,175.500000669479,0|0,3:3|3:3,0:0:0:0:
0,264,156176,2,0,P|9:321|16:379,1,117.00000044632,8|0,2:2|2:2,0:0:0:0:
100,365,156521,2,0,P|90:307|83:249,1,117.00000044632,0|0,3:3|2:2,0:0:0:0:
0,95,156866,6,0,P|37:167|116:147,2,175.500000669479,4|0|8,2:2|2:2|2:2,0:0:0:0:
231,0,157901,1,0,2:2:0:0:
335,75,158130,1,0,3:3:0:0:
343,82,158245,2,0,P|373:143|330:194,1,117.00000044632,0|0,3:3|2:2,0:0:0:0:
255,186,158590,2,0,P|225:125|268:74,1,117.00000044632,0|0,3:3|2:2,0:0:0:0:
504,242,158935,2,0,P|525:294|495:342,1,117.00000044632,8|0,2:2|2:2,0:0:0:0:
397,337,159280,2,0,P|376:285|407:238,1,117.00000044632,0|0,3:3|2:2,0:0:0:0:
500,21,159625,6,0,P|448:12|378:-2,1,117.00000044632,4|0,2:2|2:2,0:0:0:0:
317,47,159970,2,0,P|259:35|202:25,1,117.00000044632,0|0,2:2|2:2,0:0:0:0:
136,74,160314,1,8,2:2:0:0:
290,224,160659,1,0,2:2:0:0:
182,360,160889,1,0,3:3:0:0:
174,366,161004,2,0,P|107:358|-14:346,2,175.500000669479,0|0|8,3:3|3:3|2:2,0:0:0:0:
254,122,162038,2,0,P|312:128|370:134,1,117.00000044632,0|0,3:3|2:2,0:0:0:0:
480,213,162383,6,0,P|521:248|471:352,1,175.500000669479,4|0,2:2|2:2,0:0:0:0:
408,376,162901,1,0,0:0:0:0:
170,266,163073,2,0,P|162:190|147:85,1,175.500000669479,8|0,2:2|2:2,0:0:0:0:
234,0,163648,1,0,3:3:0:0:
237,13,163763,1,0,3:3:0:0:
391,178,164107,1,0,3:3:0:0:
337,243,164280,1,0,2:2:0:0:
391,304,164452,2,0,P|452:313|512:328,2,117.00000044632,8|0|0,2:2|2:2|2:2,0:0:0:0:
178,372,165142,6,0,P|92:351|6:337,1,175.500000669479,4|0,2:2|3:3,0:0:0:0:
136,39,165832,2,0,P|173:78|152:138,1,117.00000044632,8|0,2:2|2:2,0:0:0:0:
49,156,166176,2,0,P|12:117|33:57,1,117.00000044632,0|0,2:2|3:3,0:0:0:0:
227,189,166521,2,0,P|168:175|36:160,1,175.500000669479,4|0,2:2|3:3,0:0:0:0:
395,103,167211,2,0,P|358:142|379:202,1,117.00000044632,8|0,2:2|2:2,0:0:0:0:
482,220,167555,2,0,P|519:181|498:121,1,117.00000044632,0|0,2:2|2:2,0:0:0:0:
325,332,167900,6,0,P|384:318|516:303,2,175.500000669479,4|0|8,2:2|2:2|2:2,0:0:0:0:
182,384,168820,1,0,3:3:0:0:
172,375,168935,2,0,P|164:328|159:299,1,58.5000002231598,8|0,2:2|0:0,0:0:0:0:
308,165,169165,1,0,3:3:0:0:
315,155,169280,2,0,P|303:86|291:18,1,117.00000044632,8|0,2:2|3:3,0:0:0:0:
226,0,169625,1,8,2:2:0:0:
42,80,169855,2,0,P|54:149|66:217,1,117.00000044632,0|8,3:3|2:2,0:0:0:0:
14,262,170199,1,8,2:2:0:0:
18,275,170314,1,8,2:2:0:0:
335,368,170544,5,8,2:2:0:0:
338,356,170659,2,0,P|385:305|460:333,2,143.000004364014,4|0|8,2:2|2:2|2:2,0:0:0:0:
115,275,171694,1,0,3:3:0:0:
256,121,171924,1,0,3:3:0:0:
264,111,172038,2,0,P|256:56|248:14,1,95.3333362426759,0|0,3:3|2:2,0:0:0:0:
342,1,172383,2,0,P|350:56|358:98,1,95.3333362426759,0|0,3:3|2:2,0:0:0:0:
324,169,172728,1,8,2:2:0:0:
144,46,173073,1,0,3:3:0:0:
4,236,173418,6,0,P|13:304|20:395,2,143.000004364014,4|0|8,2:2|3:3|2:2,0:0:0:0:
83,108,174452,1,0,3:3:0:0:
225,228,174682,1,0,3:3:0:0:
235,234,174797,2,0,P|290:226|334:224,1,95.3333362426759,0|0,3:3|2:2,0:0:0:0:
339,309,175142,2,0,P|291:311|244:318,1,95.3333362426759,0|0,3:3|2:2,0:0:0:0:
415,171,175487,2,0,P|462:173|510:181,1,95.3333362426759,8|0,2:2|0:0,0:0:0:0:
500,265,175832,2,0,P|453:258|406:256,1,95.3333362426759,8|0,2:2|0:0,0:0:0:0:
271,137,176176,6,0,P|244:78|302:19,2,143.000004364014,4|0|8,2:2|2:2|2:2,0:0:0:0:
406,256,177211,1,0,3:3:0:0:
240,359,177441,1,0,3:3:0:0:
231,365,177556,2,0,P|184:358|135:356,1,95.3333362426759,0|0,3:3|2:2,0:0:0:0:
149,259,177901,2,0,P|195:265|244:267,1,95.3333362426759,0|0,3:3|2:2,0:0:0:0:
313,324,178245,1,8,2:2:0:0:
458,183,178590,1,0,3:3:0:0:
292,26,178935,6,0,P|371:22|444:11,2,143.000004364014,4|0|8,2:2|2:2|2:2,0:0:0:0:
209,125,179969,1,0,3:3:0:0:
6,8,180199,1,0,3:3:0:0:
0,15,180314,2,0,P|9:76|12:114,1,95.3333362426759,0|0,3:3|2:2,0:0:0:0:
5,122,180659,1,0,3:3:0:0:
96,234,180832,1,0,0:0:0:0:
232,217,181004,1,8,2:2:0:0:
300,128,181176,1,0,2:2:0:0:
377,92,181349,1,8,2:2:0:0:
443,141,181521,1,0,2:2:0:0:
448,151,181694,6,0,P|438:236|433:303,2,143.000004364014,4|0|8,2:2|2:2|2:2,0:0:0:0:
318,12,182728,1,0,3:3:0:0:
191,89,182958,1,0,3:3:0:0:
180,92,183073,2,0,P|128:86|78:78,1,95.3333362426759,0|0,3:3|2:2,0:0:0:0:
69,169,183418,2,0,P|121:175|171:183,1,95.3333362426759,0|0,3:3|2:2,0:0:0:0:
241,153,183763,1,8,2:2:0:0:
357,305,184107,1,0,3:3:0:0:
512,146,184452,6,0,P|504:77|498:-1,2,143.000004364014,4|0|8,2:2|2:2|2:2,0:0:0:0:
421,246,185487,1,0,3:3:0:0:
280,124,185717,1,0,3:3:0:0:
268,118,185832,2,0,P|238:75|256:35,1,95.3333362426759,0|0,3:3|2:2,0:0:0:0:
343,23,186176,2,0,P|373:66|355:106,1,95.3333362426759,0|0,3:3|2:2,0:0:0:0:
215,191,186521,2,0,P|185:234|203:274,1,95.3333362426759,8|0,0:0|0:0,0:0:0:0:
290,285,186867,2,0,P|320:242|302:202,1,95.3333362426759,8|0,0:0|0:0,0:0:0:0:
157,59,187211,6,0,P|87:55|2:41,2,143.000004364014,4|0|8,2:2|2:2|2:2,0:0:0:0:
317,1,188245,1,0,3:3:0:0:
484,108,188475,1,0,3:3:0:0:
476,116,188590,2,0,P|481:161|492:219,1,95.3333362426759,0|0,3:3|2:2,0:0:0:0:
387,226,188935,2,0,P|382:181|371:123,1,95.3333362426759,0|0,3:3|2:2,0:0:0:0:
415,56,189280,1,8,2:2:0:0:
228,178,189625,1,0,3:3:0:0:
372,365,189969,6,0,P|449:349|522:341,2,143.000004364014,4|0|8,2:2|2:2|2:2,0:0:0:0:
202,277,191004,1,0,2:2:0:0:
30,374,191234,1,0,3:3:0:0:
20,365,191349,2,0,P|17:326|7:265,1,95.3333362426759,0|0,3:3|2:2,0:0:0:0:
13,255,191694,1,0,3:3:0:0:
135,150,191866,1,0,0:0:0:0:
260,216,192038,1,8,2:2:0:0:
271,320,192211,1,0,2:2:0:0:
197,377,192383,1,8,2:2:0:0:
129,339,192556,1,0,2:2:0:0:
133,330,192728,5,0,2:2:0:0:
