osu file format v14

[General]
AudioFilename: audio.mp3
AudioLeadIn: 0
PreviewTime: 125832
Countdown: 0
SampleSet: Soft
StackLeniency: 0.3
Mode: 0
LetterboxInBreaks: 0
EpilepsyWarning: 1
WidescreenStoryboard: 1

[Editor]
Bookmarks: 41004,63073,65832,87901,98935,121004,126521,148590,170659,192728
DistanceSpacing: 1.3
BeatDivisor: 4
GridSize: 16
TimelineZoom: 0.4999998

[Metadata]
Title:Prayer X
TitleUnicode:Prayer X
Artist:King Gnu
ArtistUnicode:King Gnu
Creator:KaedeharaKazuha
Version:Easy
Source:BANANA FISH
Tags:Addy2607 Kaedehara Kazuha Ametrin Necho Reincaration Atlust Suzuki_1112 Otosaka-Yu Kyouren gokugohan12468 KittyAdventure first 1st ED Ending 1 one japanese pop jpop j-pop jrock j-rock rock anime Sympa PERIMETRON 常田大希 勢喜遊 新井和輝 井口理 Daiki Tsuneta Yu Seki Kazuki Arai Satoru Iguchi Ash Lynx Aslan Jade Callenreese 奥村英二 Okumura Eiji Shounen Shonen Shōnen Ai 少年愛 Boys Boys' Love BL バナナフィッシュ
BeatmapID:4463453
BeatmapSetID:2123851

[Difficulty]
HPDrainRate:2
CircleSize:2.5
OverallDifficulty:3
ApproachRate:4
SliderMultiplier:1.4
SliderTickRate:1

[Events]
//Background and Video events
0,0,"BG.jpg",0,0
//Break Periods
//Storyboard Layer 0 (Background)
//Storyboard Layer 1 (Fail)
//Storyboard Layer 2 (Pass)
//Storyboard Layer 3 (Foreground)
Sprite,Foreground,TopLeft,"SB\mapped by.png",0,156 S,0,0,,0.45 F,0,35487,37487,0,1 C,0,35487,41004,90,90,90 F,0,39004,41004,1,0
Sprite,Foreground,TopLeft,"SB\kaedeharakazuha.png",115,175 S,0,0,,0.45 F,0,35487,37487,0,1 C,0,35487,41004,90,90,90 F,0,39004,41004,1,0
//Storyboard Layer 4 (Overlay)
//Storyboard Sound Samples

[TimingPoints]
1010,845.070422535211,4,2,1,40,1,0
1855,800,4,2,1,40,1,0
2255,769.230769230769,4,2,1,40,1,0
3408,750,4,2,1,40,1,0
3783,882.352941176471,4,2,1,40,1,0
5106,833.333333333333,4,2,1,40,1,0
5939,857.142857142857,4,2,1,40,1,0
9367,821.917808219178,4,2,1,40,1,0
11832,845.070422535211,4,2,1,40,1,0
12677,909.090909090909,4,2,1,40,1,0
13131,1666.66666666667,4,2,1,40,1,0
13547,895.522388059701,4,2,1,40,1,0
13994,869.565217391304,4,2,1,40,1,0
14428,882.352941176471,4,2,1,40,1,0
16192,659.340659340659,4,2,1,40,1,0
16521,810.810810810811,4,2,1,40,1,0
17737,800,4,2,1,40,1,0
18137,689.655172413793,4,2,1,40,1,0
18309,1090.90909090909,4,2,1,40,1,0
18581,869.565217391304,4,2,1,40,1,0
20320,833.333333333333,4,2,1,40,1,0
23653,869.565217391304,4,2,1,40,1,0
24522,833.333333333333,4,2,1,40,1,0
25355,869.565217391304,4,2,1,40,1,0
27528,814.111261872456,4,2,1,40,1,0
29766,-100,4,2,1,50,0,0
29970,689.655172413793,4,2,1,60,1,0
41004,-100,4,2,1,50,0,0
65832,-100,4,2,1,70,0,1
87901,-100,4,2,1,60,0,0
98935,-100,4,2,1,50,0,0
125832,-100,4,2,1,60,0,0
126521,-100,4,2,1,70,0,1
148590,-100,4,2,1,70,0,0
151349,-100,4,2,1,70,0,1
170659,-100,4,2,1,60,0,0

[Colours]
Combo1 : 103,103,75
Combo2 : 219,219,183

[HitObjects]
483,349,29970,6,0,P|489:287|508:174,1,140,4|8,2:2|2:2,0:0:0:0:
448,135,31004,1,0,3:3:0:0:
375,190,31349,2,0,P|369:224|366:259,1,70,0|0,3:3|3:3,0:0:0:0:
292,313,32038,1,8,2:2:0:0:
190,161,32728,2,0,P|195:126|198:91,1,70,4|0,2:2|2:2,0:0:0:0:
140,21,33418,1,8,2:2:0:0:
140,21,33763,1,0,3:3:0:0:
63,69,34107,2,0,P|56:138|45:207,1,140,0|8,3:3|2:2,0:0:0:0:
1,287,35142,1,0,2:2:0:0:
67,349,35487,6,0,P|136:342|217:335,1,140,4|8,2:2|2:2,0:0:0:0:
288,376,36521,1,0,3:3:0:0:
361,322,36866,2,0,P|377:290|365:253,1,70,0|0,3:3|3:3,0:0:0:0:
309,188,37556,1,8,2:2:0:0:
129,159,38245,2,0,P|86:119|121:44,1,140,4|8,2:2|2:2,0:0:0:0:
187,1,39280,1,0,3:3:0:0:
245,70,39625,2,0,P|282:66|334:64,1,70,0|0,3:3|3:3,0:0:0:0:
383,4,40314,2,0,P|417:2|452:-1,1,70,0|0,3:3|3:3,0:0:0:0:
507,71,41004,5,0,2:2:0:0:
352,167,41694,1,8,2:2:0:0:
489,286,42383,2,0,P|520:332|506:376,2,105,0|0|0,3:3|2:2|2:2,0:0:0:0:
399,266,43763,2,0,P|326:275|226:281,1,140,0|8,3:3|2:2,0:0:0:0:
195,344,44797,1,0,2:2:0:0:
195,344,45142,1,0,3:3:0:0:
46,238,45832,1,8,2:2:0:0:
169,104,46521,6,0,P|164:53|157:-1,2,105,0|0|0,3:3|3:3|2:2,0:0:0:0:
243,157,47901,2,0,P|246:196|252:239,1,70,0|0,3:3|3:3,0:0:0:0:
201,303,48590,1,8,2:2:0:0:
373,360,49280,2,0,P|369:320|363:277,1,70,0|0,3:3|2:2,0:0:0:0:
353,199,49970,1,8,2:2:0:0:
406,25,50659,2,0,P|434:3|484:13,2,70,0|0|8,3:3|3:3|2:2,0:0:0:0:
342,90,51694,1,0,2:2:0:0:
342,90,52038,5,0,2:2:0:0:
177,11,52728,1,8,2:2:0:0:
19,103,53418,2,0,P|28:175|39:264,1,140,0|8,3:3|2:2,0:0:0:0:
16,334,54452,1,0,2:2:0:0:
16,334,54797,2,0,P|88:325|177:314,1,140,0|8,3:3|2:2,0:0:0:0:
327,373,56176,1,0,3:3:0:0:
432,224,56866,1,8,2:2:0:0:
328,74,57556,6,0,P|324:24|321:-2,2,70,0|0|8,3:3|2:2|2:2,0:0:0:0:
262,137,58590,1,0,2:2:0:0:
262,137,58935,1,0,3:3:0:0:
391,264,59625,1,8,2:2:0:0:
245,373,60314,2,0,P|190:364|161:359,1,70,0|0,3:3|3:3,0:0:0:0:
86,343,61004,1,8,2:2:0:0:
3,180,61694,2,0,P|12:125|17:96,1,70,0|0,3:3|3:3,0:0:0:0:
89,59,62383,2,0,P|144:68|173:73,1,70,8|0,2:2|2:2,0:0:0:0:
215,141,63073,1,0,2:2:0:0:
215,141,65832,6,0,P|270:132|299:127,2,70,4|0|8,2:2|2:2|2:2,0:0:0:0:
153,73,66866,2,0,P|92:54|52:127,1,140,0|0,2:2|3:3,0:0:0:0:
106,186,67901,1,8,2:2:0:0:
106,186,68245,1,0,2:2:0:0:
102,276,68590,2,0,P|28:286|-24:305,2,105,4|0|0,2:2|0:0|0:0,0:0:0:0:
175,330,69970,1,0,3:3:0:0:
314,212,70659,1,8,2:2:0:0:
462,317,71349,6,0,P|469:248|486:157,1,140,4|8,2:2|2:2,0:0:0:0:
504,90,72383,1,0,2:2:0:0:
504,90,72728,2,0,P|475:44|388:56,1,140,0|8,3:3|2:2,0:0:0:0:
327,107,73763,1,0,3:3:0:0:
266,39,74107,1,4,2:2:0:0:
154,182,74797,1,8,2:2:0:0:
81,137,75142,1,0,2:2:0:0:
81,137,75487,2,0,P|84:89|86:63,1,70,0|0,3:3|3:3,0:0:0:0:
155,8,76176,2,0,P|203:11|229:13,1,70,8|8,2:2|2:2,0:0:0:0:
297,68,76866,6,0,P|345:65|371:63,2,70,4|0|8,2:2|2:2|2:2,0:0:0:0:
233,133,77901,2,0,P|244:214|255:293,1,140,0|0,3:3|3:3,0:0:0:0:
332,325,78935,1,8,2:2:0:0:
332,325,79280,1,0,3:3:0:0:
392,256,79625,2,0,P|385:209|379:163,1,70,4|0,2:2|2:2,0:0:0:0:
442,118,80314,2,0,P|435:71|429:25,1,70,8|0,2:2|2:2,0:0:0:0:
353,3,81004,1,0,3:3:0:0:
217,124,81694,1,8,2:2:0:0:
60,32,82383,6,0,P|74:141|78:192,1,140,4|8,2:2|2:2,0:0:0:0:
29,250,83418,1,0,2:2:0:0:
29,250,83763,2,0,P|-15:313|18:364,1,140,0|8,3:3|2:2,0:0:0:0:
107,376,84797,1,0,2:2:0:0:
107,376,85142,1,4,2:2:0:0:
242,253,85832,1,8,2:2:0:0:
393,353,86521,2,0,P|457:342|503:338,2,105,0|0|8,3:3|0:0|2:2,0:0:0:0:
311,312,87901,6,0,P|295:220|289:153,1,140,4|8,2:2|2:2,0:0:0:0:
349,105,88935,1,0,3:3:0:0:
349,105,89280,1,0,3:3:0:0:
198,2,89970,1,8,2:2:0:0:
54,113,90659,2,0,P|62:159|65:192,1,70,4|0,2:2|2:2,0:0:0:0:
145,236,91349,1,8,2:2:0:0:
145,236,91694,1,0,3:3:0:0:
202,165,92038,2,0,P|247:113|322:144,1,140,0|8,3:3|2:2,0:0:0:0:
385,178,93073,1,8,2:2:0:0:
456,121,93418,6,0,P|442:218|435:290,1,140,4|8,2:2|2:2,0:0:0:0:
495,337,94452,1,0,3:3:0:0:
495,337,94797,1,0,3:3:0:0:
315,370,95487,2,0,P|253:364|227:361,1,70,8|0,2:2|2:2,0:0:0:0:
155,375,96176,2,0,P|161:313|164:287,1,70,4|0,2:2|2:2,0:0:0:0:
101,236,96866,1,8,2:2:0:0:
101,236,97211,1,0,3:3:0:0:
150,159,97556,2,0,P|198:139|229:154,1,70,8|8,2:2|2:2,0:0:0:0:
261,66,98245,2,0,P|302:97|304:131,1,70,8|8,2:2|2:2,0:0:0:0:
283,201,98935,5,4,2:2:0:0:
283,201,101694,2,0,P|362:188|432:183,1,140,0|8,3:3|2:2,0:0:0:0:
480,113,102728,1,0,2:2:0:0:
408,56,103073,2,0,P|329:69|259:74,1,140,0|8,3:3|2:2,0:0:0:0:
87,69,104452,6,0,P|83:28|79:-5,2,70,0|0|8,3:3|2:2|2:2,0:0:0:0:
23,239,105832,2,0,P|27:280|31:313,2,70,0|0|8,3:3|3:3|2:2,0:0:0:0:
73,164,106866,1,0,3:3:0:0:
73,164,107211,1,0,3:3:0:0:
197,297,107901,1,8,2:2:0:0:
349,198,108590,2,0,P|360:113|372:47,1,140,0|8,3:3|2:2,0:0:0:0:
302,7,109625,1,0,3:3:0:0:
302,7,109969,5,0,3:3:0:0:
180,142,110659,1,8,2:2:0:0:
297,281,111349,2,0,P|362:290|414:300,2,105,0|0|0,3:3|2:2|3:3,0:0:0:0:
223,335,112728,2,0,P|153:344|57:369,1,140,0|8,3:3|2:2,0:0:0:0:
15,310,113763,1,0,3:3:0:0:
15,310,114107,2,0,P|10:276|-2:227,1,70,0|0,3:3|3:3,0:0:0:0:
44,160,114797,1,8,2:2:0:0:
220,204,115487,6,0,P|225:238|237:287,2,70,0|0|8,3:3|2:2|2:2,0:0:0:0:
268,128,116521,1,0,3:3:0:0:
268,128,116866,2,0,P|263:94|251:45,2,70,0|0|8,3:3|3:3|2:2,0:0:0:0:
439,190,118245,2,0,P|444:224|456:273,1,70,0|0,3:3|2:2,0:0:0:0:
410,340,118935,1,8,2:2:0:0:
237,283,119625,2,0,P|232:249|220:200,1,70,0|0,3:3|3:3,0:0:0:0:
281,143,120314,2,0,P|273:108|268:74,1,70,8|0,2:2|2:2,0:0:0:0:
189,27,121004,6,0,P|70:32|92:168,1,280,0|0,2:2|0:0,0:0:0:0:
83,162,126521,6,0,P|28:171|0:178,2,70,4|0|8,2:2|2:2|2:2,0:0:0:0:
126,81,127556,2,0,P|223:65|272:52,1,140,0|0,2:2|3:3,0:0:0:0:
349,100,128590,1,8,2:2:0:0:
349,100,128935,1,0,3:3:0:0:
403,26,129280,1,4,2:2:0:0:
507,174,129969,2,0,P|498:228|496:250,1,70,8|0,2:2|3:3,0:0:0:0:
422,294,130659,1,0,3:3:0:0:
422,294,131004,1,0,3:3:0:0:
353,233,131349,2,0,P|362:179|364:157,1,70,8|8,2:2|2:2,0:0:0:0:
419,92,132038,6,0,P|398:36|311:38,1,140,4|8,2:2|2:2,0:0:0:0:
248,76,133073,1,0,2:2:0:0:
248,76,133418,2,0,P|154:67|75:63,1,140,0|8,3:3|2:2,0:0:0:0:
3,212,134797,2,0,P|72:216|142:223,1,140,4|8,2:2|2:2,0:0:0:0:
217,286,135832,1,0,3:3:0:0:
217,286,136176,2,0,P|233:329|214:363,2,70,0|0|8,3:3|3:3|2:2,0:0:0:0:
273,214,137211,1,0,3:3:0:0:
273,214,137556,6,0,P|278:157|282:131,2,70,4|0|8,2:2|2:2|2:2,0:0:0:0:
318,292,138590,2,0,P|395:298|479:311,1,140,0|0,2:2|3:3,0:0:0:0:
504,228,139625,2,0,P|509:171|513:145,1,70,8|0,2:2|3:3,0:0:0:0:
463,80,140314,1,4,2:2:0:0:
287,127,141004,2,0,P|284:161|280:196,2,70,8|0|0,2:2|3:3|3:3,0:0:0:0:
234,60,142038,1,0,3:3:0:0:
234,60,142383,1,8,2:2:0:0:
63,124,143073,6,0,P|57:203|47:283,1,140,4|8,2:2|2:2,0:0:0:0:
21,352,144107,1,0,2:2:0:0:
21,352,144452,2,0,P|100:357|180:367,1,140,0|8,3:3|2:2,0:0:0:0:
233,310,145487,1,0,3:3:0:0:
233,310,145832,1,4,2:2:0:0:
370,379,146521,1,8,2:2:0:0:
499,251,147211,2,0,P|505:195|510:168,1,70,8|8,2:2|2:2,0:0:0:0:
442,117,147901,2,0,P|386:111|359:106,1,70,8|8,2:2|2:2,0:0:0:0:
305,170,148590,5,4,2:2:0:0:
173,44,149280,1,4,2:2:0:0:
21,145,149970,1,4,2:2:0:0:
50,324,150659,1,8,2:2:0:0:
231,334,151349,6,0,P|306:323|374:319,1,140,4|8,2:2|2:2,0:0:0:0:
448,365,152383,1,0,0:0:0:0:
448,365,152728,1,0,3:3:0:0:
509,193,153418,1,8,2:2:0:0:
381,63,154107,2,0,P|306:74|238:78,1,140,4|8,2:2|2:2,0:0:0:0:
155,94,155142,1,0,2:2:0:0:
155,94,155487,2,0,P|118:138|157:213,1,140,0|8,3:3|2:2,0:0:0:0:
230,256,156521,1,0,3:3:0:0:
230,256,156866,5,4,2:2:0:0:
390,169,157556,1,8,2:2:0:0:
467,226,157901,1,0,2:2:0:0:
467,226,158245,2,0,P|460:287|459:310,1,70,0|0,3:3|3:3,0:0:0:0:
389,354,158935,2,0,P|328:347|305:346,1,70,8|0,2:2|3:3,0:0:0:0:
267,271,159625,6,0,P|271:236|274:201,2,70,4|0|8,2:2|2:2|2:2,0:0:0:0:
222,350,160659,2,0,P|161:356|63:374,1,140,0|0,2:2|3:3,0:0:0:0:
11,322,161694,1,8,2:2:0:0:
11,322,162038,1,0,3:3:0:0:
74,257,162383,2,0,P|78:216|83:172,1,70,4|0,2:2|2:2,0:0:0:0:
10,129,163073,2,0,P|-5:90|12:56,1,70,8|0,2:2|2:2,0:0:0:0:
71,3,163763,1,0,3:3:0:0:
224,100,164452,1,8,2:2:0:0:
386,17,165142,6,0,P|400:100|417:172,1,140,4|8,2:2|2:2,0:0:0:0:
364,233,166176,1,0,2:2:0:0:
364,233,166521,2,0,P|294:250|257:199,1,140,4|8,2:2|2:2,0:0:0:0:
285,115,167556,1,0,2:2:0:0:
285,115,167901,1,4,2:2:0:0:
140,3,168590,1,8,2:2:0:0:
13,134,169280,2,0,P|23:193|30:251,2,105,8|0|8,2:2|0:0|2:2,0:0:0:0:
56,54,170659,6,0,P|135:43|215:29,1,140,4|8,2:2|2:2,0:0:0:0:
272,92,171694,1,0,3:3:0:0:
272,92,172038,1,0,3:3:0:0:
155,231,172728,2,0,P|160:265|165:300,1,70,8|0,2:2|3:3,0:0:0:0:
242,348,173418,2,0,P|311:336|380:327,1,140,4|8,2:2|2:2,0:0:0:0:
474,350,174452,1,0,3:3:0:0:
474,350,174797,2,0,P|508:298|470:231,1,140,0|8,3:3|2:2,0:0:0:0:
389,230,175832,1,8,2:2:0:0:
389,230,176177,6,0,P|355:178|393:111,1,140,4|8,2:2|2:2,0:0:0:0:
464,66,177211,1,0,3:3:0:0:
464,66,177556,1,0,3:3:0:0:
293,2,178245,2,0,P|254:8|214:11,1,70,8|0,2:2|3:3,0:0:0:0:
136,38,178935,2,0,P|96:70|132:152,1,140,4|8,2:2|2:2,0:0:0:0:
207,185,179969,1,0,3:3:0:0:
207,185,180314,2,0,P|246:179|286:176,1,70,0|0,3:3|3:3,0:0:0:0:
337,108,181004,2,0,P|371:104|406:99,1,70,8|8,2:2|2:2,0:0:0:0:
485,144,181694,6,0,P|476:222|468:297,1,140,4|8,2:2|2:2,0:0:0:0:
396,337,182728,1,0,3:3:0:0:
396,337,183073,1,0,3:3:0:0:
277,198,183763,2,0,P|281:155|286:113,1,70,8|0,2:2|3:3,0:0:0:0:
236,51,184452,2,0,P|209:17|123:45,1,140,4|8,2:2|2:2,0:0:0:0:
71,113,185487,1,0,3:3:0:0:
71,113,185832,1,0,3:3:0:0:
219,218,186521,2,0,P|214:260|209:302,1,70,8|8,0:0|0:0,0:0:0:0:
280,346,187211,6,0,P|344:359|377:302,1,140,4|8,2:2|2:2,0:0:0:0:
437,235,188245,1,0,3:3:0:0:
437,235,188590,1,0,3:3:0:0:
340,80,189280,2,0,P|297:75|255:70,1,70,8|0,2:2|3:3,0:0:0:0:
199,129,189969,2,0,P|120:120|41:111,1,140,4|8,2:2|2:2,0:0:0:0:
4,187,191004,1,0,2:2:0:0:
4,187,191349,2,0,P|11:239|15:268,1,70,0|0,3:3|3:3,0:0:0:0:
95,307,192038,1,8,2:2:0:0:
95,307,192383,1,8,2:2:0:0:
158,241,192728,5,0,2:2:0:0:
