osu file format v14

[General]
AudioFilename: audio.mp3
AudioLeadIn: 0
PreviewTime: 125832
Countdown: 0
SampleSet: Soft
StackLeniency: 0.7
Mode: 0
LetterboxInBreaks: 0
EpilepsyWarning: 1
WidescreenStoryboard: 1

[Editor]
Bookmarks: 41004,63073,65832,87901,98935,121004,126521,148590,170659,192728
DistanceSpacing: 0.9
BeatDivisor: 12
GridSize: 16
TimelineZoom: 0.2999998

[Metadata]
Title:Prayer X
TitleUnicode:Prayer X
Artist:King Gnu
ArtistUnicode:King Gnu
Creator:KaedeharaKazuha
Version:Beginner
Source:BANANA FISH
Tags:Addy2607 Kaedehara Kazuha Ametrin Necho Reincaration Atlust Suzuki_1112 Otosaka-Yu Kyouren gokugohan12468 KittyAdventure first 1st ED Ending 1 one japanese pop jpop j-pop jrock j-rock rock anime Sympa PERIMETRON 常田大希 勢喜遊 新井和輝 井口理 Daiki Tsuneta Yu Seki Kazuki Arai Satoru Iguchi Ash Lynx Aslan Jade Callenreese 奥村英二 Okumura Eiji Shounen Shonen Shōnen Ai 少年愛 Boys Boys' Love BL バナナフィッシュ
BeatmapID:4463485
BeatmapSetID:2123851

[Difficulty]
HPDrainRate:1
CircleSize:2
OverallDifficulty:1
ApproachRate:2
SliderMultiplier:1.1
SliderTickRate:1

[Events]
//Background and Video events
0,0,"BG.jpg",0,0
//Break Periods
2,121204,124961
//Storyboard Layer 0 (Background)
//Storyboard Layer 1 (Fail)
//Storyboard Layer 2 (Pass)
//Storyboard Layer 3 (Foreground)
Sprite,Foreground,TopLeft,"SB\mapped by.png",0,156 S,0,0,,0.45 F,0,35487,37487,0,1 C,0,35487,41004,90,90,90 F,0,39004,41004,1,0
Sprite,Foreground,TopLeft,"SB\kaedeharakazuha.png",115,175 S,0,0,,0.45 F,0,35487,37487,0,1 C,0,35487,41004,90,90,90 F,0,39004,41004,1,0
//Storyboard Layer 4 (Overlay)
//Storyboard Sound Samples

[TimingPoints]
1010,845.070422535211,4,2,1,40,1,0
1855,800,4,2,1,40,1,0
2255,769.230769230769,4,2,1,40,1,0
3408,750,4,2,1,40,1,0
3783,882.352941176471,4,2,1,40,1,0
5106,833.333333333333,4,2,1,40,1,0
5939,857.142857142857,4,2,1,40,1,0
9367,821.917808219178,4,2,1,40,1,0
11832,845.070422535211,4,2,1,40,1,0
12677,909.090909090909,4,2,1,40,1,0
13131,1666.66666666667,4,2,1,40,1,0
13547,895.522388059701,4,2,1,40,1,0
13994,869.565217391304,4,2,1,40,1,0
14428,882.352941176471,4,2,1,40,1,0
16192,659.340659340659,4,2,1,40,1,0
16521,810.810810810811,4,2,1,40,1,0
17737,800,4,2,1,40,1,0
18137,689.655172413793,4,2,1,40,1,0
18309,1090.90909090909,4,2,1,40,1,0
18581,869.565217391304,4,2,1,40,1,0
20320,833.333333333333,4,2,1,40,1,0
23653,869.565217391304,4,2,1,40,1,0
24522,833.333333333333,4,2,1,40,1,0
25355,869.565217391304,4,2,1,40,1,0
27528,814.111261872456,4,2,1,40,1,0
29766,-100,4,2,1,50,0,0
29970,689.655172413793,4,2,1,60,1,0
41004,-100,4,2,1,50,0,0
65832,-100,4,2,1,70,0,1
87901,-100,4,2,1,60,0,0
98935,-100,4,2,1,50,0,0
125832,-100,4,2,1,60,0,0
126521,-100,4,2,1,70,0,1
148590,-100,4,2,1,70,0,0
151349,-100,4,2,1,70,0,1
170659,-100,4,2,1,60,0,0

[Colours]
Combo1 : 103,103,75
Combo2 : 219,219,183

[HitObjects]
34,367,29970,6,0,P|18:257|-2:130,1,220,4|0,2:2|3:3,0:0:0:0:
45,63,32038,1,8,2:2:0:0:
45,63,32728,2,0,P|121:27|181:132,1,220,4|0,2:2|3:3,0:0:0:0:
125,203,34797,1,8,2:2:0:0:
201,266,35487,6,0,P|304:246|442:230,1,220,4|0,2:2|3:3,0:0:0:0:
478,152,37556,1,8,2:2:0:0:
404,85,38245,2,0,P|352:95|283:103,1,110,4|8,2:2|2:2,0:0:0:0:
222,34,39625,2,0,P|167:40|113:51,1,110,0|0,3:3|3:3,0:0:0:0:
24,94,41004,6,0,P|-6:150|33:199,1,110,0|8,2:2|2:2,0:0:0:0:
109,208,42383,2,0,P|139:264|100:313,1,110,0|8,3:3|2:2,0:0:0:0:
52,373,43763,2,0,P|160:353|293:344,1,220,0|0,3:3|3:3,0:0:0:0:
466,366,46521,6,0,P|509:316|399:237,1,220,0|0,3:3|3:3,0:0:0:0:
329,270,48590,1,8,2:2:0:0:
266,193,49280,2,0,P|273:126|282:77,2,110,0|8|0,3:3|2:2|3:3,0:0:0:0:
324,272,51349,1,8,2:2:0:0:
254,342,52038,6,0,P|176:351|129:364,1,110,0|8,2:2|2:2,0:0:0:0:
58,310,53418,2,0,P|49:232|36:185,1,110,0|8,3:3|2:2,0:0:0:0:
91,118,54797,1,0,3:3:0:0:
91,118,55487,1,8,2:2:0:0:
167,180,56176,1,0,3:3:0:0:
273,13,57556,6,0,P|349:25|407:29,1,110,0|8,3:3|2:2,0:0:0:0:
455,96,58935,1,0,3:3:0:0:
373,152,59625,1,8,2:2:0:0:
455,205,60314,2,0,P|491:259|463:305,1,110,0|8,3:3|2:2,0:0:0:0:
388,343,61694,2,0,P|294:325|265:321,1,110,0|8,3:3|2:2,0:0:0:0:
194,372,63073,1,0,2:2:0:0:
194,372,65832,6,0,P|181:263|162:140,1,220,4|0,2:2|3:3,0:0:0:0:
219,71,67901,1,8,2:2:0:0:
303,121,68590,2,0,P|309:175|319:236,1,110,4|8,2:2|2:2,0:0:0:0:
404,290,69970,1,0,3:3:0:0:
404,290,70659,1,8,2:2:0:0:
462,210,71349,6,0,P|453:155|447:101,1,110,4|8,2:2|2:2,0:0:0:0:
470,4,72728,2,0,P|415:12|361:18,1,110,0|8,3:3|2:2,0:0:0:0:
285,82,74107,1,4,2:2:0:0:
210,16,74797,1,8,2:2:0:0:
152,96,75487,2,0,P|108:135|49:105,1,110,0|8,3:3|2:2,0:0:0:0:
3,43,76866,6,0,P|20:148|32:271,1,220,4|0,2:2|3:3,0:0:0:0:
113,316,78935,1,8,2:2:0:0:
176,239,79625,2,0,P|167:185|161:122,2,110,4|8|0,2:2|2:2|3:3,0:0:0:0:
250,304,81694,1,8,2:2:0:0:
333,357,82383,6,0,P|401:347|447:343,1,110,4|8,2:2|2:2,0:0:0:0:
500,263,83763,2,0,P|490:195|486:149,1,110,0|8,3:3|2:2,0:0:0:0:
421,87,85142,1,4,2:2:0:0:
421,87,85832,1,8,2:2:0:0:
338,141,86521,2,0,P|348:209|352:255,1,110,0|8,3:3|2:2,0:0:0:0:
342,348,87901,6,0,P|277:275|174:321,1,220,4|0,2:2|3:3,0:0:0:0:
101,380,89970,1,8,2:2:0:0:
23,319,90659,2,0,P|12:208|-4:92,1,220,4|0,2:2|3:3,0:0:0:0:
51,17,92728,1,8,2:2:0:0:
139,60,93418,6,0,P|150:171|166:287,1,220,4|0,2:2|3:3,0:0:0:0:
250,339,95487,1,8,2:2:0:0:
250,339,96176,2,0,P|310:330|370:324,1,110,4|8,2:2|2:2,0:0:0:0:
457,339,97556,2,0,P|448:279|442:219,1,110,8|8,2:2|2:2,0:0:0:0:
495,145,98935,5,4,2:2:0:0:
495,145,101694,2,0,P|386:137|264:116,1,220,0|0,3:3|3:3,0:0:0:0:
208,47,103763,1,8,2:2:0:0:
128,105,104452,6,0,P|100:146|125:200,1,110,0|8,3:3|2:2,0:0:0:0:
206,248,105832,2,0,P|234:289|209:343,1,110,0|8,3:3|2:2,0:0:0:0:
121,380,107211,1,0,3:3:0:0:
34,331,107901,1,8,2:2:0:0:
34,331,108590,2,0,P|26:257|16:203,1,110,0|8,3:3|2:2,0:0:0:0:
57,130,109969,6,0,P|131:122|185:112,1,110,0|8,3:3|2:2,0:0:0:0:
236,185,111349,2,0,P|290:176|345:170,1,110,0|8,3:3|2:2,0:0:0:0:
431,218,112728,2,0,P|497:159|426:50,1,220,0|0,3:3|3:3,0:0:0:0:
255,1,115487,6,0,P|200:9|145:15,1,110,0|8,3:3|2:2,0:0:0:0:
95,100,116866,1,0,3:3:0:0:
175,157,117556,1,8,2:2:0:0:
114,235,118245,6,0,P|59:240|4:249,1,110,0|8,3:3|2:2,0:0:0:0:
20,347,119625,2,0,P|74:338|129:332,1,110,0|8,3:3|2:2,0:0:0:0:
219,372,121004,1,0,2:2:0:0:
219,372,126521,6,0,P|270:286|391:325,1,220,4|0,2:2|3:3,0:0:0:0:
447,371,128590,1,8,2:2:0:0:
503,285,129280,2,0,P|507:214|512:166,1,110,4|8,2:2|2:2,0:0:0:0:
448,107,130659,1,0,3:3:0:0:
448,107,131349,1,8,2:2:0:0:
365,162,132038,6,0,P|359:216|357:271,1,110,4|8,2:2|2:2,0:0:0:0:
288,342,133418,1,0,3:3:0:0:
288,342,134107,1,8,2:2:0:0:
192,314,134797,2,0,P|126:343|37:231,1,220,4|0,2:2|3:3,0:0:0:0:
92,169,136866,1,8,2:2:0:0:
9,113,137556,6,0,P|114:103|233:72,1,220,4|0,2:2|3:3,0:0:0:0:
314,117,139625,1,8,2:2:0:0:
241,184,140314,2,0,P|214:246|248:291,1,110,4|8,2:2|2:2,0:0:0:0:
318,328,141694,2,0,P|393:317|445:316,1,110,0|8,3:3|2:2,0:0:0:0:
496,245,143073,6,0,P|485:170|484:118,1,110,4|8,2:2|2:2,0:0:0:0:
429,60,144452,1,0,3:3:0:0:
429,60,145142,1,8,2:2:0:0:
354,124,145832,2,0,P|297:138|261:90,1,110,4|8,2:2|2:2,0:0:0:0:
198,31,147211,2,0,P|141:17|105:65,1,110,8|8,2:2|2:2,0:0:0:0:
60,136,148590,5,4,2:2:0:0:
5,218,149280,1,4,2:2:0:0:
91,262,149970,1,4,2:2:0:0:
25,337,150659,1,8,2:2:0:0:
117,373,151349,2,0,P|196:358|240:356,1,110,4|8,2:2|2:2,0:0:0:0:
312,309,152728,2,0,P|336:261|301:214,1,110,0|8,3:3|2:2,0:0:0:0:
237,148,154107,6,0,P|213:100|248:53,1,110,4|8,2:2|2:2,0:0:0:0:
328,11,155487,2,0,P|397:5|454:-3,1,110,0|8,3:3|2:2,0:0:0:0:
511,74,156866,1,4,2:2:0:0:
511,74,157556,1,8,2:2:0:0:
457,157,158245,2,0,P|388:163|331:171,1,110,0|8,3:3|2:2,0:0:0:0:
262,117,159625,6,0,P|213:43|85:112,1,220,4|0,2:2|3:3,0:0:0:0:
29,142,161694,1,8,2:2:0:0:
101,209,162383,2,0,P|91:286|85:328,1,110,4|8,2:2|2:2,0:0:0:0:
181,345,163763,2,0,P|191:268|197:226,1,110,0|8,3:3|2:2,0:0:0:0:
275,177,165142,6,0,P|285:100|291:58,1,110,4|8,2:2|2:2,0:0:0:0:
218,8,166521,1,4,2:2:0:0:
218,8,167211,1,8,2:2:0:0:
130,54,167901,2,0,P|120:131|114:173,1,110,4|8,2:2|2:2,0:0:0:0:
183,234,169280,1,8,2:2:0:0:
254,165,169969,1,8,2:2:0:0:
343,206,170659,6,0,P|417:258|382:373,1,220,4|0,2:2|3:3,0:0:0:0:
299,338,172728,1,8,2:2:0:0:
299,338,173418,2,0,P|184:351|63:372,1,220,4|0,2:2|3:3,0:0:0:0:
10,299,175487,1,8,2:2:0:0:
57,212,176176,6,0,P|165:194|275:182,1,220,4|0,2:2|3:3,0:0:0:0:
343,109,178245,1,8,2:2:0:0:
417,174,178935,2,0,P|409:247|404:294,1,110,4|8,2:2|2:2,0:0:0:0:
320,334,180314,1,0,3:3:0:0:
251,262,181004,1,8,2:2:0:0:
179,331,181694,6,0,P|194:194|203:105,1,220,4|0,2:2|3:3,0:0:0:0:
138,45,183763,1,8,2:2:0:0:
138,45,184452,2,0,P|57:29|28:150,1,220,4|0,2:2|3:3,0:0:0:0:
1,236,186521,1,8,0:0:0:0:
87,283,187211,6,0,P|206:267|328:256,1,220,4|0,2:2|3:3,0:0:0:0:
360,175,189280,1,8,2:2:0:0:
278,118,189969,2,0,P|218:126|158:132,1,110,4|8,2:2|2:2,0:0:0:0:
102,204,191349,1,0,3:3:0:0:
32,133,192038,1,8,2:2:0:0:
