osu file format v14

[General]
AudioFilename: audio.mp3
AudioLeadIn: 0
PreviewTime: 125832
Countdown: 0
SampleSet: Soft
StackLeniency: 0.4
Mode: 0
LetterboxInBreaks: 0
EpilepsyWarning: 1
WidescreenStoryboard: 1

[Editor]
Bookmarks: 41004,63073,65832,87901,98935,121004,126521,148590,170659,192728
DistanceSpacing: 1.2
BeatDivisor: 4
GridSize: 16
TimelineZoom: 0.8

[Metadata]
Title:Prayer X
TitleUnicode:Prayer X
Artist:King Gnu
ArtistUnicode:King Gnu
Creator:KaedeharaKazuha
Version:Ametrin's Normal
Source:BANANA FISH
Tags:Addy2607 Kaedehara Kazuha Ametrin Necho Reincaration Atlust Suzuki_1112 Otosaka-Yu Kyouren gokugohan12468 KittyAdventure first 1st ED Ending 1 one japanese pop jpop j-pop jrock j-rock rock anime Sympa PERIMETRON 常田大希 勢喜遊 新井和輝 井口理 Daiki Tsuneta Yu Seki Kazuki Arai Satoru Iguchi Ash Lynx Aslan Jade Callenreese 奥村英二 Okumura Eiji Shounen Shonen Shōnen Ai 少年愛 Boys Boys' Love BL バナナフィッシュ
BeatmapID:4463451
BeatmapSetID:2123851

[Difficulty]
HPDrainRate:4
CircleSize:3
OverallDifficulty:4
ApproachRate:5.5
SliderMultiplier:1.6
SliderTickRate:1

[Events]
//Background and Video events
0,0,"BG.jpg",0,0
//Break Periods
//Storyboard Layer 0 (Background)
//Storyboard Layer 1 (Fail)
//Storyboard Layer 2 (Pass)
//Storyboard Layer 3 (Foreground)
Sprite,Foreground,TopLeft,"SB\mapped by.png",0,156 S,0,0,,0.45 F,0,35487,37487,0,1 C,0,35487,41004,90,90,90 F,0,39004,41004,1,0
Sprite,Foreground,TopLeft,"SB\ametrin.png",115,175 S,0,0,,0.45 F,0,35487,37487,0,1 C,0,35487,41004,90,90,90 F,0,39004,41004,1,0
//Storyboard Layer 4 (Overlay)
//Storyboard Sound Samples

[TimingPoints]
1010,845.070422535211,4,2,1,40,1,0
1855,800,4,2,1,40,1,0
2255,769.230769230769,4,2,1,40,1,0
3408,750,4,2,1,40,1,0
3783,882.352941176471,4,2,1,40,1,0
5106,833.333333333333,4,2,1,40,1,0
5939,857.142857142857,4,2,1,40,1,0
9367,821.917808219178,4,2,1,40,1,0
11832,845.070422535211,4,2,1,40,1,0
12677,909.090909090909,4,2,1,40,1,0
13131,1666.66666666667,4,2,1,40,1,0
13547,895.522388059701,4,2,1,40,1,0
13994,869.565217391304,4,2,1,40,1,0
14428,882.352941176471,4,2,1,40,1,0
16192,659.340659340659,4,2,1,40,1,0
16521,810.810810810811,4,2,1,40,1,0
17737,800,4,2,1,40,1,0
18137,689.655172413793,4,2,1,40,1,0
18309,1090.90909090909,4,2,1,40,1,0
18581,869.565217391304,4,2,1,40,1,0
20320,833.333333333333,4,2,1,40,1,0
23653,869.565217391304,4,2,1,40,1,0
24522,833.333333333333,4,2,1,40,1,0
25355,869.565217391304,4,2,1,40,1,0
27528,814.111261872456,4,2,1,40,1,0
29766,-100,4,2,1,50,0,0
29970,689.655172413793,4,2,1,60,1,0
41004,-100,4,2,1,50,0,0
65832,-100,4,2,1,70,0,1
87901,-100,4,2,1,60,0,0
98935,-100,4,2,1,50,0,0
125832,-100,4,2,1,60,0,0
126521,-100,4,2,1,70,0,1
148590,-100,4,2,1,70,0,0
151349,-100,4,2,1,70,0,1
170659,-100,4,2,1,60,0,0

[Colours]
Combo1 : 103,103,75
Combo2 : 219,219,183

[HitObjects]
256,192,27528,12,0,29156,0:0:0:0:
11,168,29970,6,0,P|55:137|122:138,1,80,4|0,2:2|2:2,0:0:0:0:
98,37,30659,2,0,P|146:59|179:118,1,80,8|0,2:2|3:3,0:0:0:0:
259,78,31349,2,0,P|242:171|230:298,1,160,0|8,3:3|2:2,0:0:0:0:
138,240,32383,1,0,3:3:0:0:
54,287,32728,2,0,P|46:225|35:172,1,80,4|0,2:2|2:2,0:0:0:0:
10,117,33418,1,8,2:2:0:0:
103,137,33763,1,0,3:3:0:0:
195,163,34107,1,0,3:3:0:0:
195,163,34797,5,8,2:2:0:0:
289,144,35142,1,0,2:2:0:0:
382,122,35487,2,0,P|382:70|345:19,1,80,4|0,2:2|2:2,0:0:0:0:
274,50,36176,2,0,P|228:24|166:30,1,80,8|0,2:2|3:3,0:0:0:0:
129,84,36866,2,0,B|136:253,1,160,0|8,3:3|2:2,0:0:0:0:
211,303,37901,1,0,3:3:0:0:
289,247,38245,2,0,P|335:249|411:254,1,80,4|0,2:2|2:2,0:0:0:0:
432,178,38935,1,8,2:2:0:0:
376,99,39280,1,0,3:3:0:0:
281,82,39625,2,0,P|256:160|251:226,1,80,0|0,3:3|3:3,0:0:0:0:
162,174,40314,2,0,P|171:224|176:290,1,80,0|0,3:3|3:3,0:0:0:0:
249,313,41004,5,0,2:2:0:0:
410,209,41694,2,0,B|361:214|361:214|305:191|305:191|242:198,1,160,8|0,2:2|3:3,0:0:0:0:
179,144,42728,1,0,3:3:0:0:
170,151,42901,2,0,P|158:218|154:277,1,120,0|0,2:2|2:2,0:0:0:0:
73,321,43763,2,0,P|159:368|228:331,1,160,0|8,3:3|2:2,0:0:0:0:
251,261,44797,1,0,2:2:0:0:
155,253,45142,1,0,3:3:0:0:
155,253,45832,5,8,2:2:0:0:
84,188,46176,1,0,2:2:0:0:
111,95,46521,2,0,B|51:107|51:107|-26:150,2,120,0|0|0,3:3|3:3|2:2,0:0:0:0:
149,6,47901,2,0,P|188:10|229:13,1,80,0|0,3:3|3:3,0:0:0:0:
261,103,48590,2,0,P|301:98|341:95,1,80,8|0,2:2|2:2,0:0:0:0:
380,7,49280,2,0,P|487:45|490:104,1,160,0|8,3:3|2:2,0:0:0:0:
415,132,50314,1,0,2:2:0:0:
422,140,50487,2,0,L|411:235,1,80,0|0,2:2|2:2,0:0:0:0:
493,270,51176,2,0,L|482:365,1,80,0|0,2:2|0:0,0:0:0:0:
342,380,52038,5,0,2:2:0:0:
279,307,52383,1,0,2:2:0:0:
191,348,52728,2,0,B|91:326|91:326|33:358,1,160,8|0,2:2|3:3,0:0:0:0:
15,260,53763,1,0,3:3:0:0:
102,220,54107,2,0,P|106:139|62:93,1,120,8|0,2:2|2:2,0:0:0:0:
49,78,54797,2,0,B|120:95|120:95|183:90,2,120,0|0|0,3:3|3:3|2:2,0:0:0:0:
108,2,56176,1,0,3:3:0:0:
204,3,56521,1,0,3:3:0:0:
263,78,56866,2,0,P|257:128|255:187,1,80,8|0,2:2|2:2,0:0:0:0:
316,232,57556,6,0,B|413:251|387:196|484:222,1,160,0|8,3:3|2:2,0:0:0:0:
507,308,58590,1,0,2:2:0:0:
432,369,58935,2,0,P|392:355|344:312,1,80,0|0,3:3|3:0,0:0:0:0:
266,316,59625,2,0,P|226:330|178:373,1,80,8|0,2:2|2:2,0:0:0:0:
100,359,60314,2,0,B|93:301|93:301|98:255|98:255|88:180,1,160,0|8,3:3|2:2,0:0:0:0:
11,147,61349,1,0,2:2:0:0:
72,73,61694,2,0,L|170:94,1,80,0|0,3:3|3:3,0:0:0:0:
227,32,62383,2,0,L|325:53,1,80,8|0,2:2|2:2,0:0:0:0:
256,192,63073,12,0,65142,0:0:0:0:
163,113,65832,6,0,P|272:67|316:95,1,160,4|8,2:2|2:2,0:0:0:0:
381,29,66866,1,0,2:2:0:0:
463,78,67211,2,0,P|449:129|445:169,1,80,0|0,3:3|3:3,0:0:0:0:
477,246,67901,1,8,2:2:0:0:
398,300,68245,1,0,2:2:0:0:
315,251,68590,2,0,B|240:261|240:261|231:256|231:256|131:270,1,160,4|8,2:2|2:2,0:0:0:0:
80,209,69625,1,0,0:0:0:0:
169,176,69969,2,0,B|180:79|180:79|153:13,1,160,0|8,3:3|2:2,0:0:0:0:
63,47,71004,1,0,3:3:0:0:
156,21,71349,6,0,P|193:11|239:15,1,80,4|0,2:2|2:2,0:0:0:0:
322,45,72038,1,8,2:2:0:0:
249,108,72383,2,0,P|231:202|225:290,1,160,0|0,2:2|3:3,0:0:0:0:
317,295,73418,1,8,2:2:0:0:
317,295,73763,1,0,3:3:0:0:
247,360,74107,2,0,B|156:380|189:321|75:350,1,160,4|8,2:2|2:2,0:0:0:0:
3,384,75142,1,0,2:2:0:0:
11,288,75487,1,0,3:3:0:0:
20,192,75832,1,0,3:3:0:0:
27,96,76176,2,0,L|136:108,1,80,8|8,2:2|2:2,0:0:0:0:
196,69,76866,6,0,L|294:57,2,80,4|0|8,2:2|2:2|2:2,0:0:0:0:
185,164,77901,2,0,L|169:351,1,160,0|0,3:3|3:3,0:0:0:0:
254,371,78935,1,8,2:2:0:0:
338,325,79280,1,0,3:3:0:0:
421,372,79625,2,0,P|476:299|445:229,1,160,4|8,2:2|2:2,0:0:0:0:
394,167,80659,2,0,L|290:186,1,80,0|0,2:2|3:3,0:0:0:0:
237,122,81349,1,0,3:3:0:0:
231,133,81521,1,0,3:3:0:0:
226,144,81694,2,0,P|221:175|218:218,2,53.3333333333333,8|0|0,2:2|2:2|2:2,0:0:0:0:
201,84,82383,6,0,P|133:66|96:73,1,80,4|0,2:2|2:2,0:0:0:0:
20,76,83073,1,8,2:2:0:0:
10,180,83418,2,0,B|41:278|41:278|29:359,1,160,0|0,2:2|3:3,0:0:0:0:
122,369,84452,1,8,2:2:0:0:
122,369,84797,1,0,2:2:0:0:
194,305,85142,2,0,B|284:288|259:342|365:324,1,160,4|8,2:2|2:2,0:0:0:0:
429,272,86176,1,0,2:2:0:0:
384,186,86521,2,0,B|330:161|330:161|259:177,2,120,0|0|8,3:3|0:0|2:2,0:0:0:0:
474,151,87901,6,0,P|486:86|479:57,1,80,4|0,2:2|2:2,0:0:0:0:
387,75,88590,2,0,P|336:32|308:23,1,80,8|0,2:2|3:3,0:0:0:0:
254,93,89280,2,0,L|67:81,1,160,0|8,3:3|2:2,0:0:0:0:
16,138,90314,1,0,2:2:0:0:
99,186,90659,2,0,P|109:247|109:288,1,80,4|0,2:2|2:2,0:0:0:0:
202,238,91349,2,0,P|199:277|191:317,1,80,8|0,2:2|3:3,0:0:0:0:
104,357,92038,1,0,3:3:0:0:
104,357,92728,5,8,2:2:0:0:
190,317,93073,1,8,2:2:0:0:
277,361,93418,2,0,B|380:339|380:339|448:360,1,160,4|8,2:2|2:2,0:0:0:0:
491,279,94452,1,0,3:3:0:0:
413,221,94797,2,0,P|395:142|457:73,1,160,0|8,3:3|2:2,0:0:0:0:
488,163,95832,1,0,2:2:0:0:
413,221,96176,2,0,P|366:214|319:212,1,80,4|0,2:2|2:2,0:0:0:0:
287,127,96866,2,0,P|247:129|207:135,1,80,8|0,2:2|3:3,0:0:0:0:
129,191,97556,1,8,2:2:0:0:
36,163,97901,2,0,P|22:109|21:64,2,80,8|8|8,2:2|2:2|2:2,0:0:0:0:
15,256,98935,5,4,2:2:0:0:
339,76,101694,6,0,L|483:65,2,120,0|0|0,3:3|3:3|2:2,0:0:0:0:
261,19,103073,2,0,P|242:78|248:114,1,80,0|0,3:3|3:3,0:0:0:0:
310,163,103763,2,0,P|329:222|323:258,1,80,8|0,2:2|3:3,0:0:0:0:
274,318,104452,6,0,L|142:333,1,120,0|0,3:3|3:3,0:0:0:0:
107,321,105142,1,8,2:2:0:0:
195,150,105832,2,0,L|206:44,1,80,0|0,3:3|3:3,0:0:0:0:
293,37,106521,1,8,2:2:0:0:
381,75,106866,1,0,3:3:0:0:
473,48,107211,2,0,B|490:107|490:107|463:193,1,120,0|0,3:3|3:3,0:0:0:0:
455,207,107901,2,0,P|408:196|358:190,1,80,8|0,2:2|2:2,0:0:0:0:
324,272,108590,2,0,P|277:283|227:289,1,80,0|0,3:3|3:3,0:0:0:0:
162,239,109280,2,0,P|165:180|170:96,1,120,8|0,2:2|0:0,0:0:0:0:
174,75,109969,5,0,3:3:0:0:
256,25,110314,2,0,B|297:21|297:21|356:48,1,80,0|8,2:2|2:2,0:0:0:0:
362,75,110832,2,0,L|478:55,1,80,0|0,2:2|2:2,0:0:0:0:
486,45,111349,1,0,3:3:0:0:
480,135,111694,1,0,3:3:0:0:
490,140,111866,2,0,L|484:276,1,120,0|0,2:2|3:3,0:0:0:0:
510,352,112728,6,0,B|427:370|434:310|344:336,1,160,0|8,3:3|2:2,0:0:0:0:
266,371,113763,1,0,3:3:0:0:
266,371,114107,2,0,L|246:259,1,80,0|0,3:3|3:3,0:0:0:0:
266,188,114797,2,0,L|286:76,1,80,8|0,2:2|3:3,0:0:0:0:
184,151,115487,6,0,P|132:143|92:128,1,80,0|0,3:3|2:2,0:0:0:0:
47,58,116176,2,0,P|85:46|124:41,1,80,8|0,2:2|3:3,0:0:0:0:
220,55,116866,1,0,3:3:0:0:
314,39,117211,1,0,3:3:0:0:
403,72,117556,1,8,2:2:0:0:
496,48,117901,1,0,3:3:0:0:
474,141,118245,6,0,L|486:316,1,160,0|8,3:3|2:2,0:0:0:0:
411,363,119280,1,0,3:3:0:0:
328,313,119625,2,0,L|231:314,1,80,0|0,3:3|3:3,0:0:0:0:
210,225,120314,2,0,L|307:224,1,80,8|0,2:2|2:2,0:0:0:0:
256,192,121004,12,0,125832,3:3:0:0:
349,272,126521,6,0,P|240:318|196:290,1,160,4|8,2:2|2:2,0:0:0:0:
131,356,127555,1,0,2:2:0:0:
49,307,127900,2,0,P|63:256|67:216,1,80,0|0,3:3|3:3,0:0:0:0:
35,139,128590,1,8,2:2:0:0:
114,85,128934,1,0,3:3:0:0:
197,134,129279,2,0,B|236:151|236:151|308:130|308:130|366:149,1,160,4|8,2:2|2:2,0:0:0:0:
432,176,130314,1,0,3:3:0:0:
357,235,130659,2,0,P|315:317|367:358,1,160,0|8,3:3|2:2,0:0:0:0:
449,341,131693,1,8,2:2:0:0:
354,355,132038,6,0,P|315:348|258:347,1,80,4|0,2:2|2:2,0:0:0:0:
182,373,132727,1,8,2:2:0:0:
109,310,133073,2,0,P|127:216|133:128,1,160,0|0,2:2|3:3,0:0:0:0:
72,76,134107,1,8,2:2:0:0:
72,76,134452,1,0,3:3:0:0:
157,33,134797,2,0,B|248:13|215:72|332:41,1,160,4|8,2:2|2:2,0:0:0:0:
398,3,135831,1,0,3:3:0:0:
485,41,136176,1,0,3:3:0:0:
481,136,136521,1,0,3:3:0:0:
488,231,136866,2,0,P|430:216|397:177,1,80,8|0,2:2|3:3,0:0:0:0:
325,168,137556,6,0,L|227:180,2,80,4|0|8,2:2|2:2|2:2,0:0:0:0:
416,204,138590,2,0,B|450:289|450:289|432:391,1,160,0|0,2:2|3:3,0:0:0:0:
345,383,139624,1,8,2:2:0:0:
275,316,139969,1,0,3:3:0:0:
185,352,140314,2,0,B|143:359|143:359|71:341|71:341|16:346,1,160,4|8,2:2|2:2,0:0:0:0:
8,300,141176,1,0,0:0:0:0:
8,300,141349,2,0,P|1:255|8:196,1,80,0|0,3:3|3:3,0:0:0:0:
64,138,142038,1,0,3:3:0:0:
69,148,142210,1,0,2:2:0:0:
74,157,142383,2,0,P|79:126|82:83,2,53.3333333333333,8|0|0,2:2|2:2|2:2,0:0:0:0:
108,210,143073,6,0,P|198:232|231:207,1,80,4|0,2:2|2:2,0:0:0:0:
275,278,143763,1,8,2:2:0:0:
344,202,144107,2,0,B|313:104|313:104|325:23,1,160,0|0,2:2|3:3,0:0:0:0:
232,11,145141,1,8,2:2:0:0:
232,11,145486,1,0,3:3:0:0:
168,83,145831,2,0,B|78:100|103:46|-3:64,1,160,4|8,2:2|2:2,0:0:0:0:
3,109,146694,1,0,0:0:0:0:
80,161,147038,1,0,0:0:0:0:
75,171,147211,2,0,B|81:269,2,80,8|8|8,2:2|2:2|2:2,0:0:0:0:
266,190,148590,6,0,L|258:299,1,80,4|0,2:2|3:3,0:0:0:0:
252,365,149280,1,4,2:2:0:0:
429,292,149969,1,4,2:2:0:0:
266,190,150659,1,8,2:2:0:0:
399,51,151349,6,0,B|324:61|324:61|315:56|315:56|215:70,1,160,4|8,2:2|2:2,0:0:0:0:
145,77,152384,1,0,0:0:0:0:
55,42,152728,2,0,B|44:139|44:139|71:205,1,160,0|8,3:3|2:2,0:0:0:0:
12,276,153763,1,0,3:3:0:0:
107,283,154108,6,0,P|154:277|190:277,1,80,4|0,2:2|2:2,0:0:0:0:
252,346,154797,1,8,2:2:0:0:
332,280,155142,2,0,P|314:186|308:98,1,160,0|0,2:2|3:3,0:0:0:0:
323,18,156177,1,8,2:2:0:0:
323,18,156522,1,0,3:3:0:0:
418,58,156866,2,0,P|456:112|372:165,1,160,4|8,2:2|2:2,0:0:0:0:
301,163,157901,1,0,2:2:0:0:
290,258,158246,1,0,3:3:0:0:
278,353,158591,1,0,3:3:0:0:
202,294,158935,2,0,L|93:282,1,80,8|0,2:2|3:3,0:0:0:0:
79,199,159625,6,0,L|177:187,2,80,4|0|8,2:2|2:2|2:2,0:0:0:0:
7,134,160660,2,0,P|21:61|107:42,1,160,0|0,2:2|3:3,0:0:0:0:
170,98,161694,1,8,2:2:0:0:
256,56,162039,1,0,3:3:0:0:
325,121,162384,2,0,P|318:206|311:316,1,160,4|8,2:2|2:2,0:0:0:0:
310,376,163418,2,0,L|388:361,1,80,0|0,2:2|3:3,0:0:0:0:
463,299,164108,1,0,3:3:0:0:
469,310,164280,1,0,2:2:0:0:
475,320,164453,2,0,P|480:351|483:394,2,53.3333333333333,8|0|0,2:2|2:2|2:2,0:0:0:0:
420,353,165142,6,0,P|341:328|287:400,1,160,4|8,2:2|2:2,0:0:0:0:
233,299,166176,1,0,2:2:0:0:
179,219,166521,2,0,P|250:192|308:242,1,160,4|8,2:2|2:2,0:0:0:0:
390,192,167556,1,0,2:2:0:0:
478,154,167901,2,0,P|487:102|488:60,1,80,4|0,2:2|2:2,0:0:0:0:
403,29,168590,1,8,2:2:0:0:
312,59,168935,1,8,2:2:0:0:
221,25,169280,2,0,B|167:0|167:0|96:16,2,120,8|0|8,2:2|0:0|2:2,0:0:0:0:
236,119,170659,6,0,P|228:189|227:224,1,80,4|0,2:2|2:2,0:0:0:0:
133,219,171349,2,0,P|141:289|142:324,1,80,8|0,2:2|3:3,0:0:0:0:
202,372,172038,2,0,P|267:382|336:303,1,160,0|8,3:3|2:2,0:0:0:0:
345,226,173072,1,0,3:3:0:0:
420,284,173418,2,0,P|482:276|535:265,1,80,4|0,2:2|3:3,0:0:0:0:
509,177,174107,1,8,2:2:0:0:
449,101,174452,1,0,3:3:0:0:
463,6,174796,1,0,3:3:0:0:
463,6,175486,5,8,2:2:0:0:
449,101,175831,1,8,2:2:0:0:
360,138,176176,2,0,P|312:139|258:115,1,80,4|0,2:2|2:2,0:0:0:0:
232,46,176866,2,0,P|186:72|126:66,1,80,8|0,2:2|3:3,0:0:0:0:
65,62,177555,2,0,P|80:141|88:226,1,160,0|8,3:3|2:2,0:0:0:0:
16,285,178590,1,0,3:3:0:0:
106,315,178935,2,0,P|162:319|185:318,1,80,4|0,2:2|2:2,0:0:0:0:
258,256,179624,1,8,2:2:0:0:
258,256,179969,1,0,3:3:0:0:
326,318,180314,2,0,P|366:318|406:314,1,80,0|0,3:3|3:3,0:0:0:0:
490,268,181003,2,0,P|493:198|438:159,1,120,8|0,2:2|2:2,0:0:0:0:
412,157,181694,6,0,L|422:53,1,80,4|0,2:2|2:2,0:0:0:0:
323,84,182383,2,0,L|311:-13,1,80,8|0,2:2|3:3,0:0:0:0:
221,33,183073,2,0,B|127:58|165:-4|58:25,1,160,0|8,3:3|2:2,0:0:0:0:
9,100,184107,1,0,3:3:0:0:
104,114,184452,2,0,P|121:160|130:221,1,80,4|0,2:2|2:2,0:0:0:0:
84,276,185142,1,8,2:2:0:0:
180,273,185487,1,0,3:3:0:0:
275,266,185831,1,0,3:3:0:0:
275,266,186521,5,8,0:0:0:0:
355,318,186866,1,8,0:0:0:0:
448,293,187211,2,0,P|463:255|470:189,1,80,4|0,2:2|2:2,0:0:0:0:
507,128,187900,2,0,P|486:98|439:68,1,80,8|0,2:2|3:3,0:0:0:0:
380,7,188590,2,0,P|318:30|219:41,1,160,0|8,3:3|2:2,0:0:0:0:
147,98,189625,1,0,3:3:0:0:
56,66,189969,2,0,P|62:135|65:163,1,80,4|0,2:2|2:2,0:0:0:0:
28,235,190659,1,8,2:2:0:0:
112,280,191004,1,0,2:2:0:0:
182,214,191349,2,0,P|207:292|202:313,1,80,0|0,3:3|3:3,0:0:0:0:
303,288,192038,2,0,P|308:248|328:214,1,80,8|8,2:2|2:2,0:0:0:0:
256,150,192728,5,0,2:2:0:0:
