osu file format v14

[General]
AudioFilename: audio.mp3
AudioLeadIn: 0
PreviewTime: 125832
Countdown: 0
SampleSet: Soft
StackLeniency: 0.4
Mode: 0
LetterboxInBreaks: 0
EpilepsyWarning: 1
WidescreenStoryboard: 1

[Editor]
Bookmarks: 41004,65832,87901,98935,121004,126521,148590,170659,192728
DistanceSpacing: 0.2
BeatDivisor: 4
GridSize: 8
TimelineZoom: 1.3

[Metadata]
Title:Prayer X
TitleUnicode:Prayer X
Artist:King Gnu
ArtistUnicode:King Gnu
Creator:KaedeharaKazuha
Version:Ametrin's Insane
Source:BANANA FISH
Tags:Addy2607 Kaedehara Kazuha Ametrin Necho Reincaration Atlust Suzuki_1112 Otosaka-Yu Kyouren gokugohan12468 KittyAdventure first 1st ED Ending 1 one japanese pop jpop j-pop jrock j-rock rock anime Sympa PERIMETRON 常田大希 勢喜遊 新井和輝 井口理 Daiki Tsuneta Yu Seki Kazuki Arai Satoru Iguchi Ash Lynx Aslan Jade Callenreese 奥村英二 Okumura Eiji Shounen Shonen Shōnen Ai 少年愛 Boys Boys' Love BL バナナフィッシュ
BeatmapID:4463450
BeatmapSetID:2123851

[Difficulty]
HPDrainRate:5
CircleSize:4
OverallDifficulty:7
ApproachRate:8.3
SliderMultiplier:3
SliderTickRate:1

[Events]
//Background and Video events
0,0,"BG.jpg",0,0
//Break Periods
//Storyboard Layer 0 (Background)
//Storyboard Layer 1 (Fail)
//Storyboard Layer 2 (Pass)
//Storyboard Layer 3 (Foreground)
Sprite,Foreground,TopLeft,"SB\mapped by.png",0,156 S,0,0,,0.45 F,0,35487,37487,0,1 C,0,35487,41004,90,90,90 F,0,39004,41004,1,0
Sprite,Foreground,TopLeft,"SB\ametrin.png",115,175 S,0,0,,0.45 F,0,35487,37487,0,1 C,0,35487,41004,90,90,90 F,0,39004,41004,1,0
//Storyboard Layer 4 (Overlay)
//Storyboard Sound Samples

[TimingPoints]
1010,845.070422535211,4,2,1,40,1,0
1855,800,4,2,1,40,1,0
2255,769.230769230769,4,2,1,40,1,0
3408,750,4,2,1,40,1,0
3783,882.352941176471,4,2,1,40,1,0
5106,833.333333333333,4,2,1,40,1,0
5939,857.142857142857,4,2,1,40,1,0
9367,821.917808219178,4,2,1,40,1,0
11832,845.070422535211,4,2,1,40,1,0
12677,909.090909090909,4,2,1,40,1,0
13131,1666.66666666667,4,2,1,40,1,0
13547,895.522388059701,4,2,1,40,1,0
13994,869.565217391304,4,2,1,40,1,0
14428,882.352941176471,4,2,1,40,1,0
16192,659.340659340659,4,2,1,40,1,0
16521,810.810810810811,4,2,1,40,1,0
17737,800,4,2,1,40,1,0
18137,689.655172413793,4,2,1,40,1,0
18309,1090.90909090909,4,2,1,40,1,0
18581,869.565217391304,4,2,1,40,1,0
20320,833.333333333333,4,2,1,40,1,0
23653,869.565217391304,4,2,1,40,1,0
24522,833.333333333333,4,2,1,40,1,0
25355,869.565217391304,4,2,1,40,1,0
27528,814.111261872456,4,2,1,40,1,0
29766,-100,4,2,1,50,0,0
29970,689.655172413793,4,2,1,60,1,0
29970,-83.3333333333333,4,2,1,60,0,0
30314,-125,4,2,1,60,0,0
30659,-100,4,2,1,60,0,0
31234,-83.3333333333333,4,2,1,60,0,0
31694,-100,4,2,1,60,0,0
32038,-125,4,2,1,60,0,0
32383,-100,4,2,1,60,0,0
32728,-83.3333333333333,4,2,1,60,0,0
33073,-125,4,2,1,60,0,0
33418,-100,4,2,1,60,0,0
34797,-125,4,2,1,60,0,0
35142,-100,4,2,1,60,0,0
35487,-83.3333333333333,4,2,1,60,0,0
35832,-125,4,2,1,60,0,0
36176,-100,4,2,1,60,0,0
36751,-83.3333333333333,4,2,1,60,0,0
37211,-100,4,2,1,60,0,0
37556,-125,4,2,1,60,0,0
37901,-100,4,2,1,60,0,0
38245,-83.3333333333333,4,2,1,60,0,0
38590,-125,4,2,1,60,0,0
38935,-100,4,2,1,60,0,0
41004,-100,4,2,1,50,0,0
63073,-1000,4,2,1,50,0,0
65659,-1000,4,2,1,50,0,0
65832,-71.4285714285714,4,2,1,70,0,1
66521,-100,4,2,1,70,0,1
68590,-71.4285714285714,4,2,1,70,0,1
69280,-83.3333333333333,4,2,1,70,0,1
70659,-100,4,2,1,70,0,1
71349,-71.4285714285714,4,2,1,70,0,1
72038,-100,4,2,1,70,0,1
73418,-83.3333333333333,4,2,1,70,0,1
73763,-100,4,2,1,70,0,1
74107,-71.4285714285714,4,2,1,70,0,1
74797,-83.3333333333333,4,2,1,70,0,1
76176,-100,4,2,1,70,0,1
76521,-125,4,2,1,70,0,1
76866,-71.4285714285714,4,2,1,70,0,1
77556,-83.3333333333333,4,2,1,70,0,1
79280,-100,4,2,1,70,0,1
79625,-71.4285714285714,4,2,1,70,0,1
80314,-83.3333333333333,4,2,1,70,0,1
81694,-100,4,2,1,70,0,1
82383,-71.4285714285714,4,2,1,70,0,1
83073,-100,4,2,1,70,0,1
84452,-83.3333333333333,4,2,1,70,0,1
85142,-71.4285714285714,4,2,1,70,0,1
85832,-100,4,2,1,70,0,1
86521,-83.3333333333333,4,2,1,70,0,1
87901,-83.3333333333333,4,2,1,60,0,0
88245,-125,4,2,1,60,0,0
88590,-100,4,2,1,60,0,0
89970,-125,4,2,1,60,0,0
90314,-100,4,2,1,60,0,0
90659,-83.3333333333333,4,2,1,60,0,0
91004,-125,4,2,1,60,0,0
91349,-100,4,2,1,60,0,0
92613,-125,4,2,1,60,0,0
93418,-83.3333333333333,4,2,1,60,0,0
93763,-125,4,2,1,60,0,0
94107,-100,4,2,1,60,0,0
94682,-83.3333333333333,4,2,1,60,0,0
95142,-100,4,2,1,60,0,0
95487,-125,4,2,1,60,0,0
95832,-100,4,2,1,60,0,0
96176,-83.3333333333333,4,2,1,60,0,0
96521,-125,4,2,1,60,0,0
96866,-100,4,2,1,60,0,0
98935,-100,4,2,1,50,0,0
100314,-125,4,2,1,50,0,0
101694,-100,4,2,1,50,0,0
121004,-1000,4,2,1,50,0,0
125832,-250,4,2,1,60,0,0
126521,-71.4285714285714,4,2,1,70,0,1
127211,-100,4,2,1,70,0,1
129280,-71.4285714285714,4,2,1,70,0,1
129969,-83.3333333333333,4,2,1,70,0,1
131349,-100,4,2,1,70,0,1
132038,-71.4285714285714,4,2,1,70,0,1
132728,-83.3333333333333,4,2,1,70,0,1
134797,-71.4285714285714,4,2,1,70,0,1
135487,-83.3333333333333,4,2,1,70,0,1
136866,-100,4,2,1,70,0,1
137211,-125,4,2,1,70,0,1
137556,-71.4285714285714,4,2,1,70,0,1
138245,-83.3333333333333,4,2,1,70,0,1
139280,-100,4,2,1,70,0,1
139970,-100,4,2,1,70,0,1
140314,-71.4285714285714,4,2,1,70,0,1
141004,-100,4,2,1,70,0,1
142383,-125,4,2,1,70,0,1
143073,-71.4285714285714,4,2,1,70,0,1
143763,-100,4,2,1,70,0,1
145142,-83.3333333333333,4,2,1,70,0,1
145487,-100,4,2,1,70,0,1
145832,-71.4285714285714,4,2,1,70,0,1
146521,-100,4,2,1,70,0,1
147096,-83.3333333333333,4,2,1,70,0,1
148590,-100,4,2,1,70,0,0
151349,-71.4285714285714,4,2,1,70,0,1
152038,-83.3333333333333,4,2,1,70,0,1
152728,-100,4,2,1,70,0,1
154107,-71.4285714285714,4,2,1,70,0,1
154797,-100,4,2,1,70,0,1
156176,-83.3333333333333,4,2,1,70,0,1
156866,-71.4285714285714,4,2,1,70,0,1
157556,-83.3333333333333,4,2,1,70,0,1
158935,-100,4,2,1,70,0,1
159280,-125,4,2,1,70,0,1
159625,-71.4285714285714,4,2,1,70,0,1
160314,-83.3333333333333,4,2,1,70,0,1
162038,-100,4,2,1,70,0,1
162383,-71.4285714285714,4,2,1,70,0,1
163073,-83.3333333333333,4,2,1,70,0,1
165142,-71.4285714285714,4,2,1,70,0,1
165832,-83.3333333333333,4,2,1,70,0,1
166521,-100,4,2,1,70,0,1
167211,-83.3333333333333,4,2,1,70,0,1
167556,-100,4,2,1,70,0,1
167901,-71.4285714285714,4,2,1,70,0,1
168590,-100,4,2,1,70,0,1
169280,-83.3333333333333,4,2,1,70,0,1
170659,-83.3333333333333,4,2,1,60,0,0
171004,-125,4,2,1,60,0,0
171349,-100,4,2,1,60,0,0
171924,-83.3333333333333,4,2,1,60,0,0
172383,-100,4,2,1,60,0,0
172728,-125,4,2,1,60,0,0
173073,-100,4,2,1,60,0,0
173418,-83.3333333333333,4,2,1,60,0,0
173763,-125,4,2,1,60,0,0
174107,-100,4,2,1,60,0,0
175487,-125,4,2,1,60,0,0
176176,-83.3333333333333,4,2,1,60,0,0
176521,-125,4,2,1,60,0,0
176866,-100,4,2,1,60,0,0
177441,-83.3333333333333,4,2,1,60,0,0
177901,-100,4,2,1,60,0,0
178245,-125,4,2,1,60,0,0
178590,-100,4,2,1,60,0,0
178935,-83.3333333333333,4,2,1,60,0,0
179280,-125,4,2,1,60,0,0
179625,-100,4,2,1,60,0,0
179969,-125,4,2,1,60,0,0
180314,-83.3333333333333,4,2,1,60,0,0
181004,-100,4,2,1,60,0,0
181694,-83.3333333333333,4,2,1,60,0,0
182038,-125,4,2,1,60,0,0
182383,-100,4,2,1,60,0,0
182958,-83.3333333333333,4,2,1,60,0,0
183418,-100,4,2,1,60,0,0
183763,-125,4,2,1,60,0,0
184107,-100,4,2,1,60,0,0
184452,-83.3333333333333,4,2,1,60,0,0
184797,-125,4,2,1,60,0,0
185142,-100,4,2,1,60,0,0
186521,-125,4,2,1,60,0,0
186866,-100,4,2,1,60,0,0
187211,-83.3333333333333,4,2,1,60,0,0
187556,-125,4,2,1,60,0,0
187901,-100,4,2,1,60,0,0
188475,-83.3333333333333,4,2,1,60,0,0
188935,-100,4,2,1,60,0,0
189280,-125,4,2,1,60,0,0
189625,-100,4,2,1,60,0,0
189969,-83.3333333333333,4,2,1,60,0,0
190314,-125,4,2,1,60,0,0
190659,-100,4,2,1,60,0,0

[Colours]
Combo1 : 103,103,75
Combo2 : 219,219,183

[HitObjects]
256,192,27528,12,0,29563,0:0:0:0:
390,0,29970,6,0,P|438:36|448:95,1,119.999996337891,4|0,2:2|2:2,0:0:0:0:
510,155,30314,2,0,P|481:181|442:181,1,80,0|0,2:2|2:2,0:0:0:0:
312,239,30659,2,0,B|403:227|366:283|457:271,1,150,8|0,2:2|3:3,0:0:0:0:
109,362,31234,6,0,P|74:372|51:383,1,59.9999981689454,0|0,3:3|3:3,0:0:0:0:
53,383,31694,2,0,P|19:334|33:277,1,100,0|0,3:3|2:2,0:0:0:0:
160,240,32038,6,0,P|188:274|182:320,1,80,8|0,2:2|2:2,0:0:0:0:
183,321,32383,2,0,P|226:294|280:305,1,100,0|0,3:3|2:2,0:0:0:0:
60,212,32728,6,0,P|27:213|-10:196,2,59.9999981689454,4|0|0,2:2|0:0|2:2,0:0:0:0:
60,99,33073,2,0,P|99:98|133:78,1,80,0|0,2:2|2:2,0:0:0:0:
56,15,33418,2,0,P|33:58|44:106,1,100,8|0,2:2|3:3,0:0:0:0:
142,67,33763,1,0,3:3:0:0:
217,197,33992,5,0,3:3:0:0:
194,186,34107,2,0,P|183:237|178:337,1,150,0|0,3:3|3:3,0:0:0:0:
460,97,34682,5,0,2:2:0:0:
467,106,34797,2,0,P|478:136|482:164,2,40,8|0|0,2:2|0:0|0:0,0:0:0:0:
382,52,35142,1,0,2:2:0:0:
408,198,35372,5,0,0:0:0:0:
390,196,35487,2,0,P|331:202|274:220,1,119.999996337891,4|0,2:2|2:2,0:0:0:0:
193,185,35832,2,0,P|172:259|172:289,1,80,0|0,2:2|2:2,0:0:0:0:
114,384,36176,2,0,B|123:290|61:326|85:216,1,150,8|0,2:2|3:3,0:0:0:0:
13,34,36751,6,0,P|45:51|78:56,1,59.9999981689454,0|0,3:3|3:3,0:0:0:0:
68,55,37211,2,0,P|26:92|26:151,1,100,0|0,3:3|2:2,0:0:0:0:
118,179,37556,6,0,P|151:152|159:110,1,80,8|0,2:2|2:2,0:0:0:0:
155,103,37901,2,0,P|202:148|258:131,1,100,0|0,3:3|2:2,0:0:0:0:
327,27,38245,6,0,P|364:20|397:18,2,59.9999981689454,4|0|0,2:2|0:0|2:2,0:0:0:0:
464,134,38590,2,0,P|425:128|385:124,1,80,0|0,2:2|2:2,0:0:0:0:
437,225,38935,2,0,P|472:191|477:143,1,100,8|0,2:2|3:3,0:0:0:0:
373,130,39280,1,0,3:3:0:0:
262,293,39510,5,0,3:3:0:0:
286,287,39625,2,0,B|379:277|338:350|448:330,1,150,0|0,3:3|3:3,0:0:0:0:
264,177,40142,1,8,2:2:0:0:
475,141,40314,2,0,P|476:178|471:216,1,75,0|0,3:3|2:2,0:0:0:0:
303,81,40659,2,0,P|297:44|297:6,1,75,0|0,3:3|2:2,0:0:0:0:
448,0,41004,5,0,2:2:0:0:
448,0,41521,1,0,3:3:0:0:
471,216,41694,1,8,2:2:0:0:
448,0,42383,6,0,P|422:44|426:93,1,75,0|0,3:3|2:2,0:0:0:0:
324,101,42728,2,0,P|352:143|398:160,1,75,0|0,3:3|2:2,0:0:0:0:
471,216,43073,2,0,P|430:285|425:362,1,150,8|0,2:2|2:2,0:0:0:0:
512,365,43590,1,0,2:2:0:0:
339,384,43763,5,0,3:3:0:0:
339,384,44280,1,0,3:3:0:0:
192,200,44452,1,8,2:2:0:0:
339,384,45142,6,0,P|281:369|249:341,1,75,0|0,3:3|0:0,0:0:0:0:
251,260,45487,2,0,P|218:277|181:282,1,75,0|0,3:3|2:2,0:0:0:0:
60,244,45832,2,0,P|90:305|86:371,1,112.5,8|0,2:2|0:0,0:0:0:0:
91,348,46176,2,0,P|123:365|160:370,1,75,0|0,2:2|2:2,0:0:0:0:
0,318,46521,5,0,3:3:0:0:
0,318,47038,1,0,3:3:0:0:
224,266,47211,1,8,2:2:0:0:
0,318,47901,6,0,P|26:288|83:285,1,75,0|0,3:3|2:2,0:0:0:0:
80,186,48245,2,0,P|115:196|139:224,1,75,0|0,3:3|2:2,0:0:0:0:
228,271,48590,2,0,B|315:284|288:236|387:255,1,150,8|0,2:2|2:2,0:0:0:0:
351,353,49107,1,0,0:0:0:0:
253,162,49280,5,0,3:3:0:0:
253,162,49797,1,0,3:3:0:0:
448,37,49970,1,8,2:2:0:0:
448,37,50314,5,0,2:2:0:0:
512,113,50487,1,0,2:2:0:0:
354,74,50659,2,0,P|355:31|362:-15,1,75,0|0,3:3|2:2,0:0:0:0:
269,129,51004,1,0,3:3:0:0:
269,129,51176,1,0,2:2:0:0:
419,259,51349,2,0,P|366:260|302:275,1,112.5,8|0,2:2|2:2,0:0:0:0:
308,272,51694,2,0,P|303:309|302:346,1,75,0|0,2:2|2:2,0:0:0:0:
113,237,52038,6,0,P|55:158|81:102,1,150,0|0,2:2|2:2,0:0:0:0:
191,13,52556,1,0,3:3:0:0:
271,88,52728,2,0,P|234:97|168:107,1,75,8|0,2:2|2:2,0:0:0:0:
391,28,53073,2,0,P|354:21|317:12,1,75,0|0,2:2|2:2,0:0:0:0:
425,204,53418,5,0,3:3:0:0:
512,180,53590,1,0,2:2:0:0:
334,181,53763,2,0,P|328:269|327:314,1,112.5,0|0,3:3|2:2,0:0:0:0:
328,304,54107,1,8,2:2:0:0:
260,384,54280,2,0,P|216:331|131:357,1,150,0|0,2:2|2:2,0:0:0:0:
0,214,54797,6,0,B|90:225|54:175|158:187,1,150,0|0,3:3|2:2,0:0:0:0:
210,108,55314,1,0,3:3:0:0:
83,74,55487,2,0,P|79:36|80:0,1,75,8|0,2:2|2:2,0:0:0:0:
8,139,55832,2,0,L|-1:217,1,75,0|0,2:2|2:2,0:0:0:0:
162,370,56176,5,0,3:3:0:0:
154,280,56349,1,0,2:2:0:0:
143,185,56521,2,0,P|204:195|276:200,1,112.5,0|0,3:3|0:0,0:0:0:0:
265,200,56866,1,8,2:2:0:0:
355,280,57038,2,0,P|325:283|262:298,2,75,0|0|0,2:2|2:2|2:2,0:0:0:0:
512,91,57556,6,0,P|507:128|505:165,1,75,0|0,3:3|2:2,0:0:0:0:
300,97,57901,2,0,P|298:59|293:22,1,75,0|0,2:2|3:0,0:0:0:0:
404,189,58245,2,0,B|428:268|382:260|411:347,1,150,8|0,2:2|2:2,0:0:0:0:
490,299,58763,1,0,2:2:0:0:
265,274,58935,2,0,P|226:284|210:395,1,150,0|0,3:3|3:0,0:0:0:0:
287,360,59452,1,0,2:2:0:0:
129,215,59625,2,0,P|88:223|42:228,1,75,8|0,2:2|2:2,0:0:0:0:
361,4,60142,5,0,2:2:0:0:
435,50,60314,2,0,P|476:58|522:63,1,75,0|0,3:3|0:0,0:0:0:0:
242,54,60659,2,0,P|232:93|227:134,1,75,0|0,3:3|2:2,0:0:0:0:
303,247,61004,2,0,P|249:215|190:238,1,112.5,8|0,2:2|0:0,0:0:0:0:
196,235,61349,2,0,P|167:206|134:182,1,75,0|0,2:2|2:2,0:0:0:0:
58,108,61694,6,0,P|96:97|134:80,1,75,0|0,3:3|2:2,0:0:0:0:
392,180,62038,2,0,P|353:169|315:152,1,75,0|0,3:3|2:2,0:0:0:0:
125,259,62383,2,0,P|137:208|140:163,1,75,8|0,2:2|3:3,0:0:0:0:
307,326,62728,2,0,P|295:275|292:230,1,75,0|0,2:2|2:2,0:0:0:0:
238,37,63073,6,0,L|229:152,1,112.5,0|0,2:2|2:2,0:0:0:0:
318,142,65832,6,0,P|261:68|159:98,2,209.999993591309,4|0|8,2:2|2:2|2:2,0:0:0:0:
130,3,66866,1,0,2:2:0:0:
40,220,67096,5,0,3:3:0:0:
30,208,67211,2,0,P|14:159|33:108,1,100,0|0,3:3|2:2,0:0:0:0:
148,203,67556,2,0,P|134:256|134:316,1,100,0|0,3:3|2:2,0:0:0:0:
35,366,67901,1,8,2:2:0:0:
286,247,68245,6,0,P|341:253|365:304,1,100,0|0,2:2|2:2,0:0:0:0:
363,313,68590,2,0,P|367:180|434:114,1,209.999993591309,4|0,2:2|2:2,0:0:0:0:
512,131,69107,1,0,0:0:0:0:
436,29,69280,6,0,B|336:15|372:94|246:61,1,179.999994506836,8|0,2:2|0:0,0:0:0:0:
92,25,69855,1,0,3:3:0:0:
99,41,69970,1,0,3:3:0:0:
99,41,70314,5,0,3:3:0:0:
186,15,70487,1,0,3:3:0:0:
1,0,70659,2,0,P|12:72|17:159,1,150,8|0,2:2|3:3,0:0:0:0:
89,226,71176,1,0,0:0:0:0:
209,141,71349,6,0,P|298:189|237:206,2,209.999993591309,4|0|8,2:2|2:2|2:2,0:0:0:0:
395,243,72383,1,0,2:2:0:0:
165,360,72613,5,0,3:3:0:0:
179,354,72728,2,0,P|247:336|279:333,1,100,0|0,3:3|2:2,0:0:0:0:
449,349,73073,2,0,P|398:381|335:359,1,100,0|0,3:3|2:2,0:0:0:0:
304,186,73418,6,0,P|354:144|427:168,1,119.999996337891,8|0,2:2|2:2,0:0:0:0:
415,161,73763,2,0,P|397:92|395:62,1,100,0|0,3:3|3:3,0:0:0:0:
212,0,74107,6,0,P|195:89|184:227,2,209.999993591309,4|0|8,2:2|2:2|2:2,0:0:0:0:
70,175,75027,1,0,2:2:0:0:
98,164,75142,1,0,2:2:0:0:
324,292,75372,5,0,3:3:0:0:
294,286,75487,2,0,B|224:282|251:319|176:319,1,119.999996337891,0|0,3:3|2:2,0:0:0:0:
98,164,75832,2,0,P|187:211|183:241,1,119.999996337891,0|0,3:3|2:2,0:0:0:0:
72,374,76176,6,0,P|82:326|90:257,1,100,8|0,2:2|2:2,0:0:0:0:
88,263,76521,2,0,P|33:259|4:284,1,80,8|0,2:2|2:2,0:0:0:0:
235,103,76866,6,0,P|323:139|407:41,2,209.999993591309,4|0|8,2:2|2:2|2:2,0:0:0:0:
462,1,77901,1,0,3:3:0:0:
328,139,78130,5,0,3:3:0:0:
336,154,78245,2,0,P|349:215|349:292,1,119.999996337891,0|0,3:3|2:2,0:0:0:0:
335,384,78590,2,0,P|405:351|441:366,1,119.999996337891,0|0,3:3|2:2,0:0:0:0:
263,316,78935,1,8,2:2:0:0:
492,222,79280,6,0,P|447:222|370:197,1,100,0|0,3:3|2:2,0:0:0:0:
375,197,79625,2,0,P|373:84|477:58,1,209.999993591309,4|0,2:2|2:2,0:0:0:0:
512,118,80142,1,0,0:0:0:0:
358,104,80314,6,0,B|293:99|246:35|246:35|265:57|263:94,1,179.999994506836,8|0,2:2|2:2,0:0:0:0:
98,112,80889,1,0,3:3:0:0:
115,106,81004,1,0,3:3:0:0:
115,106,81349,5,0,3:3:0:0:
0,63,81521,1,0,3:3:0:0:
92,219,81694,2,0,P|161:191|212:187,2,100,8|0|0,2:2|2:2|2:2,0:0:0:0:
289,345,82383,6,0,P|192:318|71:323,2,209.999993591309,4|0|8,2:2|2:2|2:2,0:0:0:0:
230,119,83418,1,0,2:2:0:0:
395,276,83648,5,0,3:3:0:0:
408,268,83763,2,0,P|431:209|417:163,1,100,0|0,3:3|2:2,0:0:0:0:
345,58,84107,2,0,P|333:113|327:179,1,100,0|0,3:3|2:2,0:0:0:0:
185,335,84452,6,0,P|177:247|160:174,1,119.999996337891,8|0,2:2|2:2,0:0:0:0:
50,158,84797,2,0,P|112:146|143:97,1,119.999996337891,0|0,2:2|2:2,0:0:0:0:
16,22,85142,6,0,P|4:105|3:248,2,209.999993591309,4|0|8,2:2|2:2|2:2,0:0:0:0:
62,309,86061,1,0,2:2:0:0:
49,317,86176,2,0,P|20:328|-22:331,1,50,0|0,2:2|2:2,0:0:0:0:
235,230,86406,5,0,3:3:0:0:
260,232,86521,2,0,P|305:167|232:135,1,179.999994506836,0|0,3:3|3:3,0:0:0:0:
156,22,87096,2,0,P|219:35|288:27,1,119.999996337891,0|0,3:3|2:2,0:0:0:0:
415,70,87441,1,0,3:3:0:0:
403,57,87556,2,0,P|389:16|389:-15,2,59.9999981689454,8|0|0,2:2|0:0|2:2,0:0:0:0:
512,234,87901,6,0,P|462:268|451:334,1,119.999996337891,4|0,2:2|2:2,0:0:0:0:
383,384,88245,2,0,P|343:345|294:345,1,80,0|0,2:2|3:3,0:0:0:0:
204,281,88590,2,0,P|313:248|365:250,1,150,8|0,2:2|3:3,0:0:0:0:
52,160,89280,5,0,3:3:0:0:
52,160,89625,2,0,P|23:215|34:265,1,100,0|0,2:2|2:2,0:0:0:0:
204,280,89970,6,0,P|222:230|212:191,1,80,8|0,2:2|2:2,0:0:0:0:
211,191,90314,2,0,P|275:193|326:204,1,100,0|0,2:2|2:2,0:0:0:0:
436,94,90659,6,0,P|397:103|357:105,2,59.9999981689454,4|0|0,2:2|0:0|2:2,0:0:0:0:
241,7,91004,2,0,P|254:57|258:110,1,80,0|0,2:2|2:2,0:0:0:0:
151,54,91349,2,0,P|179:13|226:-1,1,100,8|0,2:2|3:3,0:0:0:0:
254,101,91694,1,0,3:3:0:0:
5,229,91923,5,0,3:3:0:0:
28,219,92038,2,0,B|124:208|85:257|175:256,1,150,0|0,3:3|3:3,0:0:0:0:
305,350,92613,1,0,2:2:0:0:
292,351,92728,2,0,P|260:356|233:369,2,40,8|0|0,2:2|0:0|0:0,0:0:0:0:
391,368,93073,1,8,2:2:0:0:
373,101,93303,5,0,0:0:0:0:
362,115,93418,2,0,P|334:196|332:251,1,119.999996337891,4|0,2:2|2:2,0:0:0:0:
245,142,93763,2,0,P|241:85|258:38,1,80,0|0,2:2|2:2,0:0:0:0:
472,77,94107,2,0,P|435:14|363:0,1,150,8|0,2:2|3:3,0:0:0:0:
440,310,94682,6,0,P|469:307|508:293,1,59.9999981689454,0|0,3:3|3:3,0:0:0:0:
498,297,95142,2,0,P|483:364|436:383,1,100,0|0,3:3|2:2,0:0:0:0:
318,306,95487,6,0,P|337:250|379:222,1,80,8|0,2:2|2:2,0:0:0:0:
365,231,95832,2,0,P|306:197|257:213,1,100,0|0,2:2|2:2,0:0:0:0:
125,347,96176,6,0,P|86:353|39:351,2,59.9999981689454,4|0|0,2:2|0:0|2:2,0:0:0:0:
8,237,96521,2,0,L|88:252,1,80,0|0,2:2|2:2,0:0:0:0:
35,141,96866,2,0,P|1:179|2:234,1,100,8|0,2:2|3:3,0:0:0:0:
100,245,97211,1,0,3:3:0:0:
238,85,97441,5,0,2:2:0:0:
238,100,97556,2,0,P|241:124|248:149,2,50,8|0|0,2:2|0:0|0:0,0:0:0:0:
358,26,97901,1,8,2:2:0:0:
384,12,98015,1,0,0:0:0:0:
413,10,98130,1,0,0:0:0:0:
442,14,98245,2,0,P|438:38|432:62,1,50,8|0,2:2|0:0,0:0:0:0:
494,206,98475,1,0,0:0:0:0:
481,199,98590,2,0,P|461:183|443:166,2,50,8|0|0,2:2|0:0|0:0,0:0:0:0:
348,126,98935,5,4,2:2:0:0:
103,179,100314,6,0,P|96:211|95:232,1,40,0|0,3:3|0:0,0:0:0:0:
391,264,101004,6,0,P|398:296|399:317,1,40,0|0,3:3|0:0,0:0:0:0:
236,374,101694,6,0,B|216:283|255:312|233:222,1,150,0|0,3:3|2:2,0:0:0:0:
143,266,102211,1,0,3:3:0:0:
356,331,102383,1,8,2:2:0:0:
236,374,103073,6,0,P|185:378|141:376,1,75,0|0,3:3|0:0,0:0:0:0:
143,266,103418,1,0,3:3:0:0:
143,266,103590,1,0,2:2:0:0:
356,331,103763,2,0,P|409:281|360:201,1,150,8|0,2:2|3:3,0:0:0:0:
239,15,104452,6,0,P|228:78|223:170,1,150,0|0,3:3|2:2,0:0:0:0:
297,215,104969,1,0,3:3:0:0:
138,138,105142,1,8,2:2:0:0:
239,15,105832,6,0,P|235:84|235:107,1,75,0|0,3:3|2:2,0:0:0:0:
297,215,106176,2,0,P|239:177|219:165,1,75,0|0,3:3|2:2,0:0:0:0:
138,138,106521,2,0,P|81:155|18:171,1,112.5,8|0,2:2|0:0,0:0:0:0:
19,172,106866,2,0,P|7:230|9:269,1,75,0|0,3:3|2:2,0:0:0:0:
168,371,107211,6,0,P|178:300|121:256,1,150,0|0,3:3|0:0,0:0:0:0:
54,324,107728,1,0,3:3:0:0:
265,355,107901,1,8,2:2:0:0:
265,355,108245,1,0,2:2:0:0:
265,355,108590,6,0,P|261:317|257:255,1,75,0|0,3:3|2:2,0:0:0:0:
404,219,108935,2,0,P|401:256|397:293,1,75,0|0,3:3|2:2,0:0:0:0:
288,150,109280,2,0,P|356:101|426:137,1,150,8|0,2:2|3:3,0:0:0:0:
182,43,109969,5,0,3:3:0:0:
256,0,110142,1,0,2:2:0:0:
90,46,110314,2,0,P|100:96|103:132,1,75,0|0,2:2|3:3,0:0:0:0:
7,3,110659,1,8,2:2:0:0:
0,205,110832,2,0,B|82:178|57:237|162:205,1,150,0|0,2:2|2:2,0:0:0:0:
357,81,111349,5,0,3:3:0:0:
268,107,111521,1,0,2:2:0:0:
377,204,111694,1,0,3:3:0:0:
507,153,111866,2,0,P|500:79|491:3,1,150,0|0,2:2|2:2,0:0:0:0:
377,204,112383,2,0,P|402:253|415:300,1,75,0|0,3:3|2:2,0:0:0:0:
225,367,112728,6,0,P|251:292|332:292,1,150,0|0,3:3|2:2,0:0:0:0:
333,375,113245,1,0,3:3:0:0:
141,311,113418,1,8,2:2:0:0:
141,311,113590,2,0,P|134:269|122:227,1,75,0|0,2:2|3:3,0:0:0:0:
34,192,113935,1,0,2:2:0:0:
246,129,114107,5,0,3:3:0:0:
229,202,114280,2,0,P|235:165|246:129,1,75,0|0,2:2|3:3,0:0:0:0:
79,0,114625,2,0,P|138:50|206:38,1,150,0|0,2:2|2:2,0:0:0:0:
324,0,115142,6,0,P|335:35|340:72,1,75,0|0,3:3|2:2,0:0:0:0:
245,129,115487,1,0,3:3:0:0:
442,90,115659,5,0,2:2:0:0:
463,95,115832,1,0,2:2:0:0:
310,226,116004,5,0,3:3:0:0:
289,231,116177,1,8,2:2:0:0:
448,218,116349,5,0,2:2:0:0:
365,147,116521,1,0,3:3:0:0:
417,331,116694,1,0,2:2:0:0:
266,310,116866,5,0,3:3:0:0:
289,231,117038,1,0,2:2:0:0:
188,337,117211,5,0,3:3:0:0:
201,218,117383,1,0,2:2:0:0:
116,375,117556,5,8,2:2:0:0:
115,219,117728,1,0,2:2:0:0:
0,289,117901,5,0,3:3:0:0:
84,299,118073,1,0,2:2:0:0:
142,140,118245,6,0,B|56:122|80:179|-6:164,1,150,0|0,3:3|2:2,0:0:0:0:
19,74,118763,1,0,3:3:0:0:
178,7,118935,2,0,P|249:50|183:124,1,150,8|0,2:2|3:3,0:0:0:0:
142,140,119452,1,0,2:2:0:0:
283,249,119625,6,0,P|297:214|307:178,1,75,0|0,3:3|2:2,0:0:0:0:
63,219,119969,2,0,P|86:247|114:273,1,75,0|0,3:3|2:2,0:0:0:0:
192,224,120315,2,0,P|181:188|165:154,1,75,8|0,2:2|2:2,0:0:0:0:
22,355,120659,2,0,P|58:361|96:363,1,75,0|0,2:2|2:2,0:0:0:0:
222,306,121004,6,0,B|281:301|293:277|282:250|282:250|256:265|251:293|302:332,1,202.5,0|0,2:2|2:2,0:0:0:0:
378,384,125832,6,0,P|409:372|428:369,1,30,0|0,3:3|2:2,0:0:0:0:
500,320,126176,2,0,P|469:308|450:305,1,30,0|0,3:3|2:2,0:0:0:0:
420,72,126521,6,0,P|392:165|386:290,2,209.999993591309,4|0|8,2:2|2:2|2:2,0:0:0:0:
257,219,127556,1,0,2:2:0:0:
161,97,127786,5,0,3:3:0:0:
174,103,127901,2,0,P|233:105|293:73,1,100,0|0,3:3|2:2,0:0:0:0:
335,24,128245,2,0,P|380:61|448:71,1,100,0|0,3:3|2:2,0:0:0:0:
484,7,128590,1,8,2:2:0:0:
269,201,128935,6,0,P|253:169|261:96,1,100,0|0,3:3|2:2,0:0:0:0:
270,90,129280,2,0,P|255:209|253:303,1,209.999993591309,4|0,2:2|2:2,0:0:0:0:
352,316,129797,1,0,0:0:0:0:
116,275,129969,6,0,P|80:327|171:307,1,179.999994506836,8|0,2:2|3:3,0:0:0:0:
22,177,130544,1,0,3:3:0:0:
4,181,130659,1,0,3:3:0:0:
4,181,131004,5,0,3:3:0:0:
99,197,131176,1,0,3:3:0:0:
255,84,131349,2,0,P|193:9|144:27,1,150,8|8,2:2|2:2,0:0:0:0:
101,100,131866,1,0,0:0:0:0:
278,212,132038,6,0,P|393:172|490:171,2,209.999993591309,4|0|8,2:2|2:2|2:2,0:0:0:0:
255,84,133073,1,0,2:2:0:0:
400,211,133303,5,0,3:3:0:0:
398,228,133418,2,0,P|392:292|391:353,1,119.999996337891,0|0,3:3|2:2,0:0:0:0:
271,284,133763,2,0,P|209:242|212:180,1,119.999996337891,0|0,3:3|0:0,0:0:0:0:
472,182,134107,5,8,2:2:0:0:
278,212,134337,1,0,2:2:0:0:
484,290,134567,1,0,2:2:0:0:
383,61,134797,6,0,P|255:83|134:95,2,209.999993591309,4|0|8,2:2|2:2|2:2,0:0:0:0:
162,197,135717,1,0,2:2:0:0:
137,184,135832,1,0,3:3:0:0:
44,13,136061,5,0,3:3:0:0:
64,0,136176,2,0,P|88:64|57:123,1,119.999996337891,0|0,3:3|2:2,0:0:0:0:
18,198,136521,2,0,P|82:196|150:178,1,119.999996337891,0|0,3:3|2:2,0:0:0:0:
222,313,136866,6,0,P|164:298|121:295,1,100,8|0,2:2|2:2,0:0:0:0:
124,295,137211,2,0,P|96:341|95:374,1,80,0|0,3:3|3:3,0:0:0:0:
372,227,137556,6,0,P|339:120|239:127,2,209.999993591309,4|0|8,2:2|2:2|2:2,0:0:0:0:
166,100,138590,1,0,2:2:0:0:
383,1,138820,5,0,3:3:0:0:
378,18,138935,2,0,P|363:79|357:143,1,119.999996337891,0|0,3:3|2:2,0:0:0:0:
446,287,139280,2,0,P|466:223|453:173,1,100,0|0,3:3|2:2,0:0:0:0:
278,224,139625,2,0,P|292:279|340:315,1,100,8|0,2:2|2:2,0:0:0:0:
372,227,139970,5,0,3:3:0:0:
219,363,140199,1,0,3:3:0:0:
200,372,140314,2,0,B|80:389|126:308|-5:338,1,209.999993591309,4|0,2:2|2:2,0:0:0:0:
176,251,140832,1,0,0:0:0:0:
40,174,141004,6,0,P|54:218|56:278,2,75,8|0|0,2:2|0:0|3:3,0:0:0:0:
0,48,141579,1,0,3:3:0:0:
12,56,141694,2,0,P|46:70|83:77,1,75,0|0,3:3|0:0,0:0:0:0:
297,163,142038,5,0,3:3:0:0:
200,179,142211,1,0,2:2:0:0:
386,141,142383,2,0,P|382:193|381:251,1,80,8|0,2:2|2:2,0:0:0:0:
381,220,142843,1,0,2:2:0:0:
490,60,143073,6,0,P|483:170|478:293,2,209.999993591309,4|0|8,2:2|2:2|2:2,0:0:0:0:
297,163,144107,1,0,2:2:0:0:
181,5,144337,5,0,3:3:0:0:
184,19,144452,2,0,P|190:91|191:145,1,100,0|0,3:3|2:2,0:0:0:0:
128,272,144797,2,0,P|102:217|133:165,1,100,0|0,3:3|2:2,0:0:0:0:
297,163,145142,6,0,P|314:226|285:275,1,119.999996337891,8|0,2:2|2:2,0:0:0:0:
289,271,145487,2,0,P|326:276|409:305,1,100,0|0,3:3|2:2,0:0:0:0:
189,118,145832,6,0,P|111:181|13:156,1,209.999993591309,4|0,2:2|0:0,0:0:0:0:
51,66,146349,1,0,0:0:0:0:
154,204,146521,6,0,P|156:231|158:258,1,50,8|0,2:2|2:2,0:0:0:0:
191,348,146751,2,0,P|144:339|79:331,1,100,0|0,2:2|2:2,0:0:0:0:
286,315,147096,5,0,3:3:0:0:
303,310,147211,1,8,2:2:0:0:
477,245,147441,5,0,3:3:0:0:
460,240,147556,1,8,2:2:0:0:
394,384,147786,5,0,3:3:0:0:
401,367,147901,2,0,B|427:294|350:307|322:242|352:164|439:151|519:208|460:290,1,299.999990844727,8|8,2:2|2:2,0:0:0:0:
310,354,148590,6,0,P|261:343|205:345,1,100,4|0,2:2|2:2,0:0:0:0:
196,348,148935,2,0,P|158:289|170:241,1,100,0|0,3:3|2:2,0:0:0:0:
338,63,149280,6,0,P|316:126|310:187,1,100,4|0,2:2|2:2,0:0:0:0:
311,173,149625,2,0,P|229:146|222:126,1,100,0|0,3:3|2:2,0:0:0:0:
27,11,149970,6,0,P|88:2|155:0,1,100,4|0,2:2|3:3,0:0:0:0:
141,0,150314,1,0,3:3:0:0:
21,117,150544,2,0,L|17:141,2,25,0|0|8,3:3|3:3|2:2,0:0:0:0:
122,90,150889,1,0,3:3:0:0:
124,104,151004,2,0,L|136:229,1,100,8|0,2:2|2:2,0:0:0:0:
380,317,151349,6,0,P|387:236|408:90,1,209.999993591309,4|0,2:2|2:2,0:0:0:0:
256,192,151866,1,0,0:0:0:0:
339,14,152038,2,0,B|455:-1|405:60|511:40,1,179.999994506836,8|0,2:2|0:0,0:0:0:0:
196,5,152613,1,0,3:3:0:0:
202,18,152728,2,0,P|219:94|220:128,1,100,0|0,3:3|0:0,0:0:0:0:
104,95,153073,5,0,3:3:0:0:
339,14,153245,1,0,2:2:0:0:
253,201,153418,2,0,P|204:202|155:194,2,75,8|0|0,2:2|0:0|3:3,0:0:0:0:
0,354,153992,5,0,2:2:0:0:
15,339,154107,2,0,P|110:310|176:410,2,209.999993591309,4|0|8,2:2|2:2|2:2,0:0:0:0:
200,219,155142,1,0,2:2:0:0:
341,350,155372,1,0,3:3:0:0:
342,335,155487,2,0,P|349:267|363:216,1,100,0|0,3:3|2:2,0:0:0:0:
493,158,155832,2,0,P|503:206|507:256,1,100,0|0,3:3|2:2,0:0:0:0:
347,81,156176,6,0,P|432:79|474:32,1,119.999996337891,8|0,2:2|2:2,0:0:0:0:
387,0,156521,1,0,3:3:0:0:
69,88,156751,5,0,2:2:0:0:
80,107,156866,2,0,P|105:208|116:325,2,209.999993591309,4|0|8,2:2|2:2|2:2,0:0:0:0:
31,366,157901,1,0,2:2:0:0:
231,253,158130,5,0,3:3:0:0:
218,238,158245,2,0,P|153:210|102:217,1,119.999996337891,0|0,3:3|2:2,0:0:0:0:
0,252,158590,2,0,P|7:197|14:114,1,119.999996337891,0|0,3:3|2:2,0:0:0:0:
132,0,158935,6,0,P|142:49|147:102,1,100,8|0,2:2|2:2,0:0:0:0:
147,98,159280,2,0,P|193:88|253:82,1,80,0|0,3:3|2:2,0:0:0:0:
388,293,159625,6,0,P|277:320|231:233,2,209.999993591309,4|0|8,2:2|2:2|2:2,0:0:0:0:
236,107,160659,1,0,2:2:0:0:
458,0,160889,5,0,3:3:0:0:
455,17,161004,2,0,P|450:82|446:160,1,119.999996337891,0|0,3:3|2:2,0:0:0:0:
504,207,161349,2,0,P|509:272|513:350,1,119.999996337891,0|0,3:3|2:2,0:0:0:0:
447,384,161694,1,8,2:2:0:0:
230,252,162038,6,0,P|290:250|336:267,1,100,0|0,3:3|2:2,0:0:0:0:
343,276,162383,2,0,B|233:304|260:211|134:259,1,209.999993591309,4|0,2:2|2:2,0:0:0:0:
22,148,162901,1,0,0:0:0:0:
249,34,163073,6,0,P|319:114|293:196,1,179.999994506836,8|0,2:2|2:2,0:0:0:0:
102,28,163648,1,0,3:3:0:0:
107,10,163763,1,0,3:3:0:0:
107,6,164107,5,0,3:3:0:0:
226,127,164280,1,0,2:2:0:0:
70,257,164452,2,0,P|63:197|49:117,2,119.999996337891,8|0|0,2:2|2:2|2:2,0:0:0:0:
323,176,165142,6,0,P|307:279|298:384,1,209.999993591309,4|0,2:2|3:3,0:0:0:0:
198,221,165659,1,0,0:0:0:0:
413,163,165832,2,0,P|340:87|263:106,1,179.999994506836,8|0,2:2|2:2,0:0:0:0:
88,341,166406,5,0,3:3:0:0:
105,338,166521,2,0,P|186:329|230:329,1,100,4|0,2:2|2:2,0:0:0:0:
356,354,166866,2,0,P|307:288|286:250,1,100,0|0,3:3|2:2,0:0:0:0:
203,101,167211,6,0,L|197:243,1,119.999996337891,8|0,2:2|2:2,0:0:0:0:
197,220,167556,2,0,P|160:242|88:235,1,100,0|0,2:2|2:2,0:0:0:0:
30,78,167901,6,0,P|110:39|210:131,2,209.999993591309,4|0|8,2:2|2:2|2:2,0:0:0:0:
296,2,168820,1,0,3:3:0:0:
292,16,168935,2,0,P|287:66|288:83,1,50,8|0,2:2|0:0,0:0:0:0:
350,174,169165,5,0,3:3:0:0:
362,186,169280,2,0,P|456:182|503:101,1,179.999994506836,8|8,2:2|2:2,0:0:0:0:
406,96,169740,2,0,P|420:152|434:297,1,179.999994506836,0|8,2:2|2:2,0:0:0:0:
431,370,170199,1,8,2:2:0:0:
447,363,170314,2,0,P|489:351|523:352,2,59.9999981689454,8|8|8,2:2|2:2|2:2,0:0:0:0:
297,296,170659,6,0,P|255:265|157:286,1,119.999996337891,4|0,2:2|2:2,0:0:0:0:
142,186,171004,2,0,P|103:221|101:277,1,80,0|0,2:2|2:2,0:0:0:0:
22,348,171349,2,0,P|16:292|-1:197,1,150,8|0,2:2|3:3,0:0:0:0:
251,3,171924,6,0,L|241:72,1,59.9999981689454,0|0,3:3|3:3,0:0:0:0:
243,63,172383,2,0,P|302:72|351:54,1,100,0|0,3:3|2:2,0:0:0:0:
478,0,172728,6,0,P|450:30|439:70,1,80,8|0,2:2|2:2,0:0:0:0:
383,150,173073,2,0,P|402:215|407:273,1,100,0|0,3:3|3:3,0:0:0:0:
192,353,173418,6,0,P|196:312|206:269,2,59.9999981689454,4|0|0,2:2|0:0|2:2,0:0:0:0:
67,239,173763,2,0,P|151:223|175:206,1,80,0|0,3:3|2:2,0:0:0:0:
74,135,174107,2,0,P|54:173|66:259,1,100,8|0,2:2|3:3,0:0:0:0:
154,212,174452,1,0,3:3:0:0:
361,367,174682,5,0,3:3:0:0:
337,358,174797,2,0,B|254:338|272:391|185:370,1,150,0|0,3:3|3:3,0:0:0:0:
448,295,175372,1,0,2:2:0:0:
453,308,175487,2,0,P|460:334|465:368,2,40,8|0|0,2:2|0:0|0:0,0:0:0:0:
355,264,175832,1,8,2:2:0:0:
469,175,176061,5,0,0:0:0:0:
477,162,176176,2,0,P|498:83|499:28,1,119.999996337891,4|0,2:2|2:2,0:0:0:0:
404,63,176521,2,0,P|358:26|309:31,1,80,0|0,2:2|2:2,0:0:0:0:
229,152,176866,2,0,B|321:130|290:177|387:156,1,150,8|0,2:2|3:3,0:0:0:0:
103,42,177441,6,0,P|66:46|28:57,1,59.9999981689454,0|0,3:3|3:3,0:0:0:0:
44,52,177901,2,0,P|22:111|32:149,1,100,0|0,3:3|2:2,0:0:0:0:
187,239,178245,6,0,P|204:203|199:163,1,80,8|0,2:2|2:2,0:0:0:0:
199,164,178590,2,0,P|265:154|322:159,1,100,0|0,3:3|2:2,0:0:0:0:
417,70,178935,6,0,P|382:63|350:62,2,59.9999981689454,4|0|0,2:2|0:0|2:2,0:0:0:0:
413,190,179280,2,0,P|397:259|399:293,1,80,0|0,2:2|2:2,0:0:0:0:
498,238,179625,2,0,P|470:190|428:183,1,100,8|0,2:2|3:3,0:0:0:0:
408,282,179969,1,0,3:3:0:0:
196,340,180199,5,0,3:3:0:0:
209,327,180314,2,0,P|302:313|357:385,1,179.999994506836,0|0,3:3|3:3,0:0:0:0:
112,384,181004,2,0,P|108:333|90:278,2,75,8|0|8,2:2|2:2|2:2,0:0:0:0:
66,157,181694,6,0,P|119:183|179:178,1,119.999996337891,4|0,2:2|2:2,0:0:0:0:
263,126,182038,2,0,P|267:184|277:242,1,80,0|0,2:2|2:2,0:0:0:0:
379,89,182383,2,0,P|362:25|264:9,1,150,8|0,2:2|3:3,0:0:0:0:
424,237,182958,6,0,P|464:229|499:224,1,59.9999981689454,0|0,3:3|3:3,0:0:0:0:
482,226,183418,2,0,P|486:297|462:333,1,100,0|0,3:3|2:2,0:0:0:0:
370,377,183763,6,0,P|340:341|337:297,1,80,8|0,2:2|3:3,0:0:0:0:
335,309,184107,2,0,P|286:341|218:328,1,100,0|0,3:3|2:2,0:0:0:0:
145,310,184452,6,0,P|152:368|152:398,2,59.9999981689454,4|0|0,2:2|0:0|2:2,0:0:0:0:
262,240,184797,2,0,P|267:199|269:136,1,80,0|0,2:2|2:2,0:0:0:0:
172,192,185142,2,0,P|201:232|248:245,1,100,8|0,2:2|3:3,0:0:0:0:
258,150,185487,1,0,3:3:0:0:
41,95,185717,5,0,3:3:0:0:
46,108,185832,2,0,P|60:186|65:269,1,150,0|0,3:3|3:3,0:0:0:0:
91,19,186406,1,0,2:2:0:0:
79,14,186521,2,0,P|29:6|10:9,2,40,8|0|0,0:0|0:0|0:0,0:0:0:0:
141,99,186866,1,8,0:0:0:0:
303,26,187096,5,0,0:0:0:0:
320,30,187211,2,0,P|380:37|461:41,1,119.999996337891,4|0,2:2|2:2,0:0:0:0:
499,122,187556,2,0,P|463:134|394:138,1,80,0|0,2:2|2:2,0:0:0:0:
322,131,187901,2,0,P|331:207|332:284,1,150,8|0,2:2|3:3,0:0:0:0:
166,380,188475,6,0,P|170:337|176:291,1,59.9999981689454,0|0,3:3|3:3,0:0:0:0:
171,320,188935,2,0,P|223:294|284:314,1,100,0|0,3:3|2:2,0:0:0:0:
352,350,189280,6,0,P|391:373|437:368,1,80,8|0,2:2|3:3,0:0:0:0:
424,372,189625,2,0,P|447:289|443:262,1,100,0|0,3:3|2:2,0:0:0:0:
313,161,189969,6,0,P|345:172|383:174,2,59.9999981689454,4|0|0,2:2|0:0|2:2,0:0:0:0:
502,63,190314,2,0,P|453:49|398:66,1,80,0|0,2:2|2:2,0:0:0:0:
457,151,190659,2,0,P|507:98|497:34,1,100,8|0,2:2|2:2,0:0:0:0:
415,61,191004,1,0,2:2:0:0:
209,32,191234,1,0,3:3:0:0:
216,45,191349,2,0,B|237:123|193:111|216:197,1,150,0|0,3:3|3:3,0:0:0:0:
270,295,192038,5,8,2:2:0:0:
240,280,192152,1,0,0:0:0:0:
207,279,192267,1,0,0:0:0:0:
175,290,192382,1,8,2:2:0:0:
151,312,192497,1,0,0:0:0:0:
137,342,192612,1,0,0:0:0:0:
136,376,192727,1,0,2:2:0:0:
