osu file format v14

[General]
AudioFilename: audio.mp3
AudioLeadIn: 0
PreviewTime: 18281
Countdown: 0
SampleSet: Drum
StackLeniency: 0.8
Mode: 0
LetterboxInBreaks: 0
WidescreenStoryboard: 1

[Editor]
Bookmarks: 6288,18281,24281,37031,49031,61781,73781,85781,91781,103781,117281,129281,153281,159281,183281
DistanceSpacing: 0.6
BeatDivisor: 4
GridSize: 16
TimelineZoom: 2

[Metadata]
Title:Ichizu
TitleUnicode:一途
Artist:King Gnu
ArtistUnicode:King Gnu
Creator:AirinCat
Version:moph's Expert
Source:劇場版 呪術廻戦 0
Tags:moph only one way jjk Gekijouban jujutsu kaisen 0 zero movie anime sorcery fight theme japanese rock jrock
BeatmapID:3687389
BeatmapSetID:1768259

[Difficulty]
HPDrainRate:5
CircleSize:3.8
OverallDifficulty:8.5
ApproachRate:9.2
SliderMultiplier:1.8
SliderTickRate:1

[Events]
//Background and Video events
0,0,"get.jpg",0,0
//Break Periods
2,18488,23530
2,85988,88218
2,103988,109218
2,153488,155718
//Storyboard Layer 0 (Background)
//Storyboard Layer 1 (Fail)
//Storyboard Layer 2 (Pass)
//Storyboard Layer 3 (Foreground)
//Storyboard Layer 4 (Overlay)
//Storyboard Sound Samples

[TimingPoints]
288,375,4,3,1,30,1,0
288,-166.666666666667,4,3,1,30,0,0
850,-125,4,3,1,30,0,0
1788,-83.3333333333333,4,3,1,40,0,0
2350,-100,4,3,1,40,0,0
3288,-83.3333333333333,4,3,1,50,0,0
3850,-125,4,3,1,50,0,0
4788,-125,4,3,1,60,0,0
5163,-60.0240096038415,4,3,1,60,0,0
5538,-60.0240096038415,4,3,1,70,0,0
6288,-75.0187546886722,4,3,1,70,0,0
18288,-125,4,2,1,50,0,0
24288,-100,4,2,1,60,0,0
36288,-200,4,2,1,30,0,0
36850,-100,4,2,1,30,0,0
37038,375,4,2,1,70,1,0
37038,-66.6666666666667,4,2,1,70,0,0
37413,-66.6666666666667,4,3,1,70,0,0
47725,-58.8235294117647,4,3,1,70,0,0
49788,-100,4,2,1,70,0,0
50163,-100,4,2,1,70,0,0
50538,-100,4,2,1,60,0,0
50913,-100,4,2,1,60,0,0
52038,-100,4,2,1,60,0,0
52413,-100,4,2,1,60,0,0
55038,-83.3333333333333,4,2,1,60,0,0
60850,-133.333333333333,4,2,1,60,0,0
61038,-58.8235294117647,4,2,1,60,0,0
61788,375,4,2,1,70,1,0
61788,-66.6666666666667,4,2,1,70,0,0
62163,-66.6666666666667,4,3,1,70,0,0
62538,-66.6666666666667,4,3,1,70,0,0
71725,-58.8235294117647,4,3,1,70,0,0
73788,-75.187969924812,4,3,1,70,0,0
74163,-58.8235294117647,4,3,1,80,0,1
74538,-58.8235294117647,4,3,1,80,0,1
75850,-71.4285714285714,4,3,1,80,0,1
76225,-58.8235294117647,4,3,1,80,0,1
77350,-71.4285714285714,4,3,1,80,0,1
77725,-58.8235294117647,4,3,1,80,0,1
81850,-71.4285714285714,4,3,1,80,0,1
82225,-58.8235294117647,4,3,1,80,0,1
83350,-71.4285714285714,4,3,1,80,0,1
83725,-58.8235294117647,4,3,1,80,0,1
85788,-100,4,2,1,70,0,0
86163,-100,4,2,1,40,0,0
91694,-100,4,3,1,70,0,0
101913,-71.4285714285714,4,2,1,70,0,0
102288,-58.8235294117647,4,2,1,70,0,0
103788,-100,4,2,1,50,0,0
104163,-100,4,2,1,30,0,0
109788,-100,4,2,1,50,0,0
112788,-100,4,2,1,70,0,0
114475,-100,4,2,1,40,0,0
116444,-100,4,2,1,5,0,0
116538,-100,4,2,1,70,0,0
117288,-66.6666666666667,4,3,1,70,0,0
127788,-58.8235294117647,4,3,1,70,0,0
129288,-75.187969924812,4,2,1,70,0,0
129663,-58.8235294117647,4,3,1,80,0,1
131350,-71.4285714285714,4,3,1,80,0,1
131725,-58.8235294117647,4,3,1,80,0,1
132850,-71.4285714285714,4,3,1,80,0,1
133225,-58.8235294117647,4,3,1,80,0,1
137350,-71.4285714285714,4,3,1,80,0,1
137725,-58.8235294117647,4,3,1,80,0,1
138850,-71.4285714285714,4,3,1,80,0,1
139225,-58.8235294117647,4,3,1,80,0,1
141288,-66.6666666666667,4,3,1,80,0,1
147288,-71.4285714285714,4,3,1,80,0,1
147663,-58.8235294117647,4,3,1,80,0,1
149350,-71.4285714285714,4,3,1,80,0,1
149725,-58.8235294117647,4,3,1,80,0,1
150850,-71.4285714285714,4,3,1,80,0,1
151225,-58.8235294117647,4,3,1,80,0,1
153288,-58.8235294117647,4,2,1,70,0,0
159288,-58.8235294117647,4,3,1,80,0,1
183288,-166.666666666667,4,2,1,70,0,0

[Colours]
Combo1 : 242,179,181
Combo2 : 216,176,255
Combo3 : 233,177,237

[HitObjects]
32,350,288,6,0,L|27:324,3,26.9999991760254,2|0|0|0,0:3|0:2|0:2|0:2,0:0:0:0:
56,251,663,2,0,L|48:212,1,26.9999991760254,8|0,0:2|0:2,0:0:0:0:
109,351,850,6,0,L|102:316,3,36,2|0|0|0,0:3|0:2|0:2|0:2,0:0:0:0:
132,244,1225,2,0,L|123:204,1,36,0|0,0:2|0:2,0:0:0:0:
185,344,1413,2,0,L|178:309,3,36,8|0|0|0,0:2|0:2|0:2|0:2,0:0:0:0:
207,236,1788,6,0,L|192:164,3,53.9999983520508,2|0|0|0,0:3|0:2|0:2|0:2,0:0:0:0:
264,353,2163,2,0,L|253:301,1,53.9999983520508,8|0,0:2|0:2,0:0:0:0:
283,229,2350,6,0,L|267:159,5,45,2|0|0|0|0|0,0:3|0:2|0:2|0:2|0:2|0:2,0:0:0:0:
338,337,2913,2,0,L|329:294,3,45,8|0|0|0,0:2|0:2|0:2|0:2,0:0:0:0:
358,221,3288,6,0,L|346:166,3,53.9999983520508,2|0|0|0,0:3|0:2|0:2|0:2,0:0:0:0:
415,338,3663,2,0,L|404:286,1,53.9999983520508,8|0,0:2|0:2,0:0:0:0:
434,214,3850,6,0,L|425:174,5,36,2|0|0|0|0|0,0:3|0:2|0:2|0:2|0:2|0:2,0:0:0:0:
487,314,4413,2,0,L|480:279,3,36,8|0|0|0,0:2|0:2|0:2|0:2,0:0:0:0:
509,208,4788,2,0,L|500:168,3,36,2|0|0|0,0:3|0:2|0:2|0:2,0:0:0:0:
496,150,5163,5,8,0:3:0:0:
453,108,5256,1,8,0:3:0:0:
392,109,5350,1,8,0:3:0:0:
350,152,5444,1,8,0:3:0:0:
348,166,5538,6,0,L|368:258,1,74.9699998741654,12|0,0:2|0:0,0:0:0:0:
245,270,5725,2,0,L|225:178,1,74.9699998741654,0|0,0:2|0:0,0:0:0:0:
258,118,5913,5,8,0:2:0:0:
178,372,6100,1,4,0:3:0:0:
1,140,6288,5,6,1:2:0:0:
39,111,6381,1,2,0:2:0:0:
87,111,6475,1,2,0:2:0:0:
126,140,6569,1,2,0:2:0:0:
141,185,6663,1,8,0:2:0:0:
117,339,6850,1,2,1:2:0:0:
70,350,6944,1,2,0:2:0:0:
40,311,7038,2,0,P|58:275|63:239,1,59.9850013088768,2|2,0:2|0:2,0:0:0:0:
68,29,7225,1,2,1:2:0:0:
225,177,7413,6,0,P|248:228|258:292,1,119.970002617754,8|0,0:2|0:2,0:0:0:0:
220,360,7694,1,0,0:2:0:0:
220,360,7788,1,0,1:2:0:0:
150,129,7975,5,2,0:2:0:0:
184,97,8069,1,2,1:2:0:0:
198,49,8163,1,10,0:2:0:0:
230,86,8256,1,0,0:0:0:0:
274,107,8350,1,0,1:2:0:0:
402,331,8538,1,2,0:2:0:0:
364,350,8632,1,2,0:2:0:0:
335,319,8725,1,2,1:2:0:0:
465,163,8913,1,10,0:2:0:0:
489,150,9007,1,2,1:2:0:0:
508,170,9100,1,2,0:2:0:0:
475,239,9288,5,2,1:2:0:0:
422,259,9381,1,2,0:2:0:0:
374,254,9475,1,2,0:2:0:0:
338,222,9569,1,2,1:2:0:0:
327,176,9663,1,8,0:2:0:0:
189,24,9850,1,2,1:2:0:0:
142,13,9944,1,2,0:2:0:0:
112,52,10038,2,0,P|130:88|135:124,1,59.9850013088768,2|2,0:2|0:2,0:0:0:0:
12,237,10225,1,2,1:2:0:0:
221,178,10413,6,0,P|197:231|183:326,1,119.970002617754,8|0,0:2|0:2,0:0:0:0:
190,373,10694,1,0,0:2:0:0:
190,373,10788,1,0,1:2:0:0:
82,187,10975,1,2,0:2:0:0:
99,186,11069,1,2,1:2:0:0:
117,194,11163,1,10,0:2:0:0:
274,280,11350,1,2,1:2:0:0:
96,365,11538,1,2,0:2:0:0:
96,365,11631,1,2,0:2:0:0:
96,365,11725,1,2,1:2:0:0:
96,365,11819,1,2,0:2:0:0:
96,365,11913,1,10,0:2:0:0:
12,237,12100,1,0,0:2:0:0:
161,159,12288,5,2,1:2:0:0:
185,117,12381,1,2,0:2:0:0:
181,70,12475,1,2,0:2:0:0:
149,34,12569,1,2,1:2:0:0:
104,24,12663,1,8,0:2:0:0:
68,210,12850,1,2,1:2:0:0:
57,257,12944,1,2,0:2:0:0:
96,287,13038,2,0,P|132:269|168:264,1,59.9850013088768,2|2,0:2|0:2,0:0:0:0:
319,372,13225,1,2,1:2:0:0:
229,210,13413,6,0,P|257:158|275:101,1,119.970002617754,8|0,0:2|0:2,0:0:0:0:
266,22,13694,1,0,0:2:0:0:
266,22,13788,1,0,1:2:0:0:
304,251,13975,5,2,0:2:0:0:
270,283,14069,1,2,1:2:0:0:
256,331,14163,1,10,0:2:0:0:
224,294,14256,1,0,0:0:0:0:
180,273,14350,1,0,1:2:0:0:
363,144,14538,1,2,0:2:0:0:
401,125,14632,1,2,0:2:0:0:
430,156,14725,1,2,1:2:0:0:
383,337,14913,1,10,0:2:0:0:
359,350,15007,1,2,1:2:0:0:
340,330,15100,1,2,0:2:0:0:
302,253,15288,5,2,1:2:0:0:
338,222,15381,1,2,0:2:0:0:
385,217,15475,1,2,0:2:0:0:
426,241,15569,1,2,1:2:0:0:
443,285,15663,1,8,0:2:0:0:
255,341,15850,1,2,1:2:0:0:
219,374,15944,1,2,0:2:0:0:
174,355,16038,2,0,P|171:314|157:281,1,59.9850013088768,2|2,0:2|0:2,0:0:0:0:
0,230,16225,1,2,1:2:0:0:
209,224,16413,6,0,P|198:135|205:71,1,119.699995068512,8|0,0:2|0:2,0:0:0:0:
246,41,16694,1,0,0:2:0:0:
246,41,16788,1,0,1:2:0:0:
89,120,16975,1,2,0:2:0:0:
78,124,17069,1,0,1:2:0:0:
67,128,17163,5,10,0:2:0:0:
26,91,17256,1,10,0:2:0:0:
58,47,17350,1,6,1:2:0:0:
454,47,17538,5,10,0:2:0:0:
486,91,17632,1,10,0:2:0:0:
445,128,17725,2,0,L|378:112,1,59.9850013088768,2|2,0:2|0:2,0:0:0:0:
338,182,17913,2,0,L|405:198,1,59.9850013088768,2|2,0:2|0:2,0:0:0:0:
458,245,18100,5,8,0:2:0:0:
417,282,18193,1,8,0:2:0:0:
449,326,18288,1,2,1:2:0:0:
452,188,24100,5,8,0:2:0:0:
452,188,24194,1,8,0:2:0:0:
452,188,24288,1,2,1:3:0:0:
113,227,24569,5,0,1:2:0:0:
113,227,24663,2,0,L|125:322,1,90,10|2,0:2|1:2,0:0:0:0:
55,361,25038,1,2,0:2:0:0:
211,252,25225,1,2,1:2:0:0:
32,196,25413,2,0,L|20:101,1,90,10|2,0:2|0:2,0:0:0:0:
21,107,25694,1,2,0:2:0:0:
21,107,25788,1,2,1:3:0:0:
327,38,26069,5,0,1:2:0:0:
327,38,26163,2,0,L|339:135,1,90,10|2,0:2|1:2,0:0:0:0:
338,127,26444,1,2,0:2:0:0:
338,127,26538,1,2,0:2:0:0:
484,173,26725,1,2,1:2:0:0:
317,220,26913,1,10,0:2:0:0:
317,220,27006,1,0,1:2:0:0:
317,220,27100,1,2,0:2:0:0:
317,220,27194,1,2,0:2:0:0:
317,220,27288,1,2,1:3:0:0:
493,334,27569,5,0,1:2:0:0:
493,334,27663,2,0,L|503:280,1,45,10|2,0:2|0:2,0:0:0:0:
434,237,27850,1,2,1:2:0:0:
434,237,27944,1,2,0:2:0:0:
434,237,28038,2,0,L|424:291,1,45,2|0,0:2|0:2,0:0:0:0:
391,356,28225,1,2,1:2:0:0:
391,356,28319,1,0,1:2:0:0:
391,356,28413,2,0,L|285:334,1,90,10|2,0:2|0:2,0:0:0:0:
239,384,28694,5,0,0:2:0:0:
239,384,28788,2,0,P|269:320|237:240,1,135,2|2,1:2|1:2,0:0:0:0:
254,260,29163,1,8,0:2:0:0:
71,218,29350,2,0,P|40:281|73:362,1,135,2|0,1:2|0:2,0:0:0:0:
55,341,29725,2,0,L|98:326,1,45,2|0,1:2|0:2,0:0:0:0:
185,313,29913,1,8,0:2:0:0:
185,313,30006,1,0,0:0:0:0:
185,313,30100,1,2,0:2:0:0:
185,313,30194,1,2,0:2:0:0:
185,313,30288,1,2,1:3:0:0:
6,56,30663,5,10,0:2:0:0:
19,58,30756,1,2,0:2:0:0:
32,60,30850,1,2,1:2:0:0:
45,62,30944,1,2,0:2:0:0:
58,64,31038,1,2,0:2:0:0:
90,146,31225,1,2,1:2:0:0:
141,39,31413,2,0,L|240:53,1,90,10|2,0:2|0:2,0:0:0:0:
230,51,31694,1,2,0:2:0:0:
230,51,31788,1,2,1:3:0:0:
161,297,32069,5,0,1:2:0:0:
181,314,32163,5,10,0:2:0:0:
194,312,32256,1,2,0:2:0:0:
207,310,32350,1,2,1:2:0:0:
220,308,32444,1,2,0:2:0:0:
233,306,32538,1,2,0:2:0:0:
265,224,32725,1,2,1:2:0:0:
304,354,32913,1,10,0:2:0:0:
317,352,33006,1,0,1:2:0:0:
330,350,33100,1,2,0:2:0:0:
343,348,33194,1,2,0:2:0:0:
356,346,33288,1,2,1:3:0:0:
359,64,33569,5,0,0:2:0:0:
379,47,33663,5,10,0:2:0:0:
392,49,33756,1,2,0:2:0:0:
405,51,33850,1,2,1:2:0:0:
418,53,33944,1,2,0:2:0:0:
431,55,34038,1,2,0:2:0:0:
445,185,34225,1,2,1:2:0:0:
458,183,34319,1,0,1:2:0:0:
471,181,34413,1,10,0:2:0:0:
512,115,34600,1,2,0:2:0:0:
329,361,34788,6,0,L|177:337,1,135,2|2,1:2|1:2,0:0:0:0:
162,272,35163,5,8,0:2:0:0:
197,267,35256,1,8,0:2:0:0:
232,262,35350,1,2,1:2:0:0:
300,83,35725,5,8,0:2:0:0:
265,78,35818,1,8,0:2:0:0:
230,73,35912,1,8,0:3:0:0:
237,68,36006,1,8,0:3:0:0:
244,63,36100,1,4,0:3:0:0:
251,58,36194,1,4,0:3:0:0:
254,40,36288,6,0,L|249:1,5,22.5,2|2|2|2|2|2,0:2|0:2|0:2|0:2|0:2|0:2,0:0:0:0:
224,162,36850,5,2,0:2:0:0:
224,162,36944,1,2,0:2:0:0:
224,162,37038,2,0,B|155:164|155:164|134:227|134:227|58:232,1,202.500007724762,6|0,1:2|0:2,0:0:0:0:
5,142,37413,2,0,L|84:156,1,67.5000025749208,10|0,0:2|0:0,0:0:0:0:
219,251,37600,1,0,0:2:0:0:
219,251,37694,1,0,0:2:0:0:
219,251,37788,2,0,L|381:279,1,135.000005149842,2|0,0:2|1:2,0:0:0:0:
396,174,38163,1,10,0:2:0:0:
499,365,38350,6,0,L|428:348,1,67.5000025749208,2|0,0:2|0:2,0:0:0:0:
421,338,38538,2,0,B|419:266|471:299|465:212,1,135.000005149842,2|0,1:2|0:0,0:0:0:0:
414,86,38819,1,0,1:2:0:0:
414,86,38913,2,0,L|486:76,1,67.5000025749208,8|0,0:2|0:2,0:0:0:0:
503,73,39100,2,0,L|299:44,1,202.500007724762,2|0,1:2|0:2,0:0:0:0:
288,43,39475,1,2,1:2:0:0:
271,206,39663,1,10,0:2:0:0:
315,225,39757,1,0,1:2:0:0:
342,187,39850,1,2,0:2:0:0:
246,118,40038,6,0,B|101:92,1,135.000005149842,2|0,1:2|0:2,0:0:0:0:
71,25,40319,1,0,1:2:0:0:
71,25,40413,1,10,0:2:0:0:
29,197,40600,2,0,B|75:211|97:268|97:268|98:208|149:179,1,202.500007724762,2|0,1:2|0:2,0:0:0:0:
113,94,40975,1,2,1:2:0:0:
79,126,41069,1,0,0:0:0:0:
38,102,41163,1,8,0:2:0:0:
98,268,41350,6,0,L|181:305,1,67.5000025749208,2|2,0:2|0:2,0:0:0:0:
172,308,41538,2,0,L|21:327,1,135.000005149842,2|2,1:2|0:2,0:0:0:0:
244,366,41819,1,0,0:0:0:0:
244,366,41913,2,0,L|268:272,1,67.5000025749208,8|0,0:2|0:0,0:0:0:0:
208,225,42100,2,0,B|271:238|271:238|283:304|283:304|374:325,1,202.500007724762,2|0,1:2|0:2,0:0:0:0:
436,322,42475,1,2,1:2:0:0:
446,367,42569,1,0,0:2:0:0:
401,384,42663,1,8,0:2:0:0:
416,196,42850,6,0,L|480:166,1,67.5000025749208,0|2,0:2|1:2,0:0:0:0:
489,157,43038,2,0,L|298:140,1,135.000005149842,6|0,1:2|0:0,0:0:0:0:
349,20,43319,1,0,1:2:0:0:
349,20,43413,2,0,L|273:31,1,67.5000025749208,10|0,0:2|0:0,0:0:0:0:
207,41,43600,1,0,0:2:0:0:
265,198,43788,2,0,L|74:181,1,135.000005149842,2|0,0:2|1:2,0:0:0:0:
77,246,44069,1,0,0:2:0:0:
77,246,44163,1,10,0:2:0:0:
0,51,44350,2,0,L|66:42,1,67.5000025749208,2|0,0:2|0:2,0:0:0:0:
86,36,44538,2,0,B|102:111|47:99|58:163,1,135.000005149842,6|0,1:2|0:0,0:0:0:0:
135,190,44819,1,0,1:2:0:0:
135,190,44913,1,8,0:2:0:0:
16,299,45100,6,0,L|165:276,1,135.000005149842,2|0,1:2|0:2,0:0:0:0:
344,124,45475,2,0,L|493:147,1,135.000005149842,2|8,1:2|0:2,0:0:0:0:
486,153,45756,1,0,1:2:0:0:
499,198,45850,1,2,0:2:0:0:
479,241,45944,1,0,0:2:0:0:
436,260,46038,6,0,P|416:277|396:330,1,67.5000025749208,2|0,1:2|0:0,0:0:0:0:
474,367,46225,2,0,P|494:350|514:297,1,67.5000025749208,0|0,0:0|1:2,0:0:0:0:
346,236,46413,1,8,0:2:0:0:
228,322,46600,6,0,P|121:337|18:359,1,202.500007724762,2|0,1:2|0:2,0:0:0:0:
87,250,46975,1,2,1:2:0:0:
128,229,47069,1,0,1:2:0:0:
162,261,47163,2,0,P|144:294|138:330,1,67.5000025749208,8|0,0:2|0:2,0:0:0:0:
295,383,47350,2,0,P|311:353|318:320,1,67.5000025749208,2|0,0:2|0:0,0:0:0:0:
228,212,47538,1,0,1:2:0:0:
381,187,47725,6,0,P|364:157|358:112,1,76.5000014591217,2|0,0:1|1:2,0:0:0:0:
208,130,47913,2,0,P|241:130|284:147,1,76.5000014591217,10|8,0:2|0:2,0:0:0:0:
346,10,48100,2,0,P|329:39|292:67,1,76.5000014591217,2|0,1:1|0:2,0:0:0:0:
70,168,48288,5,8,0:2:0:0:
25,135,48381,1,8,0:2:0:0:
17,83,48475,1,8,0:2:0:0:
48,39,48569,1,8,0:3:0:0:
100,31,48663,5,8,0:3:0:0:
112,39,48756,1,4,0:3:0:0:
124,48,48850,1,4,0:3:0:0:
136,57,48944,1,4,0:3:0:0:
140,87,49038,5,4,1:2:0:0:
140,87,50163,5,12,0:2:0:0:
188,93,50256,1,0,1:2:0:0:
237,98,50350,1,0,1:2:0:0:
286,105,50444,1,0,1:2:0:0:
335,112,50538,1,4,1:1:0:0:
203,340,50819,5,0,1:2:0:0:
199,328,50913,1,8,0:2:0:0:
179,241,51100,5,8,0:3:0:0:
203,244,51193,1,8,0:3:0:0:
227,247,51287,1,4,0:3:0:0:
251,250,51381,1,4,0:3:0:0:
276,253,51475,1,4,0:3:0:0:
299,256,51569,1,0,1:2:0:0:
324,259,51663,1,8,0:2:0:0:
377,328,51850,5,4,0:3:0:0:
351,359,51944,1,4,0:3:0:0:
314,342,52038,1,4,1:3:0:0:
479,212,52319,5,0,1:2:0:0:
483,200,52413,1,8,0:2:0:0:
503,113,52600,5,0,0:2:0:0:
479,116,52693,1,8,0:3:0:0:
455,119,52787,1,8,0:3:0:0:
431,122,52881,1,4,0:3:0:0:
406,125,52975,1,4,0:3:0:0:
383,128,53069,1,0,1:2:0:0:
358,131,53163,1,8,0:2:0:0:
309,29,53350,5,4,0:3:0:0:
346,12,53444,1,4,0:3:0:0:
372,43,53538,1,6,1:3:0:0:
311,233,53819,5,6,1:3:0:0:
315,221,53913,1,8,0:2:0:0:
335,134,54100,5,2,0:3:0:0:
311,137,54193,1,0,0:0:0:0:
287,140,54287,1,4,0:3:0:0:
263,143,54381,1,4,0:3:0:0:
238,146,54475,1,6,0:3:0:0:
215,149,54569,1,0,1:2:0:0:
190,152,54663,1,8,0:2:0:0:
155,72,54850,5,10,0:3:0:0:
116,58,54944,1,8,0:3:0:0:
93,92,55038,2,0,P|113:154|123:202,1,107.999996704102,4|0,1:3|0:0,0:0:0:0:
200,229,55319,1,0,1:2:0:0:
200,229,55413,2,0,P|180:291|170:339,1,107.999996704102,8|10,0:2|0:3,0:0:0:0:
170,350,55694,5,10,0:3:0:0:
198,377,55788,1,6,0:3:0:0:
237,384,55881,1,6,0:3:0:0:
275,369,55975,1,6,0:3:0:0:
300,336,56069,1,0,1:2:0:0:
297,325,56163,6,0,P|286:293|280:263,1,53.9999983520508,8|0,0:2|0:0,0:0:0:0:
368,250,56350,2,0,P|377:275|383:301,1,53.9999983520508,4|4,0:3|0:3,0:0:0:0:
368,380,56538,1,4,1:3:0:0:
512,178,56725,5,0,0:0:0:0:
473,192,56819,1,0,1:2:0:0:
450,158,56913,2,0,P|470:96|480:48,1,107.999996704102,8|10,0:2|0:3,0:0:0:0:
478,38,57194,5,10,0:3:0:0:
450,11,57288,1,6,0:3:0:0:
411,4,57381,1,6,0:3:0:0:
373,19,57475,1,6,0:3:0:0:
348,52,57569,1,0,1:2:0:0:
349,63,57663,6,0,P|358:88|364:114,1,53.9999983520508,8|0,0:2|0:2,0:0:0:0:
320,180,57850,1,4,0:3:0:0:
281,194,57944,1,4,0:3:0:0:
249,157,58038,2,0,P|258:131|264:105,1,53.9999983520508,4|0,1:3|0:0,0:0:0:0:
166,44,58225,6,0,P|175:69|181:95,1,53.9999983520508,0|0,0:0|1:2,0:0:0:0:
163,170,58413,2,0,P|136:157|60:141,1,107.999996704102,8|10,0:2|0:3,0:0:0:0:
46,142,58694,5,10,0:3:0:0:
17,167,58788,1,6,0:3:0:0:
7,206,58881,1,6,0:3:0:0:
21,245,58975,1,8,0:3:0:0:
53,272,59069,1,8,0:3:0:0:
65,264,59163,6,0,P|95:250|124:248,1,53.9999983520508,8|0,0:2|0:2,0:0:0:0:
245,287,59350,1,6,0:3:0:0:
261,324,59444,1,4,0:3:0:0:
229,350,59538,2,0,P|165:334|117:327,1,107.999996704102,6|4,1:3|0:3,0:0:0:0:
166,186,59819,1,6,1:3:0:0:
179,198,59913,2,0,P|206:210|236:209,1,53.9999983520508,8|0,0:2|0:2,0:0:0:0:
250,205,60100,5,10,0:3:0:0:
283,178,60194,1,8,0:3:0:0:
294,136,60288,1,4,0:3:0:0:
289,93,60381,1,8,0:3:0:0:
256,64,60475,6,0,P|231:52|204:51,1,53.9999983520508,6|4,0:3|1:3,0:0:0:0:
122,110,60663,1,8,0:2:0:0:
389,66,60850,6,0,P|398:59|408:39,1,33.7500012874604,2|0,0:2|0:0,0:0:0:0:
409,26,61038,6,0,B|411:65|411:65|413:68|413:68|420:132,1,76.5000014591217,4|4,0:3|0:3,0:0:0:0:
505,138,61225,6,0,B|518:103|518:103|494:70,1,76.5000014591217,8|4,0:2|0:3,0:0:0:0:
343,131,61413,2,0,B|330:166|330:166|354:199,1,76.5000014591217,8|4,0:2|0:3,0:0:0:0:
436,242,61600,5,4,0:3:0:0:
434,235,61694,1,10,0:2:0:0:
431,229,61788,2,0,P|328:234|352:317,1,202.500007724762,6|0,1:2|0:2,0:0:0:0:
411,383,62163,2,0,P|411:342|424:307,1,67.5000025749208,10|0,0:2|0:0,0:0:0:0:
249,298,62350,1,0,1:2:0:0:
243,299,62444,1,0,0:2:0:0:
237,300,62538,2,0,P|242:375|307:339,1,135.000005149842,2|0,0:2|1:2,0:0:0:0:
418,317,62913,1,10,0:2:0:0:
261,222,63100,6,0,L|184:206,1,67.5000025749208,2|0,0:2|0:2,0:0:0:0:
180,195,63288,2,0,B|193:124|237:167|249:80,1,135.000005149842,4|0,1:2|0:0,0:0:0:0:
132,30,63569,1,0,1:2:0:0:
132,30,63663,2,0,L|65:45,1,67.5000025749208,8|0,0:2|0:2,0:0:0:0:
49,48,63850,2,0,L|248:84,1,202.500007724762,2|0,1:2|0:2,0:0:0:0:
263,89,64225,1,2,1:2:0:0:
407,24,64413,1,10,0:2:0:0:
366,3,64507,1,0,1:2:0:0:
330,32,64600,2,0,P|343:62|346:115,1,67.5000025749208,2|0,0:2|0:2,0:0:0:0:
312,166,64788,6,0,P|377:116|384:225,1,202.500007724762,2|0,1:2|1:2,0:0:0:0:
407,216,65163,1,10,0:2:0:0:
507,241,65350,2,0,P|406:238|318:286,1,202.500007724762,2|0,1:2|0:2,0:0:0:0:
295,363,65725,1,0,1:2:0:0:
338,382,65819,1,0,1:2:0:0:
367,346,65913,1,8,0:2:0:0:
242,303,66100,6,0,P|225:279|222:239,1,67.5000025749208,2|0,0:2|0:0,0:0:0:0:
226,225,66288,2,0,P|163:228|93:288,1,135.000005149842,0|2,1:2|0:2,0:0:0:0:
20,367,66569,1,0,1:2:0:0:
20,367,66663,2,0,P|51:379|84:374,1,67.5000025749208,8|0,0:2|0:2,0:0:0:0:
97,362,66850,2,0,L|60:157,1,202.500007724762,2|0,1:2|0:2,0:0:0:0:
39,85,67225,2,0,P|72:80|103:92,1,67.5000025749208,2|0,1:2|0:2,0:0:0:0:
111,103,67413,5,8,0:2:0:0:
150,128,67506,1,0,0:2:0:0:
196,120,67600,1,0,0:2:0:0:
228,85,67694,1,0,1:2:0:0:
222,37,67788,6,0,P|276:69|352:61,1,135.000005149842,6|0,1:2|0:0,0:0:0:0:
492,64,68069,1,0,0:2:0:0:
492,64,68163,2,0,P|461:78|442:115,1,67.5000025749208,10|0,0:2|0:2,0:0:0:0:
373,136,68350,2,0,P|439:129|496:162,2,135.000005149842,2|0|2,1:2|0:2|1:2,0:0:0:0:
377,288,68913,5,8,0:2:0:0:
415,309,69006,1,2,0:2:0:0:
448,277,69100,2,0,P|429:242|420:190,1,67.5000025749208,2|2,0:2|0:2,0:0:0:0:
339,60,69288,2,0,P|332:127|308:189,1,135.000005149842,2|0,1:2|0:0,0:0:0:0:
234,281,69569,5,0,1:2:0:0:
234,281,69663,2,0,P|264:267|320:276,1,67.5000025749208,8|0,0:2|0:2,0:0:0:0:
360,366,69850,1,2,1:2:0:0:
238,136,70038,1,2,0:2:0:0:
182,352,70225,2,0,P|148:352|118:338,1,67.5000025749208,2|0,1:2|0:2,0:0:0:0:
75,263,70413,5,10,0:2:0:0:
35,238,70506,1,0,1:2:0:0:
0,269,70600,2,0,P|11:300|14:334,1,67.5000025749208,2|0,0:2|0:2,0:0:0:0:
108,188,70788,2,0,P|87:121|88:33,1,135.000005149842,4|0,1:2|0:0,0:0:0:0:
148,12,71069,1,0,1:2:0:0:
148,12,71163,1,10,0:2:0:0:
196,242,71350,6,0,P|78:206|-5:199,1,202.500007724762,2|0,1:2|0:2,0:0:0:0:
222,165,71725,1,2,1:1:0:0:
265,133,71819,1,0,1:2:0:0:
305,168,71913,2,0,P|286:200|279:237,1,76.5000014591217,10|0,0:2|0:0,0:0:0:0:
208,74,72100,2,0,P|226:40|232:3,1,76.5000014591217,2|0,0:1|0:0,0:0:0:0:
349,80,72288,2,0,P|435:105|497:110,1,153.000002918243,2|2,1:2|0:1,0:0:0:0:
512,110,72569,5,2,1:2:0:0:
511,56,72663,1,8,0:2:0:0:
462,34,72756,1,8,0:2:0:0:
428,76,72850,2,0,P|441:121|446:184,1,76.5000014591217,6|0,1:2|0:0,0:0:0:0:
429,249,73038,5,8,0:2:0:0:
388,213,73132,1,8,0:2:0:0:
335,223,73226,1,8,0:2:0:0:
310,270,73319,1,8,0:2:0:0:
315,323,73413,1,8,0:3:0:0:
290,370,73506,1,8,0:3:0:0:
237,380,73600,1,4,0:3:0:0:
196,344,73694,1,4,0:3:0:0:
201,332,73788,6,0,P|267:339|324:351,1,119.699995068512,4|0,1:1|0:0,0:0:0:0:
206,173,74069,5,0,1:0:0:0:
206,173,74163,2,0,B|125:177|164:241|77:248,1,153.000002918243,12|0,0:2|0:0,0:0:0:0:
0,156,74444,1,0,0:2:0:0:
0,156,74538,2,0,P|36:163|82:171,1,76.5000014591217,2|0,0:2|0:2,0:0:0:0:
211,252,74725,2,0,P|248:258|286:266,1,76.5000014591217,2|0,1:2|0:2,0:0:0:0:
356,234,74913,5,10,0:2:0:0:
173,371,75100,1,2,0:2:0:0:
96,117,75288,5,2,1:2:0:0:
255,117,75475,1,2,0:2:0:0:
284,71,75569,1,0,0:0:0:0:
242,39,75663,1,8,0:2:0:0:
172,95,75850,6,0,P|216:86|362:127,1,188.999994232178,2|0,1:2|0:2,0:0:0:0:
358,33,76225,6,0,P|325:37|279:76,1,76.5000014591217,2|0,1:2|0:2,0:0:0:0:
346,205,76413,2,0,P|378:200|424:162,1,76.5000014591217,10|0,0:2|0:2,0:0:0:0:
436,97,76600,1,2,0:2:0:0:
436,97,76694,1,0,0:2:0:0:
436,97,76788,1,0,1:2:0:0:
496,314,76975,6,0,P|497:353|458:385,1,76.5000014591217,2|0,0:2|1:2,0:0:0:0:
393,355,77163,2,0,P|391:315|430:283,1,76.5000014591217,10|0,0:2|0:2,0:0:0:0:
474,235,77350,6,0,P|397:280|297:288,1,188.999994232178,2|0,1:2|0:0,0:0:0:0:
236,240,77725,2,0,P|265:219|327:216,1,76.5000014591217,2|0,1:2|0:2,0:0:0:0:
312,368,77913,1,8,0:2:0:0:
143,318,78100,1,2,0:2:0:0:
143,318,78194,1,0,0:0:0:0:
143,318,78288,2,0,P|81:281|0:275,1,153.000002918243,0|2,1:2|0:2,0:0:0:0:
1,72,78663,5,8,0:2:0:0:
37,35,78757,1,8,0:2:0:0:
82,57,78850,1,6,1:2:0:0:
172,206,79038,5,8,0:2:0:0:
142,220,79131,1,8,0:2:0:0:
115,195,79225,1,6,1:2:0:0:
253,140,79413,5,2,1:2:0:0:
197,75,79600,5,8,0:2:0:0:
233,38,79694,1,8,0:2:0:0:
278,60,79787,1,4,1:1:0:0:
505,160,80069,5,0,1:2:0:0:
505,160,80163,2,0,P|399:169|343:197,1,153.000002918243,14|0,0:2|0:0,0:0:0:0:
401,64,80444,1,0,0:2:0:0:
401,64,80538,2,0,P|404:101|429:140,1,76.5000014591217,2|0,0:2|0:2,0:0:0:0:
287,252,80725,2,0,P|283:214|264:181,1,76.5000014591217,2|0,1:2|0:2,0:0:0:0:
185,159,80913,5,10,0:2:0:0:
381,268,81100,1,2,0:2:0:0:
78,376,81288,5,2,1:2:0:0:
137,242,81475,1,2,0:2:0:0:
103,198,81569,1,0,1:2:0:0:
59,228,81663,1,10,0:2:0:0:
2,281,81850,6,0,P|82:265|179:318,1,188.999994232178,2|0,1:2|0:0,0:0:0:0:
226,371,82225,6,0,P|249:336|243:287,1,76.5000014591217,2|0,1:2|0:0,0:0:0:0:
178,162,82413,1,8,0:2:0:0:
178,162,82600,6,0,P|196:199|242:218,1,76.5000014591217,2|2,0:2|0:2,0:0:0:0:
381,225,82788,1,2,1:2:0:0:
381,225,82975,6,0,P|339:222|299:252,1,76.5000014591217,0|0,0:2|1:2,0:0:0:0:
226,371,83163,2,0,P|249:336|243:287,1,76.5000014591217,8|0,0:2|0:2,0:0:0:0:
172,275,83350,6,0,L|393:307,1,188.999994232178,2|0,1:2|0:0,0:0:0:0:
449,347,83725,2,0,B|468:317|468:317|451:268,1,76.5000014591217,0|0,1:2|0:2,0:0:0:0:
276,155,83913,1,8,0:2:0:0:
512,186,84100,1,2,0:2:0:0:
512,186,84194,1,0,0:0:0:0:
512,186,84288,2,0,L|357:209,1,153.000002918243,0|2,1:2|0:2,0:0:0:0:
165,60,84663,5,8,0:2:0:0:
204,50,84756,1,0,0:2:0:0:
232,77,84850,2,0,P|203:101|186:161,1,76.5000014591217,2|0,1:2|0:0,0:0:0:0:
190,156,85038,5,8,0:2:0:0:
144,152,85131,1,8,0:2:0:0:
113,186,85225,1,8,1:2:0:0:
120,231,85319,1,0,0:0:0:0:
160,253,85413,5,8,0:2:0:0:
215,228,85506,1,8,0:2:0:0:
269,259,85600,1,8,0:3:0:0:
278,321,85694,1,8,0:3:0:0:
242,363,85788,1,4,1:2:0:0:
256,192,88788,12,2,90663,0:3:0:0:
28,204,90850,6,0,L|87:211,1,45,2|0,0:3|0:0,0:0:0:0:
91,211,91038,5,8,0:2:0:0:
121,169,91131,1,8,0:2:0:0:
175,170,91225,1,8,0:2:0:0:
208,212,91319,1,8,0:2:0:0:
206,252,91413,5,8,0:2:0:0:
201,264,91506,1,8,0:3:0:0:
197,277,91600,1,4,0:3:0:0:
193,290,91694,1,4,0:3:0:0:
188,302,91788,5,6,1:2:0:0:
213,337,91881,1,0,0:3:0:0:
255,356,91976,1,0,0:3:0:0:
299,351,92070,1,4,0:3:0:0:
336,325,92163,1,8,0:3:0:0:
354,283,92257,1,0,0:0:0:0:
346,238,92350,5,2,1:2:0:0:
314,206,92443,1,0,0:3:0:0:
301,163,92537,1,0,0:3:0:0:
308,119,92631,1,0,0:3:0:0:
334,83,92725,1,4,0:3:0:0:
374,63,92818,1,0,0:3:0:0:
418,63,92912,1,8,0:2:0:0:
458,83,93006,1,0,0:0:0:0:
485,118,93100,1,0,0:0:0:0:
492,162,93193,1,0,0:0:0:0:
479,205,93287,5,0,1:0:0:0:
454,170,93381,1,0,0:0:0:0:
412,151,93475,1,2,0:2:0:0:
368,156,93569,1,4,0:0:0:0:
331,182,93662,1,8,0:2:0:0:
313,224,93756,1,0,0:0:0:0:
321,268,93850,5,0,1:0:0:0:
314,312,93943,1,0,0:0:0:0:
287,347,94037,1,2,0:2:0:0:
247,367,94131,1,0,0:0:0:0:
203,367,94225,1,4,0:0:0:0:
163,347,94318,1,0,0:0:0:0:
137,311,94412,1,10,0:2:0:0:
130,267,94506,1,4,0:0:0:0:
143,224,94600,1,0,0:0:0:0:
175,193,94693,1,0,0:0:0:0:
219,181,94788,5,2,1:2:0:0:
232,140,94882,1,0,0:0:0:0:
223,95,94976,1,0,0:0:0:0:
193,62,95070,1,4,0:0:0:0:
150,47,95163,1,8,0:2:0:0:
106,57,95257,1,0,0:0:0:0:
75,90,95351,5,2,1:2:0:0:
75,107,95444,1,0,0:0:0:0:
76,125,95538,1,0,0:0:0:0:
77,142,95631,1,0,0:0:0:0:
78,160,95725,1,4,0:0:0:0:
79,177,95819,1,0,0:0:0:0:
81,195,95913,1,8,0:2:0:0:
82,213,96006,1,0,0:0:0:0:
83,230,96100,1,0,0:0:0:0:
85,248,96194,1,0,0:0:0:0:
85,266,96288,5,0,1:0:0:0:
49,240,96381,1,0,0:0:0:0:
40,197,96475,1,2,0:2:0:0:
60,158,96569,1,4,0:0:0:0:
101,142,96663,1,8,0:2:0:0:
143,158,96756,1,0,0:0:0:0:
163,196,96851,5,0,1:0:0:0:
164,214,96944,1,0,0:0:0:0:
165,231,97038,1,2,0:2:0:0:
165,249,97131,1,0,0:0:0:0:
167,267,97225,1,4,0:0:0:0:
168,284,97319,1,0,0:0:0:0:
169,302,97413,1,8,0:2:0:0:
171,320,97506,1,0,0:0:0:0:
172,337,97600,1,0,0:0:0:0:
173,355,97694,1,0,0:0:0:0:
174,373,97788,5,2,1:2:0:0:
218,371,97881,1,0,1:0:0:0:
262,367,97975,1,0,1:0:0:0:
396,120,98163,5,8,0:2:0:0:
359,205,98351,5,6,1:2:0:0:
320,182,98444,1,0,0:0:0:0:
298,143,98538,1,0,0:0:0:0:
296,98,98632,1,0,0:0:0:0:
314,58,98726,1,4,0:0:0:0:
349,30,98819,1,0,0:0:0:0:
391,21,98913,1,8,0:2:0:0:
435,32,99007,1,0,0:0:0:0:
469,60,99101,1,0,0:0:0:0:
485,101,99194,1,0,0:0:0:0:
476,145,99288,5,0,1:0:0:0:
448,113,99382,1,0,0:0:0:0:
403,99,99476,1,2,0:2:0:0:
360,108,99570,1,4,0:0:0:0:
327,139,99663,1,8,0:2:0:0:
313,181,99757,1,0,0:0:0:0:
320,226,99850,5,0,1:0:0:0:
318,269,99943,1,0,0:0:0:0:
295,308,100037,1,2,0:2:0:0:
256,332,100131,1,0,0:0:0:0:
213,336,100225,1,4,0:0:0:0:
171,320,100318,1,0,0:0:0:0:
143,287,100412,1,10,0:2:0:0:
131,244,100506,1,0,0:0:0:0:
138,201,100600,1,0,0:0:0:0:
165,165,100693,1,0,0:0:0:0:
206,145,100788,5,2,1:2:0:0:
227,183,100882,1,0,0:0:0:0:
224,229,100976,1,0,0:0:0:0:
202,266,101070,1,4,0:0:0:0:
162,287,101163,1,8,0:2:0:0:
116,285,101257,1,0,0:0:0:0:
79,260,101350,5,2,1:2:0:0:
96,248,101443,1,0,0:0:0:0:
118,240,101537,1,0,0:0:0:0:
140,238,101631,1,0,0:0:0:0:
163,242,101725,1,4,0:0:0:0:
183,250,101819,1,4,0:0:0:0:
202,266,101913,6,0,P|217:293|215:329,1,62.9999980773926,8|0,0:2|0:0,0:0:0:0:
130,342,102100,2,0,P|114:314|116:278,1,62.9999980773926,0|0,1:0|0:0,0:0:0:0:
49,95,102288,6,0,B|126:108,1,76.5000014591217,12|0,0:2|0:0,0:0:0:0:
173,184,102475,1,8,0:3:0:0:
183,165,102569,2,0,B|260:152,1,76.5000014591217,10|0,0:2|0:0,0:0:0:0:
313,85,102756,1,8,0:3:0:0:
323,104,102850,2,0,B|400:117,1,76.5000014591217,10|0,0:2|1:2,0:0:0:0:
414,123,103038,5,0,1:2:0:0:
453,146,103131,1,8,0:3:0:0:
458,192,103225,1,4,0:3:0:0:
426,224,103319,1,4,0:3:0:0:
380,217,103413,5,8,0:2:0:0:
328,252,103506,1,8,0:2:0:0:
326,314,103600,1,4,0:3:0:0:
375,355,103694,1,4,0:3:0:0:
389,348,103788,5,12,0:2:0:0:
110,300,109788,5,4,0:3:0:0:
211,266,109975,1,0,0:0:0:0:
211,266,110069,1,0,0:2:0:0:
211,266,110163,1,8,0:2:0:0:
194,362,110350,1,4,3:3:0:0:
117,308,110538,1,0,0:0:0:0:
117,308,110632,1,0,0:2:0:0:
117,308,110726,1,8,0:3:0:0:
287,332,110913,1,8,0:2:0:0:
222,171,111100,6,0,P|228:120|236:51,1,90,0|4,3:3|0:3,0:0:0:0:
189,16,111475,5,8,0:3:0:0:
136,71,111663,1,8,0:2:0:0:
261,244,111850,5,4,0:3:0:0:
314,189,112038,1,0,3:2:0:0:
227,128,112225,5,4,0:3:0:0:
256,368,112413,5,8,0:2:0:0:
502,331,112600,5,0,1:2:0:0:
502,331,112694,1,0,1:2:0:0:
502,331,112788,2,0,P|459:322|394:308,1,90,0|0,1:2|0:0,0:0:0:0:
451,198,113069,1,0,1:2:0:0:
451,198,113163,2,0,L|463:255,1,45,8|0,0:2|0:0,0:0:0:0:
328,322,113350,2,0,L|340:264,1,45,0|0,1:2|3:2,0:0:0:0:
340,265,113538,1,0,1:2:0:0:
374,78,113725,1,0,1:2:0:0:
466,102,113913,5,8,0:2:0:0:
495,61,114006,1,8,0:2:0:0:
455,31,114100,1,4,1:2:0:0:
256,192,114663,12,0,116444,0:2:0:0:
140,85,116538,5,8,0:2:0:0:
180,49,116631,1,8,0:2:0:0:
233,59,116725,1,4,0:3:0:0:
259,107,116819,1,4,0:3:0:0:
237,156,116913,1,8,0:2:0:0:
154,196,117100,5,8,0:2:0:0:
154,196,117194,1,8,0:2:0:0:
154,196,117288,2,0,P|234:196|258:258,1,135.000005149842,6|0,1:2|0:0,0:0:0:0:
200,354,117569,1,0,1:2:0:0:
200,354,117663,2,0,P|199:305|183:270,1,67.5000025749208,10|0,0:2|0:0,0:0:0:0:
342,241,117850,1,0,1:2:0:0:
342,241,117944,1,0,0:2:0:0:
342,241,118038,2,0,P|335:305|360:382,1,135.000005149842,2|0,0:2|1:2,0:0:0:0:
117,328,118413,1,10,0:2:0:0:
438,359,118600,6,0,P|444:292|425:227,1,135.000005149842,2|4,0:2|1:2,0:0:0:0:
261,65,118975,1,0,0:0:0:0:
297,33,119069,1,0,1:2:0:0:
342,49,119163,2,0,P|349:90|333:122,1,67.5000025749208,10|0,0:2|0:2,0:0:0:0:
329,126,119350,2,0,L|511:91,1,135.000005149842,2|0,1:2|0:2,0:0:0:0:
510,167,119631,1,0,0:2:0:0:
510,167,119725,1,0,1:2:0:0:
442,338,119913,1,10,0:2:0:0:
401,361,120007,1,0,1:2:0:0:
367,327,120100,2,0,P|386:294|399:237,1,67.5000025749208,2|0,0:2|0:2,0:0:0:0:
399,247,120288,5,2,1:2:0:0:
380,204,120381,1,0,0:0:0:0:
334,193,120475,1,2,0:2:0:0:
297,222,120569,1,2,1:2:0:0:
297,269,120663,1,8,0:2:0:0:
214,315,120850,6,0,P|128:264|21:295,1,202.500007724762,2|0,1:2|0:2,0:0:0:0:
12,202,121225,1,2,1:2:0:0:
56,188,121319,1,0,1:2:0:0:
82,228,121413,1,10,0:2:0:0:
149,362,121600,2,0,P|133:307|146:279,1,67.5000025749208,2|0,0:2|0:0,0:0:0:0:
215,204,121788,2,0,P|216:170|201:140,1,67.5000025749208,0|0,1:2|0:2,0:0:0:0:
190,130,121975,5,2,0:2:0:0:
144,115,122069,1,2,1:2:0:0:
123,72,122163,1,10,0:2:0:0:
139,28,122256,1,0,0:2:0:0:
184,15,122350,2,0,L|296:38,1,67.5000025749208,2|0,1:2|0:0,0:0:0:0:
364,115,122538,5,0,0:2:0:0:
386,111,122631,1,0,0:2:0:0:
411,108,122725,1,2,1:2:0:0:
434,105,122819,1,0,0:2:0:0:
451,101,122913,2,0,L|339:78,1,67.5000025749208,8|0,0:2|0:2,0:0:0:0:
259,36,123100,5,0,0:2:0:0:
259,36,123194,1,0,1:2:0:0:
259,36,123288,2,0,L|283:202,1,135.000005149842,6|0,1:2|0:0,0:0:0:0:
416,196,123569,1,0,1:2:0:0:
416,196,123663,2,0,B|422:228|422:228|402:274,1,67.5000025749208,10|0,0:2|0:0,0:0:0:0:
338,298,123850,1,0,1:2:0:0:
205,198,124038,2,0,L|340:222,1,135.000005149842,2|0,0:2|1:2,0:0:0:0:
416,196,124319,1,0,0:2:0:0:
416,196,124413,1,10,0:2:0:0:
290,380,124600,6,0,B|224:371,1,67.5000025749208,2|0,0:2|0:2,0:0:0:0:
209,368,124788,2,0,B|218:299|263:323|269:231,1,135.000005149842,4|0,1:2|0:0,0:0:0:0:
283,170,125069,1,0,1:2:0:0:
283,170,125163,1,8,0:2:0:0:
148,306,125350,2,0,L|13:282,1,135.000005149842,2|0,1:2|0:2,0:0:0:0:
15,163,125631,1,0,0:2:0:0:
15,163,125725,2,0,L|91:149,1,67.5000025749208,2|0,1:2|0:2,0:0:0:0:
90,70,125913,1,10,0:2:0:0:
127,41,126006,1,0,1:2:0:0:
169,61,126100,2,0,P|158:89|160:142,1,67.5000025749208,2|0,0:2|0:2,0:0:0:0:
164,140,126288,5,2,1:2:0:0:
217,134,126381,1,0,0:0:0:0:
254,173,126475,1,0,0:2:0:0:
247,227,126569,1,0,1:2:0:0:
200,254,126663,1,8,0:2:0:0:
114,223,126850,6,0,P|221:238|298:293,1,202.500007724762,2|0,1:2|0:2,0:0:0:0:
338,218,127225,1,2,1:2:0:0:
385,218,127319,1,0,0:0:0:0:
399,263,127413,2,0,P|377:291|367:329,1,67.5000025749208,8|0,0:2|0:2,0:0:0:0:
276,170,127600,2,0,P|296:143|306:111,1,67.5000025749208,2|0,0:1|0:2,0:0:0:0:
286,36,127788,5,6,1:2:0:0:
469,213,127975,1,2,0:1:0:0:
469,213,128069,1,0,1:2:0:0:
469,213,128163,1,8,0:2:0:0:
266,369,128350,2,0,L|171:351,1,76.5000014591217,2|0,1:1|0:2,0:0:0:0:
181,361,128538,5,12,1:2:0:0:
141,327,128631,1,8,0:3:0:0:
144,272,128725,1,8,1:3:0:0:
185,239,128819,1,8,0:3:0:0:
228,271,128913,5,12,1:2:0:0:
268,237,129007,1,8,0:3:0:0:
273,184,129101,1,8,1:3:0:0:
233,149,129194,1,8,0:3:0:0:
226,138,129288,6,0,L|358:155,1,119.699995068512,4|0,1:2|0:0,0:0:0:0:
481,212,129569,5,0,1:0:0:0:
481,212,129663,2,0,B|477:131|413:170|406:83,1,153.000002918243,10|2,0:2|0:2,0:0:0:0:
509,8,129944,1,0,0:2:0:0:
509,8,130038,2,0,P|494:41|482:92,1,76.5000014591217,2|0,0:2|0:2,0:0:0:0:
400,216,130225,2,0,P|385:249|373:300,1,76.5000014591217,2|0,0:2|0:2,0:0:0:0:
390,370,130413,5,10,0:2:0:0:
249,145,130600,1,2,0:2:0:0:
512,194,130788,5,2,1:2:0:0:
416,292,130975,1,2,0:2:0:0:
387,246,131069,1,0,1:2:0:0:
432,213,131163,1,8,0:2:0:0:
476,345,131350,2,0,P|381:321|285:293,1,188.999994232178,2|0,0:2|0:2,0:0:0:0:
284,374,131725,6,0,P|321:369|352:347,1,76.5000014591217,2|0,1:2|0:2,0:0:0:0:
303,219,131913,2,0,P|265:223|234:245,1,76.5000014591217,10|0,0:2|0:2,0:0:0:0:
221,329,132100,1,2,0:2:0:0:
221,329,132194,1,0,0:2:0:0:
221,329,132288,1,0,1:2:0:0:
49,85,132475,6,0,P|45:46|83:12,1,76.5000014591217,2|0,0:2|1:2,0:0:0:0:
150,37,132663,2,0,P|154:76|116:110,1,76.5000014591217,10|0,0:2|0:2,0:0:0:0:
78,161,132850,6,0,P|161:128|261:136,1,188.999994232178,2|0,1:2|0:0,0:0:0:0:
252,214,133225,2,0,P|218:204|188:174,1,76.5000014591217,2|0,1:2|0:2,0:0:0:0:
302,69,133413,1,8,0:2:0:0:
366,212,133600,5,2,0:2:0:0:
366,212,133694,1,0,0:0:0:0:
366,212,133788,2,0,P|441:218|512:191,1,153.000002918243,0|0,1:2|0:2,0:0:0:0:
468,111,134163,5,8,0:2:0:0:
432,73,134257,1,0,0:2:0:0:
387,95,134350,1,2,1:2:0:0:
357,309,134538,5,8,0:2:0:0:
387,323,134631,1,8,0:2:0:0:
414,298,134725,1,2,1:2:0:0:
228,233,134913,5,2,1:2:0:0:
277,164,135100,5,8,0:2:0:0:
241,127,135194,1,8,0:2:0:0:
196,149,135287,1,4,1:1:0:0:
0,302,135569,5,0,1:2:0:0:
0,302,135663,2,0,P|106:311|162:339,1,153.000002918243,14|0,0:2|0:0,0:0:0:0:
106,195,135944,1,0,0:2:0:0:
106,195,136038,2,0,P|103:237|84:280,1,76.5000014591217,2|0,0:2|0:2,0:0:0:0:
225,380,136225,2,0,P|228:338|247:295,1,76.5000014591217,2|0,1:2|0:2,0:0:0:0:
311,263,136413,5,10,0:2:0:0:
24,219,136600,1,2,0:2:0:0:
219,11,136788,2,0,P|194:81|181:216,1,153.000002918243,2|0,1:2|0:2,0:0:0:0:
230,225,137069,1,0,1:2:0:0:
230,225,137163,1,10,0:2:0:0:
7,116,137350,6,0,B|33:151|90:133|87:100|82:98|80:67|142:50|162:81,1,188.999994232178,2|0,1:2|0:0,0:0:0:0:
154,227,137725,2,0,P|152:178|135:142,1,76.5000014591217,2|0,1:2|0:2,0:0:0:0:
231,5,137913,2,0,P|233:54|250:90,1,76.5000014591217,10|0,0:2|0:2,0:0:0:0:
330,106,138100,1,2,0:2:0:0:
330,106,138194,1,0,0:2:0:0:
330,106,138288,1,2,1:2:0:0:
231,250,138475,6,0,P|255:235|314:232,1,76.5000014591217,0|0,0:2|1:2,0:0:0:0:
468,361,138663,1,8,0:2:0:0:
468,361,138850,6,0,P|388:323|279:304,1,188.999994232178,2|0,1:2|0:0,0:0:0:0:
274,382,139225,2,0,P|311:379|345:361,1,76.5000014591217,2|0,1:2|0:2,0:0:0:0:
506,231,139413,1,8,0:2:0:0:
403,54,139600,5,2,0:2:0:0:
403,54,139694,1,0,0:2:0:0:
403,54,139788,2,0,P|306:87|252:96,1,153.000002918243,2|10,1:2|0:2,0:0:0:0:
241,96,140069,5,8,0:2:0:0:
195,94,140162,1,8,0:2:0:0:
172,134,140256,1,8,0:2:0:0:
191,173,140350,5,8,0:2:0:0:
219,224,140443,1,8,0:2:0:0:
216,284,140537,1,8,0:2:0:0:
183,333,140631,1,8,0:2:0:0:
129,357,140725,1,8,0:2:0:0:
69,350,140818,1,8,0:2:0:0:
21,312,140912,1,8,0:3:0:0:
3,257,141006,1,8,0:3:0:0:
14,198,141100,6,0,P|52:194|89:222,1,76.5000014591217,4|4,0:3|0:3,0:0:0:0:
95,228,141288,6,0,P|73:115|59:17,1,202.500007724762,6|0,1:1|0:2,0:0:0:0:
56,14,141663,1,12,0:2:0:0:
215,268,141850,6,0,B|188:243|129:278|139:310|145:310|157:344|103:378|67:349,1,202.500007724762,2|0,1:2|0:2,0:0:0:0:
3,257,142225,2,0,P|39:267|94:274,1,67.5000025749208,2|0,1:2|0:2,0:0:0:0:
214,350,142413,2,0,P|247:355|279:364,1,67.5000025749208,10|0,0:2|0:2,0:0:0:0:
337,303,142600,1,2,0:2:0:0:
337,303,142694,1,0,0:2:0:0:
337,303,142788,1,0,1:2:0:0:
489,267,142975,1,0,0:2:0:0:
455,222,143069,1,0,1:2:0:0:
406,246,143163,1,8,0:2:0:0:
421,380,143350,6,0,P|458:210|475:172,1,202.500007724762,2|0,1:2|0:0,0:0:0:0:
478,168,143725,1,2,1:2:0:0:
419,16,143913,1,10,0:2:0:0:
376,211,144100,5,2,0:2:0:0:
373,205,144194,1,2,0:2:0:0:
369,199,144288,2,0,P|312:169|222:197,1,135.000005149842,2|0,1:2|0:2,0:0:0:0:
192,244,144569,1,0,1:2:0:0:
192,244,144663,1,8,0:2:0:0:
3,150,144850,2,0,P|59:179|163:88,1,202.500007724762,2|0,1:2|0:2,0:0:0:0:
210,44,145225,6,0,P|232:70|236:116,1,67.5000025749208,2|0,1:2|0:0,0:0:0:0:
192,244,145413,1,8,0:2:0:0:
87,74,145600,2,0,P|80:106|89:138,1,67.5000025749208,2|2,0:2|0:2,0:0:0:0:
192,244,145788,6,0,P|136:237|61:303,1,135.000005149842,0|2,1:2|0:2,0:0:0:0:
164,377,146069,1,0,1:2:0:0:
164,377,146163,2,0,P|162:343|145:314,1,67.5000025749208,8|0,0:2|0:2,0:0:0:0:
27,211,146350,1,2,1:2:0:0:
208,161,146538,5,8,0:2:0:0:
252,131,146631,1,8,0:2:0:0:
291,168,146725,2,0,P|274:197|272:230,1,67.5000025749208,2|0,1:2|0:2,0:0:0:0:
145,314,146913,2,0,P|162:343|164:377,1,67.5000025749208,2|0,1:2|0:2,0:0:0:0:
344,384,147100,1,8,0:2:0:0:
380,343,147194,1,8,0:2:0:0:
346,304,147288,1,4,1:1:0:0:
353,109,147569,5,0,1:2:0:0:
353,109,147663,2,0,P|447:102|528:76,1,153.000002918243,12|0,0:2|0:0,0:0:0:0:
462,15,147944,1,0,0:2:0:0:
462,15,148038,2,0,P|436:43|425:79,1,76.5000014591217,2|0,0:2|0:2,0:0:0:0:
512,221,148225,2,0,P|483:195|447:184,1,76.5000014591217,2|0,1:2|0:2,0:0:0:0:
252,186,148413,5,10,0:2:0:0:
503,86,148600,1,2,0:2:0:0:
422,339,148788,6,0,P|431:301|447:267,1,76.5000014591217,2|0,1:2|0:0,0:0:0:0:
376,144,148975,1,2,0:2:0:0:
346,179,149069,1,0,1:2:0:0:
373,216,149163,1,8,0:2:0:0:
447,184,149350,6,0,P|367:183|269:230,1,188.999994232178,2|0,1:2|0:0,0:0:0:0:
207,276,149725,6,0,P|189:237|203:190,1,76.5000014591217,2|0,1:2|0:0,0:0:0:0:
286,65,149913,1,8,0:2:0:0:
286,65,150100,6,0,P|262:98|214:110,1,76.5000014591217,2|2,0:2|0:2,0:0:0:0:
58,106,150288,1,2,1:2:0:0:
58,106,150475,6,0,P|99:109|134:145,1,76.5000014591217,2|0,0:2|1:2,0:0:0:0:
207,276,150663,2,0,P|189:237|203:190,1,76.5000014591217,8|0,0:2|0:2,0:0:0:0:
283,180,150850,6,0,L|88:212,1,188.999994232178,2|0,1:2|0:2,0:0:0:0:
50,285,151225,2,0,B|76:311|76:311|135:287,1,76.5000014591217,2|0,1:2|0:2,0:0:0:0:
156,40,151413,1,10,0:2:0:0:
282,289,151600,5,2,0:2:0:0:
282,289,151694,1,2,0:2:0:0:
282,289,151788,2,0,L|206:275,1,76.5000014591217,4|8,1:3|0:3,0:0:0:0:
350,373,151975,2,0,L|448:356,1,76.5000014591217,8|0,1:2|0:2,0:0:0:0:
480,241,152163,5,4,0:3:0:0:
480,241,152256,1,4,0:3:0:0:
480,241,152350,5,4,0:3:0:0:
450,285,152444,1,4,1:3:0:0:
396,285,152538,1,4,0:3:0:0:
364,242,152631,1,4,0:3:0:0:
377,190,152725,5,4,0:3:0:0:
334,156,152819,1,4,0:3:0:0:
358,108,152913,5,12,0:3:0:0:
353,44,153006,1,12,0:3:0:0:
301,10,153100,1,12,0:3:0:0:
241,28,153194,1,12,0:3:0:0:
219,88,153288,1,4,1:2:0:0:
256,192,156288,12,0,157694,0:0:0:0:
400,246,157788,6,0,L|320:255,1,76.5000014591217,0|0,1:2|1:2,0:0:0:0:
245,263,157975,5,8,0:2:0:0:
245,263,158069,1,8,0:2:0:0:
116,364,158256,5,8,0:2:0:0:
298,333,158444,5,8,0:2:0:0:
298,333,158538,1,8,0:2:0:0:
63,294,158725,5,8,0:2:0:0:
124,85,158913,5,8,0:2:0:0:
100,34,159006,1,8,0:3:0:0:
47,29,159100,1,4,0:3:0:0:
14,71,159193,1,4,0:3:0:0:
29,123,159288,6,0,P|115:116|171:163,1,153.000002918243,6|0,1:2|0:2,0:0:0:0:
243,146,159569,1,0,1:2:0:0:
243,146,159663,2,0,P|232:193|208:222,1,76.5000014591217,10|0,0:2|0:2,0:0:0:0:
135,343,159850,1,2,1:2:0:0:
118,299,159944,1,2,0:2:0:0:
156,272,160038,6,0,P|186:292|243:296,1,76.5000014591217,2|0,0:2|0:2,0:0:0:0:
297,330,160225,2,0,P|272:359|238:376,1,76.5000014591217,2|0,1:2|0:2,0:0:0:0:
371,356,160413,2,0,P|373:318|360:282,1,76.5000014591217,10|0,0:2|0:0,0:0:0:0:
352,204,160600,2,0,P|389:210|421:231,1,76.5000014591217,2|2,0:2|0:2,0:0:0:0:
458,297,160788,6,0,P|418:159|431:53,1,229.500004377365,0|0,1:2|1:2,0:0:0:0:
431,59,161163,5,10,0:2:0:0:
410,9,161256,1,2,0:2:0:0:
356,1,161350,1,2,1:2:0:0:
320,41,161444,1,2,0:2:0:0:
329,93,161538,6,0,P|298:113|241:117,1,76.5000014591217,2|0,0:2|0:2,0:0:0:0:
188,151,161725,2,0,P|212:180|246:197,1,76.5000014591217,2|0,1:2|0:2,0:0:0:0:
114,177,161913,2,0,P|111:139|124:103,1,76.5000014591217,10|0,0:2|1:2,0:0:0:0:
133,25,162100,2,0,P|95:31|63:52,1,76.5000014591217,2|0,0:2|0:2,0:0:0:0:
0,103,162288,6,0,L|236:47,1,229.500004377365,0|0,1:2|1:2,0:0:0:0:
333,181,162663,1,10,0:2:0:0:
333,181,162756,2,0,B|297:187|273:227|273:227|274:183|233:151,1,153.000002918243,2|2,0:2|0:2,0:0:0:0:
308,22,163038,6,0,P|311:59|292:100,1,76.5000014591217,2|0,0:2|0:0,0:0:0:0:
164,184,163225,2,0,P|161:146|175:111,1,76.5000014591217,2|0,1:2|1:2,0:0:0:0:
352,261,163413,5,8,0:2:0:0:
396,287,163506,1,0,0:2:0:0:
398,341,163600,1,2,0:2:0:0:
360,378,163694,1,2,0:2:0:0:
306,371,163788,6,0,P|228:322|79:354,1,229.500004377365,2|2,1:2|1:2,0:0:0:0:
83,357,164163,1,8,0:2:0:0:
125,226,164350,6,0,P|218:199|208:296,1,229.500004377365,2|0,1:2|0:2,0:0:0:0:
278,338,164725,2,0,P|213:310|117:322,1,153.000002918243,2|8,1:2|0:2,0:0:0:0:
4,144,165100,5,2,1:2:0:0:
4,144,165194,1,0,1:2:0:0:
4,144,165288,2,0,P|79:139|148:106,1,153.000002918243,6|0,1:2|0:0,0:0:0:0:
110,68,165569,1,0,1:2:0:0:
135,26,165663,2,0,P|172:28|219:61,1,76.5000014591217,10|2,0:2|0:2,0:0:0:0:
217,172,165850,5,2,1:2:0:0:
190,218,165944,1,0,0:2:0:0:
227,255,166038,2,0,P|264:252|311:219,1,76.5000014591217,2|0,0:2|0:2,0:0:0:0:
374,212,166225,2,0,P|374:250|358:284,1,76.5000014591217,2|0,1:2|0:2,0:0:0:0:
447,186,166413,2,0,P|425:155|392:136,1,76.5000014591217,10|0,0:2|0:2,0:0:0:0:
336,79,166600,2,0,P|370:60|407:56,1,76.5000014591217,2|0,0:2|0:2,0:0:0:0:
482,85,166788,6,0,L|240:48,1,229.500004377365,0|0,1:2|1:2,0:0:0:0:
239,48,167163,5,10,0:2:0:0:
187,60,167256,1,2,0:2:0:0:
165,109,167350,1,2,1:2:0:0:
184,158,167444,1,2,0:2:0:0:
236,169,167538,6,0,P|252:194|259:245,1,76.5000014591217,2|0,0:2|0:2,0:0:0:0:
245,362,167725,2,0,P|258:335|299:304,1,76.5000014591217,2|0,1:2|0:2,0:0:0:0:
407,256,167913,2,0,P|377:257|329:237,1,76.5000014591217,10|0,0:2|1:2,0:0:0:0:
312,120,168100,1,2,0:2:0:0:
286,72,168194,1,0,0:2:0:0:
333,46,168288,6,0,L|491:78,1,153.000002918243,0|0,1:2|0:2,0:0:0:0:
488,90,168569,1,0,1:2:0:0:
493,104,168663,5,10,0:2:0:0:
466,150,168757,1,2,0:2:0:0:
484,196,168850,1,2,0:2:0:0:
457,241,168944,1,2,0:2:0:0:
475,291,169038,6,0,P|444:269|387:264,1,76.5000014591217,2|0,0:2|0:2,0:0:0:0:
334,229,169225,2,0,P|357:199|392:182,1,76.5000014591217,2|0,1:2|0:2,0:0:0:0:
262,202,169413,2,0,P|258:239|271:274,1,76.5000014591217,10|0,0:2|0:0,0:0:0:0:
278,355,169600,2,0,P|239:347|208:326,1,76.5000014591217,2|2,0:2|0:2,0:0:0:0:
141,287,169788,6,0,P|294:314|367:354,1,229.500004377365,2|2,1:2|1:2,0:0:0:0:
368,362,170163,1,8,0:2:0:0:
502,81,170350,2,0,P|349:54|276:14,1,229.500004377365,2|0,1:2|0:2,0:0:0:0:
264,11,170725,6,0,P|288:54|287:95,1,76.5000014591217,2|0,1:2|0:0,0:0:0:0:
264,158,170913,1,8,0:2:0:0:
76,146,171100,2,0,P|52:103|53:62,1,76.5000014591217,8|8,0:3|0:3,0:0:0:0:
54,63,171288,5,4,1:1:0:0:
82,18,171381,1,4,0:3:0:0:
134,5,171475,1,4,0:3:0:0:
181,29,171569,1,4,0:3:0:0:
205,77,171663,2,0,P|194:124|170:153,1,76.5000014591217,10|0,0:2|0:2,0:0:0:0:
24,214,171850,1,2,1:2:0:0:
1,262,171944,1,2,0:2:0:0:
28,308,172038,6,0,P|58:288|115:285,1,76.5000014591217,2|0,0:2|0:0,0:0:0:0:
170,248,172225,2,0,P|145:218|111:200,1,76.5000014591217,2|0,1:2|0:2,0:0:0:0:
245,225,172413,2,0,P|246:263|232:298,1,76.5000014591217,10|0,0:2|0:2,0:0:0:0:
222,378,172600,2,0,P|259:372|291:352,1,76.5000014591217,2|0,0:2|0:2,0:0:0:0:
326,255,172788,6,0,P|444:246|514:330,1,229.500004377365,0|0,1:2|1:2,0:0:0:0:
511,342,173163,5,10,0:2:0:0:
468,374,173256,1,2,0:2:0:0:
428,336,173350,2,0,P|438:291|473:257,1,76.5000014591217,2|0,1:2|0:2,0:0:0:0:
499,100,173538,6,0,P|467:119|410:122,1,76.5000014591217,2|0,0:2|0:2,0:0:0:0:
355,154,173725,2,0,P|378:183|412:201,1,76.5000014591217,2|0,1:2|0:2,0:0:0:0:
280,179,173913,2,0,P|277:140|291:105,1,76.5000014591217,10|0,0:2|1:2,0:0:0:0:
302,28,174100,2,0,P|263:33|231:53,1,76.5000014591217,2|0,0:2|0:2,0:0:0:0:
157,97,174288,6,0,L|389:54,1,229.500004377365,0|0,1:2|1:2,0:0:0:0:
149,179,174663,1,10,0:2:0:0:
149,179,174756,2,0,L|-3:148,1,153.000002918243,2|2,0:2|0:2,0:0:0:0:
92,50,175038,6,0,B|67:80|67:80|77:124,1,76.5000014591217,2|0,0:2|0:2,0:0:0:0:
216,231,175225,2,0,B|241:201|241:201|232:164,1,76.5000014591217,2|0,1:2|1:2,0:0:0:0:
53,255,175413,5,10,0:2:0:0:
8,282,175506,1,0,0:2:0:0:
10,336,175600,1,2,0:2:0:0:
49,371,175694,1,0,0:2:0:0:
100,357,175788,6,0,P|178:308|327:340,1,229.500004377365,2|2,1:2|1:2,0:0:0:0:
323,343,176163,1,8,0:2:0:0:
281,212,176350,6,0,P|188:185|198:282,1,229.500004377365,2|0,1:2|0:2,0:0:0:0:
128,324,176725,2,0,P|193:296|289:308,1,153.000002918243,2|8,1:2|0:2,0:0:0:0:
512,154,177100,5,2,1:2:0:0:
512,154,177194,1,0,1:2:0:0:
512,154,177288,2,0,P|436:160|366:131,1,153.000002918243,4|0,1:1|0:0,0:0:0:0:
403,92,177569,1,0,1:2:0:0:
375,45,177663,2,0,P|338:47|291:80,1,76.5000014591217,10|2,0:2|0:2,0:0:0:0:
218,225,177850,5,2,1:2:0:0:
271,219,177944,1,2,0:2:0:0:
279,168,178038,2,0,P|254:139|200:121,1,76.5000014591217,2|0,0:2|0:2,0:0:0:0:
158,74,178225,2,0,P|188:51|225:44,1,76.5000014591217,2|0,1:2|0:2,0:0:0:0:
94,30,178413,2,0,P|81:66|85:103,1,76.5000014591217,10|0,0:2|0:0,0:0:0:0:
72,183,178600,2,0,P|36:166|11:139,1,76.5000014591217,2|2,0:2|0:2,0:0:0:0:
66,267,178788,6,0,P|103:258|134:236,1,76.5000014591217,0|0,1:2|0:2,0:0:0:0:
142,222,178975,5,2,0:2:0:0:
185,190,179069,1,0,0:0:0:0:
238,190,179163,1,8,0:2:0:0:
282,222,179256,1,2,0:2:0:0:
298,272,179350,1,2,1:2:0:0:
282,323,179444,1,2,0:2:0:0:
232,344,179538,6,0,P|222:291|195:260,1,76.5000014591217,2|0,0:2|0:2,0:0:0:0:
360,225,179725,2,0,P|369:188|363:150,1,76.5000014591217,2|0,1:2|0:2,0:0:0:0:
465,379,179913,2,0,P|486:347|493:310,1,76.5000014591217,10|0,0:2|1:2,0:0:0:0:
430,59,180100,1,2,0:2:0:0:
472,91,180194,1,0,0:2:0:0:
441,134,180288,6,0,L|261:108,1,153.000002918243,2|0,1:2|0:2,0:0:0:0:
276,120,180569,1,0,1:2:0:0:
266,131,180663,5,10,0:2:0:0:
278,183,180757,1,2,0:2:0:0:
247,222,180850,1,2,1:2:0:0:
258,273,180944,1,2,0:2:0:0:
229,318,181038,6,0,P|191:314|144:282,1,76.5000014591217,2|0,0:2|0:2,0:0:0:0:
81,274,181225,2,0,P|79:311|95:347,1,76.5000014591217,2|0,1:2|0:2,0:0:0:0:
8,248,181413,2,0,P|28:217|61:198,1,76.5000014591217,10|0,0:2|0:2,0:0:0:0:
118,142,181600,2,0,P|82:123|45:119,1,76.5000014591217,2|0,1:2|0:2,0:0:0:0:
67,35,181788,5,10,0:2:0:0:
118,20,181881,1,8,0:3:0:0:
151,62,181975,1,8,0:3:0:0:
202,46,182069,5,8,0:2:0:0:
235,88,182163,1,8,0:3:0:0:
286,73,182256,1,8,0:3:0:0:
323,111,182350,5,8,0:2:0:0:
352,102,182443,1,8,0:3:0:0:
371,126,182537,1,0,0:2:0:0:
401,117,182631,1,8,0:2:0:0:
412,142,182725,5,8,0:2:0:0:
425,137,182818,1,8,0:2:0:0:
434,148,182912,1,8,0:3:0:0:
449,144,183006,1,8,0:3:0:0:
453,155,183100,6,0,B|444:190|444:190|445:192|445:192|431:257,1,76.5000014591217,4|4,0:3|0:3,0:0:0:0:
322,272,183288,6,0,B|350:245|412:282|402:316|395:316|383:352|440:388|478:357,1,215.999993408203,4|0,1:2|0:0,0:0:0:0:
