osu file format v14

[General]
AudioFilename: audio.mp3
AudioLeadIn: 0
PreviewTime: 18281
Countdown: 0
SampleSet: Drum
StackLeniency: 0.7
Mode: 0
LetterboxInBreaks: 0
WidescreenStoryboard: 1

[Editor]
Bookmarks: 18281,37031,49031,61781,73781,85781,91781,103781,117281,153281,159281
DistanceSpacing: 1.3
BeatDivisor: 4
GridSize: 32
TimelineZoom: 1

[Metadata]
Title:Ichizu
TitleUnicode:一途
Artist:King Gnu
ArtistUnicode:King Gnu
Creator:AirinCat
Version:Insane
Source:劇場版 呪術廻戦 0
Tags:moph only one way jjk Gekijouban jujutsu kaisen 0 zero movie anime sorcery fight theme japanese rock jrock
BeatmapID:3639411
BeatmapSetID:1768259

[Difficulty]
HPDrainRate:5
CircleSize:4
OverallDifficulty:7
ApproachRate:8.8
SliderMultiplier:1.8
SliderTickRate:1

[Events]
//Background and Video events
0,0,"get.jpg",0,0
//Break Periods
2,91987,101659
2,153488,157159
//Storyboard Layer 0 (Background)
//Storyboard Layer 1 (Fail)
//Storyboard Layer 2 (Pass)
//Storyboard Layer 3 (Foreground)
//Storyboard Layer 4 (Overlay)
//Storyboard Sound Samples

[TimingPoints]
288,375,4,3,1,30,1,0
288,-125,4,3,1,30,0,0
1788,-125,4,3,1,40,0,0
3288,-100,4,3,1,50,0,0
4788,-83.3333333333333,4,3,1,60,0,0
5538,-111.111111111111,4,3,1,70,0,0
6288,-83.3333333333333,4,3,1,70,0,0
18288,-125,4,2,1,50,0,0
18663,-125,4,2,1,50,0,0
24288,-166.666666666667,4,2,1,60,0,0
24663,-90.9090909090909,4,2,1,60,0,0
25788,-166.666666666667,4,2,1,60,0,0
26163,-90.9090909090909,4,2,1,60,0,0
27288,-166.666666666667,4,2,1,60,0,0
27663,-90.9090909090909,4,2,1,60,0,0
31788,-166.666666666667,4,2,1,60,0,0
32163,-90.9090909090909,4,2,1,60,0,0
33288,-166.666666666667,4,2,1,60,0,0
33663,-90.9090909090909,4,2,1,60,0,0
36288,-200,4,2,1,30,0,0
37038,375,4,2,1,70,1,0
37038,-76.9230769230769,4,2,1,70,0,0
37413,-111.111111111111,4,3,1,70,0,0
43038,-76.9230769230769,4,3,1,70,0,0
43413,-111.111111111111,4,3,1,70,0,0
47725,-111.111111111111,4,3,1,70,0,0
49788,-142.857142857143,4,2,1,70,0,0
50163,-90.909090909091,4,2,1,70,0,0
50538,-166.666666666667,4,2,1,60,0,0
50913,-90.909090909091,4,2,1,60,0,0
52038,-166.666666666667,4,2,1,60,0,0
52413,-90.909090909091,4,2,1,60,0,0
55038,-166.666666666667,4,2,1,60,0,0
55413,-90.909090909091,4,2,1,60,0,0
56538,-166.666666666667,4,2,1,60,0,0
56913,-90.909090909091,4,2,1,60,0,0
58038,-166.666666666667,4,2,1,60,0,0
58413,-90.909090909091,4,2,1,60,0,0
61788,375,4,2,1,70,1,0
61788,-76.9230769230769,4,2,1,70,0,0
62163,-111.111111111111,4,3,1,70,0,0
62538,-111.111111111111,4,3,1,70,0,0
72288,-90.9090909090909,4,3,1,70,0,0
73788,-83.3333333333333,4,3,1,70,0,0
74163,-83.3333333333333,4,3,1,80,0,0
74538,-90.9090909090909,4,3,1,80,0,1
85788,-142.857142857143,4,2,1,70,0,0
86163,-125,4,2,1,40,0,0
91694,-90.9090909090909,4,2,1,70,0,0
103788,-142.857142857143,4,2,1,50,0,0
104163,-142.857142857143,4,2,1,30,0,0
109788,-111.111111111111,4,2,1,50,0,0
112788,-111.111111111111,4,2,1,70,0,0
114475,-111.111111111111,4,2,1,40,0,0
116350,-111.111111111111,4,2,1,5,0,0
116538,-111.111111111111,4,2,1,70,0,0
117288,-76.9230769230769,4,3,1,70,0,0
117663,-111.111111111111,4,3,1,70,0,0
123288,-76.9230769230769,4,3,1,70,0,0
123663,-111.111111111111,4,3,1,70,0,0
129288,-111.111111111111,4,2,1,70,0,0
129663,-90.9090909090909,4,3,1,80,0,1
153288,-90.9090909090909,4,2,1,70,0,0
159288,-90.9090909090909,4,3,1,80,0,1
183288,-90.9090909090909,4,2,1,70,0,0

[Colours]
Combo1 : 242,179,181
Combo2 : 216,176,255
Combo3 : 233,177,237

[HitObjects]
78,365,288,6,0,L|115:353,3,36,2|0|0|0,0:3|0:2|0:2|0:2,0:2:0:0:
175,301,663,1,8,0:2:0:0:
175,301,756,1,0,0:2:0:0:
175,301,850,2,0,L|210:306,5,36,2|0|0|0|0|0,0:3|0:2|0:2|0:2|0:2|0:2,0:2:0:0:
266,370,1413,2,0,L|319:355,3,36,8|0|0|0,0:2|0:2|0:2|0:2,0:2:0:0:
374,291,1788,6,0,L|361:244,3,36,2|0|0|0,0:3|0:2|0:2|0:2,0:2:0:0:
418,190,2163,1,8,0:2:0:0:
418,190,2256,1,0,0:2:0:0:
418,190,2350,2,0,L|427:155,5,36,2|0|0|0|0|0,0:3|0:2|0:2|0:2|0:2|0:2,0:2:0:0:
360,96,2913,2,0,L|347:49,3,36,8|0|0|0,0:2|0:2|0:2|0:2,0:2:0:0:
254,39,3288,6,0,L|207:52,3,45,2|0|0|0,0:3|0:2|0:2|0:2,0:0:0:0:
159,133,3663,1,8,0:2:0:0:
159,133,3756,1,0,0:2:0:0:
159,133,3850,2,0,L|173:194,5,45,2|0|0|0|0|0,0:3|0:2|0:2|0:2|0:2|0:2,0:2:0:0:
120,251,4413,2,0,L|73:267,3,45,8|0|0|0,0:2|0:2|0:2|0:2,0:2:0:0:
110,350,4788,6,0,L|169:330,3,53.9999983520508,2|0|0|0,0:3|0:2|0:2|0:2,0:0:0:0:
250,275,5163,1,8,0:3:0:0:
250,275,5256,1,8,0:3:0:0:
250,275,5350,1,8,0:3:0:0:
250,275,5444,1,8,0:3:0:0:
250,275,5538,2,0,L|336:291,1,80.9999975280763,12|0,0:2|0:2,0:2:0:0:
443,360,5913,1,8,0:2:0:0:
443,360,6006,1,4,0:3:0:0:
443,360,6100,1,4,0:3:0:0:
443,360,6194,1,4,0:3:0:0:
443,360,6288,6,0,L|457:305,3,53.9999983520508,6|2|2|2,1:2|0:2|0:2|0:2,0:2:0:0:
512,237,6663,2,0,P|493:171|481:118,1,107.999996704102,8|2,0:2|1:2,0:2:0:0:
414,84,6944,1,2,0:2:0:0:
414,84,7038,2,0,L|351:103,2,53.9999983520508,2|2|2,0:2|0:2|1:2,0:0:0:0:
368,221,7413,2,0,L|263:193,1,107.999996704102,8|0,0:2|0:2,0:2:0:0:
202,143,7694,1,0,0:2:0:0:
202,143,7788,6,0,L|89:171,1,107.999996704102,0|2,1:2|0:2,0:2:0:0:
16,158,8069,1,2,1:2:0:0:
16,158,8163,2,0,L|2:100,2,53.9999983520508,10|0|0,0:2|0:0|1:2,0:2:0:0:
156,287,8538,2,0,L|172:232,2,53.9999983520508,2|2|2,0:2|0:2|1:2,0:0:0:0:
15,376,8913,2,0,L|-1:321,2,53.9999983520508,10|2|2,0:2|1:2|0:2,0:0:0:0:
240,384,9288,5,2,1:2:0:0:
240,384,9381,1,2,0:2:0:0:
240,384,9475,2,0,L|260:316,1,53.9999983520508,2|2,0:2|1:2,0:2:0:0:
328,288,9663,2,0,L|432:315,1,107.999996704102,8|2,0:2|1:2,0:2:0:0:
512,268,9944,1,2,0:2:0:0:
512,268,10038,2,0,L|497:213,3,53.9999983520508,2|2|2|0,0:2|0:2|1:2|1:2,0:0:0:0:
434,155,10413,2,0,L|328:185,1,107.999996704102,8|0,0:2|0:2,0:2:0:0:
252,166,10694,1,0,0:2:0:0:
252,166,10788,6,0,L|220:57,1,107.999996704102,0|2,1:2|0:2,0:2:0:0:
298,16,11069,1,2,1:2:0:0:
298,16,11163,2,0,L|314:75,2,53.9999983520508,10|2|2,0:2|0:2|1:2,0:0:0:0:
129,60,11538,2,0,L|144:113,3,53.9999983520508,2|2|2|2,0:2|0:2|1:2|0:2,0:0:0:0:
95,192,11913,2,0,P|20:211|0:286,1,161.999995056153,10|0,0:2|1:2,0:2:0:0:
52,368,12288,6,0,L|122:354,3,53.9999983520508,2|2|2|2,1:2|0:2|0:2|1:2,0:2:0:0:
171,298,12663,2,0,L|279:324,1,107.999996704102,8|2,0:2|1:2,0:2:0:0:
363,301,12944,1,2,0:2:0:0:
363,301,13038,2,0,L|377:241,2,53.9999983520508,2|2|2,0:2|0:2|1:2,0:0:0:0:
239,209,13413,2,0,L|264:93,1,107.999996704102,8|0,0:2|0:2,0:2:0:0:
337,53,13694,1,0,0:2:0:0:
337,53,13788,6,0,L|443:77,1,107.999996704102,0|2,1:2|0:2,0:2:0:0:
509,135,14069,1,2,1:2:0:0:
509,135,14163,2,0,L|491:196,2,53.9999983520508,10|0|0,0:2|0:0|1:2,0:2:0:0:
345,193,14538,2,0,L|358:255,2,53.9999983520508,2|2|2,0:2|0:2|1:2,0:0:0:0:
506,296,14913,2,0,L|488:357,2,53.9999983520508,10|2|2,0:2|1:2|0:2,0:0:0:0:
295,371,15288,5,2,1:2:0:0:
295,371,15381,1,2,0:2:0:0:
295,371,15475,2,0,L|283:318,1,53.9999983520508,2|2,0:2|1:2,0:2:0:0:
209,279,15663,2,0,P|156:290|105:308,1,107.999996704102,8|2,0:2|1:2,0:2:0:0:
27,281,15944,1,2,0:2:0:0:
27,281,16038,2,0,L|10:213,3,53.9999983520508,2|2|2|0,0:2|0:2|1:2|0:2,0:0:0:0:
66,163,16413,2,0,P|81:106|91:50,1,107.999996704102,8|0,0:2|0:2,0:2:0:0:
162,18,16694,1,0,0:2:0:0:
162,18,16788,6,0,P|215:31|279:40,1,107.999996704102,0|2,1:2|0:2,0:2:0:0:
353,18,17069,1,0,1:2:0:0:
353,18,17163,1,10,0:2:0:0:
353,18,17256,1,10,0:2:0:0:
353,18,17350,1,6,1:2:0:0:
445,187,17538,2,0,L|455:134,5,53.9999983520508,10|10|2|2|2|2,0:2|0:2|0:2|0:2|0:2|0:2,0:0:0:0:
365,142,18100,5,8,0:2:0:0:
365,142,18194,1,8,0:2:0:0:
365,142,18288,2,0,B|288:136|295:115|223:106,1,144,2|0,1:2|0:2,0:2:0:0:
154,51,18850,2,0,P|79:99|86:168,1,144,2|0,0:2|0:2,0:2:0:0:
113,222,19413,1,2,0:2:0:0:
72,326,19600,5,2,0:2:0:0:
72,326,19694,1,2,0:2:0:0:
72,326,19788,2,0,P|136:311|223:296,1,144,2|0,0:2|0:2,0:2:0:0:
258,226,20350,2,0,P|328:238|413:255,1,144,2|0,0:2|0:2,0:2:0:0:
431,331,20913,1,2,0:2:0:0:
500,241,21100,5,2,0:2:0:0:
500,241,21194,1,2,0:2:0:0:
500,241,21288,2,0,B|489:169|461:185|450:107,1,144,2|0,0:2|0:2,0:2:0:0:
378,0,21850,2,0,B|367:72|339:56|328:133,1,144,2|0,0:2|0:2,0:2:0:0:
385,195,22413,1,2,0:2:0:0:
284,287,22600,5,2,0:2:0:0:
284,287,22694,1,2,0:2:0:0:
284,287,22788,2,0,P|222:272|135:259,1,144,2|0,0:2|0:2,0:2:0:0:
52,339,23350,2,0,P|-1:280|15:213,1,144,2|0,0:2|0:2,0:2:0:0:
84,190,23913,1,2,0:2:0:0:
0,77,24100,1,8,0:2:0:0:
0,77,24194,1,8,0:2:0:0:
0,77,24288,6,0,L|86:57,1,80.9999975280763,2|0,1:3|1:2,0:2:0:0:
159,0,24663,2,0,L|261:18,1,99.0000030212403,10|2,0:2|1:2,0:2:0:0:
326,71,24944,1,2,0:2:0:0:
326,71,25038,2,0,L|307:169,1,99.0000030212403,2|2,0:2|1:2,0:2:0:0:
167,186,25413,1,10,0:2:0:0:
109,249,25600,5,2,0:2:0:0:
109,249,25694,1,2,0:2:0:0:
109,249,25788,2,0,L|122:343,1,80.9999975280763,2|0,1:3|1:2,0:2:0:0:
204,373,26163,2,0,L|263:361,3,49.5000015106202,10|2|2|2,0:2|0:2|1:2|0:2,0:2:0:0:
318,307,26538,2,0,L|414:328,1,99.0000030212403,2|2,0:2|1:2,0:2:0:0:
512,132,26913,2,0,L|452:119,3,49.5000015106202,10|0|2|2,0:2|1:2|0:2|0:2,0:2:0:0:
384,144,27288,6,0,L|364:229,1,80.9999975280763,2|0,1:3|1:2,0:2:0:0:
284,266,27663,2,0,L|231:252,3,49.5000015106202,10|2|2|2,0:2|0:2|1:2|0:2,0:2:0:0:
171,196,28038,2,0,L|74:219,1,99.0000030212403,2|2,0:2|1:2,0:2:0:0:
74,219,28319,1,0,1:2:0:0:
74,219,28413,1,10,0:2:0:0:
0,101,28600,5,2,0:2:0:0:
0,101,28694,1,0,0:2:0:0:
0,101,28788,2,0,P|69:85|99:19,1,148.50000453186,2|2,1:2|1:2,0:2:0:0:
99,19,29163,1,8,0:2:0:0:
197,132,29350,2,0,B|268:137|258:166|335:182,1,148.50000453186,2|0,1:2|0:2,0:2:0:0:
403,235,29725,2,0,P|431:192|405:145,1,99.0000030212403,2|8,1:2|0:2,0:2:0:0:
293,312,30100,5,2,0:2:0:0:
293,312,30194,1,2,0:2:0:0:
293,312,30288,2,0,P|218:329|146:355,1,148.50000453186,2|0,1:3|0:2,0:2:0:0:
65,342,30663,2,0,L|40:279,3,49.5000015106202,10|2|2|2,0:2|0:2|1:2|0:2,0:0:0:0:
79,209,31038,2,0,P|131:189|182:182,1,99.0000030212403,2|2,0:2|1:2,0:2:0:0:
203,17,31413,1,10,0:2:0:0:
304,41,31600,5,2,0:2:0:0:
304,41,31694,1,2,0:2:0:0:
304,41,31788,2,0,L|326:118,1,80.9999975280763,2|0,1:3|1:2,0:2:0:0:
296,200,32163,2,0,L|246:212,3,49.5000015106202,10|2|2|2,0:2|0:2|1:2|0:2,0:0:0:0:
185,273,32538,2,0,P|192:327|206:374,1,99.0000030212403,2|2,0:2|1:2,0:2:0:0:
373,364,32913,2,0,L|362:312,3,49.5000015106202,10|0|2|2,0:2|1:2|0:2|0:2,0:2:0:0:
395,239,33288,6,0,P|437:226|483:221,1,80.9999975280763,2|0,1:3|0:2,0:2:0:0:
512,148,33663,2,0,L|501:93,3,49.5000015106202,10|2|2|2,0:2|0:2|1:2|0:2,0:0:0:0:
438,42,34038,2,0,P|387:50|342:64,1,99.0000030212403,2|2,0:2|1:2,0:2:0:0:
277,122,34319,1,0,1:2:0:0:
277,122,34413,2,0,P|233:116|168:96,1,99.0000030212403,10|2,0:2|0:2,0:2:0:0:
6,11,34788,6,0,P|68:46|75:117,1,148.50000453186,2|2,1:2|1:2,0:2:0:0:
9,179,35163,2,0,P|3:205|0:241,1,49.5000015106202,8|8,0:2|0:2,0:0:0:0:
58,303,35350,2,0,B|140:298|116:273|199:259,1,148.50000453186,2|0,1:2|1:2,0:0:0:0:
297,277,35725,1,8,0:2:0:0:
297,277,35819,1,8,0:2:0:0:
297,277,35913,1,8,0:3:0:0:
297,277,36006,1,8,0:3:0:0:
297,277,36100,2,0,L|310:328,1,49.5000015106202,4|4,0:3|0:3,0:0:0:0:
175,372,36288,6,2,L|167:343,7,22.5,2|2|2|2|2|2|2|2,0:2|0:2|0:2|0:2|0:2|0:2|0:2|0:2,0:2:0:0:
155,339,37038,6,0,B|160:243|215:271|220:181,1,175.499991966248,6|0,1:2|0:2,0:2:0:0:
176,111,37413,2,0,P|131:101|91:88,1,80.9999975280763,10|0,0:2|0:2,0:2:0:0:
306,233,37788,2,0,P|349:221|391:212,1,80.9999975280763,2|0,0:2|1:2,0:2:0:0:
454,254,38163,1,10,0:2:0:0:
492,123,38350,6,0,L|472:40,1,80.9999975280763,2|2,0:2|1:2,0:2:0:0:
406,0,38725,1,0,0:2:0:0:
406,0,38819,1,0,1:2:0:0:
406,0,38913,1,8,0:2:0:0:
299,93,39100,2,0,P|224:119|157:78,1,161.999995056153,2|2,1:2|1:2,0:2:0:0:
237,29,39663,1,10,0:2:0:0:
237,29,39756,1,0,1:2:0:0:
237,29,39850,1,2,0:2:0:0:
79,100,40038,6,0,L|1:125,1,80.9999975280763,2|0,1:2|0:2,0:2:0:0:
1,124,40319,1,0,1:2:0:0:
1,124,40413,1,10,0:2:0:0:
167,192,40600,2,0,P|182:229|195:267,1,80.9999975280763,2|0,1:2|0:2,0:2:0:0:
162,366,40975,1,2,1:2:0:0:
162,366,41069,1,0,0:0:0:0:
162,366,41163,1,8,0:2:0:0:
53,328,41350,6,0,P|37:290|24:252,1,80.9999975280763,2|2,0:2|1:2,0:0:0:0:
179,148,41725,2,0,L|167:200,2,40.4999987640381,2|0|8,3:2|3:0|0:2,0:0:0:0:
286,302,42100,2,0,P|328:310|364:321,1,80.9999975280763,2|2,1:2|0:2,0:0:0:0:
491,202,42475,2,0,P|478:163|468:124,1,80.9999975280763,2|8,1:2|0:2,0:2:0:0:
331,190,42850,5,0,0:2:0:0:
331,190,42944,1,2,1:2:0:0:
331,190,43038,2,0,B|233:204|258:258|179:271,1,175.499991966248,6|0,1:2|1:2,0:2:0:0:
82,245,43413,2,0,P|69:206|59:163,1,80.9999975280763,10|0,0:2|0:2,0:2:0:0:
200,24,43788,2,0,P|212:58|224:106,1,80.9999975280763,2|0,0:2|1:2,0:2:0:0:
156,148,44163,1,10,0:2:0:0:
330,150,44350,6,0,P|372:140|415:128,1,80.9999975280763,2|6,0:2|1:2,0:2:0:0:
469,67,44725,1,0,0:0:0:0:
469,67,44819,1,0,1:2:0:0:
469,67,44913,1,8,0:2:0:0:
510,208,45100,2,0,P|429:255|436:333,1,161.999995056153,2|2,1:2|1:2,0:2:0:0:
512,315,45663,1,8,0:2:0:0:
512,315,45756,1,0,1:2:0:0:
512,315,45850,1,2,0:2:0:0:
340,306,46038,6,0,B|272:314|284:330|225:344,1,121.499996292114,2|0,1:2|1:2,0:2:0:0:
225,344,46413,1,8,0:2:0:0:
125,240,46600,2,0,P|134:199|149:157,1,80.9999975280763,2|2,1:2|0:2,0:0:0:0:
59,64,46975,1,2,1:2:0:0:
59,64,47069,1,0,1:2:0:0:
59,64,47163,1,8,0:2:0:0:
208,16,47350,6,0,P|246:26|286:33,1,80.9999975280763,2|0,0:2|1:2,0:2:0:0:
404,142,47725,2,0,L|391:180,1,40.4999987640381,2|0,0:1|1:2,0:2:0:0:
318,261,47913,2,0,L|305:222,1,40.4999987640381,10|8,0:2|0:2,0:2:0:0:
225,174,48100,2,0,L|147:197,1,80.9999975280763,2|8,1:1|0:2,0:2:0:0:
103,267,48381,1,8,0:2:0:0:
103,267,48475,1,8,0:2:0:0:
103,267,48569,1,8,0:3:0:0:
103,267,48663,2,0,L|115:309,3,40.4999987640381,8|4|4|4,0:3|0:3|0:3|0:3,0:0:0:0:
193,359,49038,5,4,1:2:0:0:
369,337,50163,2,0,L|416:322,1,49.5000015106202,12|0,0:2|1:2,0:2:0:0:
467,245,50350,2,0,L|419:230,1,49.5000015106202,0|0,1:2|1:2,0:2:0:0:
329,183,50538,6,0,P|338:143|350:104,1,80.9999975280763,4|0,1:1|1:2,0:2:0:0:
308,31,50913,2,0,L|208:6,1,99.0000030212403,8|8,0:2|0:3,0:2:0:0:
133,20,51194,1,8,0:3:0:0:
133,20,51288,2,0,L|115:79,3,49.5000015106202,4|4|4|0,0:3|0:3|0:3|1:2,0:0:0:0:
48,123,51663,2,0,L|70:219,1,99.0000030212403,8|4,0:2|0:3,0:2:0:0:
150,274,51944,1,4,0:3:0:0:
150,274,52038,6,0,L|227:251,1,80.9999975280763,4|0,1:3|1:2,0:2:0:0:
299,189,52413,2,0,P|349:195|412:210,1,99.0000030212403,8|0,0:2|0:2,0:2:0:0:
487,177,52694,1,8,0:3:0:0:
487,177,52788,2,0,L|499:127,4,49.5000015106202,8|4|4|0|8,0:3|0:3|0:3|1:2|0:2,0:0:0:0:
395,22,53350,5,4,0:3:0:0:
395,22,53444,1,4,0:3:0:0:
395,22,53538,2,0,B|314:32|343:55|256:76,1,148.50000453186,6|6,1:3|1:3,0:2:0:0:
258,75,53913,1,8,0:2:0:0:
211,247,54100,2,0,P|202:223|196:199,3,49.5000015106202,2|0|4|4,0:3|0:0|0:3|0:3,0:2:0:0:
316,212,54475,2,0,P|309:188|301:164,2,49.5000015106202,6|0|8,0:3|1:2|0:2,0:0:0:0:
90,240,54850,5,10,0:3:0:0:
90,240,54944,1,8,0:3:0:0:
90,240,55038,2,0,L|114:317,1,80.9999975280763,4|0,1:3|1:2,0:2:0:0:
192,364,55413,2,0,P|239:347|298:335,1,99.0000030212403,8|10,0:2|0:3,0:2:0:0:
355,286,55694,1,10,0:3:0:0:
355,286,55788,2,0,L|408:298,1,49.5000015106202,6|6,0:3|0:3,0:0:0:0:
485,262,55975,2,0,L|503:207,1,49.5000015106202,6|0,0:3|1:2,0:2:0:0:
461,137,56163,2,0,L|365:108,1,99.0000030212403,8|4,0:2|0:3,0:2:0:0:
279,117,56444,1,4,0:3:0:0:
279,117,56538,6,0,P|269:150|253:201,1,80.9999975280763,4|0,1:3|1:2,0:2:0:0:
175,213,56913,2,0,P|131:199|73:180,1,99.0000030212403,8|10,0:2|0:3,0:2:0:0:
12,232,57194,1,10,0:3:0:0:
12,232,57288,2,0,L|-2:289,1,49.5000015106202,6|6,0:3|0:3,0:0:0:0:
46,358,57475,2,0,L|114:354,1,49.5000015106202,6|0,0:3|1:2,0:2:0:0:
176,323,57663,2,0,P|227:334|293:359,1,99.0000030212403,8|4,0:2|0:3,0:2:0:0:
352,310,57944,1,4,0:3:0:0:
352,310,58038,6,0,P|362:270|369:231,1,80.9999975280763,4|0,1:3|1:2,0:2:0:0:
436,168,58413,2,0,P|423:120|415:71,1,99.0000030212403,8|10,0:2|0:3,0:2:0:0:
490,27,58694,1,10,0:3:0:0:
490,27,58788,2,0,P|496:49|505:81,1,49.5000015106202,6|6,0:3|0:3,0:0:0:0:
332,107,58975,2,0,P|325:83|319:59,2,49.5000015106202,8|8|8,0:3|0:3|0:2,0:0:0:0:
511,233,59350,5,6,0:3:0:0:
511,233,59444,1,4,0:3:0:0:
511,233,59538,2,0,P|443:248|362:280,1,148.50000453186,6|6,1:3|1:3,0:2:0:0:
315,347,59913,2,0,P|287:343|251:330,1,49.5000015106202,8|0,0:2|0:2,0:2:0:0:
196,288,60100,2,0,B|201:206|235:223|244:149,1,148.50000453186,10|8,0:3|0:3,0:0:0:0:
191,90,60475,5,6,0:3:0:0:
191,90,60569,1,4,1:3:0:0:
191,90,60663,2,0,P|158:103|88:116,1,99.0000030212403,8|2,0:2|0:2,0:2:0:0:
0,237,61038,2,0,P|1:261|11:292,3,49.5000015106202,4|4|8|4,0:3|0:3|0:2|0:3,0:0:0:0:
80,334,61413,2,0,P|133:320|195:312,1,99.0000030212403,8|4,0:2|0:3,0:2:0:0:
259,336,61694,1,10,0:2:0:0:
259,336,61788,6,0,P|306:264|287:181,1,175.499991966248,6|0,1:2|0:2,0:2:0:0:
215,125,62163,2,0,P|181:132|123:146,1,80.9999975280763,10|0,0:2|1:2,0:2:0:0:
399,218,62538,2,0,P|433:211|491:197,1,80.9999975280763,2|0,0:2|1:2,0:2:0:0:
506,112,62913,1,10,0:2:0:0:
373,14,63100,6,0,L|394:101,1,80.9999975280763,2|4,0:2|1:2,0:2:0:0:
321,179,63475,1,0,0:0:0:0:
321,179,63569,1,0,1:2:0:0:
321,179,63663,1,8,0:2:0:0:
211,124,63850,2,0,P|141:137|48:170,1,161.999995056153,2|2,1:2|1:2,0:2:0:0:
2,248,64413,1,10,0:2:0:0:
2,248,64506,1,0,1:2:0:0:
2,248,64600,1,2,0:2:0:0:
106,349,64788,6,0,P|172:335|232:314,1,121.499996292114,2|0,1:2|1:2,0:2:0:0:
223,317,65163,1,10,0:2:0:0:
362,199,65350,2,0,P|375:237|386:279,1,80.9999975280763,2|0,1:2|0:0,0:2:0:0:
335,372,65725,1,0,1:2:0:0:
335,372,65819,1,0,1:2:0:0:
335,372,65913,1,8,0:2:0:0:
435,371,66100,6,0,P|486:355|520:343,1,80.9999975280763,2|0,0:2|1:2,0:2:0:0:
274,217,66475,2,0,P|279:234|285:261,2,40.4999987640381,2|0|8,0:2|3:0|0:2,0:0:0:0:
181,303,66850,2,0,P|166:265|161:225,1,80.9999975280763,2|0,1:2|0:2,0:2:0:0:
77,152,67225,2,0,P|37:157|0:172,1,80.9999975280763,2|8,1:2|0:2,0:2:0:0:
157,32,67600,5,0,0:2:0:0:
157,32,67694,1,0,1:2:0:0:
157,32,67788,2,0,P|206:97|293:84,1,161.999995056153,6|10,1:2|0:2,0:2:0:0:
381,93,68350,2,0,L|356:15,1,80.9999975280763,2|0,1:2|0:2,0:2:0:0:
235,192,68725,2,0,L|256:272,1,80.9999975280763,2|8,1:2|0:2,0:2:0:0:
145,360,69100,6,0,P|107:369|66:381,1,80.9999975280763,2|2,0:2|1:2,0:0:0:0:
0,167,69475,1,0,0:0:0:0:
0,167,69569,1,0,1:2:0:0:
0,167,69663,2,0,L|87:189,1,80.9999975280763,8|2,0:2|1:2,0:2:0:0:
83,266,70038,1,2,0:2:0:0:
171,165,70225,1,2,1:2:0:0:
244,271,70413,2,0,L|236:310,3,40.4999987640381,10|0|2|0,0:2|1:2|0:2|0:2,0:0:0:0:
174,363,70788,6,0,B|262:350|235:314|327:305,1,161.999995056153,4|10,1:2|0:2,0:2:0:0:
478,363,71350,2,0,P|440:366|397:381,1,80.9999975280763,2|0,1:2|0:2,0:2:0:0:
387,196,71725,1,2,1:1:0:0:
387,196,71819,1,0,1:2:0:0:
387,196,71913,2,0,P|425:208|465:212,1,80.9999975280763,10|2,0:2|0:1,0:2:0:0:
371,0,72288,6,0,P|301:10|269:74,1,148.50000453186,2|2,1:2|1:2,0:2:0:0:
246,157,72663,1,8,0:2:0:0:
246,157,72756,1,8,0:2:0:0:
246,157,72850,2,0,P|201:166|137:176,1,99.0000030212403,6|8,1:2|0:2,0:2:0:0:
89,230,73131,1,8,0:2:0:0:
89,230,73225,1,8,0:2:0:0:
89,230,73319,1,8,0:2:0:0:
89,230,73413,6,0,L|99:293,1,49.5000015106202,8|8,0:3|0:3,0:0:0:0:
171,357,73600,2,0,L|188:295,1,49.5000015106202,4|4,0:3|0:3,0:0:0:0:
261,255,73788,1,4,1:1:0:0:
261,255,74163,6,0,P|357:264|396:336,1,161.999995056153,12|0,0:2|0:2,0:2:0:0:
474,304,74538,2,0,P|488:249|503:205,1,99.0000030212403,2|2,0:2|1:2,0:2:0:0:
446,68,74913,1,10,0:2:0:0:
342,159,75100,1,2,0:2:0:0:
342,159,75194,1,2,0:2:0:0:
342,159,75288,1,2,1:2:0:0:
262,48,75475,2,0,P|213:36|167:20,1,99.0000030212403,2|8,0:2|0:2,0:2:0:0:
10,190,75850,2,0,P|104:202|155:123,1,198.000006042481,2|2,1:2|1:2,0:2:0:0:
67,119,76413,5,10,0:2:0:0:
242,196,76600,1,2,0:2:0:0:
242,196,76694,1,0,0:2:0:0:
242,196,76788,2,0,L|265:297,1,99.0000030212403,0|2,1:2|0:2,0:2:0:0:
195,346,77163,1,10,0:2:0:0:
341,243,77350,2,0,P|412:235|461:287,1,148.50000453186,2|0,1:2|0:0,0:2:0:0:
506,358,77725,2,0,P|443:369|405:339,1,99.0000030212403,2|8,1:2|0:2,0:2:0:0:
334,141,78100,6,0,P|345:92|354:39,1,99.0000030212403,2|0,0:2|1:2,0:2:0:0:
510,90,78475,2,0,P|498:138|489:192,1,99.0000030212403,2|8,0:2|0:2,0:2:0:0:
490,187,78756,1,8,0:2:0:0:
490,187,78850,1,6,1:2:0:0:
379,254,79038,1,8,0:2:0:0:
379,254,79131,1,8,0:2:0:0:
379,254,79225,2,0,L|274:233,1,99.0000030212403,6|2,1:2|1:2,0:2:0:0:
82,354,79600,5,8,0:2:0:0:
82,354,79694,1,8,0:2:0:0:
82,354,79788,2,0,P|136:297|113:227,1,148.50000453186,4|0,1:1|1:2,0:0:0:0:
134,153,80163,2,0,P|182:140|244:125,1,99.0000030212403,14|0,0:2|0:0,0:2:0:0:
307,327,80538,1,2,0:2:0:0:
218,271,80725,1,2,1:2:0:0:
336,208,80913,1,10,0:2:0:0:
420,259,81100,1,2,0:2:0:0:
472,122,81288,6,0,L|444:22,1,99.0000030212403,2|2,1:2|0:2,0:2:0:0:
445,26,81569,1,0,1:2:0:0:
445,26,81663,1,10,0:2:0:0:
310,119,81850,2,0,B|227:131|250:161|158:173,1,148.50000453186,2|0,1:2|0:0,0:2:0:0:
90,108,82225,2,0,P|144:95|190:71,1,99.0000030212403,2|8,1:2|0:2,0:2:0:0:
238,252,82600,6,0,P|194:260|135:286,1,99.0000030212403,2|2,0:2|1:2,0:0:0:0:
73,245,82975,1,0,0:2:0:0:
73,245,83069,1,0,1:2:0:0:
73,245,83163,1,8,0:2:0:0:
283,337,83350,2,0,P|333:259|318:212,1,148.50000453186,2|0,1:2|0:0,0:2:0:0:
244,158,83725,2,0,P|254:102|274:58,1,99.0000030212403,0|8,1:2|0:2,0:2:0:0:
493,133,84100,6,0,P|483:189|463:233,1,99.0000030212403,2|0,0:2|1:2,0:2:0:0:
393,166,84475,1,2,0:2:0:0:
393,166,84569,1,0,1:2:0:0:
393,166,84663,1,8,0:2:0:0:
409,320,84850,2,0,P|459:338|514:349,1,99.0000030212403,2|8,1:2|0:2,0:2:0:0:
503,347,85131,1,8,0:2:0:0:
503,347,85225,1,8,1:2:0:0:
289,309,85413,2,0,P|259:312|226:325,3,49.5000015106202,8|8|8|8,0:2|0:2|0:3|0:3,0:0:0:0:
169,363,85788,6,0,P|126:318|137:254,1,125.999996154785,4|2,1:2|0:2,0:0:0:0:
112,168,86350,2,0,P|181:188|251:204,1,144,2|0,0:2|0:2,0:2:0:0:
327,171,86913,1,2,0:2:0:0:
320,49,87100,5,2,0:2:0:0:
320,49,87194,1,2,0:2:0:0:
320,49,87288,2,0,P|249:36|179:16,1,144,2|0,0:2|0:2,0:2:0:0:
87,36,87850,2,0,P|35:82|44:151,1,144,2|0,0:2|0:2,0:2:0:0:
131,160,88413,1,2,0:2:0:0:
77,304,88600,5,2,0:2:0:0:
77,304,88694,1,2,0:2:0:0:
77,304,88788,2,0,P|143:283|223:272,1,144,2|0,0:2|0:2,0:2:0:0:
282,195,89350,2,0,P|353:204|422:224,1,144,2|0,0:2|0:2,0:2:0:0:
478,282,89913,1,2,0:2:0:0:
394,381,90100,5,2,0:2:0:0:
394,381,90194,1,2,0:2:0:0:
393,381,90288,2,0,P|321:358|252:352,1,144,2|2,0:2|0:3,0:2:0:0:
168,363,90850,1,2,0:3:0:0:
128,249,91038,2,0,L|135:213,3,36,8|8|8|8,0:2|0:2|0:2|0:2,0:0:0:0:
217,153,91413,1,8,0:2:0:0:
217,153,91506,1,8,0:3:0:0:
217,153,91600,1,4,0:3:0:0:
217,153,91694,6,0,L|265:164,1,49.5000015106202,4|4,0:3|1:2,0:2:0:0:
141,82,102288,6,0,P|126:129|115:177,1,99.0000030212403,12|0,0:2|0:2,0:2:0:0:
29,206,102569,2,0,P|37:254|48:303,1,99.0000030212403,10|8,0:2|0:3,0:2:0:0:
110,362,102850,2,0,P|136:354|164:349,1,49.5000015106202,10|0,0:2|1:2,0:2:0:0:
226,296,103038,2,0,L|286:313,3,49.5000015106202,0|8|4|4,1:2|0:3|0:3|0:3,0:0:0:0:
340,365,103413,2,0,L|400:348,3,49.5000015106202,8|8|4|4,0:2|0:2|0:3|0:3,0:0:0:0:
454,288,103788,6,0,P|441:226|420:166,1,125.999996154785,12|8,0:2|0:1,0:2:0:0:
472,40,104350,2,0,P|412:59|349:65,1,125.999996154785,8|8,0:1|0:1,0:2:0:0:
283,19,104913,1,0,3:1:0:0:
230,119,105100,6,0,P|240:182|251:251,1,125.999996154785,8|8,0:1|0:1,0:2:0:0:
325,295,105663,1,0,3:3:0:0:
325,295,105850,1,8,0:1:0:0:
260,358,106038,1,8,0:1:0:0:
166,318,106225,1,0,3:1:0:0:
77,367,106413,1,8,0:1:0:0:
17,295,106600,1,0,3:1:0:0:
74,215,106788,6,0,P|134:198|197:194,1,125.999996154785,8|8,3:1|0:1,0:2:0:0:
340,111,107350,2,0,P|278:98|217:75,1,125.999996154785,8|8,0:1|0:1,0:2:0:0:
176,2,107913,1,0,3:1:0:0:
69,76,108100,2,0,P|53:128|42:209,1,125.999996154785,8|8,0:1|0:1,0:2:0:0:
96,275,108663,1,0,3:3:0:0:
96,275,108850,1,0,3:3:0:0:
173,243,109038,2,0,P|207:249|250:265,1,62.9999980773926,8|0,0:1|3:3,0:2:0:0:
296,333,109413,1,8,0:1:0:0:
296,333,109600,1,8,0:3:0:0:
400,312,109788,6,0,P|444:246|423:170,1,161.999995056153,4|8,0:3|0:2,0:2:0:0:
320,42,110350,1,4,3:3:0:0:
320,42,110725,2,0,L|293:138,1,80.9999975280763,8|8,0:3|0:2,0:2:0:0:
189,180,111100,6,0,L|108:160,1,80.9999975280763,0|4,3:3|0:3,0:2:0:0:
61,94,111475,1,8,0:3:0:0:
61,94,111569,1,8,0:3:0:0:
61,94,111663,1,8,0:2:0:0:
7,178,111850,1,4,0:3:0:0:
69,254,112038,1,0,3:2:0:0:
7,321,112225,1,4,0:3:0:0:
98,359,112413,1,8,0:2:0:0:
175,298,112600,5,0,1:2:0:0:
175,298,112694,1,0,1:2:0:0:
175,298,112788,2,0,P|254:294|307:357,1,161.999995056153,0|8,1:2|0:2,0:2:0:0:
512,227,113350,1,0,1:2:0:0:
512,227,113725,2,0,L|494:278,1,40.4999987640381,0|0,1:2|1:2,0:2:0:0:
412,309,113913,1,8,0:0:0:0:
375,287,114006,1,8,0:0:0:0:
366,244,114100,1,4,1:2:0:0:
256,192,114475,12,0,116350,0:0:0:0:
162,90,116538,6,0,L|170:129,4,40.4999987640381,8|8|4|4|8,0:2|0:2|0:3|0:3|0:2,0:0:0:0:
134,249,117100,5,8,0:2:0:0:
134,249,117194,1,8,0:2:0:0:
134,249,117288,2,0,P|211:212|289:245,1,175.499991966248,6|0,1:2|1:2,0:2:0:0:
368,262,117663,2,0,P|357:297|344:351,1,80.9999975280763,10|0,0:2|1:2,0:2:0:0:
257,129,118038,2,0,P|267:93|281:40,1,80.9999975280763,2|0,0:2|1:2,0:2:0:0:
358,11,118413,1,10,0:2:0:0:
434,129,118600,6,0,P|478:141|518:150,1,80.9999975280763,2|4,0:2|1:2,0:2:0:0:
512,57,118975,1,0,0:0:0:0:
512,57,119069,1,0,1:2:0:0:
512,57,119163,1,10,0:2:0:0:
340,122,119350,2,0,P|289:182|306:262,1,161.999995056153,2|0,1:2|1:2,0:2:0:0:
388,307,119913,1,10,0:2:0:0:
388,307,120006,1,0,1:2:0:0:
388,307,120100,6,0,P|430:302|470:290,1,80.9999975280763,2|2,0:2|1:2,0:2:0:0:
268,182,120475,2,0,P|226:187|186:199,1,80.9999975280763,2|8,0:2|0:2,0:0:0:0:
76,301,120850,2,0,P|29:237|41:158,1,161.999995056153,2|2,1:2|1:2,0:2:0:0:
41,158,121319,1,0,1:2:0:0:
41,158,121413,1,10,0:2:0:0:
53,46,121600,6,0,P|92:59|139:73,1,80.9999975280763,2|0,0:2|1:2,0:2:0:0:
360,8,121975,2,0,L|349:59,2,40.4999987640381,2|0|8,0:2|0:2|0:2,0:2:0:0:
231,94,122350,2,0,P|220:134|214:177,1,80.9999975280763,2|0,1:2|0:2,0:2:0:0:
431,224,122725,2,0,P|442:185|449:145,1,80.9999975280763,2|8,1:2|0:2,0:2:0:0:
324,192,123100,5,0,0:2:0:0:
324,192,123194,1,0,1:2:0:0:
324,192,123288,2,0,B|232:195|258:243|159:259,1,175.499991966248,6|0,1:2|1:2,0:2:0:0:
83,227,123663,2,0,P|69:188|63:148,1,80.9999975280763,10|0,0:2|1:2,0:2:0:0:
212,2,124038,2,0,P|225:40|231:80,1,80.9999975280763,2|0,0:2|1:2,0:2:0:0:
155,104,124413,1,10,0:2:0:0:
324,130,124600,6,0,P|367:119|405:108,1,80.9999975280763,2|4,0:2|1:2,0:2:0:0:
495,161,124975,1,0,0:0:0:0:
495,161,125069,1,0,1:2:0:0:
495,161,125163,1,8,0:2:0:0:
413,304,125350,2,0,P|335:294|292:228,1,161.999995056153,2|2,1:2|1:2,0:2:0:0:
385,213,125913,1,10,0:2:0:0:
385,213,126006,1,0,1:2:0:0:
385,213,126100,1,2,0:2:0:0:
253,323,126288,6,0,L|175:346,1,80.9999975280763,2|0,1:2|0:2,0:2:0:0:
175,346,126569,1,0,1:2:0:0:
175,346,126663,1,8,0:2:0:0:
84,306,126850,2,0,P|71:265|58:222,1,80.9999975280763,2|0,1:2|0:2,0:2:0:0:
219,40,127225,2,0,P|230:79|242:118,1,80.9999975280763,2|8,1:2|0:2,0:2:0:0:
98,116,127600,6,0,P|59:129|19:136,1,80.9999975280763,2|6,0:1|1:2,0:2:0:0:
205,253,127975,1,2,0:1:0:0:
205,253,128069,1,0,1:2:0:0:
205,253,128163,1,8,0:2:0:0:
336,169,128350,1,2,1:1:0:0:
336,169,128444,1,0,0:2:0:0:
336,169,128538,6,0,L|375:175,1,40.4999987640381,12|8,1:2|0:3,0:0:0:0:
360,262,128725,2,0,L|321:255,1,40.4999987640381,8|8,1:3|0:3,0:0:0:0:
429,370,128913,2,0,L|468:376,1,40.4999987640381,12|8,1:2|0:3,0:0:0:0:
488,292,129100,2,0,L|432:282,1,40.4999987640381,8|8,1:3|0:3,0:0:0:0:
320,376,129288,5,4,1:2:0:0:
320,376,129663,5,10,0:2:0:0:
218,256,129850,1,2,0:2:0:0:
316,119,130038,1,2,0:2:0:0:
425,182,130225,1,2,0:2:0:0:
322,286,130413,1,10,0:2:0:0:
207,173,130600,1,2,0:2:0:0:
207,173,130694,1,0,0:2:0:0:
207,173,130788,5,2,1:2:0:0:
118,272,130975,2,0,P|70:282|12:303,1,99.0000030212403,2|8,0:2|0:2,0:0:0:0:
96,134,131350,2,0,P|155:58|257:78,1,198.000006042481,2|2,0:2|1:2,0:2:0:0:
320,147,131913,1,10,0:2:0:0:
437,0,132100,5,2,0:2:0:0:
437,0,132194,1,0,0:2:0:0:
437,0,132288,2,0,P|389:13|340:23,1,99.0000030212403,0|2,1:2|0:2,0:2:0:0:
501,81,132663,1,10,0:2:0:0:
480,244,132850,2,0,P|411:202|426:115,1,148.50000453186,2|0,1:2|0:0,0:2:0:0:
335,104,133225,2,0,P|292:114|231:137,1,99.0000030212403,2|8,1:2|0:2,0:2:0:0:
294,339,133600,6,0,P|336:328|398:306,1,99.0000030212403,2|0,0:2|1:2,0:2:0:0:
319,240,133975,1,0,0:2:0:0:
319,240,134069,1,0,1:2:0:0:
319,240,134163,1,8,0:2:0:0:
185,369,134350,2,0,P|166:324|157:273,1,99.0000030212403,2|8,1:2|0:2,0:2:0:0:
157,274,134631,1,8,0:2:0:0:
157,274,134725,1,2,1:2:0:0:
0,192,134913,2,0,P|6:216|18:251,3,49.5000015106202,2|8|8|8,1:2|0:2|0:2|0:2,0:2:0:0:
96,198,135288,1,4,1:1:0:0:
96,198,135663,6,0,P|166:177|196:90,1,148.50000453186,14|0,0:2|0:2,0:2:0:0:
197,113,136038,1,2,0:2:0:0:
102,106,136225,1,2,1:2:0:0:
211,260,136413,1,10,0:2:0:0:
303,155,136600,1,2,0:2:0:0:
453,209,136788,6,0,P|473:277|489:366,1,148.50000453186,2|0,1:2|1:2,0:2:0:0:
487,353,137163,1,10,0:2:0:0:
335,284,137350,2,0,P|238:280|180:369,1,198.000006042481,2|2,1:2|1:2,0:2:0:0:
59,310,137913,1,10,0:2:0:0:
109,153,138100,6,0,P|124:199|137:261,1,99.0000030212403,2|2,0:2|1:2,0:0:0:0:
28,213,138475,1,0,0:2:0:0:
28,213,138569,1,0,1:2:0:0:
28,213,138663,1,8,0:2:0:0:
201,107,138850,2,0,P|273:121|365:148,1,148.50000453186,2|0,1:2|0:0,0:2:0:0:
414,203,139225,2,0,L|437:97,1,99.0000030212403,2|8,1:2|0:2,0:2:0:0:
207,199,139600,6,0,L|227:295,1,99.0000030212403,2|2,0:2|1:2,0:2:0:0:
435,384,139975,1,10,0:2:0:0:
435,384,140069,1,8,0:2:0:0:
435,384,140163,2,0,L|450:324,1,49.5000015106202,8|8,0:2|0:2,0:0:0:0:
512,274,140350,2,0,L|497:214,1,49.5000015106202,8|8,0:2|0:2,0:0:0:0:
431,175,140538,2,0,L|375:189,3,49.5000015106202,8|8|8|8,0:2|0:2|0:2|0:2,0:0:0:0:
314,236,140913,2,0,L|255:220,3,49.5000015106202,8|8|4|4,0:3|0:3|0:3|0:3,0:0:0:0:
185,189,141288,6,0,P|128:232|130:304,1,148.50000453186,6|0,1:1|0:2,0:2:0:0:
142,314,141663,2,0,B|165:297|165:297|158:255,1,49.5000015106202,12|0,0:2|0:2,0:2:0:0:
42,200,141850,2,0,B|49:93|102:128|116:20,1,198.000006042481,2|2,1:2|1:2,0:2:0:0:
36,21,142413,5,10,0:2:0:0:
198,123,142600,1,2,0:2:0:0:
198,123,142694,1,0,0:2:0:0:
198,123,142788,2,0,P|252:112|353:88,1,148.50000453186,0|0,1:2|1:2,0:2:0:0:
342,90,143163,1,8,0:2:0:0:
425,18,143350,2,0,P|492:85|472:178,1,198.000006042481,2|2,1:2|1:2,0:2:0:0:
389,190,143913,5,10,0:2:0:0:
512,313,144100,1,2,0:2:0:0:
512,313,144194,1,2,0:2:0:0:
512,313,144288,2,0,P|447:326|359:352,1,148.50000453186,2|0,1:2|1:2,0:2:0:0:
368,349,144663,1,8,0:2:0:0:
266,290,144850,2,0,P|250:236|243:191,1,99.0000030212403,2|0,1:2|0:0,0:2:0:0:
298,91,145225,2,0,P|351:75|397:68,1,99.0000030212403,2|8,1:2|0:2,0:2:0:0:
160,243,145600,6,0,P|111:235|63:222,1,99.0000030212403,2|0,0:2|1:2,0:0:0:0:
9,133,145975,1,2,0:2:0:0:
9,133,146069,1,0,1:2:0:0:
9,133,146163,1,8,0:2:0:0:
184,45,146350,2,0,P|170:84|156:144,1,99.0000030212403,2|8,1:2|0:2,0:2:0:0:
156,139,146631,1,8,0:2:0:0:
156,139,146725,1,2,1:2:0:0:
298,274,146913,1,2,1:2:0:0:
339,194,147100,5,8,0:2:0:0:
339,194,147194,1,8,0:2:0:0:
339,194,147288,2,0,P|266:191|213:258,1,148.50000453186,4|0,1:1|1:2,0:0:0:0:
143,298,147663,2,0,P|94:289|46:276,1,99.0000030212403,12|0,0:2|0:0,0:2:0:0:
80,114,148038,2,0,P|128:122|176:135,1,99.0000030212403,2|2,0:2|1:2,0:2:0:0:
295,259,148413,1,10,0:2:0:0:
403,159,148600,1,2,0:2:0:0:
309,138,148788,5,2,1:2:0:0:
435,273,148975,1,2,0:2:0:0:
435,273,149069,1,0,1:2:0:0:
435,273,149163,1,8,0:2:0:0:
295,365,149350,2,0,P|232:347|137:330,1,148.50000453186,2|0,1:2|0:0,0:2:0:0:
94,272,149725,2,0,P|45:281|0:299,1,99.0000030212403,2|8,1:2|0:2,0:2:0:0:
172,128,150100,6,0,P|161:74|145:29,1,99.0000030212403,2|2,0:2|1:2,0:0:0:0:
62,27,150475,1,2,0:2:0:0:
62,27,150569,1,0,1:2:0:0:
62,27,150663,1,8,0:2:0:0:
239,46,150850,2,0,P|309:35|389:6,1,148.50000453186,2|0,1:2|0:2,0:2:0:0:
464,29,151225,2,0,P|480:73|495:135,1,99.0000030212403,2|10,1:2|0:2,0:2:0:0:
300,224,151600,1,2,0:2:0:0:
300,224,151694,1,2,0:2:0:0:
300,224,151788,2,0,P|280:175|274:127,1,99.0000030212403,4|8,1:3|1:2,0:0:0:0:
512,277,152163,5,4,0:3:0:0:
512,277,152256,1,4,0:3:0:0:
512,277,152350,2,0,P|441:261|386:309,1,148.50000453186,4|0,0:3|0:2,0:0:0:0:
387,306,152725,2,0,P|394:332|398:356,1,49.5000015106202,4|4,0:3|0:3,0:0:0:0:
273,382,152913,1,12,0:3:0:0:
273,382,153006,1,12,0:3:0:0:
273,382,153100,2,0,P|266:351|263:328,1,49.5000015106202,12|12,0:3|0:3,0:0:0:0:
303,262,153288,1,4,1:2:0:0:
63,315,157788,5,0,1:2:0:0:
62,307,157881,1,0,1:2:0:0:
60,297,157975,1,8,0:2:0:0:
59,288,158069,2,0,L|159:307,1,99.0000030212403,8|8,0:2|0:2,0:0:0:0:
253,376,158444,1,8,0:2:0:0:
253,376,158538,2,0,L|351:354,1,99.0000030212403,8|8,0:2|0:2,0:0:0:0:
501,267,158913,2,0,L|436:250,3,49.5000015106202,8|8|4|4,0:2|0:3|0:3|0:3,0:0:0:0:
379,205,159288,6,0,P|389:133|451:97,1,148.50000453186,6|0,1:2|1:2,0:2:0:0:
450,97,159663,1,10,0:2:0:0:
283,177,159850,1,2,1:2:0:0:
283,177,159944,1,2,0:2:0:0:
283,177,160038,2,0,P|233:164|177:148,1,99.0000030212403,2|2,0:2|1:2,0:2:0:0:
23,174,160413,1,10,0:2:0:0:
78,36,160600,1,2,0:2:0:0:
23,174,160788,6,0,P|38:241|53:319,1,148.50000453186,0|0,1:2|1:2,0:2:0:0:
133,361,161163,2,0,P|162:357|186:351,3,49.5000015106202,10|2|2|2,0:2|0:2|1:2|0:2,0:2:0:0:
244,287,161538,2,0,P|238:235|225:187,1,99.0000030212403,2|2,0:2|1:2,0:2:0:0:
67,100,161913,1,10,0:2:0:0:
67,100,162100,1,2,0:2:0:0:
140,23,162288,6,0,B|221:34|209:61|284:73,1,148.50000453186,0|0,1:2|1:2,0:2:0:0:
364,57,162663,2,0,P|377:29|383:-2,1,49.5000015106202,10|2,0:2|0:2,0:2:0:0:
333,149,162850,2,0,P|338:173|346:196,1,49.5000015106202,2|2,1:2|0:2,0:2:0:0:
419,251,163038,2,0,P|467:244|512:224,1,99.0000030212403,2|2,0:2|1:2,0:2:0:0:
512,224,163319,1,0,1:2:0:0:
512,225,163413,1,8,0:2:0:0:
375,366,163600,5,2,0:2:0:0:
375,366,163694,1,2,0:2:0:0:
375,366,163788,2,0,P|325:313|253:313,1,148.50000453186,2|2,1:2|1:2,0:2:0:0:
253,313,164163,1,8,0:2:0:0:
84,278,164350,2,0,P|160:261|185:193,1,148.50000453186,2|0,1:2|0:2,0:2:0:0:
126,131,164725,2,0,P|77:130|44:165,1,99.0000030212403,2|8,1:2|0:2,0:2:0:0:
286,65,165100,5,2,1:2:0:0:
286,65,165194,1,0,1:2:0:0:
286,65,165288,2,0,P|366:88|438:96,1,148.50000453186,6|0,1:2|1:2,0:2:0:0:
503,51,165663,2,0,P|512:20|512:-5,2,49.5000015106202,10|2|2,0:2|0:2|1:2,0:0:0:0:
333,163,166038,2,0,P|320:211|313:260,1,99.0000030212403,2|2,0:2|1:2,0:2:0:0:
401,381,166413,1,10,0:2:0:0:
505,286,166600,1,2,0:2:0:0:
401,381,166788,6,0,P|337:363|238:349,1,148.50000453186,0|0,1:2|1:2,0:2:0:0:
187,286,167163,2,0,P|159:288|138:293,3,49.5000015106202,10|2|2|2,0:2|0:2|0:2|0:2,0:0:0:0:
56,257,167538,2,0,P|42:211|36:159,1,99.0000030212403,2|2,0:2|1:2,0:2:0:0:
261,22,167913,1,10,0:2:0:0:
261,22,168100,1,2,0:2:0:0:
305,110,168288,6,0,P|227:123|174:74,1,148.50000453186,0|0,1:2|1:2,0:2:0:0:
105,36,168663,2,0,P|81:40|61:54,1,49.5000015106202,10|2,0:2|0:2,0:0:0:0:
0,132,168850,2,0,P|20:145|45:149,1,49.5000015106202,2|2,1:2|0:2,0:0:0:0:
107,250,169038,2,0,P|140:202|129:154,1,99.0000030212403,2|2,0:2|1:2,0:2:0:0:
134,164,169319,1,0,1:2:0:0:
134,164,169413,1,10,0:2:0:0:
242,307,169600,5,2,0:2:0:0:
242,307,169694,1,2,0:2:0:0:
242,307,169788,2,0,P|312:284|385:272,1,148.50000453186,2|2,1:2|1:2,0:2:0:0:
385,271,170163,1,8,0:2:0:0:
512,112,170350,2,0,P|461:59|383:64,1,148.50000453186,2|0,1:2|0:2,0:2:0:0:
389,60,170725,2,0,P|402:105|410:170,1,99.0000030212403,2|8,1:2|0:2,0:2:0:0:
193,264,171100,2,0,P|183:238|181:208,1,49.5000015106202,8|8,0:3|0:3,0:0:0:0:
275,188,171288,6,0,P|283:213|289:246,3,49.5000015106202,4|4|4|4,1:1|0:3|0:3|0:3,0:0:0:0:
365,274,171663,2,0,P|415:259|482:244,1,99.0000030212403,10|2,0:2|1:2,0:2:0:0:
509,184,171944,1,2,0:2:0:0:
509,184,172038,2,0,P|500:138|478:73,1,99.0000030212403,2|2,0:2|1:2,0:2:0:0:
375,20,172413,1,10,0:2:0:0:
295,126,172600,5,2,0:2:0:0:
295,126,172694,1,2,0:2:0:0:
295,126,172788,2,0,P|224:142|151:164,1,148.50000453186,0|0,1:2|1:2,0:2:0:0:
66,131,173163,2,0,P|59:107|55:82,2,49.5000015106202,10|2|2,0:2|0:2|1:2,0:0:0:0:
184,63,173538,1,2,0:2:0:0:
182,247,173725,1,2,1:2:0:0:
32,239,173913,1,10,0:2:0:0:
32,239,174100,1,2,0:2:0:0:
117,319,174288,6,0,P|186:293|259:280,1,148.50000453186,0|0,1:2|1:2,0:2:0:0:
347,315,174663,2,0,P|358:338|364:362,1,49.5000015106202,10|2,0:2|0:2,0:0:0:0:
330,217,174850,2,0,P|336:193|339:168,1,49.5000015106202,2|2,1:2|0:2,0:0:0:0:
506,221,175038,2,0,P|470:255|422:257,1,99.0000030212403,2|2,0:2|1:2,0:2:0:0:
423,257,175319,1,0,1:2:0:0:
423,257,175413,1,10,0:2:0:0:
250,150,175600,5,2,0:2:0:0:
250,150,175694,1,0,0:2:0:0:
250,150,175788,2,0,P|269:76|282:6,1,148.50000453186,2|2,1:2|1:2,0:2:0:0:
282,5,176163,1,8,0:2:0:0:
508,115,176350,2,0,P|468:174|397:176,1,148.50000453186,2|0,1:2|0:2,0:2:0:0:
366,94,176725,2,0,P|404:54|452:59,1,99.0000030212403,2|8,1:2|0:2,0:2:0:0:
330,289,177100,5,2,1:2:0:0:
330,289,177194,1,0,1:2:0:0:
330,289,177288,2,0,P|254:268|179:255,1,148.50000453186,4|0,1:1|1:2,0:2:0:0:
119,200,177663,2,0,P|90:203|61:210,1,49.5000015106202,10|2,0:2|0:2,0:0:0:0:
12,276,177850,1,2,1:2:0:0:
12,276,177944,1,2,0:2:0:0:
12,276,178038,2,0,P|22:320|30:379,1,99.0000030212403,2|2,0:2|1:2,0:2:0:0:
209,180,178413,1,10,0:2:0:0:
121,113,178600,1,2,0:2:0:0:
121,113,178694,1,2,0:2:0:0:
121,113,178788,5,0,1:2:0:0:
236,50,178975,2,0,P|291:41|334:28,1,99.0000030212403,2|8,0:2|0:2,0:2:0:0:
332,28,179256,1,2,0:2:0:0:
332,28,179350,1,2,1:2:0:0:
332,28,179444,1,2,0:2:0:0:
332,28,179538,2,0,P|344:75|353:129,1,99.0000030212403,2|2,0:2|1:2,0:2:0:0:
202,231,179913,2,0,P|195:203|190:175,2,49.5000015106202,10|0|2,0:2|1:2|0:2,0:2:0:0:
397,211,180288,6,0,P|469:234|481:316,1,148.50000453186,2|0,1:2|1:2,0:2:0:0:
430,364,180663,2,0,L|382:375,1,49.5000015106202,10|2,0:2|0:2,0:0:0:0:
298,345,180850,1,2,1:2:0:0:
298,345,180944,1,2,0:2:0:0:
298,345,181038,2,0,P|278:291|273:248,1,99.0000030212403,2|2,0:2|1:2,0:2:0:0:
453,80,181413,2,0,P|471:122|484:178,1,99.0000030212403,10|2,0:2|1:2,0:2:0:0:
132,233,181788,6,0,P|141:175|155:134,1,99.0000030212403,10|0,0:2|0:2,0:2:0:0:
231,98,182069,2,0,P|261:104|286:115,2,49.5000015106202,8|8|8,0:2|0:3|0:3,0:0:0:0:
187,26,182350,2,0,P|109:12|60:64,1,148.50000453186,8|8,0:2|0:2,0:2:0:0:
13,121,182725,2,0,P|17:140|27:177,3,49.5000015106202,8|8|8|8,0:2|0:2|0:3|0:3,0:0:0:0:
97,228,183100,1,4,0:3:0:0:
92,243,183194,1,4,0:3:0:0:
88,257,183288,5,4,1:2:0:0:
