osu file format v14

[General]
AudioFilename: audio.mp3
AudioLeadIn: 0
PreviewTime: 18281
Countdown: 0
SampleSet: Drum
StackLeniency: 0.7
Mode: 0
LetterboxInBreaks: 0
WidescreenStoryboard: 1

[Editor]
Bookmarks: 18281,37031,49031,61781,73781,85781,91781,103781,117281,153281,159281
DistanceSpacing: 1.3
BeatDivisor: 4
GridSize: 8
TimelineZoom: 1

[Metadata]
Title:Ichizu
TitleUnicode:一途
Artist:King Gnu
ArtistUnicode:King Gnu
Creator:AirinCat
Version:Hard
Source:劇場版 呪術廻戦 0
Tags:moph only one way jjk Gekijouban jujutsu kaisen 0 zero movie anime sorcery fight theme japanese rock jrock
BeatmapID:3640504
BeatmapSetID:1768259

[Difficulty]
HPDrainRate:4
CircleSize:3.8
OverallDifficulty:6
ApproachRate:8
SliderMultiplier:1.6
SliderTickRate:1

[Events]
//Background and Video events
0,0,"get.jpg",0,0
//Break Periods
2,85988,88038
2,91988,101538
2,153488,157038
//Storyboard Layer 0 (Background)
//Storyboard Layer 1 (Fail)
//Storyboard Layer 2 (Pass)
//Storyboard Layer 3 (Foreground)
//Storyboard Layer 4 (Overlay)
//Storyboard Sound Samples

[TimingPoints]
288,375,4,3,1,30,1,0
288,-125,4,3,1,30,0,0
1788,-125,4,3,1,40,0,0
3288,-111.111111111111,4,3,1,50,0,0
4788,-100,4,3,1,60,0,0
5538,-111.111111111111,4,3,1,70,0,0
6288,-100,4,3,1,70,0,0
18288,-125,4,2,1,50,0,0
18663,-142.857142857143,4,2,1,50,0,0
24288,-125,4,2,1,60,0,0
24663,-100,4,2,1,60,0,0
25788,-125,4,2,1,60,0,0
26163,-100,4,2,1,60,0,0
27288,-125,4,2,1,60,0,0
27663,-100,4,2,1,60,0,0
31788,-125,4,2,1,60,0,0
32163,-100,4,2,1,60,0,0
33288,-125,4,2,1,60,0,0
33663,-100,4,2,1,60,0,0
36288,-125,4,2,1,30,0,0
37038,375,4,2,1,70,1,0
37038,-90.9090909090909,4,2,1,70,0,0
37413,-100,4,3,1,70,0,0
43038,-90.9090909090909,4,3,1,70,0,0
43413,-100,4,3,1,70,0,0
47725,-100,4,3,1,70,0,0
49788,-142.857142857143,4,2,1,70,0,0
50163,-90.909090909091,4,2,1,70,0,0
50538,-125,4,2,1,60,0,0
50913,-100,4,2,1,60,0,0
52038,-125,4,2,1,60,0,0
52413,-100,4,2,1,60,0,0
55038,-125,4,2,1,60,0,0
55413,-100,4,2,1,60,0,0
56538,-125,4,2,1,60,0,0
56913,-100,4,2,1,60,0,0
58038,-125,4,2,1,60,0,0
58413,-100,4,2,1,60,0,0
61788,375,4,2,1,70,1,0
61788,-90.9090909090909,4,2,1,70,0,0
62163,-100,4,3,1,70,0,0
62538,-100,4,3,1,70,0,0
72288,-100,4,3,1,70,0,0
73788,-83.3333333333333,4,3,1,70,0,0
74163,-83.3333333333333,4,3,1,80,0,1
74538,-100,4,3,1,80,0,1
85788,-142.857142857143,4,2,1,70,0,0
86163,-125,4,2,1,40,0,0
91694,-90.9090909090909,4,2,1,70,0,0
103788,-142.857142857143,4,2,1,50,0,0
104163,-142.857142857143,4,2,1,30,0,0
109788,-111.111111111111,4,2,1,50,0,0
112788,-111.111111111111,4,2,1,70,0,0
117288,-90.9090909090909,4,3,1,70,0,0
117663,-111.111111111111,4,3,1,70,0,0
123288,-90.9090909090909,4,3,1,70,0,0
123663,-111.111111111111,4,3,1,70,0,0
129288,-111.111111111111,4,2,1,70,0,0
129663,-100,4,3,1,80,0,1
153288,-100,4,2,1,70,0,0
159288,-95.2380952380952,4,3,1,80,0,1
183288,-95.2380952380952,4,2,1,70,0,0

[Colours]
Combo1 : 242,179,181
Combo2 : 216,176,255
Combo3 : 233,177,237

[HitObjects]
0,363,288,6,0,P|54:318|115:325,1,128,2|8,0:3|0:2,0:2:0:0:
188,353,850,2,0,P|259:373|319:328,1,128,2|0,0:3|0:2,0:2:0:0:
383,298,1413,2,0,P|413:303|452:319,1,64,8|0,0:2|0:2,0:2:0:0:
474,227,1788,2,0,P|482:152|505:94,1,128,2|8,0:3|0:2,0:2:0:0:
441,30,2350,2,0,P|371:24|313:2,1,128,2|0,0:3|0:2,0:2:0:0:
235,36,2913,2,0,P|223:65|217:109,1,64,8|0,0:2|0:2,0:2:0:0:
150,150,3288,6,0,P|162:206|172:294,1,143.999995605469,2|8,0:3|0:2,0:0:0:0:
94,346,3850,2,0,P|26:329|1:265,1,143.999995605469,2|0,0:3|0:2,0:2:0:0:
36,180,4413,2,0,P|31:142|22:101,1,71.9999978027344,8|0,0:2|0:2,0:2:0:0:
77,41,4788,2,0,L|164:22,1,80,2|0,0:3|0:2,0:0:0:0:
243,52,5163,2,0,L|255:93,3,40,8|8|8|8,0:3|0:3|0:3|0:3,0:0:0:0:
302,109,5538,2,0,P|344:100|383:83,1,71.9999978027344,12|0,0:2|0:2,0:2:0:0:
465,115,5913,2,0,P|476:152|485:194,1,71.9999978027344,8|4,0:2|0:3,0:0:0:0:
451,283,6288,6,0,L|407:298,4,40,6|2|2|2|8,1:2|0:2|0:2|0:2|0:2,0:2:0:0:
310,272,6850,2,0,L|296:222,4,40,2|2|2|2|2,1:2|0:2|0:2|0:2|1:2,0:0:0:0:
236,354,7413,2,0,P|200:363|146:373,1,80,8|0,0:2|0:2,0:2:0:0:
64,334,7788,6,0,P|53:292|45:249,1,80,0|2,1:2|0:2,0:2:0:0:
67,212,8069,1,2,1:2:0:0:
67,212,8163,2,0,L|56:167,2,40,10|0|0,0:2|0:0|1:2,0:2:0:0:
160,188,8538,2,0,L|149:143,2,40,2|2|2,0:2|0:2|1:2,0:0:0:0:
254,150,8913,1,10,0:2:0:0:
254,150,9006,1,2,1:2:0:0:
254,150,9100,1,2,0:2:0:0:
343,199,9288,6,0,L|391:184,4,40,2|2|2|2|8,1:2|0:2|0:2|1:2|0:2,0:2:0:0:
441,102,9850,2,0,L|427:61,4,40,2|2|2|2|2,1:2|0:2|0:2|0:2|1:2,0:0:0:0:
389,44,10319,1,0,1:2:0:0:
389,44,10413,2,0,P|356:71|239:34,1,160,8|0,0:2|1:2,0:2:0:0:
161,12,10975,2,0,L|110:36,4,40,2|2|10|2|2,0:2|1:2|0:2|0:2|1:2,0:0:0:0:
81,110,11538,2,0,L|98:161,4,40,2|2|2|2|10,0:2|0:2|1:2|0:2|0:2,0:0:0:0:
53,242,12100,5,0,0:2:0:0:
53,242,12194,1,0,1:2:0:0:
53,242,12288,2,0,L|10:254,4,40,2|2|2|2|8,1:2|0:2|0:2|1:2|0:2,0:2:0:0:
46,346,12850,2,0,L|89:334,4,40,2|2|2|2|2,1:2|0:2|0:2|0:2|1:2,0:0:0:0:
155,266,13413,2,0,P|194:273|240:283,1,80,8|0,0:2|0:2,0:2:0:0:
305,343,13788,6,0,P|339:332|385:321,1,80,0|2,1:2|0:2,0:2:0:0:
417,284,14069,1,2,1:2:0:0:
417,284,14163,2,0,L|462:293,2,40,10|0|0,0:2|0:0|1:2,0:2:0:0:
438,198,14538,2,0,L|483:207,2,40,2|2|2,0:2|0:2|1:2,0:0:0:0:
476,113,14913,1,10,0:2:0:0:
476,113,15006,1,2,1:2:0:0:
476,113,15100,1,2,0:2:0:0:
404,43,15288,6,0,L|365:35,4,40,2|2|2|2|8,1:2|0:2|0:2|1:2|0:2,0:2:0:0:
283,81,15850,2,0,L|274:130,4,40,2|2|2|2|2,1:2|0:2|0:2|0:2|1:2,0:0:0:0:
305,161,16319,1,0,0:2:0:0:
305,161,16413,2,0,P|228:149|167:203,1,160,8|0,0:2|1:2,0:2:0:0:
96,256,16975,2,0,L|104:309,4,40,2|0|10|10|6,0:2|1:2|0:2|0:2|1:2,0:0:0:0:
185,345,17538,2,0,L|237:336,5,40,10|10|2|2|2|2,0:2|0:2|0:2|0:2|0:2|0:2,0:0:0:0:
257,309,18100,5,8,0:2:0:0:
257,309,18194,1,8,0:2:0:0:
257,309,18288,2,0,P|318:317|397:338,1,128,2|0,1:2|0:2,0:2:0:0:
467,306,18850,2,0,P|482:251|490:188,1,111.999996582031,2|0,0:2|0:2,0:2:0:0:
450,122,19413,1,2,0:2:0:0:
367,154,19600,5,2,0:2:0:0:
367,154,19694,1,2,0:2:0:0:
367,154,19788,2,0,P|307:143|249:126,1,111.999996582031,2|0,0:2|0:2,0:2:0:0:
202,65,20350,2,0,P|148:75|86:82,1,111.999996582031,2|0,0:2|0:2,0:2:0:0:
26,140,20913,2,0,P|32:166|37:205,1,55.9999982910157,2|2,0:2|0:2,0:0:0:0:
89,213,21194,1,2,0:2:0:0:
89,213,21288,6,0,P|103:263|106:325,1,111.999996582031,2|0,0:2|0:2,0:2:0:0:
204,308,21850,2,0,P|190:258|187:196,1,111.999996582031,2|0,0:2|0:2,0:2:0:0:
239,122,22413,2,0,P|269:116|300:117,1,55.9999982910157,2|2,0:2|0:2,0:0:0:0:
333,147,22694,1,2,0:2:0:0:
333,147,22788,2,0,P|396:139|454:121,1,111.999996582031,2|0,0:2|0:2,0:2:0:0:
509,185,23350,2,0,P|490:237|484:293,1,111.999996582031,2|0,0:2|0:2,0:2:0:0:
439,363,23913,1,2,0:2:0:0:
367,316,24100,5,8,0:2:0:0:
367,316,24194,1,8,0:2:0:0:
367,316,24288,1,2,1:3:0:0:
200,375,24663,2,0,P|157:365|119:356,1,80,10|2,0:2|1:2,0:2:0:0:
95,323,24944,1,2,0:2:0:0:
95,323,25038,2,0,L|117:235,1,80,2|2,0:2|1:2,0:2:0:0:
46,182,25413,2,0,P|38:145|24:97,1,80,10|2,0:2|0:2,0:2:0:0:
80,30,25788,6,0,L|173:9,1,96,2|0,1:3|1:2,0:2:0:0:
220,39,26163,2,0,L|271:29,3,40,10|2|2|2,0:2|0:2|1:2|0:2,0:2:0:0:
308,46,26538,2,0,P|319:84|327:123,1,80,2|2,0:2|1:2,0:2:0:0:
257,184,26913,2,0,P|219:189|178:198,1,80,10|2,0:2|0:2,0:2:0:0:
104,250,27288,6,0,L|122:352,1,96,2|0,1:3|1:2,0:2:0:0:
175,365,27663,2,0,L|217:357,4,40,10|2|2|2|2,0:2|0:2|1:2|0:2|0:2,0:2:0:0:
279,298,28225,1,2,1:2:0:0:
279,298,28319,1,0,1:2:0:0:
279,298,28413,2,0,P|321:302|359:311,1,80,10|2,0:2|0:2,0:2:0:0:
448,251,28788,6,0,P|457:194|481:130,1,120,2|2,1:2|1:2,0:2:0:0:
478,135,29163,1,8,0:2:0:0:
433,56,29350,2,0,P|395:47|350:34,1,80,2|0,1:2|0:0,0:2:0:0:
269,72,29725,2,0,P|256:109|251:152,1,80,2|8,1:2|0:2,0:2:0:0:
311,232,30100,1,2,0:2:0:0:
311,232,30194,1,2,0:2:0:0:
311,232,30288,5,2,1:3:0:0:
115,208,30663,2,0,L|59:195,3,40,10|2|2|2,0:2|0:2|1:2|0:2,0:0:0:0:
28,220,31038,2,0,L|10:298,1,80,2|2,0:2|1:2,0:2:0:0:
60,365,31413,2,0,L|162:390,1,80,10|2,0:2|0:2,0:2:0:0:
227,340,31788,6,0,P|233:293|249:239,1,96,2|0,1:3|1:2,0:2:0:0:
289,211,32163,2,0,L|337:224,3,40,10|2|2|2,0:2|0:2|1:2|0:2,0:0:0:0:
382,204,32538,2,0,P|398:165|407:124,1,80,2|2,0:2|1:2,0:2:0:0:
370,40,32913,2,0,P|332:28|285:21,1,80,10|2,0:2|0:2,0:2:0:0:
205,48,33288,6,0,P|186:99|178:146,1,96,2|0,1:3|0:2,0:2:0:0:
130,159,33663,2,0,P|107:155|75:143,4,40,10|2|2|2|2,0:2|0:2|1:2|0:2|0:2,0:0:0:0:
24,201,34225,1,2,1:2:0:0:
24,201,34319,1,0,1:2:0:0:
24,201,34413,2,0,P|14:240|6:288,1,80,10|2,0:2|0:2,0:2:0:0:
104,270,34788,6,0,P|163:278|224:301,1,120,2|2,1:2|1:2,0:2:0:0:
271,275,35163,2,0,L|284:221,2,40,8|8|2,0:2|0:2|1:2,0:0:0:0:
479,313,35725,1,8,0:2:0:0:
479,313,35819,1,8,0:2:0:0:
479,313,35913,2,0,L|489:264,3,40,8|8|4|4,0:3|0:3|0:3|0:3,0:0:0:0:
464,223,36288,2,2,L|473:186,7,32,2|2|2|2|2|2|2|2,0:2|0:2|0:2|0:2|0:2|0:2|0:2|0:2,0:2:0:0:
499,149,37038,6,0,P|435:161|380:128,1,132.00000402832,6|0,1:2|0:2,0:2:0:0:
347,85,37413,2,0,L|267:102,1,80,10|0,0:2|0:2,0:2:0:0:
223,175,37788,2,0,P|233:254|252:333,1,160,2|10,0:2|0:2,0:2:0:0:
173,379,38350,2,0,P|160:341|153:301,1,80,2|2,0:2|1:2,0:2:0:0:
82,254,38725,2,0,P|43:261|2:275,1,80,0|8,0:0|0:2,0:0:0:0:
12,180,39100,2,0,P|28:104|99:74,1,160,2|2,1:2|1:2,0:2:0:0:
175,39,39663,2,0,L|182:-11,2,40,10|0|2,0:2|1:2|0:2,0:2:0:0:
243,102,40038,6,0,P|278:109|326:120,1,80,2|0,1:2|0:2,0:2:0:0:
321,119,40319,1,0,1:2:0:0:
321,119,40413,1,10,0:2:0:0:
399,70,40600,2,0,P|438:79|484:94,1,80,2|0,1:2|0:2,0:2:0:0:
512,177,40975,2,0,P|501:207|492:255,1,80,2|8,1:2|0:2,0:2:0:0:
416,303,41350,2,0,P|376:295|335:284,1,80,2|2,0:2|1:2,0:0:0:0:
286,201,41725,2,0,L|295:162,2,40,2|0|8,0:2|0:0|0:2,0:2:0:0:
202,241,42100,2,0,P|159:232|121:220,1,80,2|2,1:2|0:2,0:0:0:0:
43,255,42475,2,0,P|31:295|25:332,1,80,2|8,1:2|0:2,0:2:0:0:
121,384,42850,5,0,0:2:0:0:
121,384,42944,1,2,1:2:0:0:
121,384,43038,2,0,P|182:368|257:359,1,132.00000402832,6|0,1:2|1:2,0:2:0:0:
282,320,43413,2,0,P|318:327|362:340,1,80,10|0,0:2|0:2,0:2:0:0:
445,367,43788,2,0,P|483:308|459:225,1,160,2|10,0:2|0:2,0:2:0:0:
406,162,44350,6,0,P|416:122|427:81,1,80,2|6,0:2|1:2,0:2:0:0:
369,21,44725,2,0,P|325:11|287:-2,1,80,0|8,0:0|0:2,0:0:0:0:
216,36,45100,2,0,P|201:73|194:125,1,80,2|0,1:2|0:2,0:2:0:0:
278,156,45475,2,0,P|292:192|302:231,1,80,2|8,1:2|0:2,0:2:0:0:
302,232,45756,1,0,1:2:0:0:
302,232,45850,1,2,0:2:0:0:
275,324,46038,6,0,P|196:340|126:377,1,160,2|8,1:2|0:2,0:2:0:0:
50,342,46600,2,0,P|35:299|21:252,1,80,2|2,1:2|0:2,0:0:0:0:
94,192,46975,2,0,P|102:212|114:240,2,40,2|0|8,1:2|1:2|0:2,0:0:0:0:
4,142,47350,6,0,P|80:159|143:86,1,160,2|2,0:2|0:1,0:2:0:0:
198,33,47913,1,10,0:2:0:0:
198,33,48006,1,8,0:2:0:0:
198,33,48100,2,0,L|277:51,1,80,2|8,1:1|0:2,0:2:0:0:
316,97,48381,1,8,0:2:0:0:
316,97,48475,2,0,L|302:148,6,40,8|8|8|4|4|4|4,0:2|0:3|0:3|0:3|0:3|0:3|1:2,0:0:0:0:
459,348,50163,2,0,P|466:296|480:248,1,88.000002685547,12|0,0:2|1:2,0:2:0:0:
446,223,50444,1,0,1:2:0:0:
446,223,50538,6,0,P|398:216|351:206,1,96,4|0,1:1|1:2,0:2:0:0:
311,178,50913,2,0,L|323:99,1,80,8|8,0:2|0:3,0:2:0:0:
266,36,51288,2,0,L|220:28,4,40,4|4|4|0|8,0:3|0:3|0:3|1:2|0:2,0:0:0:0:
164,93,51850,5,4,0:3:0:0:
164,93,51944,1,4,0:3:0:0:
164,93,52038,2,0,L|60:74,1,96,4|0,1:3|1:2,0:2:0:0:
21,109,52413,2,0,P|8:165|-2:235,1,120,8|8,0:2|0:3,0:2:0:0:
25,266,52788,2,0,L|67:276,4,40,8|4|4|0|8,0:3|0:3|0:3|1:2|0:2,0:0:0:0:
150,226,53350,5,4,0:3:0:0:
150,226,53444,1,4,0:3:0:0:
150,226,53538,2,0,P|204:235|279:254,1,120,6|6,1:3|1:3,0:2:0:0:
267,250,53913,1,8,0:2:0:0:
350,208,54100,2,0,P|382:160|371:103,1,120,2|4,0:3|0:3,0:2:0:0:
334,67,54475,2,0,L|285:59,2,40,6|0|8,0:3|1:2|0:2,0:0:0:0:
421,13,54850,6,0,L|470:23,2,40,10|8|4,0:3|0:3|1:3,0:0:0:0:
512,164,55413,2,0,L|495:242,1,80,8|10,0:2|0:3,0:2:0:0:
451,272,55694,1,10,0:3:0:0:
451,272,55788,2,0,L|395:260,4,40,6|6|6|0|8,0:3|0:3|0:3|1:2|0:2,0:0:0:0:
334,216,56350,5,4,0:3:0:0:
334,216,56444,1,4,0:3:0:0:
334,216,56538,2,0,L|354:115,1,96,4|0,1:3|1:2,0:2:0:0:
324,78,56913,2,0,L|245:64,1,80,8|10,0:2|0:3,0:2:0:0:
197,88,57194,1,10,0:3:0:0:
197,88,57288,2,0,L|154:77,4,40,6|6|6|0|8,0:3|0:3|0:3|1:2|0:2,0:0:0:0:
79,18,57850,5,4,0:3:0:0:
79,18,57944,1,4,0:3:0:0:
79,18,58038,2,0,P|67:60|56:118,1,96,4|0,1:3|1:2,0:2:0:0:
19,151,58413,2,0,P|25:187|36:245,1,80,8|10,0:2|0:3,0:2:0:0:
90,248,58694,1,10,0:3:0:0:
90,248,58788,2,0,L|134:239,4,40,6|6|8|8|8,0:3|0:3|0:3|0:3|0:2,0:0:0:0:
202,169,59350,5,6,0:3:0:0:
202,169,59444,1,4,0:3:0:0:
202,169,59538,2,0,P|254:183|330:192,1,120,6|6,1:3|1:3,0:2:0:0:
319,191,59913,1,8,0:2:0:0:
399,154,60100,2,0,P|421:108|401:35,1,120,10|8,0:3|0:3,0:0:0:0:
366,9,60475,2,0,P|331:15|283:22,1,80,6|8,0:3|0:2,0:0:0:0:
205,2,60850,5,2,0:2:0:0:
149,72,61038,1,4,0:3:0:0:
149,72,61131,1,4,0:3:0:0:
149,72,61225,2,0,L|165:160,1,80,8|8,0:2|0:2,0:2:0:0:
79,216,61600,5,4,0:3:0:0:
79,216,61694,1,10,0:2:0:0:
79,216,61788,2,0,P|42:268|54:332,1,132.00000402832,6|0,1:2|0:2,0:2:0:0:
99,359,62163,2,0,P|138:350|176:340,1,80,10|0,0:2|1:2,0:2:0:0:
243,278,62538,2,0,P|342:273|388:336,1,160,2|10,0:2|0:2,0:2:0:0:
464,350,63100,2,0,P|473:301|485:264,1,80,2|4,0:2|1:2,0:2:0:0:
414,208,63475,2,0,P|408:171|398:125,1,80,0|8,0:0|0:2,0:0:0:0:
455,67,63850,2,0,P|389:89|290:103,1,160,2|2,1:2|1:2,0:2:0:0:
214,99,64413,2,0,P|189:93|162:81,2,40,10|0|2,0:2|1:2|0:2,0:2:0:0:
250,178,64788,6,0,P|231:234|227:294,1,120,2|0,1:2|1:2,0:2:0:0:
227,294,65163,1,10,0:2:0:0:
158,358,65350,2,0,P|125:352|74:339,1,80,2|0,1:2|0:0,0:2:0:0:
9,281,65725,2,0,P|14:241|25:203,1,80,0|8,1:2|0:2,0:0:0:0:
90,138,66100,2,0,P|129:142|182:159,1,80,2|0,0:2|1:2,0:2:0:0:
213,234,66475,2,0,P|207:250|204:278,2,40,2|0|8,0:2|1:2|0:2,0:0:0:0:
303,196,66850,2,0,P|342:203|381:215,1,80,2|0,1:2|0:2,0:2:0:0:
461,183,67225,2,0,P|472:144|482:84,1,80,2|8,1:2|0:2,0:2:0:0:
430,32,67600,5,0,0:2:0:0:
430,32,67694,1,0,1:2:0:0:
430,32,67788,2,0,P|352:52|273:66,1,160,6|10,1:2|0:2,0:2:0:0:
206,122,68350,2,0,P|166:114|129:99,1,80,2|0,1:2|0:2,0:2:0:0:
46,134,68725,2,0,P|33:167|26:212,1,80,2|8,1:2|0:2,0:2:0:0:
53,302,69100,2,0,P|93:320|143:331,1,80,2|2,0:2|1:2,0:0:0:0:
215,281,69475,2,0,L|228:240,2,40,0|0|8,0:0|1:2|0:2,0:0:0:0:
271,358,69850,1,2,1:2:0:0:
355,313,70038,2,0,P|394:322|442:340,1,80,2|2,0:2|1:2,0:2:0:0:
511,278,70413,2,0,P|495:239|488:198,1,80,10|2,0:2|0:2,0:0:0:0:
512,112,70788,6,0,P|460:169|383:165,1,160,4|10,1:2|0:2,0:2:0:0:
306,122,71350,2,0,P|239:160|234:237,1,160,2|2,1:2|1:1,0:2:0:0:
294,316,71913,1,10,0:2:0:0:
294,316,72100,1,2,0:1:0:0:
204,335,72288,2,0,P|142:345|64:372,1,120,2|2,1:2|1:2,0:2:0:0:
37,350,72663,2,0,L|23:299,2,40,8|8|6,0:2|0:2|1:2,0:0:0:0:
92,246,73038,6,0,L|81:202,3,40,8|8|8|8,0:2|0:2|0:2|0:2,0:0:0:0:
30,185,73413,2,0,L|18:134,3,40,8|8|4|4,0:3|0:3|0:3|0:3,0:0:0:0:
56,100,73788,5,4,1:1:0:0:
56,100,74163,6,0,P|127:101|198:86,1,143.999995605469,12|0,0:2|0:2,0:2:0:0:
238,54,74538,2,0,P|277:59|326:73,1,80,2|2,0:2|1:2,0:2:0:0:
365,139,74913,2,0,P|403:150|453:160,1,80,10|2,0:2|0:2,0:2:0:0:
510,240,75288,5,2,1:2:0:0:
450,306,75475,2,0,P|444:331|441:360,2,40,2|0|8,0:2|0:0|0:2,0:2:0:0:
374,252,75850,2,0,P|289:262|243:334,1,160,2|2,1:2|1:2,0:2:0:0:
177,361,76413,1,10,0:2:0:0:
93,329,76600,5,2,0:2:0:0:
93,329,76694,1,0,0:2:0:0:
93,329,76788,2,0,L|2:348,1,80,0|2,1:2|0:2,0:2:0:0:
39,254,77163,1,10,0:2:0:0:
0,183,77350,2,0,P|1:100|89:64,1,160,2|2,1:2|1:2,0:2:0:0:
136,101,77913,1,8,0:2:0:0:
209,52,78100,6,0,P|254:43|297:31,1,80,2|0,0:2|1:2,0:2:0:0:
368,57,78475,2,0,P|380:91|392:144,1,80,2|8,0:2|0:2,0:2:0:0:
390,133,78756,1,8,0:2:0:0:
390,133,78850,1,6,1:2:0:0:
374,221,79038,2,0,L|387:270,2,40,8|8|6,0:2|0:2|1:2,0:0:0:0:
282,196,79413,2,0,L|189:227,1,80,2|8,1:2|0:2,0:2:0:0:
206,221,79694,1,8,0:2:0:0:
206,221,79788,5,4,1:1:0:0:
67,379,80163,2,0,P|22:340|20:277,1,120,14|0,0:2|0:2,0:2:0:0:
35,234,80538,2,0,P|80:240|126:250,1,80,2|2,0:2|1:2,0:2:0:0:
181,314,80913,1,10,0:2:0:0:
181,314,81100,1,2,0:2:0:0:
267,270,81288,6,0,L|283:183,1,80,2|2,1:2|0:2,0:2:0:0:
282,192,81569,1,0,1:2:0:0:
282,192,81663,1,10,0:2:0:0:
367,147,81850,2,0,P|447:173|466:255,1,160,2|2,1:2|1:2,0:2:0:0:
438,318,82413,1,8,0:2:0:0:
355,317,82600,6,0,P|313:323|254:342,1,80,2|2,0:2|1:2,0:0:0:0:
185,306,82975,2,0,L|134:318,2,40,0|0|8,0:2|1:2|0:2,0:0:0:0:
237,233,83350,2,0,P|250:145|185:90,1,160,2|0,1:2|1:2,0:2:0:0:
150,29,83913,1,8,0:2:0:0:
59,72,84100,6,0,P|46:114|26:255,1,160,2|2,0:2|0:2,0:2:0:0:
27,228,84569,1,0,1:2:0:0:
27,228,84663,1,8,0:2:0:0:
93,304,84850,2,0,P|131:311|188:325,1,80,2|8,1:2|0:2,0:2:0:0:
171,320,85131,1,8,0:2:0:0:
171,320,85225,1,8,1:2:0:0:
254,278,85413,2,0,L|265:230,4,40,8|8|8|8|4,0:2|0:2|0:3|0:3|1:2,0:0:0:0:
256,192,88788,12,4,91788,1:2:0:0:
57,168,102288,6,0,P|46:102|31:38,2,132.00000402832,12|10|10,0:2|0:2|0:2,0:2:0:0:
6,249,103038,2,0,L|18:308,3,44.0000013427735,0|8|4|4,1:2|0:3|0:3|0:3,0:0:0:0:
57,322,103413,2,0,L|102:312,3,44.0000013427735,8|8|4|4,0:2|0:2|0:3|0:3,0:0:0:0:
140,272,103788,6,0,P|183:275|256:299,1,111.999996582031,12|8,0:2|0:1,0:2:0:0:
315,339,104350,2,0,P|370:330|424:314,1,111.999996582031,8|8,0:1|0:1,0:2:0:0:
502,336,104913,1,0,3:1:0:0:
512,256,105100,2,0,P|495:202|482:147,1,111.999996582031,8|8,0:1|0:1,0:2:0:0:
413,109,105663,2,0,P|386:114|351:124,1,55.9999982910157,0|8,3:3|0:1,0:0:0:0:
317,190,106038,2,0,P|322:216|328:246,1,55.9999982910157,8|0,0:1|3:1,0:0:0:0:
297,321,106413,1,8,0:1:0:0:
297,321,106600,1,0,3:1:0:0:
218,300,106788,6,0,P|162:309|109:325,1,111.999996582031,8|8,3:1|0:1,0:2:0:0:
31,312,107350,2,0,P|16:258|7:202,1,111.999996582031,8|8,0:1|0:1,0:2:0:0:
43,131,107913,1,0,3:1:0:0:
118,156,108100,2,0,P|173:146|226:129,1,111.999996582031,8|8,0:1|0:1,0:2:0:0:
302,153,108663,2,0,P|312:178|319:205,1,55.9999982910157,0|0,3:3|3:3,0:2:0:0:
388,248,109038,2,0,P|413:239|443:232,1,55.9999982910157,8|0,0:1|3:3,0:2:0:0:
482,169,109413,2,0,P|471:143|464:116,1,55.9999982910157,8|8,0:1|0:3,0:0:0:0:
497,34,109788,6,0,P|450:84|372:80,1,143.999995605469,4|8,0:3|0:2,0:2:0:0:
310,40,110350,1,4,3:3:0:0:
310,40,110725,2,0,L|239:58,1,71.9999978027344,8|8,0:3|0:2,0:2:0:0:
176,112,111100,2,0,B|97:102|117:75|39:70,1,143.999995605469,0|8,3:3|0:3,0:2:0:0:
0,145,111663,2,0,P|6:174|14:220,1,71.9999978027344,8|4,0:2|0:3,0:0:0:0:
68,289,112038,1,0,3:2:0:0:
68,289,112225,1,4,0:3:0:0:
136,241,112413,2,0,P|167:231|206:224,1,71.9999978027344,8|0,0:2|1:2,0:0:0:0:
205,224,112694,1,0,1:2:0:0:
205,224,112788,6,0,B|275:229|265:264|340:269,1,143.999995605469,0|8,1:2|0:2,0:2:0:0:
423,312,113350,1,0,1:2:0:0:
423,312,113725,1,0,1:2:0:0:
487,261,113913,1,8,0:2:0:0:
487,261,114006,1,8,0:2:0:0:
487,261,114100,1,4,1:2:0:0:
20,288,116538,6,0,L|13:323,4,35.9999989013672,8|8|4|4|8,0:2|0:2|0:3|0:3|0:2,0:0:0:0:
100,257,117100,1,8,0:2:0:0:
100,257,117194,1,8,0:2:0:0:
100,257,117288,6,0,P|160:265|246:286,1,132.00000402832,6|0,1:2|1:2,0:2:0:0:
274,264,117663,2,0,P|282:229|289:189,1,71.9999978027344,10|0,0:2|1:2,0:2:0:0:
353,130,118038,2,0,P|422:125|472:174,1,143.999995605469,2|10,0:2|0:2,0:2:0:0:
512,253,118600,2,0,P|503:283|496:333,1,71.9999978027344,2|4,0:2|1:2,0:2:0:0:
420,370,118975,2,0,P|388:362|345:360,1,71.9999978027344,0|10,0:0|0:2,0:0:0:0:
287,306,119350,2,0,P|214:317|146:338,1,143.999995605469,2|0,1:2|1:2,0:2:0:0:
62,315,119913,2,0,P|38:320|6:332,2,35.9999989013672,10|0|2,0:2|1:2|0:2,0:2:0:0:
107,240,120288,6,0,P|95:186|80:135,1,107.999996704102,2|2,1:2|1:2,0:2:0:0:
80,135,120663,1,8,0:2:0:0:
120,63,120850,2,0,P|180:27|247:48,1,143.999995605469,2|2,1:2|1:2,0:2:0:0:
247,48,121319,1,0,1:2:0:0:
247,48,121413,1,10,0:2:0:0:
327,90,121600,6,0,P|362:83|397:70,1,71.9999978027344,2|0,0:2|1:2,0:2:0:0:
474,109,121975,2,0,L|510:97,2,35.9999989013672,2|2|10,0:2|1:2|0:2,0:0:0:0:
443,189,122350,2,0,P|407:195|373:209,1,71.9999978027344,2|0,1:2|0:2,0:2:0:0:
318,271,122725,2,0,P|327:303|335:343,1,71.9999978027344,2|8,1:2|0:2,0:2:0:0:
242,336,123100,5,0,0:2:0:0:
242,336,123194,1,0,1:2:0:0:
242,336,123288,2,0,P|176:350|104:366,1,132.00000402832,6|0,1:2|1:2,0:2:0:0:
68,357,123663,2,0,P|60:318|52:286,1,71.9999978027344,10|0,0:2|1:2,0:2:0:0:
0,209,124038,2,0,P|46:157|115:163,1,143.999995605469,2|10,0:2|0:2,0:2:0:0:
196,198,124600,6,0,P|235:189|276:173,1,71.9999978027344,2|4,0:2|1:2,0:2:0:0:
315,104,124975,2,0,L|302:58,2,35.9999989013672,0|0|8,0:0|1:2|0:2,0:0:0:0:
406,120,125350,2,0,P|469:146|483:214,1,143.999995605469,2|2,1:2|1:2,0:2:0:0:
450,293,125913,1,10,0:2:0:0:
450,293,126100,1,2,0:2:0:0:
367,285,126288,6,0,P|332:295|297:305,1,71.9999978027344,2|0,1:2|0:2,0:2:0:0:
297,305,126569,1,0,1:2:0:0:
297,305,126663,1,8,0:2:0:0:
218,271,126850,2,0,L|199:201,1,71.9999978027344,2|0,1:2|0:2,0:2:0:0:
129,148,127225,2,0,L|59:165,1,71.9999978027344,2|8,1:2|0:2,0:2:0:0:
10,236,127600,2,0,L|27:305,1,71.9999978027344,2|6,0:1|1:2,0:2:0:0:
109,339,127975,2,0,L|121:388,2,35.9999989013672,2|0|8,0:1|1:2|0:2,0:0:0:0:
175,271,128350,5,2,1:1:0:0:
258,305,128538,2,0,L|297:294,3,35.9999989013672,12|8|8|8,1:2|0:3|1:3|0:3,0:0:0:0:
338,308,128913,2,0,L|383:294,3,35.9999989013672,12|8|8|8,1:2|0:3|1:3|0:3,0:0:0:0:
429,305,129288,5,4,1:2:0:0:
429,305,129663,6,0,L|409:216,1,80,10|2,0:2|0:2,0:2:0:0:
451,147,130038,1,2,0:2:0:0:
451,147,130225,1,2,0:2:0:0:
384,80,130413,2,0,P|346:88|294:100,1,80,10|2,0:2|0:2,0:2:0:0:
235,146,130788,5,2,1:2:0:0:
158,100,130975,2,0,L|152:50,2,40,2|0|8,0:2|1:2|0:2,0:0:0:0:
98,162,131350,2,0,P|26:189|9:264,1,160,2|2,0:2|1:2,0:2:0:0:
46,340,131913,1,10,0:2:0:0:
131,310,132100,5,2,0:2:0:0:
131,310,132194,1,0,0:2:0:0:
131,310,132288,2,0,P|172:319|222:331,1,80,0|2,1:2|0:2,0:2:0:0:
283,281,132663,1,10,0:2:0:0:
241,211,132850,2,0,P|232:122|297:81,1,160,2|2,1:2|1:2,0:2:0:0:
349,28,133413,1,8,0:2:0:0:
417,81,133600,6,0,L|509:103,1,80,2|0,0:2|1:2,0:2:0:0:
503,192,133975,2,0,L|455:181,2,40,0|0|8,0:2|1:2|0:2,0:0:0:0:
469,271,134350,2,0,L|449:364,1,80,2|8,1:2|0:2,0:2:0:0:
452,349,134631,1,8,0:2:0:0:
452,349,134725,1,2,1:2:0:0:
360,332,134913,2,0,L|382:247,1,80,2|8,1:2|0:2,0:2:0:0:
380,254,135194,1,8,0:2:0:0:
380,254,135288,5,4,1:1:0:0:
225,126,135663,2,0,B|157:134|166:154|98:162,1,120,14|0,0:2|0:2,0:2:0:0:
76,191,136038,2,0,P|84:234|94:281,1,80,2|2,0:2|1:2,0:2:0:0:
151,338,136413,1,10,0:2:0:0:
151,338,136600,1,2,0:2:0:0:
231,291,136788,6,0,P|292:297|352:314,1,120,2|0,1:2|1:2,0:2:0:0:
348,312,137163,1,10,0:2:0:0:
433,278,137350,2,0,P|480:216|466:140,1,160,2|2,1:2|1:2,0:2:0:0:
443,58,137913,1,10,0:2:0:0:
359,99,138100,6,0,L|269:79,1,80,2|2,0:2|1:2,0:0:0:0:
197,111,138475,2,0,L|183:152,2,40,0|0|8,0:2|1:2|0:2,0:0:0:0:
139,40,138850,2,0,P|53:39|8:105,1,160,2|2,1:2|1:2,0:2:0:0:
6,175,139413,1,8,0:2:0:0:
64,237,139600,6,0,B|150:239|126:285|228:291,1,160,2|10,0:2|0:2,0:2:0:0:
293,250,140163,2,0,L|307:196,3,40,8|8|8|8,0:2|0:2|0:2|0:2,0:0:0:0:
262,174,140538,2,0,L|244:122,3,40,8|8|8|8,0:2|0:2|0:2|0:2,0:0:0:0:
279,87,140913,2,0,L|295:32,3,40,8|8|4|4,0:3|0:3|0:3|0:3,0:0:0:0:
300,0,141288,6,0,P|348:42|412:38,1,120,6|0,1:1|0:2,0:2:0:0:
421,29,141663,1,12,0:2:0:0:
486,87,141850,2,0,P|472:161|458:264,1,160,2|2,1:2|1:2,0:2:0:0:
420,320,142413,1,10,0:2:0:0:
348,278,142600,2,0,P|262:278|214:347,1,160,2|0,0:2|0:2,0:0:0:0:
217,330,143069,1,0,1:2:0:0:
217,330,143163,1,8,0:2:0:0:
139,367,143350,2,0,P|66:342|43:268,1,160,2|2,1:2|1:2,0:2:0:0:
4,197,143913,1,10,0:2:0:0:
82,152,144100,5,2,0:2:0:0:
82,152,144194,1,2,0:2:0:0:
82,152,144288,2,0,P|152:139|212:118,1,120,2|0,1:2|1:2,0:2:0:0:
198,123,144663,1,8,0:2:0:0:
272,177,144850,2,0,P|284:213|295:268,1,80,2|0,1:2|0:0,0:2:0:0:
369,311,145225,2,0,P|410:297|453:288,1,80,2|8,1:2|0:2,0:2:0:0:
507,214,145600,6,0,P|493:172|484:129,1,80,2|0,0:2|1:2,0:0:0:0:
426,69,145975,2,0,P|429:43|434:22,2,40,2|0|8,0:2|1:2|0:2,0:0:0:0:
349,112,146350,2,0,P|301:102|248:85,1,80,2|8,1:2|0:2,0:2:0:0:
271,93,146631,1,8,0:2:0:0:
271,93,146725,1,2,1:2:0:0:
185,116,146913,2,0,P|170:153|163:192,1,80,2|8,1:2|0:2,0:2:0:0:
163,192,147194,1,8,0:2:0:0:
163,192,147288,5,4,1:1:0:0:
290,371,147663,2,0,P|345:333|352:267,1,120,12|0,0:2|0:2,0:2:0:0:
328,234,148038,2,0,P|284:242|242:251,1,80,2|2,0:2|1:2,0:2:0:0:
192,319,148413,1,10,0:2:0:0:
192,319,148600,1,2,0:2:0:0:
103,303,148788,6,0,P|89:261|78:217,1,80,2|2,1:2|0:2,0:2:0:0:
7,168,149163,1,8,0:2:0:0:
45,91,149350,2,0,P|127:60|193:113,1,160,2|2,1:2|1:2,0:2:0:0:
195,179,149913,1,8,0:2:0:0:
274,215,150100,6,0,P|322:201|369:187,1,80,2|2,0:2|1:2,0:0:0:0:
405,111,150475,2,0,P|398:89|393:69,2,40,2|0|8,0:2|1:2|0:2,0:0:0:0:
480,157,150850,2,0,P|493:198|503:237,1,80,2|0,1:2|0:0,0:2:0:0:
479,320,151225,2,0,P|434:330|394:345,1,80,2|10,1:2|0:2,0:2:0:0:
308,306,151600,6,0,B|287:271|287:271|302:227,2,80,2|4|8,0:2|1:3|1:2,0:2:0:0:
237,368,152163,1,4,0:3:0:0:
237,368,152256,1,4,0:3:0:0:
237,368,152350,2,0,P|176:318|98:323,1,160,4|4,0:3|0:3,0:0:0:0:
23,278,152913,2,0,L|33:222,4,40,12|4|12|12|4,0:3|0:3|0:3|0:3|1:2,0:0:0:0:
20,322,157788,6,0,L|29:362,2,40,0|0|0,1:2|0:0|0:0,0:0:0:0:
54,280,158069,2,0,L|143:299,1,80,8|8,0:2|0:2,0:0:0:0:
210,356,158444,1,8,0:2:0:0:
210,356,158538,2,0,L|306:335,1,80,8|8,0:2|0:2,0:0:0:0:
357,279,158913,2,0,L|406:289,3,40,8|8|4|4,0:2|0:3|0:3|0:3,0:0:0:0:
437,314,159288,6,0,P|496:253|480:179,1,167.999994873047,6|10,1:2|0:2,0:2:0:0:
424,111,159850,1,2,1:2:0:0:
424,111,159944,1,2,0:2:0:0:
424,111,160038,2,0,P|387:118|336:130,1,83.9999974365235,2|2,0:2|1:2,0:2:0:0:
288,200,160413,1,10,0:2:0:0:
206,172,160600,6,0,P|197:125|187:88,2,83.9999974365235,2|0|0,0:2|1:2|0:2,0:0:0:0:
138,240,161163,2,0,L|83:255,3,41.9999987182618,10|2|2|2,0:2|0:2|1:2|0:2,0:2:0:0:
51,230,161538,2,0,P|43:188|32:148,1,83.9999974365235,2|2,0:2|1:2,0:2:0:0:
69,66,161913,1,10,0:2:0:0:
69,66,162100,1,2,0:2:0:0:
156,96,162288,6,0,L|240:73,1,83.9999974365235,0|0,1:2|0:2,0:2:0:0:
319,116,162663,2,0,L|332:168,3,41.9999987182618,10|2|2|2,0:2|0:2|1:2|0:2,0:2:0:0:
295,186,163038,2,0,L|278:281,1,83.9999974365235,2|2,0:2|1:2,0:2:0:0:
302,309,163319,1,0,1:2:0:0:
302,309,163413,2,0,L|389:330,1,83.9999974365235,8|2,0:2|0:2,0:2:0:0:
484,292,163788,6,0,P|499:229|508:160,1,125.999996154785,2|2,1:2|1:2,0:2:0:0:
507,168,164163,1,8,0:2:0:0:
449,99,164350,2,0,P|371:78|301:122,1,167.999994873047,2|2,1:2|1:2,0:2:0:0:
233,172,164913,2,0,P|191:164|151:151,1,83.9999974365235,8|2,0:2|1:2,0:0:0:0:
115,139,165194,1,0,1:2:0:0:
115,139,165288,6,0,P|66:191|71:253,1,125.999996154785,6|0,1:2|1:2,0:2:0:0:
41,288,165662,2,0,L|-11:277,2,41.9999987182618,10|2|2,0:2|0:2|1:2,0:0:0:0:
106,353,166038,2,0,L|192:367,1,83.9999974365235,2|2,0:2|1:2,0:2:0:0:
261,316,166413,1,10,0:2:0:0:
261,316,166600,1,2,0:2:0:0:
342,362,166788,6,0,P|380:353|430:343,1,83.9999974365235,0|0,1:2|0:2,0:2:0:0:
479,264,167163,2,0,L|465:208,3,41.9999987182618,10|2|2|2,0:2|0:2|1:2|0:2,0:0:0:0:
428,190,167538,2,0,P|389:199|335:212,1,83.9999974365235,2|2,0:2|1:2,0:2:0:0:
280,151,167913,1,10,0:2:0:0:
280,151,168100,1,2,0:2:0:0:
329,84,168288,6,0,L|308:-6,1,83.9999974365235,0|0,1:2|0:2,0:2:0:0:
215,18,168663,2,0,L|223:67,3,41.9999987182618,10|2|2|2,0:2|0:2|0:2|0:2,0:0:0:0:
192,99,169038,2,0,P|149:111|108:117,1,83.9999974365235,2|2,0:2|1:2,0:2:0:0:
86,158,169319,1,0,1:2:0:0:
86,158,169413,2,0,P|97:195|108:244,1,83.9999974365235,10|2,0:2|0:2,0:2:0:0:
79,332,169788,6,0,P|138:310|200:297,1,125.999996154785,2|2,1:2|1:2,0:2:0:0:
200,297,170163,1,8,0:2:0:0:
277,358,170350,2,0,P|320:345|360:335,1,83.9999974365235,2|0,1:2|0:2,0:2:0:0:
429,273,170725,2,0,P|476:282|521:296,2,83.9999974365235,2|8|8,1:2|0:2|0:3,0:2:0:0:
364,192,171288,6,0,L|374:140,4,41.9999987182618,4|4|4|4|10,1:1|0:3|0:3|0:3|0:2,0:0:0:0:
278,133,171850,1,2,1:2:0:0:
278,133,171944,1,2,0:2:0:0:
278,133,172038,2,0,L|260:217,1,83.9999974365235,2|2,0:2|1:2,0:2:0:0:
303,290,172413,1,10,0:2:0:0:
303,290,172600,1,2,0:2:0:0:
217,336,172788,6,0,P|160:321|91:311,1,125.999996154785,0|0,1:2|1:2,0:2:0:0:
62,279,173163,2,0,P|37:281|18:287,2,41.9999987182618,10|2|2,0:2|0:2|1:2,0:0:0:0:
81,193,173538,2,0,P|73:149|60:106,1,83.9999974365235,2|2,0:2|1:2,0:2:0:0:
101,32,173913,1,10,0:2:0:0:
101,32,174100,1,2,0:2:0:0:
186,57,174288,6,0,P|248:51|313:26,1,125.999996154785,0|0,1:2|1:2,0:2:0:0:
355,42,174663,2,0,L|371:97,3,41.9999987182618,10|2|2|2,0:2|0:2|1:2|0:2,0:2:0:0:
412,107,175038,2,0,P|405:145|399:191,1,83.9999974365235,2|2,0:2|1:2,0:2:0:0:
364,221,175319,1,0,1:2:0:0:
364,221,175413,2,0,P|374:259|385:310,1,83.9999974365235,10|2,0:2|0:2,0:2:0:0:
461,348,175788,6,0,P|398:357|340:382,1,125.999996154785,2|2,1:2|1:2,0:2:0:0:
340,381,176163,1,8,0:2:0:0:
248,362,176350,2,0,P|201:294|229:212,1,167.999994873047,2|2,1:2|1:2,0:2:0:0:
279,137,176913,2,0,P|271:93|257:49,1,83.9999974365235,8|2,0:2|1:2,0:0:0:0:
224,29,177194,1,0,1:2:0:0:
224,29,177288,6,0,P|169:47|99:51,1,125.999996154785,4|0,1:1|1:2,0:2:0:0:
58,24,177663,2,0,L|5:36,3,41.9999987182618,10|2|2|2,0:2|0:2|1:2|0:2,0:0:0:0:
0,79,178038,2,0,P|8:118|20:169,1,83.9999974365235,2|2,0:2|1:2,0:2:0:0:
93,200,178413,1,10,0:2:0:0:
43,270,178600,2,0,P|26:274|-9:281,2,41.9999987182618,2|2|0,0:2|0:2|1:2,0:0:0:0:
104,327,178975,6,0,P|145:335|184:349,1,83.9999974365235,2|8,0:2|0:2,0:2:0:0:
279,330,179350,1,2,1:2:0:0:
279,330,179444,1,2,0:2:0:0:
279,330,179538,2,0,P|290:284|303:242,1,83.9999974365235,2|2,0:2|1:2,0:2:0:0:
262,174,179913,2,0,P|236:165|213:161,2,41.9999987182618,10|0|2,0:2|1:2|0:2,0:2:0:0:
341,123,180288,6,0,P|406:120|456:163,1,125.999996154785,2|0,1:2|1:2,0:2:0:0:
490,189,180663,2,0,L|477:232,3,41.9999987182618,10|2|2|2,0:2|0:2|1:2|0:2,0:0:0:0:
442,263,181038,2,0,L|464:352,1,83.9999974365235,2|2,0:2|1:2,0:2:0:0:
364,379,181413,2,0,L|342:290,1,83.9999974365235,10|2,0:2|1:2,0:2:0:0:
261,256,181788,6,0,P|219:261|178:272,1,83.9999974365235,10|0,0:2|0:2,0:2:0:0:
140,303,182069,2,0,P|99:292|59:278,1,83.9999974365235,8|8,0:2|0:3,0:0:0:0:
9,296,182350,2,0,P|-8:236|32:183,1,125.999996154785,8|8,0:2|0:2,0:2:0:0:
66,156,182725,1,8,0:2:0:0:
66,156,182819,1,8,0:2:0:0:
66,156,182913,2,0,L|54:112,4,41.9999987182618,8|8|4|4|4,0:3|0:3|0:3|0:3|1:2,0:0:0:0:
