osu file format v14

[General]
AudioFilename: audio.mp3
AudioLeadIn: 0
PreviewTime: 63529
Countdown: 0
SampleSet: Soft
StackLeniency: 0.7
Mode: 0
LetterboxInBreaks: 0
WidescreenStoryboard: 1

[Editor]
Bookmarks: 794,18242,35631,52985,72626,92241,111887,127161,135884,144592,153364,162049,170208,191064,201885,210580,220416,228055,228591
DistanceSpacing: 1.2
BeatDivisor: 4
GridSize: 32
TimelineZoom: 2.4

[Metadata]
Title:BOY
TitleUnicode:BOY
Artist:King Gnu
ArtistUnicode:King Gnu
Creator:wafer
Version:NORMAL
Source:王様ランキング
Tags:japanese j-rock j rock anime male vocal goopert kami no kotoba some hero ranking of kings ousama ranking shikibe mayu shizuku- ducky- ducky elicz1 Ayesha Altugle jrock heroine
BeatmapID:3568279
BeatmapSetID:1638125

[Difficulty]
HPDrainRate:3.5
CircleSize:3
OverallDifficulty:4
ApproachRate:5.5
SliderMultiplier:1.3
SliderTickRate:1

[Events]
//Background and Video events
0,0,"king.png",0,0
//Break Periods
2,44630,49849
2,107906,113126
2,145518,152425
2,172302,179687
//Storyboard Layer 0 (Background)
//Storyboard Layer 1 (Fail)
//Storyboard Layer 2 (Pass)
//Storyboard Layer 3 (Foreground)
//Storyboard Layer 4 (Overlay)
//Storyboard Sound Samples

[TimingPoints]
794,547.945205479452,4,2,0,60,1,0
794,-133.333333333333,4,2,0,30,0,0
5177,540.540540540541,4,2,0,30,1,0
5987,-133.333333333333,4,2,0,30,0,0
7339,550.45871559633,4,2,0,30,1,0
9540,542.986425339367,4,2,0,30,1,0
9540,-133.333333333333,4,2,0,30,0,0
13883,550.45871559633,4,2,0,30,1,0
14983,-133.333333333333,4,2,0,30,0,0
16084,539.568345323741,4,2,0,30,1,0
18242,576.923076923078,4,2,0,30,1,0
18242,-83.3333333333333,4,2,0,60,0,0
18818,530.973451327434,4,2,0,60,1,0
19628,-100,4,2,0,60,0,0
20070,-100,4,2,0,60,0,0
20410,547.945205479452,4,2,0,60,1,0
20410,-100,4,2,0,60,0,0
21535,-100,4,2,0,60,0,0
23677,-100,4,2,0,60,0,0
24798,-100,4,2,0,60,0,0
26405,-100,4,2,0,60,0,0
26985,540.540540540541,4,2,0,60,1,0
26993,-100,4,2,0,50,0,0
29135,-100,4,2,0,50,0,0
29147,547.945205479452,4,2,0,50,1,0
31357,-100,4,2,0,50,0,0
32400,-100,4,2,0,50,0,0
34622,-100,4,2,0,50,0,0
35631,-100,4,2,0,40,0,0
35722,540.540540540541,4,2,0,40,1,0
36440,-100,4,2,0,40,0,0
37297,-100,4,2,0,50,0,0
37884,545.454545454546,4,2,0,50,1,0
38979,-100,4,2,0,50,0,0
40050,-100,4,2,0,50,0,0
43338,530.973451327434,4,2,0,50,1,0
43868,-100.200400801603,4,2,0,50,0,0
44222,-111.234705228031,4,2,0,40,0,0
44429,545.454545454546,4,2,0,40,1,0
53156,546.946216955333,4,2,0,40,1,0
53177,-100,4,2,0,55,0,0
57531,547.945205479453,4,2,0,55,1,0
59712,538.116591928251,4,2,0,55,1,0
61696,-100,4,2,0,50,0,0
61874,551.977920883165,4,2,0,55,1,0
64081,545.454545454546,4,2,0,50,1,0
64081,-90.9090909090909,4,2,0,70,0,0
64444,-90.9090909090909,4,2,0,50,0,0
81353,-90.9090909090909,4,2,0,60,0,0
82171,-100,4,2,0,60,0,0
83717,538.116591928251,4,2,0,60,1,0
85869,548.947849954254,4,2,0,60,1,0
90077,-100,4,2,0,50,0,0
90260,540.540540540541,4,2,0,60,1,0
92422,550.45871559633,4,2,0,50,1,0
94623,542.986425339367,4,2,0,50,1,0
98966,551.470588235294,4,2,0,50,1,0
99333,-100,4,2,0,40,0,0
100160,-100,4,2,0,50,0,0
101171,538.116591928251,4,2,0,50,1,0
103323,547.945205479452,4,2,0,50,1,0
106610,521.739130434783,4,2,0,50,1,0
107131,571.428571428571,4,2,0,50,1,0
107511,-100,4,2,0,40,0,0
107706,545.454545454546,4,2,0,50,1,0
116251,-100,4,2,0,55,0,0
124978,-100,4,2,0,40,0,0
127073,533.333333333333,4,2,0,40,1,0
127339,545.454545454546,4,2,0,40,1,0
127339,-90.9090909090909,4,2,0,70,0,0
127702,-90.9090909090909,4,2,0,40,0,0
142611,540.540540540541,4,2,0,70,1,0
144592,-90.9090909090909,4,2,0,70,0,0
144773,545.454545454546,4,2,0,70,1,0
144773,-90.9090909090909,4,2,0,40,0,0
151136,-90.9090909090909,4,2,0,60,0,0
151318,560.747663551402,4,2,0,40,1,0
152252,-90.9090909090909,4,2,0,65,0,0
152439,555.555555555555,4,2,0,60,1,0
153364,-83.3333333333333,4,2,0,75,0,0
153550,538.116591928252,4,2,0,75,1,0
153550,-83.3333333333333,4,2,0,75,0,0
155702,542.986425339367,4,2,0,75,1,0
155702,-83.3333333333333,4,2,0,75,0,0
155929,-83.3333333333333,4,2,0,75,0,0
157873,547.945205479452,4,2,0,75,1,0
157873,-83.3333333333333,4,2,0,75,0,0
158512,-83.3333333333333,4,2,0,75,0,0
160064,559.179869524697,4,2,0,75,1,0
160064,-83.3333333333333,4,2,0,75,0,0
160436,-83.3333333333333,4,2,0,75,0,0
160623,542.986425339367,4,2,0,75,1,0
160623,-83.3333333333333,4,2,0,75,0,0
160984,-83.3333333333333,4,2,0,75,0,0
161165,-83.3333333333333,4,2,0,75,0,0
161708,512.820512820513,4,2,0,75,1,0
162049,-83.3333333333333,4,2,0,80,0,0
162260,517.241379310345,4,2,0,75,1,0
162260,-83.3333333333333,4,2,0,75,0,0
162691,-83.3333333333333,4,2,0,75,0,0
162780,560.747663551402,4,2,0,80,1,0
162920,-83.3333333333333,4,2,0,75,0,0
163387,-83.3333333333333,4,2,0,80,0,0
163901,533.333333333333,4,2,0,80,1,0
164212,-83.3333333333333,4,2,0,80,0,0
164434,539.568345323741,4,2,0,80,1,0
164434,-83.3333333333333,4,2,0,75,0,0
165018,-83.3333333333333,4,2,0,80,0,0
166592,552.995391705069,4,2,0,80,1,0
166592,-83.3333333333333,4,2,0,75,0,0
167191,-83.3333333333333,4,2,0,80,0,0
169356,545.454545454546,4,2,0,80,1,0
169356,-83.3333333333333,4,2,0,75,0,0
169674,-83.3333333333333,4,2,0,80,0,0
169901,526.315789473684,4,2,0,80,1,0
169901,-83.3333333333333,4,2,0,75,0,0
170208,-100,4,2,0,80,0,0
170431,594.059405940594,4,2,0,80,1,0
170431,-103.626943005181,4,2,0,80,0,0
170777,-100,4,2,0,60,0,0
171371,-100,4,2,0,50,0,0
171965,-99.9000999000999,4,2,0,40,0,0
172101,512.820512820513,4,2,0,40,1,0
172650,521.739130434783,4,2,0,40,1,0
173695,563.380281690141,4,2,0,40,1,0
174336,515.021459227468,4,2,0,40,1,0
174851,568.72037914692,4,2,0,40,1,0
175419,508.474576271186,4,2,0,40,1,0
175927,631.578947368421,4,2,0,40,1,0
176558,510.63829787234,4,2,0,40,1,0
178102,545.454545454546,4,2,0,40,1,0
178647,512.820512820513,4,2,0,40,1,0
179159,545.454545454546,4,2,0,40,1,0
180249,563.380281690141,4,2,0,40,1,0
180812,545.454545454546,4,2,0,40,1,0
180812,-111.111111111111,4,2,0,50,0,0
181664,-111.111111111111,4,2,0,40,0,0
187118,-111.111111111111,4,2,0,60,0,0
187357,546.448087431694,4,2,0,50,1,0
188210,-111.111111111111,4,2,0,50,0,0
189542,352.941176470588,4,2,0,65,1,0
189542,-166.666666666667,4,2,0,65,0,0
189652,-111.111111111111,4,2,0,65,0,0
189718,322.58064516129,4,2,0,65,1,0
189959,547.945205479452,4,2,0,65,1,0
190232,418.118466898954,4,2,0,65,1,0
190258,-111.111111111111,4,2,0,65,0,0
190336,387.096774193549,4,2,0,65,1,0
190529,510.63829787234,4,2,0,65,1,0
190560,-111.111111111111,4,2,0,65,0,0
190784,497.925311203319,4,2,0,65,1,0
191064,-111.111111111111,4,2,0,55,0,0
191157,466.926070038911,4,2,0,65,1,0
191681,579.710144927536,4,2,0,65,1,0
192260,533.333333333333,4,2,0,55,1,0
192360,-111.111111111111,4,2,0,55,0,0
193160,-111.111111111111,4,2,0,70,0,0
193326,538.116591928251,4,2,0,55,1,0
193695,-111.111111111111,4,2,0,55,0,0
193865,560.747663551402,4,2,0,55,1,0
194425,-111.111111111111,4,2,0,55,0,0
194986,526.315789473684,4,2,0,70,1,0
195347,-90.9090909090908,4,2,0,70,0,0
195512,552.995391705069,4,2,0,70,1,0
196067,547.945205479452,4,2,0,70,1,0
196067,-90.9090909090909,4,2,0,70,0,0
197539,-90.9090909090908,4,2,0,70,0,0
198258,545.454545454546,4,2,0,70,1,0
198258,-90.9090909090909,4,2,0,70,0,0
198633,-90.9090909090908,4,2,0,70,0,0
200439,538.116591928251,4,2,0,70,1,0
201885,-90.9090909090908,4,2,0,70,0,0
202053,524.017467248908,4,2,0,70,1,0
202413,-90.9090909090908,4,2,0,70,0,0
202602,549.954170485793,4,2,0,70,1,0
202602,-90.9090909090909,4,2,0,70,0,0
202945,-90.9090909090908,4,2,0,70,0,0
204801,545.454545454546,4,2,0,70,1,0
206232,-90.9090909090908,4,2,0,70,0,0
209164,535.714285714285,4,2,0,70,1,0
209498,-90.9090909090908,4,2,0,70,0,0
210235,552.995391705069,4,2,0,70,1,0
210235,-90.9090909090909,4,2,0,70,0,0
210580,-90.9090909090908,4,2,0,75,0,0
211340,545.454545454546,4,2,0,70,1,0
213317,-90.9090909090908,4,2,0,70,0,0
215703,547.945205479452,4,2,0,75,1,0
215703,-90.9090909090908,4,2,0,75,0,0
217894,545.454545454546,4,2,0,75,1,0
217894,-90.9090909090909,4,2,0,75,0,0
218780,-90.9090909090908,4,2,0,75,0,0
222257,540.540540540541,4,2,0,75,1,0
222257,-90.9090909090909,4,2,0,75,0,0
223675,-90.9090909090908,4,2,0,75,0,0
224419,550.458715596331,4,2,0,75,1,0
224419,-90.9090909090909,4,2,0,75,0,0
225313,-90.9090909090908,4,2,0,75,0,0
227721,535.714285714286,4,2,0,75,1,0
228055,-90.9090909090908,4,2,0,75,0,0
228323,-90.9090909090908,4,2,0,50,0,0
228591,-90.9090909090908,4,2,0,40,0,0
228792,652.173913043478,4,2,0,75,1,0
228792,-90.9090909090909,4,2,0,75,0,0

[Colours]
Combo1 : 240,140,140
Combo2 : 200,180,220
Combo3 : 240,200,155
Combo4 : 150,185,220

[HitObjects]
33,77,794,6,0,P|100:86|148:96,1,97.50000371933,2|2,3:2|3:2,0:2:0:0:
216,158,1889,1,2,0:2:0:0:
306,97,2437,2,0,P|354:87|384:83,1,73.1250027894975,2|2,3:2|3:2,0:0:0:0:
379,83,2985,2,0,P|387:40|388:21,2,48.750001859665,2|0|0,3:2|3:2|1:2,0:0:0:0:
465,149,4081,5,2,3:2:0:0:
459,203,4355,1,0,3:2:0:0:
451,257,4629,2,0,P|444:312|441:365,1,97.50000371933,2|2,3:2|3:2,0:0:0:0:
281,322,5987,6,0,P|235:339|231:343,1,48.750001859665,2|2,3:2|3:2,0:0:0:0:
190,369,6528,1,0,0:0:0:0:
138,350,6798,2,0,P|128:313|115:291,1,48.750001859665,2|2,3:2|3:2,0:0:0:0:
84,266,7339,5,0,0:2:0:0:
48,160,7889,1,2,0:2:0:0:
90,59,8439,1,2,0:2:0:0:
197,44,8990,1,2,0:2:0:0:
271,123,9540,6,0,P|204:132|156:142,1,97.50000371933,2|2,0:2|0:1,0:2:0:0:
103,221,10625,1,2,0:2:0:0:
186,291,11168,2,0,P|195:242|200:213,1,73.1250027894975,2|0,0:1|0:0,0:0:0:0:
199,217,11711,2,0,P|242:209|261:208,2,48.750001859665,2|2|2,0:1|0:1|0:1,0:2:0:0:
178,324,12797,5,2,0:2:0:0:
232,330,13069,1,2,0:2:0:0:
286,338,13340,2,0,P|341:345|351:346,2,48.750001859665,2|2|2,0:2|0:2|3:2,0:0:0:0:
411,233,14708,5,2,0:0:0:0:
439,187,14983,2,0,L|491:198,1,48.750001859665,2|2,3:2|0:2,0:2:0:0:
507,146,15534,2,0,L|496:97,2,48.750001859665,2|0|2,0:2|0:0|0:1,0:0:0:0:
478,279,16623,5,2,0:2:0:0:
348,327,17163,1,2,0:2:0:0:
236,266,17702,1,2,3:2:0:0:
129,355,18242,6,0,P|71:319|71:232,1,155.999995239258,4|8,1:0|1:0,0:0:0:0:
37,162,19083,1,0,1:0:0:0:
145,123,19614,1,4,1:2:0:0:
191,27,20012,1,4,1:2:0:0:
301,53,20410,6,2,B|364:69|331:76|424:99,1,130,4|8,0:0|1:0,0:1:0:0:
456,172,21231,1,0,1:0:0:0:
400,283,21779,5,4,1:2:0:0:
295,257,22190,1,4,0:0:0:0:
200,315,22601,2,2,B|127:323|163:336|49:348,1,130,4|8,1:2|1:0,0:1:0:0:
16,285,23423,1,0,1:0:0:0:
101,184,23971,1,4,0:0:0:0:
91,82,24382,1,4,0:0:0:0:
181,23,24793,6,2,P|230:32|278:66,1,97.5,4|0,1:0|0:0,0:1:0:0:
280,87,25341,2,2,P|329:78|377:44,1,97.5,12|0,1:0|0:0,0:1:0:0:
397,25,25889,2,2,P|438:29|476:76,1,97.5,4|0,1:0|0:0,0:1:0:0:
494,103,26437,2,2,P|481:144|472:183,1,65,8|0,1:0|0:0,0:1:0:0:
510,241,26985,1,4,1:2:0:0:
510,241,28336,1,2,0:0:0:0:
415,298,28741,1,0,1:0:0:0:
333,363,29147,6,0,P|308:338|307:226,1,130,4|8,0:0|1:1,0:0:0:0:
341,177,29968,2,0,L|378:168,2,32.5,2|2|0,0:0|0:0|0:0,0:0:0:0:
269,138,30516,1,2,1:0:0:0:
301,43,30927,1,2,1:0:0:0:
207,4,31338,6,0,B|133:18|161:27|62:45,2,130,6|8|2,1:2|1:0|0:0,0:0:0:0:
252,74,32708,1,2,1:2:0:0:
218,171,33119,1,2,1:2:0:0:
124,218,33530,6,2,L|141:322,1,97.5,4|0,1:0|0:0,1:0:0:0:
136,342,34078,2,2,L|240:325,1,97.5,12|0,1:0|0:0,1:0:0:0:
244,300,34626,2,2,L|348:317,1,97.5,4|0,1:0|0:0,1:0:0:0:
369,337,35174,2,2,L|452:323,1,65,12|0,1:0|0:0,1:0:0:0:
495,270,35722,1,4,1:2:0:0:
495,270,37073,1,2,0:2:0:0:
410,213,37478,1,2,0:2:0:0:
470,127,37884,6,2,P|456:78|452:48,1,65,6|0,1:2|0:0,0:1:0:0:
383,24,38429,2,0,P|334:10|237:7,1,130,10|2,0:2|0:3,0:0:0:0:
213,75,39247,1,4,1:2:0:0:
115,46,39656,1,4,1:2:0:0:
64,129,40066,6,2,B|138:143|110:152|209:170,2,130,4|10|2,1:2|0:2|0:3,0:1:0:0:
29,201,41429,2,0,P|50:251|60:277,1,65,2|10,1:2|0:2,0:0:0:0:
89,268,41838,1,2,0:2:0:0:
194,234,42247,6,0,L|211:130,1,97.5,6|0,1:1|0:2,0:2:0:0:
232,110,42793,2,0,P|277:93|336:127,1,97.5,10|0,0:2|0:0,0:2:0:0:
343,133,43338,2,0,L|349:167,1,32.5,8|8,0:2|0:2,0:0:0:0:
303,293,43868,2,0,B|383:305|358:321|434:332,1,137.480091194481,12|2,0:3|0:3,0:0:0:0:
256,192,50974,12,2,52610,0:3:0:0:
454,350,53156,6,0,P|423:350|363:298,1,97.5,2|2,1:2|1:0,0:0:0:0:
322,246,53839,1,2,0:0:0:0:
248,284,54113,2,0,P|188:275|165:271,1,65,2|2,0:0|0:0,0:0:0:0:
88,329,54796,2,0,L|85:367,2,32.5,2|2|2,1:0|0:0|0:0,0:0:0:0:
62,285,55207,2,0,P|33:263|16:232,1,65,2|2,0:0|0:1,0:0:0:0:
94,102,56027,2,0,L|85:67,2,32.5,2|2|2,0:0|0:0|0:1,0:0:0:0:
154,151,56574,1,2,0:1:0:0:
198,83,56847,2,0,B|239:100|226:107|273:115,1,65,2|2,0:1|1:1,0:0:0:0:
336,47,57531,6,0,P|351:94|378:158,1,97.5,4|0,1:0|1:0,0:0:0:0:
445,171,58215,1,2,0:0:0:0:
414,246,58489,2,0,P|354:254|331:258,1,65,2|2,0:0|1:0,0:0:0:0:
299,319,59037,2,0,P|239:310|216:306,1,65,2|2,1:0|0:0,0:0:0:0:
116,245,59846,2,0,L|125:203,1,32.5,0|4,1:0|1:3,0:0:0:0:
78,147,60250,2,0,L|69:105,1,32.5,0|4,1:0|1:3,0:0:0:0:
117,45,60653,2,0,P|171:61|193:65,1,65,2|4,0:1|0:3,0:0:0:0:
225,131,61191,2,0,B|243:187|250:167|261:231,1,97.5,6|4,1:0|0:3,0:0:0:0:
323,274,61874,1,2,0:0:0:0:
323,274,63667,6,0,L|364:281,2,32.5,2|0|0,0:0|0:0|0:0,0:0:0:0:
284,306,64081,2,0,P|205:323|162:334,1,107.25000327301,4|2,1:0|0:0,0:0:0:0:
160,346,64626,2,0,P|127:310|119:241,1,107.25000327301,8|2,1:0|0:3,0:0:0:0:
76,220,65171,1,6,1:0:0:0:
33,147,65444,1,0,0:0:0:0:
88,81,65717,2,0,B|154:100|119:106|220:124,1,107.25000327301,10|0,1:0|0:0,0:0:0:0:
211,136,66262,2,0,P|261:126|293:120,1,71.5000021820069,2|2,1:2|0:0,0:0:0:0:
333,57,66808,1,14,1:0:0:0:
469,128,67353,5,2,1:2:0:0:
483,208,67626,1,2,0:0:0:0:
410,248,67899,2,0,P|393:285|382:321,1,71.5000021820069,10|2,1:2|1:2,0:0:0:0:
316,360,68444,2,0,P|301:323|282:209,1,143.000004364014,4|10,1:0|1:0,0:0:0:0:
169,145,69535,2,0,P|125:157|86:163,1,71.5000021820069,6|6,1:0|0:1,0:0:0:0:
36,109,70081,1,14,1:0:0:0:
85,43,70353,2,0,L|75:-2,2,35.7500010910034,6|2|6,0:1|0:0|1:2,0:0:0:0:
225,74,71171,5,8,1:0:0:0:
273,199,71717,1,2,1:0:0:0:
235,306,72126,1,8,1:0:0:0:
235,306,72262,1,2,1:0:0:0:
354,365,72808,6,0,P|371:286|382:243,1,107.25000327301,4|0,1:2|0:0,0:2:0:0:
414,238,73353,2,0,P|452:214|453:134,1,107.25000327301,14|2,0:1|0:3,0:2:0:0:
446,112,73899,1,2,1:2:0:0:
384,55,74172,1,0,1:2:0:0:
303,81,74444,2,0,B|237:100|272:106|171:124,1,107.25000327301,10|0,0:1|0:0,0:0:0:0:
154,103,74990,2,0,P|164:53|170:21,1,71.5000021820069,2|2,1:1|0:1,0:2:0:0:
93,1,75535,1,10,1:1:0:0:
5,115,76081,5,2,1:2:0:0:
73,162,76353,1,2,1:2:0:0:
84,247,76626,2,0,P|101:284|112:320,1,71.5000021820069,8|2,0:2|0:3,0:0:0:0:
182,357,77172,2,0,P|197:320|216:206,1,143.000004364014,2|8,1:1|0:2,0:2:0:0:
329,131,78263,2,0,P|335:166|345:200,1,71.5000021820069,6|2,1:2|0:2,0:2:0:0:
407,254,78808,1,10,0:2:0:0:
472,200,79081,1,0,0:0:0:0:
417,135,79353,1,2,1:1:0:0:
483,15,79899,5,4,0:2:0:0:
344,42,80444,1,8,0:3:0:0:
344,42,80581,1,4,0:3:0:0:
244,84,80990,1,8,0:2:0:0:
234,165,81263,1,4,0:3:0:0:
184,230,81535,6,0,B|197:300|207:258|222:373,1,143.000004364014,6|8,1:1|0:2,0:2:0:0:
303,380,82353,1,0,1:2:0:0:
419,317,82899,1,2,1:1:0:0:
471,236,83308,1,2,1:1:0:0:
399,172,83717,2,2,B|336:188|369:195|276:218,1,130,4|8,1:2|0:2,0:1:0:0:
214,165,84524,1,0,1:2:0:0:
131,62,85062,5,2,0:1:0:0:
222,29,85465,1,2,0:1:0:0:
302,80,85869,2,2,P|346:89|453:113,1,130,6|8,1:2|0:2,0:1:0:0:
475,175,86692,1,0,1:2:0:0:
382,266,87241,1,2,1:1:0:0:
280,276,87653,1,2,1:1:0:0:
211,212,88064,6,2,P|220:163|254:115,1,97.5,4|0,1:2|0:2,0:1:0:0:
227,86,88613,2,2,L|115:102,1,97.5,12|8,0:2|0:1,0:1:0:0:
107,125,89162,2,2,L|-5:141,1,97.5,4|8,0:2|0:2,0:1:0:0:
0,179,89711,2,0,P|13:220|22:259,1,65,2|0,0:1|0:0,0:0:0:0:
81,297,90260,1,4,1:2:0:0:
81,297,91611,1,2,0:0:0:0:
167,255,92016,1,2,0:0:0:0:
250,297,92422,6,0,P|275:272|276:160,1,130,4|8,1:0|1:0,0:0:0:0:
223,123,93247,1,2,0:0:0:0:
223,123,93385,2,0,P|215:78|212:42,1,65,2|0,0:0|1:0,0:0:0:0:
189,35,93798,1,2,1:1:0:0:
98,72,94210,1,2,1:0:0:0:
5,55,94623,6,2,B|19:129|28:101|46:200,2,130,4|8|2,1:2|1:0|0:0,0:1:0:0:
67,2,95980,1,2,1:2:0:0:
141,72,96387,1,2,1:2:0:0:
138,180,96794,6,2,L|155:284,1,97.5,4|0,1:0|0:0,1:0:0:0:
140,314,97337,2,2,L|244:331,1,97.5,4|0,1:0|0:0,1:0:0:0:
259,300,97880,2,2,L|363:317,1,97.5,4|0,1:0|0:0,1:0:0:0:
382,344,98423,2,2,L|465:330,1,65,12|0,1:0|0:0,1:0:0:0:
494,269,98966,1,4,1:2:0:0:
494,269,100068,5,4,1:0:0:0:
417,240,100344,1,6,0:1:0:0:
319,272,100758,1,2,1:2:0:0:
249,344,101171,6,0,P|224:319|223:207,1,130,4|8,1:0|1:0,0:0:0:0:
140,184,101979,1,2,0:0:0:0:
140,184,102112,2,0,P|132:139|129:103,1,65,2|2,0:0|1:2,0:0:0:0:
175,81,102517,1,2,1:1:0:0:
276,107,102919,1,2,1:0:0:0:
354,27,103323,6,0,B|422:43|392:53|482:81,1,130,6|8,1:0|1:0,0:0:0:0:
500,154,104144,2,0,P|450:182|414:201,1,97.5,2|2,0:0|1:2,0:0:0:0:
409,231,104692,1,2,1:2:0:0:
372,314,105103,1,2,1:2:0:0:
260,287,105514,6,0,L|277:183,1,97.5,6|0,1:1|0:2,0:2:0:0:
239,171,106062,2,0,L|135:188,1,97.5,10|0,0:2|0:0,0:2:0:0:
98,173,106610,2,0,L|81:69,1,97.5,8|8,0:2|0:3,0:0:0:0:
109,32,107131,2,0,L|192:46,1,65,12|4,0:3|0:3,0:0:0:0:
237,91,107706,1,2,0:3:0:0:
256,192,114251,12,0,115887,3:2:0:0:
42,32,116433,6,0,P|73:32|133:84,1,97.5,8|4,0:2|0:3,0:0:0:0:
145,92,116978,1,12,0:3:0:0:
221,67,117251,2,0,P|281:76|324:89,1,97.5,4|0,1:2|0:2,0:2:0:0:
403,32,118069,2,0,L|400:-6,2,32.5,10|2|2,0:2|1:2|0:2,0:2:0:0:
432,59,118478,1,10,0:1:0:0:
402,132,118751,1,2,0:2:0:0:
464,180,119024,2,0,L|474:223,1,32.5,2|2,1:3|0:1,0:0:0:0:
405,280,119569,5,2,0:1:0:0:
361,344,119842,1,2,0:1:0:0:
281,327,120115,2,0,P|241:339|196:352,1,65,2|2,0:1|0:1,0:2:0:0:
109,322,120797,6,0,P|101:275|62:238,1,97.5,6|2,1:1|1:3,0:2:0:0:
23,171,121478,1,2,3:2:0:0:
101,142,121751,2,0,P|161:150|184:154,1,65,2|2,0:1|0:1,0:2:0:0:
233,96,122297,2,0,P|224:36|220:13,2,65,2|2|2,0:1|0:1|0:3,0:2:0:0:
263,116,122978,2,0,L|334:137,1,65,2|2,1:2|0:2,0:2:0:0:
347,149,123388,2,0,L|418:128,1,65,10|2,0:2|1:2,0:0:0:0:
491,150,123933,1,10,0:1:0:0:
466,228,124206,1,4,0:3:0:0:
487,308,124478,2,0,B|404:327|444:306|320:336,1,162.5,4|2,0:3|0:2,0:0:0:0:
326,334,127073,6,0,L|285:327,1,32.5,10|10,0:2|0:2,0:0:0:0:
262,353,127339,2,0,P|245:274|234:231,1,107.25000327301,4|0,1:0|0:0,0:0:0:0:
206,227,127884,2,0,P|173:191|165:122,1,107.25000327301,8|2,1:0|0:3,0:0:0:0:
128,89,128429,1,6,1:0:0:0:
45,118,128702,1,0,0:0:0:0:
83,193,128975,2,0,B|102:259|108:224|126:325,1,107.25000327301,10|0,0:1|0:0,0:0:0:0:
146,322,129520,1,2,1:2:0:0:
224,356,129793,1,2,0:0:0:0:
299,318,130066,1,14,1:0:0:0:
428,352,130611,6,0,P|440:283|448:261,1,71.5000021820069,2|2,1:2|0:0,0:0:0:0:
494,214,131157,1,10,1:2:0:0:
436,154,131430,1,2,0:0:0:0:
472,79,131702,2,0,P|435:64|321:45,1,143.000004364014,4|10,1:0|1:0,0:0:0:0:
265,87,132521,1,2,0:0:0:0:
200,137,132793,2,0,P|156:149|117:155,1,71.5000021820069,6|6,1:0|0:1,0:0:0:0:
56,120,133339,1,14,1:0:0:0:
85,43,133611,2,0,L|75:-2,2,35.7500010910034,6|2|6,0:1|0:0|1:2,0:0:0:0:
136,162,134430,6,0,P|111:212|99:276,1,107.25000327301,8|2,1:0|1:2,0:0:0:0:
103,305,134975,1,2,1:0:0:0:
195,359,135384,1,8,1:0:0:0:
195,359,135521,1,2,1:0:0:0:
265,313,135793,1,2,0:0:0:0:
345,354,136066,6,0,P|362:275|373:232,1,107.25000327301,6|0,1:2|0:2,0:2:0:0:
410,240,136611,2,2,P|448:216|449:136,1,107.25000327301,14|2,0:2|0:3,0:1:0:0:
492,128,137157,1,2,1:2:0:0:
385,42,137702,2,0,B|319:61|354:67|253:85,1,107.25000327301,10|2,0:2|0:2,0:2:0:0:
237,77,138248,1,2,0:2:0:0:
164,109,138521,1,2,0:2:0:0:
89,77,138793,1,14,0:2:0:0:
12,186,139339,6,0,P|0:255|-8:277,1,71.5000021820069,2|2,1:2|0:2,0:2:0:0:
68,308,139884,1,10,0:2:0:0:
121,248,140157,1,2,0:2:0:0:
201,271,140429,2,0,P|216:234|235:120,1,143.000004364014,6|8,1:2|3:2,0:2:0:0:
184,68,141248,1,2,3:2:0:0:
229,0,141521,2,0,P|273:12|312:18,1,71.5000021820069,2|2,1:2|1:2,0:2:0:0:
354,77,142066,2,0,P|398:65|437:59,2,71.5000021820069,10|0|2,0:2|0:0|1:2,0:0:0:0:
271,182,143151,5,10,0:2:0:0:
397,235,143692,1,10,0:2:0:0:
397,235,143827,1,8,0:1:0:0:
461,299,144097,1,8,0:2:0:0:
461,299,144232,1,2,1:2:0:0:
407,359,144502,1,4,0:3:0:0:
327,329,144773,6,0,B|257:342|299:352|184:367,1,143.000004364014,4|0,1:0|0:0,0:0:0:0:
24,64,153550,6,2,L|146:86,1,116.999996429443,4|0,1:0|1:0,0:1:0:0:
160,108,154088,2,0,L|173:173,2,38.9999988098145,8|2|0,0:0|0:1|1:0,0:0:0:0:
247,21,154895,2,0,P|256:73|269:103,1,77.999997619629,2|8,0:1|0:0,0:0:0:0:
301,114,155298,1,2,0:1:0:0:
390,61,155702,6,2,P|438:75|486:170,1,155.999995239258,6|8,1:0|0:0,1:0:0:0:
439,230,156516,2,2,P|387:245|362:253,1,77.999997619629,0|8,1:0|0:0,0:1:0:0:
314,318,157059,1,2,0:1:0:0:
239,250,157466,1,2,0:1:0:0:
146,294,157873,2,2,P|98:280|50:185,1,155.999995239258,4|8,1:0|0:0,0:1:0:0:
2,123,158694,2,2,P|9:82|5:41,1,77.999997619629,0|0,1:0|0:0,0:1:0:0:
83,22,159242,1,2,0:1:0:0:
136,119,159653,1,2,0:1:0:0:
81,211,160064,6,2,P|74:254|66:332,1,116.999996429443,4|0,1:0|0:0,0:1:0:0:
92,367,160623,2,2,P|162:352|226:339,1,116.999996429443,4|0,1:0|0:0,0:1:0:0:
237,306,161165,2,2,P|307:321|371:334,1,116.999996429443,4|0,1:0|0:0,0:1:0:0:
388,365,161708,1,2,1:1:0:0:
486,275,162260,6,0,P|466:236|475:157,1,116.999996429443,6|0,1:1|0:0,0:0:0:0:
494,140,162780,1,6,1:2:0:0:
494,140,162920,2,0,P|404:115|375:98,1,116.999996429443,2|6,0:0|1:2,0:0:0:0:
311,146,163621,2,0,L|304:194,1,38.9999988098145,10|0,0:1|0:0,0:0:0:0:
221,190,164034,1,2,0:0:0:0:
155,106,164434,6,0,B|70:129|104:138|-2:162,1,155.999995239258,6|6,1:1|1:2,0:0:0:0:
1,193,165108,1,0,0:0:0:0:
1,193,165243,2,0,P|16:238|28:273,1,77.999997619629,8|6,0:2|1:2,0:0:0:0:
97,307,165782,1,8,0:2:0:0:
194,360,166187,1,2,0:0:0:0:
266,292,166592,6,0,B|253:207|246:266|223:136,1,155.999995239258,4|0,1:2|1:2,0:0:0:0:
282,84,167421,2,0,P|340:98|367:109,1,77.999997619629,0|0,1:2|1:2,0:0:0:0:
409,170,167974,1,6,1:1:0:0:
495,236,168389,1,2,0:0:0:0:
451,306,168665,1,0,0:0:0:0:
451,306,168803,2,2,P|389:295|310:287,1,116.999996429443,6|0,1:2|0:0,0:1:0:0:
312,321,169356,2,0,P|250:332|171:340,1,116.999996429443,6|0,1:1|0:0,0:0:0:0:
159,315,169901,2,0,P|97:304|18:296,1,116.999996429443,2|0,1:1|0:0,0:0:0:0:
6,326,170431,6,0,B|4:154|53:264|54:81|54:81|62:126|97:168,1,352.947063534553,4|0,1:1|0:0,0:1:0:0:
41,41,180812,6,0,P|46:84|64:178,1,116.999996429443,2|2,0:0|0:0,0:0:0:0:
19,288,181902,2,0,P|72:262|139:245,1,116.999996429443,2|2,0:0|0:0,0:0:0:0:
220,290,182856,1,2,0:0:0:0:
220,290,182993,2,0,P|236:243|232:161,1,116.999996429443,2|2,0:0|0:0,0:0:0:0:
299,47,184084,6,0,P|324:59|359:73,1,58.4999982147217,2|0,0:0|0:0,0:0:0:0:
406,131,184629,2,0,P|394:156|380:191,1,58.4999982147217,2|2,0:0|0:0,0:0:0:0:
396,265,185175,2,0,P|351:270|271:284,1,116.999996429443,2|0,3:0|3:0,0:0:0:0:
159,349,186266,6,0,P|124:339|96:325,1,58.4999982147217,2|2,0:0|0:0,0:0:0:0:
36,284,186812,1,2,0:0:0:0:
83,216,187084,1,2,0:0:0:0:
29,156,187357,1,2,0:0:0:0:
110,52,187903,5,2,0:0:0:0:
218,133,188449,2,0,P|207:180|201:216,1,58.4999982147217,2|2,0:0|0:0,0:0:0:0:
271,241,188996,1,2,0:0:0:0:
234,344,189542,6,0,L|181:332,1,38.9999988098145,2|2,1:2|1:2,0:0:0:0:
108,372,189959,6,0,L|92:305,1,65,2|10,1:2|1:2,0:0:0:0:
32,223,190529,2,0,L|-20:215,2,32.5,2|2|2,1:2|0:0|1:2,0:0:0:0:
77,125,191157,1,8,0:0:0:0:
134,33,191681,5,6,1:2:0:0:
256,96,192260,1,2,1:0:0:0:
256,96,192393,1,0,0:0:0:0:
330,37,192660,1,0,0:0:0:0:
330,37,192793,1,2,1:1:0:0:
396,97,193060,2,0,L|381:179,1,58.4999982147217,10|8,0:0|0:1,0:0:0:0:
416,226,193595,2,0,L|460:244,1,32.5,8|4,0:1|0:3,0:0:0:0:
482,249,193865,5,10,0:1:0:0:
397,361,194425,2,2,L|326:336,1,58.4999982147217,14|0,0:1|1:0,0:1:0:0:
283,287,194986,2,0,L|296:231,2,32.5,0|8|0,0:0|0:0|0:0,0:0:0:0:
206,318,195512,2,0,B|152:330|181:337|100:352,1,97.5,0|2,1:0|1:1,0:0:0:0:
66,313,196067,2,0,P|78:270|82:231,1,71.5000021820069,2|2,1:2|0:3,0:0:0:0:
17,162,196614,1,10,0:1:0:0:
103,40,197162,5,6,1:2:0:0:
150,110,197436,1,2,1:2:0:0:
229,73,197710,1,10,0:2:0:0:
282,140,197984,1,10,0:2:0:0:
335,75,198258,6,0,P|342:110|361:224,1,143.000004364014,6|8,1:2|0:0,0:0:0:0:
484,261,199348,2,0,P|496:217|502:178,1,71.5000021820069,2|2,1:2|3:2,0:0:0:0:
441,134,199894,1,10,0:1:0:0:
488,65,200167,2,0,L|498:20,2,35.7500010910034,2|2|2,0:0|0:0|1:2,0:0:0:0:
346,76,200977,5,10,0:2:0:0:
217,147,201515,1,2,0:0:0:0:
109,136,201918,1,8,0:0:0:0:
109,136,202053,1,10,0:0:0:0:
34,219,202446,1,2,3:2:0:0:
34,219,202602,6,0,P|51:298|62:341,1,107.25000327301,4|0,1:0|0:0,0:0:0:0:
84,340,203151,2,0,P|103:340|219:355,1,107.25000327301,10|0,0:0|0:0,0:0:0:0:
219,318,203701,2,0,P|212:282|205:247,1,71.5000021820069,2|2,1:2|3:2,0:0:0:0:
249,177,204251,2,0,B|315:158|280:152|381:134,1,107.25000327301,10|0,0:0|0:0,0:0:0:0:
392,166,204801,1,2,1:1:0:0:
454,108,205073,1,2,0:1:0:0:
509,47,205346,1,14,0:0:0:0:
373,23,205891,5,6,1:2:0:0:
304,69,206164,1,2,1:2:0:0:
349,140,206437,1,10,0:2:0:0:
288,192,206710,1,2,1:2:0:0:
358,239,206982,6,0,P|343:276|324:390,1,143.000004364014,6|10,1:2|1:2,0:0:0:0:
209,315,208073,2,0,P|174:321|140:331,1,71.5000021820069,2|2,1:2|0:2,0:0:0:0:
76,284,208619,1,2,1:2:0:0:
28,218,208891,1,2,0:2:0:0:
68,143,209164,1,10,0:0:0:0:
163,31,209699,6,0,B|220:42|202:73|264:83,1,107.25000327301,14|0,1:2|0:0,0:0:0:0:
283,103,210235,2,0,P|292:139|307:199,1,71.5000021820069,8|8,0:3|0:3,0:0:0:0:
334,207,210649,1,0,0:0:0:0:
334,207,210787,2,0,P|370:216|421:234,1,71.5000021820069,4|12,3:3|3:3,0:0:0:0:
256,192,211340,12,0,213522,1:2:0:0:
117,361,214067,6,2,P|106:293|75:227,1,143.000004364014,14|0,0:2|1:2,0:1:0:0:
117,152,214885,1,2,3:1:0:0:
199,158,215158,2,0,P|201:197|210:232,1,71.5000021820069,10|0,0:1|0:0,0:0:0:0:
283,270,215703,2,0,B|358:281|326:297|425:316,1,143.000004364014,2|8,1:3|0:2,0:0:0:0:
480,258,216524,1,2,3:1:0:0:
432,191,216798,2,0,P|448:138|450:106,1,71.5000021820069,6|2,1:2|0:2,0:2:0:0:
390,69,217346,1,10,0:2:0:0:
268,129,217894,6,0,L|231:116,2,35.7500010910034,2|2|2,1:2|0:2|0:2,0:0:0:0:
297,209,218439,2,0,L|284:246,2,35.7500010910034,10|2|2,0:2|0:2|3:3,0:0:0:0:
365,159,218984,1,2,1:1:0:0:
442,189,219257,1,2,3:1:0:0:
456,269,219530,2,0,P|444:315|435:353,1,71.5000021820069,10|2,0:1|3:1,0:0:0:0:
364,373,220075,6,2,B|293:347|345:317|222:277,1,143.000004364014,6|10,1:2|0:2,0:1:0:0:
127,332,221166,2,0,L|121:376,2,35.7500010910034,2|2|2,1:0|0:1|0:1,0:0:0:0:
66,275,221712,1,10,1:0:0:0:
81,191,221984,1,2,0:1:0:0:
166,176,222257,2,2,P|207:199|269:217,1,107.25000327301,4|2,1:2|0:2,0:1:0:0:
289,234,222797,1,12,1:2:0:0:
425,237,223338,5,2,1:0:0:0:
484,178,223608,1,2,0:1:0:0:
455,102,223878,1,2,1:0:0:0:
380,70,224148,1,2,0:1:0:0:
308,119,224419,6,2,B|230:106|271:98|154:78,1,143.000004364014,4|8,1:0|0:0,0:1:0:0:
67,171,225520,1,2,1:2:0:0:
103,245,225795,1,2,0:2:0:0:
44,304,226070,2,0,L|4:297,2,35.7500010910034,10|2|2,0:2|0:2|0:2,0:0:0:0:
105,366,226620,6,2,P|157:344|249:319,1,143.000004364014,6|8,1:0|0:0,0:1:0:0:
378,363,227721,1,2,1:0:0:0:
396,282,227988,1,2,1:0:0:0:
469,240,228256,1,2,1:0:0:0:
504,164,228524,1,2,1:0:0:0:
435,118,228792,6,0,B|344:136|395:147|275:168,1,143.000004364014,4|0,1:0|0:0,0:0:0:0:
