osu file format v14

[General]
AudioFilename: audio.ogg
AudioLeadIn: 0
PreviewTime: 221994
Countdown: 0
SampleSet: Soft
StackLeniency: 1
Mode: 0
LetterboxInBreaks: 0
WidescreenStoryboard: 1

[Editor]
DistanceSpacing: 0.8
BeatDivisor: 8
GridSize: 16
TimelineZoom: 2.1

[Metadata]
Title:Ame Sansan
TitleUnicode:雨燦々
Artist:King Gnu
ArtistUnicode:King Gnu
Creator:Jennifer
Version:Snnyfer's Insane
Source:オールドルーキー
Tags:old rookie japanese pop theme song 常田大希 勢喜遊 井口理 新井和輝 daiki tsuneta yu seki satoru iguchi kazuki arai honne BlastTheKidd -BlastTheKidd- jennglebells THE GREATEST UNKNOWN Album SUNNY SIDE UP Tokyo Broadcasting System Television TBS TV Series Sunday Theater Theme Song alternative J-Rock J-Pop Jrock Jpop rock japan jdrama j-drama drama San full version ver. ver The Bright Rain is Shining Brilliant syph
BeatmapID:4500589
BeatmapSetID:2137403

[Difficulty]
HPDrainRate:4.3
CircleSize:4
OverallDifficulty:8
ApproachRate:8.9
SliderMultiplier:1.6
SliderTickRate:1

[Events]
//Background and Video events
0,0,"final umbrella.jpg",0,0
Video,-87,"ame sansan.mp4"
//Break Periods
2,61220,70096
2,152198,153463
2,197646,203995
//Storyboard Layer 0 (Background)
//Storyboard Layer 1 (Fail)
//Storyboard Layer 2 (Pass)
//Storyboard Layer 3 (Foreground)
//Storyboard Layer 4 (Overlay)
//Storyboard Sound Samples

[TimingPoints]
389,631.578947368421,4,2,1,15,1,0
389,-66.6666666666665,4,2,1,15,0,0
5441,-66.6666666666665,4,2,1,30,0,0
6704,-66.6666666666665,4,2,1,45,0,0
7967,-66.6666666666665,4,2,1,60,0,0
9230,-66.6666666666665,4,2,1,75,0,0
10493,-50,4,2,1,85,0,0
18230,-50,4,2,1,5,0,0
18388,-50,4,2,1,85,0,0
38441,-50,4,2,1,5,0,0
38599,-50,4,2,1,85,0,0
60634,-50,4,2,0,85,0,0
61020,-50,4,2,0,50,0,0
61493,-50,4,2,0,25,0,0
61572,-50,4,2,0,50,0,0
62915,-50,4,2,0,25,0,0
63230,-50,4,2,0,50,0,0
64178,-50,4,2,0,25,0,0
64257,-50,4,2,0,50,0,0
65125,-50,4,2,0,25,0,0
65204,-50,4,2,0,25,0,0
65441,-50,4,2,0,25,0,0
65520,-50,4,2,0,50,0,0
65757,-50,4,2,0,25,0,0
65836,-50,4,2,0,25,0,0
66073,-50,4,2,0,50,0,0
68283,-50,4,2,0,25,0,0
68362,-50,4,2,0,25,0,0
68599,-50,4,2,0,25,0,0
68678,-50,4,2,0,25,0,0
68915,-50,4,2,0,50,0,0
69072,-50,4,2,0,25,0,0
69151,-50,4,2,0,50,0,0
70739,-50,4,2,1,50,0,0
70809,-50,4,2,1,25,0,0
70888,-50,4,2,1,25,0,0
71125,-50,4,2,1,50,0,0
71757,-62.5,4,2,1,50,0,0
80283,612.244897959184,4,2,1,50,1,0
80589,631.578947368421,4,2,1,50,1,0
80904,618.556701030928,4,2,1,50,1,0
80904,-62.5,4,2,1,50,0,0
81522,652.173913043479,4,2,1,50,1,0
81522,-62.5,4,2,1,50,0,0
82500,628.272251308901,4,2,1,50,1,0
82500,-62.5,4,2,1,50,0,0
83756,631.578947368422,4,2,1,50,1,0
83756,-62.5,4,2,1,50,0,0
91334,631.578947368422,4,2,1,65,1,0
91334,-62.5,4,2,1,65,0,0
98913,-62.5,4,2,1,75,0,0
101440,-50,4,2,1,85,0,0
108703,-40,4,2,1,85,0,0
109650,-50,4,2,1,85,0,0
141861,-66.6666666666667,4,2,1,85,0,0
151581,-66.6666666666667,4,2,1,85,0,0
151966,-66.6666666666667,4,2,1,40,0,0
154108,-66.6666666666667,4,2,1,40,0,0
154492,-57.1428571428571,4,2,1,80,0,0
156703,-57.1428571428571,4,2,1,75,0,0
157018,631.578947368422,4,2,1,85,1,1
157019,-57.1428571428571,4,2,1,85,0,1
196175,-50,4,2,1,85,0,1
197124,645.161290322581,4,2,1,85,1,1
197446,631.578947368421,4,2,1,85,1,0
197446,-50,4,2,1,85,0,0
198072,-50,4,2,1,40,0,0
205024,-83.3333333333333,4,2,1,40,0,0
206288,-83.3333333333333,4,2,1,40,0,0
206294,-83.3333333333333,4,2,1,55,0,0
206919,-83.3333333333333,4,2,1,55,0,0
206925,-83.3333333333333,4,2,1,65,0,0
207546,-83.3333333333333,4,2,1,75,0,0
207551,-57.1428571428571,4,2,1,75,0,0
210072,-57.1428571428571,4,2,1,65,0,0
210077,-50,4,2,1,65,0,0
211340,-50,4,2,1,65,0,0
211972,-44.4444444444445,4,2,1,65,0,0
212603,-50,4,2,1,75,0,0
213867,628.272251308901,4,2,1,75,1,0
213867,-50,4,2,1,75,0,0
215123,631.578947368422,4,2,1,75,1,0
215123,-50,4,2,1,75,0,0
217649,-50,4,2,1,40,0,0
218280,-50,4,2,1,50,0,0
218912,-50,4,2,1,60,0,0
219544,638.297872340426,4,2,1,70,1,0
219544,-50,4,2,1,70,0,0
220182,631.578947368422,4,2,1,80,1,0
220182,-50,4,2,1,80,0,0
221445,628.2722513089,4,2,1,80,1,0
221445,-50,4,2,1,80,0,0
222701,631.578947368422,4,2,1,90,1,0
222701,-50,4,2,1,90,0,0
230437,-50,4,2,1,5,0,0
230595,-50,4,2,1,90,0,0
273227,-66.6666666666667,4,2,1,45,0,0
279858,-125,4,2,1,45,0,0
283332,-370.37037037037,4,2,1,45,0,0
285066,-370.37037037037,4,2,1,5,0,0
285069,-50,4,2,1,5,0,0
285227,621.761658031088,4,2,1,20,1,0
285318,-100,4,2,0,20,0,0
285476,-100,4,2,1,20,0,0
285634,-100,4,2,0,20,0,0
285693,-100,4,2,0,20,0,0
285699,-100,4,2,0,25,0,0
285792,-100,4,2,1,25,0,0
285848,-100,4,2,1,25,0,0
285856,-100,4,2,1,30,0,0
285950,-100,4,2,0,30,0,0
286004,-100,4,2,0,30,0,0
286014,-100,4,2,0,35,0,0
286108,-100,4,2,1,35,0,0
286159,-100,4,2,1,35,0,0
286172,-100,4,2,1,45,0,0
286315,-100,4,2,1,45,0,0
286330,-100,4,2,1,60,0,0
286392,-100,4,2,1,60,0,0
286409,-100,4,2,1,5,0,0
286470,638.297872340426,4,2,1,45,1,0
292172,-100,4,2,1,90,0,0
292214,681.818181818183,4,2,1,90,1,0
292488,-100,4,2,1,30,0,0
292554,-100,4,2,1,30,0,0

[Colours]
Combo1 : 186,216,252
Combo2 : 14,130,216
Combo3 : 79,158,238
Combo4 : 99,150,235

[HitObjects]
215,80,389,6,0,P|202:139|190:200,1,120.000004577637,2|0,3:0|0:0,0:0:0:0:
278,305,1020,2,0,P|289:246|302:187,1,120.000004577637,0|0,3:2|0:0,0:0:0:0:
101,112,1652,2,0,P|159:99|218:88,1,120.000004577637,2|0,3:2|0:0,0:0:0:0:
416,172,2283,2,0,P|357:182|298:195,1,120.000004577637,0|0,3:0|0:0,0:0:0:0:
131,4,2915,6,0,P|118:63|106:124,1,120.000004577637,2|0,3:2|0:0,0:0:0:0:
296,203,3546,2,0,P|283:262|271:323,1,120.000004577637,0|0,3:2|0:0,0:0:0:0:
481,341,4178,2,0,P|422:351|363:364,1,120.000004577637,2|0,3:2|0:0,0:0:0:0:
57,306,4810,2,0,P|115:293|174:282,1,120.000004577637,0|0,3:0|0:0,0:0:0:0:
273,330,5441,5,2,3:2:0:0:
366,135,5757,2,0,P|375:170|378:198,1,60.0000022888184,0|0,1:2|0:0,0:0:0:0:
310,231,6073,1,8,1:2:0:0:
310,231,6389,1,8,1:2:0:0:
134,111,6704,6,0,P|169:102|197:99,1,60.0000022888184,10|0,1:2|0:0,0:0:0:0:
257,142,7020,1,8,1:2:0:0:
189,359,7336,2,0,P|175:320|166:294,1,60.0000022888184,8|0,1:2|0:0,0:0:0:0:
257,142,7652,2,0,P|266:170|277:198,1,60.0000022888184,8|0,1:2|0:0,0:0:0:0:
469,215,7967,6,0,P|425:263|369:260,1,120.000004577637,14|8,1:2|1:0,0:0:0:0:
373,262,8441,1,0,0:0:0:0:
257,377,8599,2,0,P|222:369|186:360,1,60.0000022888184,8|0,1:2|0:0,0:0:0:0:
95,285,8915,2,0,P|60:293|24:302,1,60.0000022888184,8|0,0:2|1:0,0:0:0:0:
36,298,9152,1,0,1:0:0:0:
36,298,9231,5,10,3:2:0:0:
184,156,9389,2,0,P|203:187|187:270,1,120.000004577637,0|0,0:0|1:0,0:0:0:0:
99,204,9862,5,8,0:1:0:0:
188,148,10020,1,8,0:1:0:0:
93,212,10178,1,8,0:1:0:0:
194,142,10336,1,8,0:1:0:0:
0,81,10494,6,0,P|46:66|118:51,1,120,4|0,1:1|0:0,0:0:0:0:
116,51,10810,2,0,P|101:95|94:128,1,80,2|0,1:2|0:0,0:0:0:0:
282,259,11125,2,0,P|299:178|327:100,1,160,10|2,0:2|0:2,0:0:0:0:
274,48,11599,2,0,P|236:63|219:106,1,80,8|0,0:2|0:0,0:0:0:0:
376,318,11915,5,8,0:2:0:0:
431,262,12073,2,0,P|467:275|489:313,1,80,2|0,1:2|0:0,0:0:0:0:
305,366,12389,2,0,P|261:352|227:344,1,80,10|0,0:2|0:0,0:0:0:0:
129,382,12704,1,2,0:2:0:0:
129,382,12862,1,0,0:0:0:0:
26,226,13020,6,0,P|42:272|47:309,1,80,2|0,1:2|0:0,0:0:0:0:
187,227,13336,2,0,P|180:187|166:150,1,80,2|0,1:2|0:0,0:0:0:0:
10,17,13652,2,0,P|50:43|166:50,1,160,10|2,0:2|0:2,0:0:0:0:
271,264,14125,1,8,0:2:0:0:
334,215,14283,6,0,P|373:222|411:234,1,80,0|8,0:0|0:2,0:0:0:0:
166,150,14599,2,0,P|127:175|123:259,1,120,2|0,1:2|0:0,0:0:0:0:
115,243,14915,2,0,P|144:284|162:323,1,80,8|0,0:2|0:0,0:0:0:0:
299,361,15231,2,0,P|278:364|246:380,1,40,2|0,0:2|0:0,0:0:0:0:
338,295,15389,1,0,0:0:0:0:
338,295,15467,1,0,0:0:0:0:
338,295,15546,6,0,P|351:235|385:132,2,160,6|2|8,1:1|1:2|0:2,0:0:0:0:
338,295,16494,1,2,0:2:0:0:
338,295,16652,1,10,0:2:0:0:
494,328,16810,6,0,P|444:342|414:361,1,80,2|8,0:2|0:2,0:0:0:0:
267,242,17125,1,2,1:2:0:0:
350,195,17283,2,0,P|391:204|430:218,1,80,2|8,0:2|0:2,0:0:0:0:
268,254,17599,1,2,1:2:0:0:
129,163,17757,6,0,P|110:115|156:5,1,160,6|0,0:2|0:0,0:0:0:0:
142,16,18389,1,0,1:2:0:0:
142,16,18546,1,0,0:0:0:0:
248,102,18704,2,0,P|296:90|335:84,1,80,8|0,0:2|0:0,0:0:0:0:
373,144,19020,5,2,0:2:0:0:
497,112,19178,1,8,0:2:0:0:
453,14,19336,2,0,P|436:50|423:96,1,80,2|8,0:2|0:2,0:0:0:0:
507,225,19652,1,2,1:2:0:0:
507,225,19810,2,0,P|445:240|410:260,1,80,2|8,0:2|0:2,0:0:0:0:
368,292,20125,1,2,0:2:0:0:
275,238,20283,2,0,P|264:279|259:321,1,80,2|2,0:2|0:2,0:0:0:0:
145,186,20599,5,2,1:2:0:0:
145,186,20757,1,0,0:0:0:0:
217,151,20915,2,0,P|210:113|205:66,1,80,2|2,1:2|0:2,0:0:0:0:
27,15,21231,2,0,P|43:79|128:100,1,160,8|0,0:2|0:2,0:0:0:0:
266,19,21704,2,0,P|305:23|345:30,1,80,8|0,0:2|0:0,0:0:0:0:
475,4,22020,1,8,0:2:0:0:
475,4,22178,2,0,P|458:45|451:86,1,80,2|0,1:2|0:0,0:0:0:0:
414,277,22494,6,0,P|398:197|366:122,1,160,10|0,0:2|0:0,0:0:0:0:
284,346,22967,1,2,0:2:0:0:
284,346,23046,1,0,0:0:0:0:
284,346,23125,6,0,P|233:344|171:257,2,160,2|2|8,1:2|1:2|0:2,0:0:0:0:
284,346,24073,1,0,0:2:0:0:
286,169,24231,2,0,P|275:208|271:248,1,80,8|0,0:2|0:0,0:0:0:0:
214,120,24546,1,8,0:2:0:0:
88,237,24704,6,0,P|127:241|166:252,1,80,2|0,1:2|0:0,0:0:0:0:
303,91,25020,2,0,P|217:72|109:53,1,160,10|2,0:2|0:2,0:0:0:0:
83,104,25494,1,2,0:2:0:0:
168,263,25652,6,0,P|178:200|189:170,1,80,0|2,1:0|0:2,0:0:0:0:
309,90,25967,2,0,P|298:128|293:168,1,80,2|2,1:2|0:2,0:0:0:0:
504,157,26283,2,0,P|478:228|393:244,1,160,8|0,0:2|0:2,0:0:0:0:
334,341,26757,2,0,P|295:330|256:326,1,80,8|0,0:2|0:2,0:0:0:0:
161,261,27073,1,8,0:2:0:0:
69,376,27231,6,0,P|64:336|53:297,1,80,2|0,1:2|0:0,0:0:0:0:
5,128,27546,2,0,P|65:171|158:168,1,160,10|2,0:2|0:2,0:0:0:0:
272,53,28020,1,0,0:0:0:0:
272,53,28099,1,0,0:0:0:0:
272,53,28178,6,0,P|299:73|308:129,1,80,4|0,1:2|0:0,0:0:0:0:
92,70,28494,2,0,P|136:75|187:92,1,80,2|0,1:2|0:0,0:0:0:0:
248,228,28810,2,0,P|286:217|411:204,1,160,10|2,0:2|0:2,0:0:0:0:
460,260,29283,1,0,1:2:0:0:
497,117,29441,1,10,0:2:0:0:
460,265,29599,1,0,1:2:0:0:
390,26,29915,1,0,1:2:0:0:
318,75,30073,2,0,P|280:60|241:54,1,80,10|0,0:2|1:2,0:0:0:0:
122,140,30389,5,10,0:2:0:0:
253,220,30546,1,10,0:1:0:0:
158,307,30704,6,0,P|146:231|133:139,1,160,4|2,1:1|1:2,0:0:0:0:
429,158,31336,2,0,P|433:118|441:79,1,80,10|0,0:2|0:0,0:0:0:0:
512,45,31652,1,2,0:2:0:0:
342,157,31810,2,0,P|350:196|354:235,1,80,8|0,0:2|0:0,0:0:0:0:
292,290,32125,5,8,0:2:0:0:
417,357,32283,2,0,P|454:341|516:365,1,80,2|0,1:2|0:0,0:0:0:0:
292,290,32599,2,0,P|239:305|152:242,1,160,10|2,0:2|0:2,0:0:0:0:
51,321,33073,1,2,0:0:0:0:
51,321,33152,1,0,0:0:0:0:
51,321,33231,6,0,P|69:244|91:157,1,160,0|2,1:2|1:2,0:0:0:0:
55,92,33704,1,0,0:0:0:0:
234,240,33862,2,0,P|263:164|237:90,1,160,10|2,0:2|0:2,0:0:0:0:
206,22,34336,1,8,0:2:0:0:
138,88,34494,6,0,P|62:78|22:72,1,80,2|0,0:0|0:0,0:0:0:0:
215,15,34810,2,0,P|291:5|331:-1,1,80,2|0,1:2|0:0,0:0:0:0:
400,139,35125,1,10,0:2:0:0:
310,115,35283,1,0,0:0:0:0:
406,143,35441,2,0,P|450:108|449:72,1,80,2|0,0:2|0:0,0:0:0:0:
310,115,35757,6,0,L|322:279,1,160,6|2,1:1|1:2,0:0:0:0:
251,309,36231,1,0,0:0:0:0:
403,185,36389,2,0,L|493:211,1,80,8|0,0:2|0:0,0:0:0:0:
354,51,36704,1,2,0:2:0:0:
402,176,36862,1,8,0:2:0:0:
300,108,37020,6,0,L|175:127,1,120,2|0,0:2|0:0,0:0:0:0:
168,129,37336,1,2,1:2:0:0:
77,104,37494,2,0,P|90:170|94:204,1,80,2|8,0:2|0:2,0:0:0:0:
29,230,37810,1,2,1:2:0:0:
186,352,37967,6,0,P|224:295|193:200,1,160,6|0,0:2|0:0,0:0:0:0:
201,210,38599,1,0,1:2:0:0:
201,210,38757,1,0,0:0:0:0:
100,329,38915,2,0,P|51:321|10:316,1,80,8|0,0:2|0:0,0:0:0:0:
0,233,39231,1,2,0:2:0:0:
0,233,39389,1,8,0:2:0:0:
104,342,39546,6,0,P|112:286|123:219,1,120,2|0,0:2|0:0,0:0:0:0:
99,207,39862,2,0,P|107:151|114:98,1,80,2|0,1:2|0:2,0:0:0:0:
330,85,40178,2,0,P|324:124|318:164,1,80,10|2,0:2|0:2,0:0:0:0:
377,226,40494,1,0,0:2:0:0:
377,226,40652,1,2,0:2:0:0:
219,276,40810,6,0,P|218:178|236:104,1,160,0|2,1:1|1:2,0:0:0:0:
330,85,41283,1,2,0:2:0:0:
144,142,41441,2,0,P|95:128|33:110,1,80,10|2,0:2|0:2,0:0:0:0:
65,234,41757,5,2,0:2:0:0:
146,152,41915,1,8,0:2:0:0:
203,267,42073,2,0,P|252:253|314:235,1,80,0|8,0:0|0:0,0:0:0:0:
414,252,42389,1,0,0:0:0:0:
329,335,42546,1,0,0:0:0:0:
429,252,42704,6,0,P|418:325|413:363,1,80,10|2,0:2|0:2,0:0:0:0:
332,321,43020,1,2,0:2:0:0:
289,147,43178,1,2,0:2:0:0:
289,147,43257,1,0,3:0:0:0:
289,147,43336,6,0,P|342:175|446:159,1,160,2|0,1:2|1:2,0:0:0:0:
512,206,43810,1,2,0:2:0:0:
443,153,43967,2,0,L|434:73,1,80,10|2,0:2|0:2,0:0:0:0:
497,25,44283,1,2,0:2:0:0:
373,23,44441,6,0,P|333:42|273:44,1,80,8|0,0:2|0:0,0:0:0:0:
232,0,44757,1,8,0:2:0:0:
298,147,44915,2,0,P|222:127|132:110,1,160,2|10,1:2|0:2,0:0:0:0:
142,111,45546,1,2,0:2:0:0:
67,152,45704,1,2,0:2:0:0:
127,253,45862,6,0,P|114:305|105:364,1,80,0|2,1:0|0:2,0:0:0:0:
177,376,46178,1,2,1:2:0:0:
177,376,46336,1,2,0:2:0:0:
285,244,46494,2,0,P|359:246|454:308,1,160,8|2,0:2|0:2,0:0:0:0:
504,231,46967,1,8,0:2:0:0:
421,99,47125,6,0,P|431:155|433:190,1,80,2|8,0:2|0:2,0:0:0:0:
333,101,47441,2,0,P|343:45|345:10,1,80,2|0,1:2|0:0,0:0:0:0:
168,151,47757,2,0,P|158:207|156:242,1,80,10|0,0:2|0:0,0:0:0:0:
256,153,48073,2,0,P|246:97|244:62,1,80,2|0,0:2|0:0,0:0:0:0:
331,194,48389,5,6,1:2:0:0:
331,194,48546,1,0,0:0:0:0:
235,241,48704,2,0,P|187:231|138:231,1,80,2|0,1:2|0:0,0:0:0:0:
340,203,49020,2,0,P|388:213|437:213,1,80,10|0,0:2|0:0,0:0:0:0:
481,158,49336,1,2,0:2:0:0:
481,158,49494,1,0,1:2:0:0:
496,322,49652,6,0,L|518:215,1,80,8|0,0:2|1:2,0:0:0:0:
498,79,49967,2,0,L|481:157,1,80,2|0,1:1|0:0,0:0:0:0:
340,203,50283,1,10,0:2:0:0:
340,203,50441,1,2,1:2:0:0:
373,301,50599,1,10,0:2:0:0:
252,224,50757,1,10,0:1:0:0:
252,224,50836,1,0,0:0:0:0:
252,224,50915,6,0,P|187:213|91:201,1,160,6|0,1:2|1:0,0:0:0:0:
93,201,51546,2,0,P|103:254|89:287,1,80,6|2,1:1|0:2,0:0:0:0:
176,299,51862,2,0,P|152:348|122:366,1,80,0|2,0:0|0:2,0:0:0:0:
45,118,52178,6,0,P|90:156|201:149,1,160,6|0,1:2|1:0,0:0:0:0:
238,93,52652,1,0,0:0:0:0:
417,172,52810,2,0,P|407:225|421:258,1,80,6|2,1:1|0:2,0:0:0:0:
334,270,53125,2,0,P|357:319|387:337,1,80,2|2,0:2|0:2,0:0:0:0:
465,89,53441,6,0,P|420:127|309:120,1,160,6|2,1:2|1:2,0:0:0:0:
238,93,53915,1,0,0:0:0:0:
208,214,54073,2,0,P|271:199|321:194,1,80,6|0,1:1|0:0,0:0:0:0:
246,84,54389,2,0,P|183:69|133:64,1,80,2|0,0:2|0:0,0:0:0:0:
106,13,54704,5,6,1:2:0:0:
106,13,54862,1,0,0:0:0:0:
12,108,55020,2,0,P|26:163|29:191,1,80,2|0,1:2|0:0,0:0:0:0:
0,319,55336,2,0,P|48:296|151:319,1,160,6|2,1:1|0:2,0:0:0:0:
214,262,55810,1,0,0:0:0:0:
327,359,55967,6,0,P|386:366|416:350,1,80,6|0,1:2|0:0,0:0:0:0:
457,298,56283,1,2,1:2:0:0:
457,298,56441,1,2,0:2:0:0:
432,191,56599,2,0,L|408:361,1,160,8|10,0:2|0:2,0:0:0:0:
248,370,57073,6,0,P|187:359|164:267,1,160,2|8,1:2|0:2,0:0:0:0:
221,213,57546,1,2,1:2:0:0:
221,213,57704,1,0,1:0:0:0:
345,200,57862,2,0,P|338:241|333:297,1,80,8|0,0:2|1:2,0:0:0:0:
295,114,58178,1,2,0:2:0:0:
295,114,58336,1,0,0:0:0:0:
148,182,58494,6,0,P|182:203|221:213,1,80,6|0,1:0|0:0,0:0:0:0:
219,330,58810,2,0,P|185:351|146:360,1,80,2|0,1:2|1:0,0:0:0:0:
117,268,59125,1,2,0:2:0:0:
117,268,59283,1,0,1:0:0:0:
308,293,59441,2,0,L|295:389,1,80,10|0,0:0|1:0,0:0:0:0:
148,182,59757,2,0,L|137:102,1,80,8|0,0:2|1:0,0:0:0:0:
189,43,60073,5,8,0:3:0:0:
58,124,60231,1,8,0:3:0:0:
217,136,60389,5,4,0:3:0:0:
62,29,60546,1,4,0:3:0:0:
226,131,60704,2,0,P|289:121|319:118,1,80,12|12,1:3|1:3,0:0:0:0:
426,211,61020,5,2,3:2:0:0:
343,384,71125,5,0,1:0:0:0:
343,384,71757,2,0,P|352:311|362:243,1,128,10|2,0:2|1:2,0:0:0:0:
359,257,72389,2,0,P|318:276|279:285,1,64,2|0,0:2|0:0,0:0:0:0:
250,350,72704,2,0,P|219:340|191:325,1,64,2|2,0:3|0:2,0:0:0:0:
104,368,73020,2,0,P|75:308|93:243,1,128,8|0,0:1|0:0,0:0:0:0:
20,196,73494,1,8,0:1:0:0:
20,196,73573,1,8,0:1:0:0:
20,196,73652,2,0,L|27:109,1,64,2|0,1:2|0:0,0:0:0:0:
105,95,73967,1,2,0:2:0:0:
105,95,74125,6,0,P|171:116|238:85,1,128,2|2,0:2|0:2,0:0:0:0:
289,159,74599,2,0,P|348:140|408:161,1,128,0|0,1:0|0:0,0:0:0:0:
483,212,75073,2,0,P|487:180|494:149,2,64,2|2|0,0:1|0:3|0:0,0:0:0:0:
500,308,75546,2,0,L|374:289,1,128,10|2,0:2|0:2,0:0:0:0:
292,348,76020,1,10,0:2:0:0:
292,348,76178,6,0,P|286:282|313:212,1,128,2|0,1:2|0:0,0:0:0:0:
305,224,76810,2,0,P|238:239|171:243,1,128,8|0,0:2|1:0,0:0:0:0:
109,293,77283,1,2,0:2:0:0:
42,233,77441,6,0,P|37:202|31:171,1,64,2|0,0:2|0:0,0:0:0:0:
126,92,77757,2,0,P|117:137|112:175,1,64,2|0,0:3|0:0,0:0:0:0:
178,243,78073,2,0,P|205:204|207:118,1,128,10|2,0:2|0:2,0:0:0:0:
209,125,78546,1,8,0:1:0:0:
294,66,78704,6,0,P|345:89|366:93,1,64,2|0,1:2|0:0,0:0:0:0:
426,56,79020,1,2,0:2:0:0:
494,172,79178,2,0,P|426:158|360:178,1,128,2|2,0:2|0:2,0:0:0:0:
274,198,79652,1,2,1:2:0:0:
274,198,79967,6,0,L|289:341,1,128,2|2,0:2|0:2,0:0:0:0:
218,364,80589,1,10,0:2:0:0:
218,364,80746,1,0,1:0:0:0:
293,334,80904,2,0,L|359:345,1,64,10|2,0:3|0:1,0:0:0:0:
418,295,81213,5,4,0:3:0:0:
418,295,81367,1,4,0:3:0:0:
489,323,81522,2,0,P|485:365|472:387,1,64,12|4,0:3|0:2,0:0:0:0:
418,295,81848,2,0,P|423:249|427:207,1,64,2|2,0:2|0:2,0:0:0:0:
356,193,82174,2,0,P|361:147|365:105,1,64,0|2,1:0|0:2,0:0:0:0:
432,75,82500,6,0,P|354:82|309:35,1,128,2|2,0:2|0:3,0:0:0:0:
254,106,82971,1,2,0:2:0:0:
254,106,83128,2,0,P|146:87|106:81,1,128,8|0,0:1|0:0,0:0:0:0:
48,116,83599,5,8,0:1:0:0:
48,116,83678,1,8,0:1:0:0:
48,116,83756,2,0,L|59:187,1,64,2|0,1:2|0:0,0:0:0:0:
0,241,84071,1,2,0:2:0:0:
22,326,84229,2,0,P|88:314|175:303,1,128,2|2,0:2|0:2,0:0:0:0:
219,358,84703,1,2,1:2:0:0:
219,358,85019,2,0,P|223:326|229:294,1,64,0|2,0:0|0:1,0:0:0:0:
167,171,85334,2,0,P|172:202|176:234,1,64,2|0,0:3|0:0,0:0:0:0:
305,314,85650,2,0,P|330:244|310:180,1,128,10|2,0:2|0:2,0:0:0:0:
318,193,86124,1,8,0:1:0:0:
267,85,86282,6,0,P|374:63|434:50,1,128,2|2,1:2|0:2,0:0:0:0:
392,59,86913,2,0,P|378:133|378:147,1,64,8|0,0:2|0:0,0:0:0:0:
465,149,87229,1,2,1:2:0:0:
465,149,87387,2,0,P|453:223|447:295,1,128,2|0,0:2|0:0,0:0:0:0:
501,372,87861,1,2,0:3:0:0:
501,372,88177,2,0,P|453:358|368:370,1,128,8|2,0:1|0:2,0:0:0:0:
249,384,88650,1,8,0:1:0:0:
249,384,88808,6,0,L|242:240,1,128,2|2,1:2|0:2,0:0:0:0:
199,177,89282,1,2,0:2:0:0:
267,124,89440,2,0,P|306:140|336:146,1,64,8|0,0:2|0:0,0:0:0:0:
405,218,89756,2,0,P|374:225|344:238,1,64,2|0,1:2|3:0,0:0:0:0:
334,323,90071,5,2,0:2:0:0:
420,364,90229,1,10,1:1:0:0:
327,320,90387,1,6,1:2:0:0:
83,349,90703,2,0,L|91:285,1,64,10|0,0:2|1:0,0:0:0:0:
44,221,91019,1,4,1:3:0:0:
44,221,91177,1,8,0:3:0:0:
0,81,91334,6,0,P|53:115|123:121,1,128,6|12,0:1|0:3,0:0:0:0:
187,89,91808,1,8,0:1:0:0:
293,168,91966,2,0,P|300:121|308:93,1,64,4|0,3:2|0:0,0:0:0:0:
224,39,92282,2,0,P|197:74|198:116,1,64,2|4,0:2|0:3,0:0:0:0:
213,199,92598,6,0,P|197:260|188:324,1,128,2|10,0:2|1:3,0:0:0:0:
254,366,93071,1,4,1:3:0:0:
384,328,93229,2,0,P|388:265|347:219,1,128,4|2,0:2|1:2,0:0:0:0:
347,219,93703,1,0,0:0:0:0:
141,181,93861,6,0,P|185:158|280:132,1,128,6|12,0:1|0:3,0:0:0:0:
382,92,94334,1,8,0:1:0:0:
433,187,94492,2,0,P|441:156|453:127,1,64,4|0,3:2|0:0,0:0:0:0:
337,24,94808,1,2,0:2:0:0:
337,24,94966,1,4,0:3:0:0:
259,135,95124,6,0,P|191:116|145:113,1,64,0|0,1:0|0:0,0:0:0:0:
283,249,95440,2,0,P|351:230|397:227,1,64,10|0,0:3|0:0,0:0:0:0:
163,338,95756,2,0,P|107:330|100:252,1,128,4|2,0:2|1:2,0:0:0:0:
43,207,96229,1,2,0:2:0:0:
203,123,96387,6,0,P|186:182|172:258,1,128,4|0,0:1|1:0,0:0:0:0:
173,247,96861,1,4,0:3:0:0:
112,135,97019,2,0,P|105:91|92:54,1,64,8|0,0:1|0:0,0:0:0:0:
270,186,97334,1,10,0:2:0:0:
320,102,97492,6,0,P|382:114|403:178,1,128,2|10,1:2|0:2,0:0:0:0:
365,301,97966,2,0,P|361:269|351:238,1,64,2|0,1:2|1:0,0:0:0:0:
235,302,98282,1,8,0:1:0:0:
235,302,98440,1,0,0:0:0:0:
163,245,98598,2,0,P|122:259|86:272,1,64,2|2,0:2|0:2,0:0:0:0:
15,380,98913,6,0,P|0:304|-20:225,1,128,14|4,0:1|0:3,0:0:0:0:
88,52,99387,2,0,P|73:114|61:177,1,128,8|0,0:1|0:0,0:0:0:0:
102,265,99861,1,6,0:3:0:0:
102,265,100019,1,8,0:3:0:0:
166,110,100177,5,4,0:3:0:0:
56,183,100334,1,12,0:3:0:0:
219,288,100492,1,2,0:2:0:0:
219,288,100808,6,0,P|262:274|291:268,1,64,2|0,3:2|3:0,0:0:0:0:
249,200,101124,1,2,3:2:0:0:
320,352,101282,1,0,3:0:0:0:
320,352,101361,1,0,0:0:0:0:
320,352,101440,6,0,P|325:290|356:180,1,160,4|2,1:1|1:2,0:0:0:0:
420,165,101913,1,0,0:0:0:0:
374,24,102071,2,0,P|313:51|301:142,1,160,10|2,0:2|0:2,0:0:0:0:
349,195,102545,1,8,0:2:0:0:
427,266,102703,6,0,P|463:250|503:243,1,80,0|8,0:0|0:2,0:0:0:0:
348,353,103019,2,0,P|285:337|224:326,1,120,2|0,1:2|0:0,0:0:0:0:
230,327,103334,2,0,P|221:285|207:249,1,80,10|0,0:2|0:0,0:0:0:0:
144,210,103650,1,2,3:2:0:0:
144,210,103808,1,0,3:0:0:0:
85,362,103966,5,2,1:2:0:0:
85,362,104282,2,0,P|71:310|60:270,1,80,2|0,1:2|0:0,0:0:0:0:
86,98,104598,2,0,P|130:115|140:224,1,160,10|2,0:2|0:2,0:0:0:0:
67,202,105071,1,8,0:2:0:0:
218,259,105229,5,0,0:0:0:0:
141,306,105387,1,8,0:2:0:0:
230,368,105545,2,0,P|279:351|324:343,1,80,2|0,1:2|0:0,0:0:0:0:
409,383,105861,2,0,P|419:326|430:291,1,80,10|0,0:2|0:0,0:0:0:0:
362,186,106177,2,0,P|357:205|354:225,1,40,2|0,0:2|0:0,0:0:0:0:
446,144,106334,1,0,0:0:0:0:
446,144,106413,1,0,0:0:0:0:
446,144,106492,6,0,P|398:152|342:66,1,160,6|2,1:1|1:2,0:0:0:0:
341,70,107124,5,10,0:2:0:0:
341,70,107282,1,2,0:2:0:0:
271,213,107440,5,2,0:2:0:0:
212,141,107598,1,8,0:2:0:0:
152,256,107756,6,0,P|100:239|5:220,1,120,2|0,0:2|0:0,0:0:0:0:
36,224,108071,1,2,1:2:0:0:
212,141,108229,2,0,P|264:181|244:292,1,160,2|2,0:2|1:2,0:0:0:0:
38,314,108703,6,0,P|27:249|-11:120,2,200,6|0|0,0:2|0:0|1:2,0:0:0:0:
102,363,109492,1,0,1:0:0:0:
177,211,109650,1,8,0:2:0:0:
177,211,109966,2,0,P|226:225|278:241,1,80,2|8,0:2|0:2,0:0:0:0:
414,300,110282,2,0,P|344:314|295:330,1,120,2|0,0:2|0:0,0:0:0:0:
297,328,110598,5,2,1:2:0:0:
211,305,110756,1,2,0:2:0:0:
341,225,110913,2,0,P|353:174|367:127,1,80,10|10,0:2|0:2,0:0:0:0:
360,147,111150,1,8,0:1:0:0:
360,147,111229,1,2,1:2:0:0:
308,32,111387,2,0,P|293:73|293:84,1,40,8|8,0:2|0:1,0:0:0:0:
196,153,111545,6,0,P|147:135|136:92,1,80,2|2,1:2|0:2,0:0:0:0:
185,50,111861,1,2,1:2:0:0:
185,50,112019,1,2,0:2:0:0:
1,21,112177,2,0,P|21:78|50:177,1,160,8|2,0:2|0:1,0:0:0:0:
12,244,112650,1,8,0:2:0:0:
89,308,112808,2,0,P|140:291|182:286,1,80,0|8,0:0|0:2,0:0:0:0:
272,382,113124,2,0,P|288:319|310:268,1,120,2|0,1:2|0:0,0:0:0:0:
309,268,113440,6,0,P|296:223|278:106,1,160,10|0,0:2|0:0,0:0:0:0:
341,66,113913,1,2,0:2:0:0:
465,118,114071,5,2,1:2:0:0:
374,175,114229,1,2,0:2:0:0:
476,114,114387,2,0,P|464:154|455:201,1,80,2|2,1:2|0:2,0:0:0:0:
501,372,114703,2,0,P|462:335|334:316,1,160,8|0,0:2|0:2,0:0:0:0:
191,322,115177,1,8,0:2:0:0:
267,373,115334,2,0,P|274:323|286:280,1,80,0|8,0:0|0:2,0:0:0:0:
205,229,115650,5,2,1:2:0:0:
205,229,115808,1,2,0:2:0:0:
312,155,115966,2,0,P|379:173|468:205,1,160,8|2,0:2|0:2,0:0:0:0:
510,84,116440,1,2,0:2:0:0:
510,84,116519,1,0,0:0:0:0:
510,84,116598,6,0,P|484:51|424:50,1,80,2|0,1:2|0:0,0:0:0:0:
296,84,116913,2,0,P|308:122|317:162,1,80,2|0,1:2|0:0,0:0:0:0:
440,289,117229,2,0,P|448:249|460:211,1,80,10|0,0:2|0:0,0:0:0:0:
397,163,117545,1,2,0:2:0:0:
350,321,117703,6,0,P|302:305|250:295,1,80,10|0,0:2|0:2,0:0:0:0:
176,217,118019,1,10,0:2:0:0:
122,346,118177,2,0,P|105:299|87:256,1,80,0|2,1:2|0:2,0:0:0:0:
218,70,118492,2,0,P|201:122|180:233,1,160,10|2,0:2|0:2,0:0:0:0:
31,173,118966,1,2,0:2:0:0:
31,173,119045,1,0,0:0:0:0:
31,173,119124,6,0,P|74:146|120:148,1,80,4|0,1:2|0:0,0:0:0:0:
185,229,119440,1,2,1:2:0:0:
185,229,119598,1,0,0:0:0:0:
304,162,119756,2,0,P|309:117|317:81,1,80,10|0,0:2|0:0,0:0:0:0:
380,36,120071,1,2,0:2:0:0:
380,36,120229,1,0,1:2:0:0:
443,159,120387,5,14,0:2:0:0:
504,96,120545,1,0,1:2:0:0:
400,231,120703,2,0,P|429:259|485:262,1,80,2|0,1:1|1:2,0:0:0:0:
216,283,121019,2,0,P|225:236|234:188,1,80,10|0,0:2|1:2,0:0:0:0:
143,328,121334,1,10,0:2:0:0:
143,328,121492,1,10,0:1:0:0:
309,216,121650,6,0,P|328:293|269:382,1,160,4|2,1:1|1:2,0:0:0:0:
211,379,122124,1,0,0:0:0:0:
6,313,122282,2,0,P|46:284|148:322,1,160,10|2,0:2|0:2,0:0:0:0:
216,283,122756,1,8,0:2:0:0:
364,210,122913,6,0,L|352:108,1,80,2|8,3:2|0:2,0:0:0:0:
447,57,123229,2,0,L|437:136,1,80,2|0,1:2|0:0,0:0:0:0:
281,172,123545,1,10,0:2:0:0:
281,172,123703,1,0,0:0:0:0:
235,44,123861,2,0,P|188:72|114:68,1,120,2|0,0:2|0:0,0:0:0:0:
109,66,124177,5,0,1:2:0:0:
23,177,124492,2,0,P|10:230|-1:285,1,80,2|0,1:2|0:0,0:0:0:0:
91,323,124808,2,0,L|127:163,1,160,10|2,0:2|0:2,0:0:0:0:
210,151,125282,1,8,0:2:0:0:
271,286,125440,6,0,L|358:270,1,80,0|8,0:0|0:2,0:0:0:0:
417,326,125756,1,2,1:2:0:0:
417,326,125913,1,0,0:0:0:0:
483,163,126071,2,0,P|439:151|405:118,1,80,10|0,0:2|0:0,0:0:0:0:
471,56,126387,1,2,0:2:0:0:
344,181,126545,1,2,0:2:0:0:
344,181,126624,1,2,0:0:0:0:
344,181,126703,6,0,P|333:102|318:24,1,160,6|2,1:1|1:2,0:0:0:0:
317,23,127334,2,0,P|348:47|386:56,1,80,8|0,0:2|0:0,0:0:0:0:
441,126,127650,1,2,0:2:0:0:
397,54,127808,1,8,0:2:0:0:
346,195,127966,6,0,L|175:150,1,160,2|2,0:2|1:2,0:0:0:0:
107,133,128440,2,0,P|122:183|119:235,1,80,2|8,0:2|0:2,0:0:0:0:
49,229,128756,1,2,1:2:0:0:
10,41,128913,6,0,P|84:90|228:46,1,240,6|0,0:2|0:0,0:0:0:0:
306,78,129545,1,0,1:2:0:0:
306,78,129703,1,0,0:0:0:0:
223,172,129861,2,0,L|210:267,1,80,8|0,0:2|0:0,0:0:0:0:
270,328,130177,1,2,0:2:0:0:
132,229,130334,1,8,0:2:0:0:
275,317,130492,6,0,P|313:318|362:329,1,80,2|8,0:2|0:2,0:0:0:0:
465,275,130808,2,0,P|427:274|366:208,1,120,2|0,1:2|0:0,0:0:0:0:
367,204,131124,1,10,0:2:0:0:
286,226,131282,1,2,0:2:0:0:
286,226,131361,1,0,0:0:0:0:
286,226,131440,2,0,P|284:158|281:135,1,80,0|10,1:2|0:2,0:0:0:0:
214,83,131756,6,0,P|290:106|365:82,1,160,0|2,1:1|1:2,0:0:0:0:
424,32,132229,1,2,0:2:0:0:
397,160,132387,2,0,P|403:225|408:267,1,80,10|2,0:2|0:2,0:0:0:0:
351,302,132703,1,2,0:2:0:0:
481,238,132861,1,8,0:2:0:0:
344,307,133019,6,0,P|296:320|247:303,1,80,0|8,0:0|0:2,0:0:0:0:
193,361,133334,2,0,P|188:321|185:281,1,80,0|2,1:2|0:2,0:0:0:0:
243,101,133650,2,0,P|246:140|250:180,1,80,10|2,0:2|0:2,0:0:0:0:
111,251,133966,1,2,0:2:0:0:
305,315,134124,1,2,0:2:0:0:
305,315,134203,1,0,0:0:0:0:
305,315,134282,6,0,P|344:281|320:170,1,160,0|0,1:2|1:2,0:0:0:0:
325,106,134756,1,2,0:2:0:0:
152,209,134913,2,0,P|91:195|45:188,1,80,10|2,0:2|0:2,0:0:0:0:
38,122,135229,1,2,0:2:0:0:
74,278,135387,1,8,0:2:0:0:
74,278,135545,5,0,3:0:0:0:
152,209,135703,1,8,0:2:0:0:
241,247,135861,2,0,P|227:296|238:339,1,80,2|0,1:2|0:0,0:0:0:0:
323,356,136177,2,0,L|429:340,1,80,10|0,0:2|0:0,0:0:0:0:
475,380,136492,1,2,0:2:0:0:
507,254,136650,1,2,0:2:0:0:
507,254,136729,1,0,0:0:0:0:
507,254,136808,6,0,P|457:274|374:211,1,160,0|2,1:0|1:2,0:0:0:0:
421,146,137282,1,2,0:2:0:0:
292,166,137440,2,0,P|298:216|289:267,1,80,8|0,0:2|0:0,0:0:0:0:
228,288,137756,1,2,0:2:0:0:
373,226,137913,1,8,0:2:0:0:
224,298,138071,6,0,P|189:305|138:280,1,80,2|8,0:2|0:2,0:0:0:0:
116,366,138387,2,0,P|83:351|57:300,1,80,2|0,1:2|0:0,0:0:0:0:
0,152,138703,2,0,P|35:145|86:170,1,80,10|0,0:2|0:0,0:0:0:0:
105,80,139019,2,0,P|137:94|163:145,1,80,2|0,0:2|1:0,0:0:0:0:
85,239,139334,5,6,1:2:0:0:
85,239,139492,1,0,0:0:0:0:
148,289,139650,2,0,L|245:274,1,80,2|0,1:2|0:0,0:0:0:0:
320,217,139966,2,0,L|295:380,1,160,10|2,0:2|0:2,0:0:0:0:
215,378,140440,1,0,1:2:0:0:
378,339,140598,6,0,P|411:360|456:368,1,80,8|0,0:2|1:2,0:0:0:0:
512,251,140913,2,0,P|478:272|434:280,1,80,2|0,1:1|1:2,0:0:0:0:
401,194,141229,1,10,0:2:0:0:
375,347,141387,1,2,1:2:0:0:
402,186,141545,1,10,0:2:0:0:
320,217,141703,1,10,0:1:0:0:
320,217,141782,1,8,0:1:0:0:
320,217,141861,6,0,P|256:202|196:191,1,120.000004577637,2|0,1:2|1:0,0:0:0:0:
202,192,142492,2,0,P|219:152|226:111,1,60.0000022888184,6|2,1:1|0:2,0:0:0:0:
304,120,142808,2,0,P|294:77|275:40,1,60.0000022888184,0|2,0:0|0:2,0:0:0:0:
229,9,143124,5,2,1:2:0:0:
225,18,143440,1,0,1:0:0:0:
417,131,143756,2,0,P|400:171|393:212,1,60.0000022888184,6|2,1:1|0:2,0:0:0:0:
315,203,144071,2,0,P|324:245|343:282,1,60.0000022888184,2|2,0:2|0:2,0:0:0:0:
390,314,144387,5,2,1:2:0:0:
394,305,144703,1,2,1:2:0:0:
235,248,145019,2,0,P|171:256|105:265,1,120.000004577637,6|2,1:1|1:2,0:0:0:0:
48,311,145492,1,0,0:0:0:0:
103,197,145650,6,0,L|110:271,1,60.0000022888184,0|8,1:2|0:1,0:0:0:0:
167,138,145966,1,2,1:2:0:0:
167,138,146124,1,0,1:0:0:0:
61,116,146282,2,0,P|27:135|-6:136,1,60.0000022888184,6|0,1:1|0:0,0:0:0:0:
92,31,146598,2,0,P|126:50|159:51,1,60.0000022888184,2|0,0:2|3:0,0:0:0:0:
146,52,146834,1,0,3:0:0:0:
146,52,146913,6,0,L|277:28,1,120.000004577637,2|2,1:2|1:2,0:0:0:0:
328,92,147387,1,2,0:2:0:0:
438,24,147545,2,0,P|417:71|408:105,1,60.0000022888184,8|0,0:2|0:0,0:0:0:0:
474,135,147861,1,10,0:2:0:0:
333,101,148019,6,0,P|351:174|362:238,1,120.000004577637,2|8,1:2|1:2,0:0:0:0:
431,266,148492,1,2,1:2:0:0:
431,266,148650,1,0,1:0:0:0:
325,321,148808,2,0,P|273:314|254:313,1,60.0000022888184,8|0,0:2|1:2,0:0:0:0:
70,342,149124,1,2,0:2:0:0:
70,342,149440,6,0,L|82:261,1,60.0000022888184,6|0,1:0|0:0,0:0:0:0:
11,233,149756,2,0,L|23:152,1,60.0000022888184,2|0,1:2|1:0,0:0:0:0:
85,122,150071,1,2,0:2:0:0:
85,122,150229,1,0,1:0:0:0:
169,233,150387,2,0,P|163:266|157:295,1,60.0000022888184,10|0,0:0|1:0,0:0:0:0:
336,230,150703,6,0,P|329:200|324:171,1,60.0000022888184,8|0,0:2|1:0,0:0:0:0:
212,56,151019,5,10,0:3:0:0:
212,56,151177,1,8,0:3:0:0:
330,165,151334,5,4,0:3:0:0:
236,171,151492,1,4,0:3:0:0:
206,44,151649,1,14,1:3:0:0:
334,172,151807,1,12,1:3:0:0:
132,236,151966,5,2,3:0:0:0:
3,350,154492,6,0,P|37:325|73:320,1,70.000000667572,14|8,1:1|0:1,0:0:0:0:
63,319,154729,1,8,0:1:0:0:
63,319,154808,1,8,3:1:0:0:
145,382,154966,2,0,L|154:349,1,35.000000333786,14|0,1:1|0:0,0:0:0:0:
131,268,155124,2,0,P|128:244|114:191,1,70.000000667572,10|10,0:1|3:1,0:0:0:0:
116,199,155361,1,8,0:1:0:0:
116,199,155440,1,14,1:1:0:0:
193,148,155598,2,0,L|226:156,1,35.000000333786,10|8,0:1|0:1,0:0:0:0:
101,103,155756,5,8,3:1:0:0:
101,103,155834,1,8,0:1:0:0:
101,103,155913,2,0,P|77:106|24:120,1,70.000000667572,14|8,1:1|0:1,0:0:0:0:
32,117,156150,1,8,0:1:0:0:
38,125,156229,2,0,P|14:117|-5:113,1,35.000000333786,10|10,3:1|0:1,0:0:0:0:
193,0,156387,6,0,P|179:50|179:85,1,70.000000667572,10|2,1:1|0:1,0:0:0:0:
269,220,156703,2,0,P|274:164|292:112,1,105.000001001358,6|0,0:2|0:0,0:0:0:0:
352,72,157019,6,0,P|397:101|393:182,1,140.000001335144,4|0,1:1|1:2,0:0:0:0:
233,341,157650,2,0,P|188:312|192:231,1,140.000001335144,8|0,0:2|0:2,0:0:0:0:
264,205,158124,1,8,0:2:0:0:
316,368,158282,1,0,0:0:0:0:
316,368,158440,1,8,0:2:0:0:
432,307,158596,1,0,1:2:0:0:
432,307,158913,2,0,P|376:306|296:275,1,140.000001335144,10|2,0:2|0:2,0:0:0:0:
261,212,159387,1,0,0:0:0:0:
126,303,159545,5,2,1:2:0:0:
126,303,159861,2,0,P|93:295|48:288,1,70.000000667572,0|0,1:2|0:0,0:0:0:0:
152,103,160175,2,0,P|176:144|161:235,1,140.000001335144,8|0,0:2|0:2,0:0:0:0:
87,214,160650,1,8,0:2:0:0:
258,142,160808,2,0,P|293:150|333:163,1,70.000000667572,2|8,0:2|0:2,0:0:0:0:
148,97,161124,2,0,P|113:105|73:118,1,70.000000667572,0|0,1:2|0:0,0:0:0:0:
289,14,161440,2,0,P|270:61|251:168,1,140.000001335144,8|2,0:2|0:2,0:0:0:0:
418,96,161913,1,8,0:0:0:0:
418,96,161992,1,8,0:0:0:0:
418,96,162071,6,0,P|384:85|350:77,1,70.000000667572,6|0,1:1|0:0,0:0:0:0:
252,148,162387,2,0,P|286:156|319:166,1,70.000000667572,0|0,1:2|0:0,0:0:0:0:
492,252,162703,2,0,P|470:289|378:306,1,140.000001335144,8|2,0:2|0:2,0:0:0:0:
327,251,163175,1,8,0:2:0:0:
290,375,163334,1,2,0:2:0:0:
290,375,163492,1,8,0:2:0:0:
156,266,163650,2,0,P|134:294|144:342,1,70.000000667572,2|0,1:2|0:0,0:0:0:0:
135,326,163887,1,0,0:0:0:0:
135,327,163966,2,0,P|172:317|214:310,1,70.000000667572,10|0,0:2|1:2,0:0:0:0:
120,161,164282,6,0,P|66:169|-26:196,2,140.000001335144,4|0|2,0:2|0:0|1:2,0:0:0:0:
178,216,165071,1,0,0:0:0:0:
252,75,165229,2,0,P|235:127|235:155,1,70.000000667572,10|0,0:2|0:0,0:0:0:0:
298,181,165545,1,2,0:2:0:0:
336,334,165703,2,0,P|348:275|367:219,1,105.000001001358,8|0,0:2|0:0,0:0:0:0:
361,232,166019,1,8,0:2:0:0:
487,175,166175,2,0,P|456:169|418:156,1,70.000000667572,2|0,1:2|0:2,0:0:0:0:
264,263,166492,2,0,P|230:251|196:244,1,70.000000667572,10|0,0:2|0:2,0:0:0:0:
69,123,166808,2,0,P|42:158|49:193,1,70.000000667572,2|8,0:2|0:2,0:0:0:0:
43,181,167045,1,8,0:2:0:0:
43,181,167124,6,0,P|90:162|182:141,1,140.000001335144,6|0,1:2|1:2,0:0:0:0:
243,182,167596,1,0,0:2:0:0:
108,258,167754,2,0,P|126:309|212:331,1,140.000001335144,8|2,0:2|0:2,0:0:0:0:
298,374,168229,2,0,P|302:340|311:302,1,70.000000667572,8|0,0:2|0:0,0:0:0:0:
387,252,168545,1,8,0:2:0:0:
452,384,168703,2,0,P|466:301|482:256,1,105.000001001358,2|0,1:2|0:0,0:0:0:0:
472,281,169019,2,0,P|463:238|460:196,1,70.000000667572,8|0,0:2|0:0,0:0:0:0:
403,53,169334,2,0,P|393:96|390:138,1,70.000000667572,2|0,0:2|3:2,0:0:0:0:
391,121,169571,1,0,3:0:0:0:
391,121,169650,5,2,1:2:0:0:
242,14,169966,2,0,P|198:28|171:55,1,70.000000667572,2|0,1:2|0:0,0:0:0:0:
69,139,170282,2,0,P|118:149|204:189,2,140.000001335144,8|0|0,0:2|0:2|0:0,0:0:0:0:
11,190,171071,1,8,0:2:0:0:
230,113,171229,1,2,1:2:0:0:
230,113,171545,2,0,P|219:161|216:195,1,70.000000667572,10|0,0:2|0:0,0:0:0:0:
157,232,171861,1,2,0:2:0:0:
157,232,172019,1,0,0:2:0:0:
312,294,172175,6,0,P|284:324|250:327,1,70.000000667572,2|0,1:2|0:2,0:0:0:0:
90,263,172492,2,0,P|145:246|173:243,1,70.000000667572,0|0,1:2|0:2,0:0:0:0:
204,377,172808,2,0,P|221:315|257:222,1,140.000001335144,8|0,0:2|0:2,0:0:0:0:
312,205,173282,1,8,0:2:0:0:
221,108,173440,2,0,P|215:77|198:37,1,70.000000667572,2|8,0:2|0:2,0:0:0:0:
318,212,173754,2,0,P|368:199|377:142,1,105.000001001358,0|0,1:2|0:0,0:0:0:0:
380,152,174071,2,0,P|418:145|519:109,1,140.000001335144,8|2,0:2|0:2,0:0:0:0:
512,111,174466,1,0,0:0:0:0:
512,111,174545,1,2,0:0:0:0:
371,58,174703,5,6,1:2:0:0:
371,58,174861,1,0,0:0:0:0:
342,174,175019,2,0,P|329:142|313:111,1,70.000000667572,0|0,1:2|0:0,0:0:0:0:
470,221,175334,6,0,P|448:287|432:355,1,140.000001335144,14|0,0:2|0:2,0:0:0:0:
356,374,175808,1,0,1:2:0:0:
220,287,175966,5,14,0:2:0:0:
307,254,176124,1,0,1:2:0:0:
220,287,176282,2,0,P|237:326|247:363,1,70.000000667572,0|0,1:1|1:2,0:0:0:0:
121,190,176596,6,0,P|106:236|99:272,1,70.000000667572,14|8,0:2|1:2,0:0:0:0:
101,257,176834,1,8,0:2:0:0:
101,257,176913,2,0,P|114:296|122:309,1,35.000000333786,8|8,0:1|0:1,0:0:0:0:
208,197,177071,2,0,P|214:181|218:164,1,35.000000333786,8|8,0:1|0:1,0:0:0:0:
207,74,177229,6,0,P|240:132|324:128,1,140.000001335144,4|0,1:1|1:2,0:0:0:0:
485,348,177861,2,0,P|452:290|368:294,1,140.000001335144,8|0,0:2|0:2,0:0:0:0:
317,333,178334,1,8,0:2:0:0:
173,206,178492,5,0,0:0:0:0:
173,206,178650,1,8,0:2:0:0:
223,373,178808,1,0,1:2:0:0:
223,373,179124,2,0,P|237:303|256:218,1,140.000001335144,10|0,0:2|0:2,0:0:0:0:
341,271,179596,1,2,3:0:0:0:
253,118,179754,5,2,1:2:0:0:
253,118,180071,2,0,P|219:134|171:131,1,70.000000667572,0|0,1:2|0:0,0:0:0:0:
22,61,180387,2,0,L|52:219,1,140.000001335144,8|0,0:2|0:2,0:0:0:0:
0,268,180861,1,8,0:2:0:0:
119,116,181019,6,0,P|154:124|194:137,1,70.000000667572,2|8,0:2|0:2,0:0:0:0:
196,218,181334,2,0,P|229:207|263:199,1,70.000000667572,0|0,1:2|0:0,0:0:0:0:
394,334,181650,2,0,L|420:181,1,140.000001335144,8|2,0:2|0:2,0:0:0:0:
421,90,182124,1,8,0:0:0:0:
421,90,182203,1,8,0:0:0:0:
421,90,182282,6,0,L|517:116,1,70.000000667572,6|0,1:1|0:0,0:0:0:0:
345,140,182596,2,0,L|249:114,1,70.000000667572,0|0,1:2|0:0,0:0:0:0:
108,41,182913,2,0,P|56:89|67:161,1,140.000001335144,8|2,0:2|0:2,0:0:0:0:
153,186,183387,1,8,0:2:0:0:
279,273,183545,5,2,0:2:0:0:
279,273,183703,1,8,0:2:0:0:
160,194,183861,2,0,P|150:227|141:261,1,70.000000667572,2|0,1:2|0:2,0:0:0:0:
60,273,184175,2,0,P|69:306|78:340,1,70.000000667572,10|0,0:2|1:2,0:0:0:0:
223,342,184492,1,4,0:2:0:0:
223,342,184650,1,8,0:0:0:0:
293,378,184808,6,0,P|335:370|373:366,1,70.000000667572,0|0,1:0|1:0,0:0:0:0:
418,300,185124,1,2,1:2:0:0:
367,375,185282,1,0,0:0:0:0:
312,198,185440,2,0,P|323:155|333:109,1,70.000000667572,10|0,0:2|1:0,0:0:0:0:
281,51,185754,1,2,0:2:0:0:
408,93,185913,6,0,P|350:100|287:38,1,140.000001335144,8|8,0:2|0:2,0:0:0:0:
134,75,186387,2,0,P|78:58|43:49,1,70.000000667572,2|0,1:2|0:2,0:0:0:0:
0,200,186703,2,0,P|33:209|67:219,1,70.000000667572,10|0,0:2|0:2,0:0:0:0:
74,304,187019,1,2,0:2:0:0:
167,201,187175,1,8,0:2:0:0:
167,201,187254,1,8,0:2:0:0:
167,201,187334,6,0,P|157:300|161:358,1,140.000001335144,6|0,1:2|1:2,0:0:0:0:
92,384,187808,1,0,0:2:0:0:
244,326,187966,2,0,P|287:356|378:321,1,140.000001335144,8|0,0:2|0:2,0:0:0:0:
424,202,188440,6,0,P|428:168|437:130,1,70.000000667572,8|0,0:2|3:0,0:0:0:0:
494,262,188754,1,8,0:2:0:0:
341,159,188913,2,0,P|334:211|320:261,1,105.000001001358,2|0,1:2|0:0,0:0:0:0:
318,272,189229,2,0,P|269:254|246:247,1,70.000000667572,8|0,0:2|0:0,0:0:0:0:
201,165,189545,2,0,P|152:183|129:190,1,70.000000667572,2|2,0:2|0:2,0:0:0:0:
135,188,189782,1,2,0:0:0:0:
135,188,189861,5,2,1:2:0:0:
79,346,190175,2,0,P|75:291|66:251,1,70.000000667572,2|0,1:2|0:0,0:0:0:0:
119,94,190492,2,0,P|51:100|0:56,2,140.000001335144,8|0|0,0:2|0:2|0:0,0:0:0:0:
122,178,191282,1,8,0:2:0:0:
276,64,191440,1,2,1:2:0:0:
276,64,191754,2,0,P|265:112|262:146,1,70.000000667572,10|0,0:2|0:0,0:0:0:0:
343,179,192071,1,2,0:2:0:0:
343,179,192229,1,0,3:2:0:0:
189,268,192387,6,0,P|132:248|115:244,1,70.000000667572,2|0,1:2|0:2,0:0:0:0:
212,354,192703,2,0,P|269:334|286:330,1,70.000000667572,0|0,1:2|0:2,0:0:0:0:
473,361,193019,2,0,P|497:314|456:228,1,140.000001335144,8|2,0:2|0:2,0:0:0:0:
507,157,193492,1,8,0:2:0:0:
389,276,193650,6,0,P|383:245|366:205,1,70.000000667572,2|8,0:2|0:2,0:0:0:0:
502,166,193966,2,0,P|455:144|456:86,1,105.000001001358,0|0,1:2|0:0,0:0:0:0:
456,88,194282,2,0,P|391:67|317:45,1,140.000001335144,8|2,0:2|0:2,0:0:0:0:
47,204,194913,6,0,P|54:246|60:296,1,70.000000667572,6|0,1:2|0:0,0:0:0:0:
133,206,195229,2,0,P|128:171|122:136,1,70.000000667572,0|0,1:2|0:0,0:0:0:0:
31,45,195545,1,14,0:2:0:0:
132,134,195703,1,8,0:2:0:0:
115,12,195861,2,0,P|166:40|204:43,1,70.000000667572,0|0,0:2|1:2,0:0:0:0:
315,25,196175,5,14,0:2:0:0:
220,112,196334,1,8,1:1:0:0:
379,83,196492,2,0,P|353:153|349:180,1,80,0|0,1:1|1:2,0:0:0:0:
298,221,196808,1,14,1:2:0:0:
422,183,196966,1,0,1:2:0:0:
289,222,197124,6,0,L|281:188,3,20,8|8|8|8,0:2|0:2|0:1|0:1,0:0:0:0:
352,270,197446,1,0,0:0:0:0:
119,194,205024,6,0,P|110:157|76:89,2,95.9999970703126,2|2|2,3:2|0:2|0:2,0:0:0:0:
73,254,205972,1,2,0:2:0:0:
132,305,206288,2,0,B|206:299|186:341|269:337,1,143.999995605469,2|0,3:2|1:0,0:0:0:0:
269,337,206840,1,0,1:0:0:0:
269,337,206919,5,10,0:2:0:0:
359,235,207077,1,4,0:3:0:0:
266,265,207235,1,2,0:2:0:0:
266,265,207393,1,0,0:0:0:0:
358,384,207551,6,0,P|422:365|496:346,1,140.000001335144,6|12,0:1|0:3,0:0:0:0:
352,241,208024,1,8,0:1:0:0:
470,194,208182,2,0,P|456:242|450:288,1,70.000000667572,4|4,3:2|0:3,0:0:0:0:
348,134,208498,2,0,P|341:99|330:66,1,70.000000667572,2|4,0:2|0:3,0:0:0:0:
330,66,208735,1,0,0:0:0:0:
330,66,208814,6,0,P|262:83|195:103,1,140.000001335144,2|10,0:2|0:3,0:0:0:0:
128,69,209288,1,6,0:3:0:0:
89,254,209446,2,0,P|53:220|56:173,1,70.000000667572,4|0,0:2|0:0,0:0:0:0:
185,241,209761,2,0,P|170:291|157:342,1,105.000001001358,2|0,1:2|0:0,0:0:0:0:
157,342,210077,6,0,P|200:364|257:283,1,160,6|12,0:1|0:3,0:0:0:0:
191,236,210551,1,8,0:1:0:0:
318,193,210709,2,0,P|358:205|397:220,1,80,4|4,3:2|0:3,0:0:0:0:
221,138,211024,2,0,P|181:150|142:165,1,80,2|4,0:2|0:3,0:0:0:0:
145,163,211261,1,0,0:0:0:0:
145,163,211340,2,0,P|137:108|107:15,1,120,0|0,1:0|0:0,0:0:0:0:
52,18,211656,1,10,0:3:0:0:
52,18,211814,1,0,0:0:0:0:
88,231,211972,6,0,P|69:255|27:260,1,60.0000022888184,12|8,0:2|1:1,0:0:0:0:
153,169,212182,2,0,P|181:177|200:201,1,60.0000022888184,8|10,1:1|1:2,0:0:0:0:
162,295,212393,2,0,P|180:318|208:326,1,60.0000022888184,8|8,0:1|0:1,0:0:0:0:
321,146,212603,6,0,P|306:197|290:293,1,120,4|0,0:1|0:0,0:0:0:0:
293,262,212919,1,0,1:0:0:0:
395,106,213077,1,4,0:3:0:0:
494,313,213235,2,0,P|436:327|330:355,1,160,8|10,0:1|0:2,0:0:0:0:
98,243,213709,6,0,P|175:221|252:202,1,160,0|10,1:0|0:2,0:0:0:0:
309,261,214181,1,2,1:2:0:0:
309,261,214338,1,0,1:0:0:0:
143,106,214495,2,0,P|160:142|171:180,1,80,8|0,0:1|0:0,0:0:0:0:
203,44,214809,5,2,0:2:0:0:
203,44,214966,1,2,0:2:0:0:
3,127,215123,6,0,P|58:145|102:172,1,80,14|8,0:1|0:3,0:0:0:0:
107,229,215438,1,6,0:3:0:0:
282,122,215596,2,0,P|337:140|381:167,1,80,8|2,0:1|0:1,0:0:0:0:
425,115,215912,1,8,0:3:0:0:
247,283,216070,2,0,P|256:236|269:201,1,80,6|8,0:3|0:3,0:0:0:0:
433,110,216386,5,4,0:3:0:0:
286,38,216544,1,12,0:3:0:0:
360,154,216701,1,2,0:2:0:0:
360,154,216859,1,0,1:1:0:0:
501,49,217017,2,0,P|463:34|400:22,1,80,8|4,0:1|1:3,0:0:0:0:
210,23,217333,2,0,P|248:32|286:47,1,80,8|4,0:3|0:3,0:0:0:0:
286,47,217570,1,0,0:0:0:0:
286,47,217649,5,8,0:1:0:0:
45,159,217965,2,0,P|34:182|29:199,1,40,2|0,1:2|0:0,0:0:0:0:
85,267,218123,1,2,0:2:0:0:
85,267,218280,2,0,P|103:302|113:340,1,80,2|2,1:2|0:2,0:0:0:0:
162,217,218596,1,2,1:0:0:0:
421,129,218912,6,0,P|382:138|346:157,1,80,0|0,1:0|0:0,0:0:0:0:
406,271,219228,2,0,P|367:280|331:299,1,80,0|0,1:0|0:0,0:0:0:0:
266,257,219544,1,0,1:0:0:0:
186,64,219863,6,0,P|155:95|158:148,1,80,0|0,1:0|1:0,0:0:0:0:
151,129,220102,1,0,1:0:0:0:
151,129,220182,5,8,0:1:0:0:
91,293,220339,2,0,P|82:240|38:136,1,160,0|0,1:0|1:0,0:0:0:0:
237,180,220813,2,0,P|207:215|153:221,1,80,8|2,0:1|0:0,0:0:0:0:
104,198,221129,1,0,1:0:0:0:
104,198,221287,1,0,3:0:0:0:
286,287,221445,6,0,P|315:297|349:303,2,53.3333333333333,8|8|8,1:0|0:1|0:1,0:0:0:0:
116,331,221759,2,0,P|87:321|53:315,2,53.3333333333333,4|4|4,0:3|0:3|0:3,0:0:0:0:
209,307,222073,6,0,P|194:344|187:384,1,80,8|8,0:1|0:1,0:0:0:0:
290,202,222387,1,8,0:1:0:0:
290,202,222544,1,8,0:1:0:0:
407,372,222701,6,0,P|419:305|458:181,1,160,4|2,1:1|1:2,0:0:0:0:
445,217,223332,2,0,P|490:241|527:245,2,80,10|0|2,0:2|0:0|0:2,0:0:0:0:
258,272,223806,2,0,P|265:319|270:367,1,80,8|0,0:2|0:0,0:0:0:0:
194,384,224122,1,8,0:2:0:0:
344,295,224279,2,0,P|358:237|291:154,1,160,2|10,1:2|0:2,0:0:0:0:
234,190,224753,1,0,0:0:0:0:
170,239,224911,2,0,P|123:227|80:218,1,80,2|0,0:2|0:0,0:0:0:0:
1,73,225227,6,0,P|45:22|151:48,1,160,2|2,1:2|1:2,0:0:0:0:
189,94,225701,1,0,0:0:0:0:
336,196,225858,2,0,P|351:102|364:24,1,160,10|2,0:2|0:2,0:0:0:0:
448,85,226332,1,8,0:2:0:0:
264,13,226490,6,0,P|270:68|271:115,1,80,0|8,0:0|0:2,0:0:0:0:
227,161,226806,2,0,P|233:216|234:263,1,80,2|0,1:2|0:0,0:0:0:0:
377,272,227122,1,8,0:2:0:0:
295,309,227279,1,0,0:0:0:0:
392,271,227437,2,0,P|445:258|485:249,1,80,2|8,0:2|0:0,0:0:0:0:
469,252,227674,1,8,0:0:0:0:
470,252,227753,6,0,P|496:200|423:130,1,160,6|2,1:1|1:2,0:0:0:0:
231,333,228385,2,0,P|159:314|129:308,1,80,8|0,0:2|0:0,0:0:0:0:
22,361,228701,1,2,0:2:0:0:
148,321,228858,1,10,0:2:0:0:
13,194,229016,6,0,P|24:275|33:360,1,160,2|2,0:2|1:2,0:0:0:0:
103,383,229490,1,2,0:2:0:0:
178,241,229648,2,0,P|216:250|255:261,1,80,8|2,0:2|1:2,0:0:0:0:
445,286,229964,6,0,B|355:309|355:309|328:354|328:354|231:377,1,240,6|0,0:2|0:0,0:0:0:0:
236,376,230595,1,0,1:2:0:0:
236,376,230753,1,0,0:0:0:0:
95,296,230911,2,0,L|105:204,1,80,8|0,0:2|0:0,0:0:0:0:
20,332,231227,1,2,0:2:0:0:
20,332,231385,1,0,1:2:0:0:
177,265,231543,6,0,P|218:286|281:281,1,80,10|0,0:2|1:2,0:0:0:0:
316,240,231858,1,2,1:2:0:0:
152,145,232016,2,0,P|89:174|9:152,1,120,2|0,1:2|0:0,0:0:0:0:
25,160,232332,1,2,1:2:0:0:
102,302,232490,1,10,0:2:0:0:
102,302,232648,1,2,0:2:0:0:
230,203,232806,6,0,P|238:166|254:96,1,80,2|0,1:2|0:0,0:0:0:0:
174,57,233122,2,0,P|165:96|156:135,1,80,2|2,1:2|0:2,0:0:0:0:
321,190,233437,2,0,P|412:177|491:171,1,160,8|2,0:2|0:2,0:0:0:0:
508,249,233911,1,8,0:2:0:0:
446,369,234069,6,0,P|440:338|437:276,1,80,0|8,0:0|0:2,0:0:0:0:
486,165,234385,2,0,P|480:134|477:72,1,80,2|0,1:2|0:0,0:0:0:0:
262,25,234701,2,0,P|276:108|287:205,1,160,10|0,0:2|0:0,0:0:0:0:
214,249,235174,1,2,0:2:0:0:
101,156,235332,6,0,L|4:142,1,80,2|2,1:2|0:2,0:0:0:0:
156,91,235648,1,2,1:2:0:0:
156,91,235806,1,0,0:0:0:0:
214,249,235964,2,0,P|272:229|372:260,1,160,8|0,0:2|0:2,0:0:0:0:
439,211,236437,1,8,0:2:0:0:
495,278,236595,6,0,P|482:338|487:376,1,80,0|8,0:0|0:2,0:0:0:0:
444,202,236911,2,0,P|455:163|487:45,1,160,2|10,1:2|0:2,0:0:0:0:
486,47,237543,1,2,0:2:0:0:
389,78,237701,1,2,0:2:0:0:
389,78,237779,1,2,0:0:0:0:
389,78,237858,6,0,P|313:51|214:26,1,160,0|0,1:0|1:2,0:0:0:0:
222,121,238332,1,2,0:2:0:0:
120,25,238490,2,0,P|134:79|136:113,1,80,10|2,0:2|0:2,0:0:0:0:
86,181,238806,1,2,0:2:0:0:
233,118,238964,1,10,0:2:0:0:
81,190,239122,6,0,P|29:178|-3:172,1,80,2|8,0:2|0:2,0:0:0:0:
137,262,239437,2,0,P|189:250|221:244,1,80,2|0,1:2|0:0,0:0:0:0:
363,342,239753,2,0,P|415:330|447:324,1,80,10|0,0:2|0:0,0:0:0:0:
512,384,240069,1,2,0:2:0:0:
439,316,240227,1,2,0:2:0:0:
289,381,240385,6,0,P|245:337|135:366,1,160,4|0,1:2|1:2,0:0:0:0:
83,303,240858,1,0,0:0:0:0:
136,164,241016,2,0,P|142:232|147:258,1,80,10|0,0:2|0:0,0:0:0:0:
65,380,241332,2,0,P|70:340|73:300,1,80,2|0,0:2|1:2,0:0:0:0:
228,227,241648,5,8,0:2:0:0:
228,227,241806,1,0,1:2:0:0:
53,166,241964,1,2,1:1:0:0:
53,166,242122,1,0,1:2:0:0:
106,74,242279,2,0,P|139:96|139:165,1,80,10|0,0:2|1:2,0:0:0:0:
12,238,242595,5,10,0:2:0:0:
156,139,242753,1,10,0:1:0:0:
103,340,242911,6,0,P|168:351|259:372,1,160,4|2,1:1|1:2,0:0:0:0:
321,327,243385,1,0,0:0:0:0:
280,178,243543,2,0,P|261:226|257:271,1,80,10|0,0:2|0:0,0:0:0:0:
330,338,243858,1,2,0:2:0:0:
410,226,244016,2,0,P|453:244|484:269,1,80,8|0,0:2|0:0,0:0:0:0:
334,350,244332,1,8,0:2:0:0:
181,210,244490,2,0,P|141:220|64:252,1,120,2|0,1:2|0:0,0:0:0:0:
68,249,244806,6,0,P|59:209|93:151,1,80,10|0,0:2|0:0,0:0:0:0:
198,31,245122,2,0,P|184:86|180:127,1,80,2|8,0:2|0:2,0:0:0:0:
181,108,245358,1,8,0:2:0:0:
181,108,245437,6,0,P|237:94|365:82,1,160,0|2,1:2|1:2,0:0:0:0:
398,129,245911,1,0,0:0:0:0:
500,2,246069,2,0,P|484:48|479:86,1,80,10|0,0:2|0:0,0:0:0:0:
305,235,246385,2,0,P|311:195|325:158,1,80,2|8,0:2|0:2,0:0:0:0:
481,209,246701,6,0,P|431:225|395:247,1,80,0|8,0:0|0:2,0:0:0:0:
220,184,247016,2,0,P|170:200|134:222,1,80,2|0,1:2|0:0,0:0:0:0:
0,28,247332,2,0,P|55:35|94:129,1,160,10|2,0:2|0:2,0:0:0:0:
95,122,247727,1,0,0:0:0:0:
95,122,247806,1,2,0:0:0:0:
32,279,247964,6,0,P|22:208|-3:115,2,160,6|2|8,1:1|1:2|0:2,0:0:0:0:
32,279,248911,1,2,0:2:0:0:
32,279,249069,1,8,0:2:0:0:
110,381,249227,2,0,P|115:341|126:302,1,80,2|8,0:2|0:2,0:0:0:0:
8,199,249543,1,2,1:2:0:0:
124,103,249701,2,0,P|113:141|107:181,1,80,2|8,0:2|0:2,0:0:0:0:
176,222,250016,1,2,1:2:0:0:
248,7,250174,6,0,P|293:40|295:144,1,160,6|0,0:2|0:0,0:0:0:0:
221,147,250648,1,8,0:0:0:0:
320,232,250806,2,0,P|369:217|413:215,1,80,0|0,1:2|1:0,0:0:0:0:
214,143,251122,2,0,P|200:196|189:276,1,120,8|0,0:2|0:0,0:0:0:0:
190,260,251437,5,2,0:2:0:0:
107,206,251595,1,8,0:2:0:0:
77,357,251753,2,0,P|39:344|0:339,1,80,2|0,0:2|0:0,0:0:0:0:
275,298,252069,2,0,P|287:260|274:224,1,80,2|8,1:2|0:2,0:0:0:0:
273,223,252306,1,0,3:0:0:0:
273,223,252385,5,10,0:2:0:0:
147,140,252543,1,2,1:2:0:0:
197,270,252701,1,8,0:2:0:0:
249,101,252858,1,10,0:2:0:0:
197,270,253016,6,0,P|121:246|43:228,1,160,0|2,1:1|1:2,0:0:0:0:
7,158,253490,1,2,0:2:0:0:
47,17,253648,2,0,P|81:52|85:110,1,80,10|2,0:2|0:2,0:0:0:0:
6,164,253964,1,2,0:2:0:0:
120,317,254122,6,0,P|196:292|274:274,2,160,8|8|2,0:2|0:2|0:2,0:0:0:0:
257,182,254911,1,10,0:2:0:0:
137,212,255069,1,2,0:2:0:0:
288,286,255227,2,0,P|338:299|368:317,1,80,2|2,0:2|0:2,0:0:0:0:
362,312,255464,1,0,0:0:0:0:
362,312,255543,6,0,P|381:287|378:161,1,160,2|0,1:2|1:2,0:0:0:0:
324,113,256016,1,2,0:2:0:0:
477,73,256174,1,10,0:2:0:0:
477,73,256332,1,2,0:2:0:0:
417,0,256490,2,0,P|396:34|397:90,1,80,2|8,0:2|0:2,0:0:0:0:
483,219,256806,1,2,0:0:0:0:
381,174,256964,1,8,0:2:0:0:
468,304,257122,2,0,P|424:314|342:348,1,120,2|0,1:2|0:0,0:0:0:0:
354,341,257437,2,0,P|313:325|254:312,1,80,10|0,0:2|0:0,0:0:0:0:
167,368,257753,6,0,P|162:338|154:324,1,40,2|0,0:2|0:0,0:0:0:0:
203,267,257911,1,2,0:2:0:0:
203,267,257990,1,0,3:0:0:0:
203,267,258069,6,0,P|210:220|249:115,1,160,0|2,1:0|1:2,0:0:0:0:
200,55,258543,1,2,0:2:0:0:
8,91,258701,2,0,P|29:138|127:162,1,160,8|2,0:2|0:2,0:0:0:0:
200,186,259174,1,8,0:2:0:0:
89,281,259332,2,0,P|107:328|112:370,1,80,2|8,0:2|0:2,0:0:0:0:
207,189,259648,2,0,P|225:236|230:278,1,80,2|0,1:2|0:0,0:0:0:0:
122,170,259964,1,10,0:2:0:0:
122,170,260122,1,0,0:0:0:0:
309,250,260279,2,0,P|378:235|396:234,1,80,2|0,0:2|1:0,0:0:0:0:
387,234,260516,1,0,3:0:0:0:
387,234,260595,6,0,P|394:194|409:157,1,80,6|0,1:2|0:0,0:0:0:0:
355,101,260911,1,2,1:2:0:0:
355,101,261069,1,0,0:0:0:0:
491,254,261227,2,0,P|432:270|325:318,1,160,10|2,0:2|0:2,0:0:0:0:
188,248,261701,1,0,1:2:0:0:
249,363,261858,1,8,0:2:0:0:
182,240,262016,1,0,1:2:0:0:
249,363,262174,2,0,P|259:294|284:209,1,120,2|0,1:1|0:0,0:0:0:0:
325,183,262490,5,10,0:2:0:0:
159,104,262648,1,2,1:2:0:0:
283,60,262806,1,10,0:2:0:0:
199,7,262964,1,10,0:1:0:0:
199,7,263043,1,2,0:0:0:0:
199,7,263122,6,0,P|227:58|243:183,1,160,2|0,1:2|1:0,0:0:0:0:
166,171,263753,2,0,P|211:162|266:154,1,80,6|2,1:1|0:2,0:0:0:0:
123,258,264069,2,0,P|78:248|23:240,1,80,0|2,0:0|0:2,0:0:0:0:
287,368,264385,2,0,P|320:326|302:208,1,160,2|0,1:2|1:0,0:0:0:0:
313,224,265016,5,6,1:1:0:0:
198,305,265174,1,2,0:2:0:0:
402,271,265332,5,2,0:2:0:0:
244,156,265490,1,2,0:2:0:0:
415,267,265648,6,0,P|399:323|393:354,1,80,2|0,1:2|0:0,0:0:0:0:
235,145,265964,2,0,P|246:106|255:67,1,80,2|0,1:2|0:0,0:0:0:0:
336,135,266279,1,6,1:1:0:0:
336,135,266437,1,0,0:0:0:0:
156,87,266595,6,0,P|107:131|124:238,1,160,2|2,0:2|1:2,0:0:0:0:
46,278,267069,1,8,0:1:0:0:
237,362,267227,2,0,P|309:340|336:337,1,80,2|0,1:2|0:0,0:0:0:0:
144,349,267543,2,0,P|100:371|14:345,1,120,6|0,1:1|0:0,0:0:0:0:
21,352,267858,1,2,0:2:0:0:
21,352,268016,1,2,0:0:0:0:
249,188,268174,6,0,L|227:372,1,160,2|2,1:2|1:2,0:0:0:0:
317,343,268648,1,0,0:0:0:0:
317,343,268806,2,0,L|406:330,1,80,8|0,0:2|0:0,0:0:0:0:
467,384,269122,1,10,0:2:0:0:
512,241,269279,6,0,P|448:245|393:189,1,120,2|0,1:2|0:0,0:0:0:0:
397,205,269595,1,8,1:2:0:0:
302,212,269753,2,0,P|317:165|328:114,1,80,2|0,1:2|1:0,0:0:0:0:
213,37,270069,1,8,0:2:0:0:
213,37,270227,1,0,1:2:0:0:
138,92,270385,2,0,P|56:78|39:75,1,80,2|0,0:2|0:0,0:0:0:0:
95,168,270701,5,6,1:0:0:0:
95,168,270858,1,0,0:0:0:0:
237,130,271016,2,0,P|226:198|223:225,1,80,2|0,1:2|1:0,0:0:0:0:
286,281,271332,1,10,0:2:0:0:
286,281,271490,1,0,1:0:0:0:
117,384,271648,6,0,P|108:328|139:227,1,160,10|8,0:0|0:2,0:0:0:0:
136,230,272122,1,0,0:0:0:0:
333,340,272279,2,0,P|382:328|427:313,1,80,8|8,0:3|0:3,0:0:0:0:
217,179,272595,5,4,0:3:0:0:
328,356,272753,1,4,0:3:0:0:
437,240,272911,5,12,1:3:0:0:
210,173,273069,1,12,1:3:0:0:
307,131,273227,6,0,L|284:249,1,120.000004577637,2|0,3:2|0:0,0:0:0:0:
91,224,273858,2,0,L|67:341,1,120.000004577637,2|0,0:2|0:0,0:0:0:0:
31,70,274490,2,0,L|7:187,1,120.000004577637,0|0,3:2|0:0,0:0:0:0:
199,168,275122,2,0,L|175:285,1,120.000004577637,0|0,0:2|0:0,0:0:0:0:
360,39,275753,6,0,L|336:156,1,120.000004577637,2|0,0:2|0:0,0:0:0:0:
498,267,276385,2,0,L|474:384,1,120.000004577637,0|0,3:2|0:0,0:0:0:0:
259,108,277016,2,0,L|235:225,1,120.000004577637,2|0,3:2|0:0,0:0:0:0:
490,252,277648,2,0,L|466:369,1,120.000004577637,2|0,0:2|0:0,0:0:0:0:
390,307,278279,5,2,3:2:0:0:
315,345,278595,1,0,0:0:0:0:
260,282,278911,1,0,3:2:0:0:
302,203,279227,1,0,0:0:0:0:
302,203,279858,6,0,P|290:261|274:350,1,128
39,115,280806,5,2,3:2:0:0:
114,77,281122,1,0,0:0:0:0:
169,140,281437,1,0,0:0:0:0:
127,219,281753,1,0,0:0:0:0:
127,219,282385,6,0,P|115:277|99:366,1,128
335,80,283332,6,0,P|323:138|309:212,1,129.600003164063,2|0,0:2|0:0,0:0:0:0:
256,192,285382,12,0,286392,0:0:0:0:
256,192,286470,12,2,292214,0:0:0:0:
