osu file format v14

[General]
AudioFilename: audio.ogg
AudioLeadIn: 0
PreviewTime: 2034
Countdown: 0
SampleSet: Soft
StackLeniency: 0.7
Mode: 0
LetterboxInBreaks: 0
WidescreenStoryboard: 1

[Editor]
Bookmarks: 15586,29510,57104,147534
DistanceSpacing: 1.3
BeatDivisor: 3
GridSize: 32
TimelineZoom: 6.999995

[Metadata]
Title:Wah Wah
TitleUnicode:Wah Wah
Artist:King Gizzard & The Lizard Wizard
ArtistUnicode:King Gizzard & The Lizard Wizard
Creator:Wispy
Version:squirrelp's Infatuation
Source:
Tags:squirrelpascals a bat a_bat porgdeity kowari banger bonanza and english rock nonagon infinity alternative garage psychedelic krautrock stuart mackenzie kgatlw kglw track 8 #8
BeatmapID:3955178
BeatmapSetID:1899486

[Difficulty]
HPDrainRate:7
CircleSize:6
OverallDifficulty:9
ApproachRate:7.5
SliderMultiplier:1.8
SliderTickRate:1

[Events]
//Background and Video events
0,0,"pawel-czerwinski-8bbX_T-fQWI-unsplash.jpg",0,0
//Break Periods
//Storyboard Layer 0 (Background)
//Storyboard Layer 1 (Fail)
//Storyboard Layer 2 (Pass)
//Storyboard Layer 3 (Foreground)
//Storyboard Layer 4 (Overlay)
//Storyboard Sound Samples

[TimingPoints]
300,346.820809248555,5,2,0,80,1,0
2034,350.877192982456,5,2,0,80,1,0
2034,-86.9565217391304,5,2,0,80,0,1
2618,-100,5,2,0,80,0,0
3086,-133.333333333333,5,2,0,80,0,0
3437,-76.9230769230769,5,2,0,80,0,0
3788,-86.9565217391304,5,2,0,80,0,1
4373,-100,5,2,0,80,0,0
4841,-133.333333333333,5,2,0,80,0,0
5191,-76.9230769230769,5,2,0,80,0,0
5542,342.857142857143,5,2,0,80,1,0
5542,-66.6666666666667,5,2,0,80,0,1
6113,-117.647058823529,5,2,0,80,0,0
6570,-166.666666666667,5,2,0,80,0,0
7256,-66.6666666666667,5,2,0,80,0,1
7827,-117.647058823529,5,2,0,80,0,0
8284,-166.666666666667,5,2,0,80,0,0
8970,348.837209302326,5,2,0,80,1,0
8970,-86.9565217391304,5,2,0,80,0,1
9551,-100,5,2,0,80,0,0
10016,-133.333333333333,5,2,0,80,0,0
10365,-76.9230769230769,5,2,0,80,0,0
10714,344.827586206897,5,2,0,80,1,0
10714,-86.9565217391304,5,2,0,80,0,1
11288,-100,5,2,0,80,0,0
11748,-133.333333333333,5,2,0,80,0,0
12093,-76.9230769230769,5,2,0,80,0,0
12438,-66.6666666666667,5,2,0,80,0,1
13012,-117.647058823529,5,2,0,80,0,0
13472,-166.666666666667,5,2,0,80,0,0
14162,-166.666666666667,5,2,0,80,0,1
14277,-166.666666666667,5,2,0,80,0,0
14507,-166.666666666667,5,2,0,80,0,1
14622,-166.666666666667,5,2,0,80,0,0
14851,-166.666666666667,5,2,0,80,0,1
14966,-166.666666666667,5,2,0,80,0,0
15196,-166.666666666667,5,2,0,80,0,1
15311,-166.666666666667,5,2,0,80,0,0
15541,-500,5,2,0,80,0,1
15886,352.941176470589,5,2,0,60,1,0
15886,-250,5,2,0,60,0,0
19415,335.195530726257,5,2,0,60,1,0
19582,-133.333333333333,5,2,0,60,0,0
21090,344.827586206897,5,2,0,60,1,0
21090,-250,5,2,0,60,0,0
22814,350.877192982457,5,2,0,70,1,0
22814,-166.666666666667,5,2,0,70,0,0
23515,-250,5,2,0,70,0,0
24568,-166.666666666667,5,2,0,70,0,0
25270,-250,5,2,0,70,0,0
26322,348.837209302326,5,2,0,70,1,0
26322,-166.666666666667,5,2,0,70,0,0
27019,-250,5,2,0,70,0,0
28066,-166.666666666667,5,2,0,70,0,0
29461,-333.333333333334,5,2,0,70,0,0
29810,346.820809248555,5,2,0,60,1,0
29810,-133.333333333333,5,2,0,60,0,0
30850,-266.666666666667,5,2,0,60,0,0
31544,-100,5,2,0,60,0,0
32122,-133.333333333333,5,2,0,60,0,0
32584,-266.666666666667,5,2,0,60,0,0
33278,344.827586206897,5,2,0,60,1,0
33278,-133.333333333333,5,2,0,60,0,0
34312,-266.666666666667,5,2,0,60,0,0
35002,-100,5,2,0,60,0,0
35576,-133.333333333333,5,2,0,60,0,0
36036,-263.157894736842,5,2,0,60,0,0
36726,344.817677652941,5,2,0,60,1,0
36726,-200,5,2,0,60,0,0
37760,-400,5,2,0,60,0,0
38450,-200,5,2,0,60,0,0
39484,-400,5,2,0,60,0,0
40174,-200,5,2,0,60,0,0
41208,-400,5,2,0,60,0,0
43622,-133.333333333333,5,2,0,60,0,0
44656,-263.157894736842,5,2,0,60,0,0
45346,-100,5,2,0,60,0,0
45920,-133.333333333333,5,2,0,60,0,0
46380,-263.157894736842,5,2,0,60,0,0
47070,-133.333333333333,5,2,0,60,0,0
48104,-263.157894736842,5,2,0,60,0,0
48794,-100,5,2,0,60,0,0
49369,-133.333333333333,5,2,0,60,0,0
49828,-263.157894736842,5,2,0,60,0,0
50518,345.323741007194,5,2,0,60,1,0
50518,-200,5,2,0,60,0,0
51552,-400,5,2,0,60,0,0
52242,-200,5,2,0,60,0,0
53277,-400,5,2,0,60,0,0
53966,-200,5,2,0,60,0,0
55001,-666.666666666667,5,2,0,60,0,0
55697,-666.666666666667,5,2,0,60,0,1
55812,-666.666666666667,5,2,0,70,0,0
56043,-100,5,2,0,70,0,1
56158,-100,5,2,0,70,0,0
56388,-100,5,2,0,70,0,1
56503,-100,5,2,0,70,0,0
56733,335.664335664336,5,2,0,70,1,0
56733,-200,5,2,0,70,0,1
56844,-200,5,2,0,70,0,0
57068,-200,5,2,0,70,0,1
57180,-200,5,2,0,70,0,0
57404,356.083086053412,5,2,0,70,1,0
57404,-166.666666666667,5,2,0,70,0,1
60964,359.281437125748,5,2,0,70,1,0
60964,-100,5,2,0,70,0,1
62401,-100,5,2,0,70,0,0
62761,335.195530726257,5,2,0,70,1,0
63766,348.33091436865,5,2,0,70,1,0
64114,-250,5,2,0,70,0,0
64462,359.281437125748,5,2,0,80,1,0
64462,-86.9565217391304,5,2,0,80,0,1
65060,-100,5,2,0,80,0,0
65539,-133.333333333333,5,2,0,80,0,0
65899,-76.9230769230769,5,2,0,80,0,0
66258,346.820809248555,5,2,0,80,1,0
66258,-86.9565217391304,5,2,0,80,0,1
66836,-100,5,2,0,80,0,0
67298,-133.333333333333,5,2,0,80,0,0
67645,-76.9230769230769,5,2,0,80,0,0
67992,344.827586206897,5,2,0,80,1,0
67992,-66.6666666666667,5,2,0,80,0,1
68566,-117.647058823529,5,2,0,80,0,0
69026,-166.666666666667,5,2,0,80,0,0
69716,-66.6666666666667,5,2,0,80,0,1
70290,-117.647058823529,5,2,0,80,0,0
70750,-166.666666666667,5,2,0,80,0,0
71440,-86.9565217391304,5,2,0,80,0,1
72014,-100,5,2,0,80,0,0
72474,-133.333333333333,5,2,0,80,0,0
72819,-76.9230769230769,5,2,0,80,0,0
73164,-86.9565217391304,5,2,0,80,0,1
73739,-100,5,2,0,80,0,0
74198,-133.333333333333,5,2,0,80,0,0
74543,-74.0740740740741,5,2,0,80,0,0
74888,-66.6666666666667,5,2,0,80,0,1
75463,-117.647058823529,5,2,0,80,0,0
75923,-166.666666666667,5,2,0,80,0,0
76612,350.877192982456,5,2,0,80,1,1
76728,-100,5,2,0,80,0,0
76962,-100,5,2,0,80,0,1
77079,-100,5,2,0,80,0,0
77313,-100,5,2,0,80,0,1
77430,-100,5,2,0,80,0,0
77664,-100,5,2,0,80,0,1
77781,-100,5,2,0,80,0,0
78015,-100,5,2,0,80,0,1
78132,-100,5,2,0,80,0,0
78366,348.837209302326,5,2,0,60,1,0
78366,-133.333333333333,5,2,0,60,0,0
79412,-266.666666666667,5,2,0,60,0,0
80110,-100,5,2,0,60,0,0
80691,-133.333333333333,5,2,0,60,0,0
81156,-266.666666666667,5,2,0,60,0,0
81854,340.909090909091,5,2,0,60,1,0
82876,-266.666666666667,5,2,0,60,0,0
83558,-100,5,2,0,60,0,0
84126,-133.333333333333,5,2,0,60,0,0
84581,-266.666666666667,5,2,0,60,0,0
85263,342.172797262618,5,2,0,60,1,0
85263,-200,5,2,0,60,0,0
86289,-400,5,2,0,60,0,0
86973,-200,5,2,0,60,0,0
88000,-400,5,2,0,60,0,0
88684,-200,5,2,0,60,0,0
89711,-400,5,2,0,60,0,0
90395,352.941176470588,5,2,0,60,1,0
92159,344.827586206897,5,2,0,60,1,0
92159,-133.333333333333,5,2,0,60,0,0
93193,-266.666666666667,5,2,0,60,0,0
93883,-100,5,2,0,60,0,0
94457,-133.333333333333,5,2,0,60,0,0
94917,-266.666666666667,5,2,0,60,0,0
95607,-132.450331125828,5,2,0,60,0,0
96641,-266.666666666667,5,2,0,60,0,0
97331,343.613091658792,5,2,0,60,1,0
97903,-133.333333333333,5,2,0,60,0,0
99049,-200,5,2,0,60,0,0
100079,-400,5,2,0,60,0,0
100767,-200,5,2,0,60,0,0
101795,-400,5,2,0,60,0,0
102473,-200,5,2,0,60,0,0
104203,-200,5,2,0,60,0,1
104317,-200,5,2,0,60,0,0
104546,-100,5,2,0,60,0,1
104661,-100,5,2,0,60,0,0
104890,-100,5,2,0,60,0,1
105005,-100,5,2,0,60,0,0
105234,-100,5,2,0,60,0,1
105348,-100,5,2,0,60,0,0
105577,-200,5,2,0,60,0,1
105692,-200,5,2,0,60,0,0
105921,359.281437125748,5,2,0,70,1,0
105921,-166.666666666667,4,2,0,70,0,1
107717,349.548499854355,5,2,0,70,1,1
107717,-166.666666666667,4,2,0,70,0,1
109464,352.941176470588,5,2,0,70,1,1
111228,350.877192982457,5,2,0,70,1,1
111228,-166.666666666667,4,2,0,70,0,1
112631,-133.333333333333,4,2,0,70,0,1
112982,357.142857142858,5,2,0,70,1,0
112982,-166.666666666667,4,2,0,70,0,1
114767,352.941176470589,5,2,0,70,1,0
114767,-165.837479270315,4,2,0,70,0,1
116531,352.941176470589,5,2,0,70,1,0
116531,-166.666666666667,4,2,0,70,0,1
118295,350.877192982457,5,2,0,70,1,0
119698,-100,5,2,0,70,0,1
119815,-100,5,2,0,70,0,0
120049,348.837209302326,5,2,0,80,1,0
120049,-86.9565217391304,5,2,0,80,0,1
120630,-100,5,2,0,80,0,0
121095,-133.333333333333,5,2,0,80,0,0
121444,-76.9230769230769,5,2,0,80,0,0
121793,-86.9565217391304,5,2,0,80,0,1
122374,-100,5,2,0,80,0,0
122839,-133.333333333333,5,2,0,80,0,0
123188,-76.9230769230769,5,2,0,80,0,0
123537,346.820809248555,5,2,0,80,1,0
123537,-66.6666666666667,5,2,0,80,0,1
124115,-117.647058823529,5,2,0,80,0,0
124577,-166.666666666667,5,2,0,80,0,0
125271,-66.6666666666667,5,2,0,80,0,1
125849,-117.647058823529,5,2,0,80,0,0
126658,-666.666666666667,5,2,0,80,0,0
127005,344.827586206897,5,2,0,80,1,0
127005,-86.9565217391304,5,2,0,80,0,1
127579,-100,5,2,0,80,0,0
128039,-133.333333333333,5,2,0,80,0,0
128384,-76.9230769230769,5,2,0,80,0,0
128729,342.857142857143,5,2,0,80,1,0
128729,-86.9565217391304,5,2,0,80,0,1
129300,-100,5,2,0,80,0,0
129757,-133.333333333333,5,2,0,80,0,0
130100,-76.9230769230769,5,2,0,80,0,0
130443,337.078651685393,5,2,0,80,1,0
130443,-66.6666666666667,5,2,0,80,0,1
131004,-120.481927710843,5,2,0,80,0,0
131454,-166.666666666667,5,2,0,80,0,0
132128,350.877192982456,5,2,0,80,1,0
133882,348.837209302326,5,2,0,70,1,0
133882,-166.666666666667,5,2,0,70,0,0
134579,-250,5,2,0,70,0,0
135626,-166.666666666667,5,2,0,70,0,0
136323,-250,5,2,0,70,0,0
137370,-166.666666666667,5,2,0,70,0,0
138068,-250,5,2,0,70,0,0
139114,-166.666666666667,5,2,0,70,0,0
140161,-250,5,2,0,70,0,0
140509,-666.666666666667,5,2,0,70,0,0
140858,-166.666666666667,5,2,0,70,0,0
141556,-250,5,2,0,70,0,0
142602,346.820809248555,5,2,0,70,1,0
142602,-166.666666666667,5,2,0,70,0,0
143295,-250,5,2,0,70,0,0
144336,-166.666666666667,5,2,0,70,0,0
145029,-250,5,2,0,70,0,0
145723,-666.666666666667,5,2,0,70,0,0
146070,352.941176470588,5,2,0,70,1,0
146070,-166.666666666667,5,2,0,70,0,0
147011,-111.111111111111,5,2,0,70,0,0
147834,348.837209302326,5,2,0,50,1,0
147834,-333.333333333333,5,2,0,50,0,0
149578,352.941176470589,5,2,0,50,1,0
149578,-333.333333333333,5,2,0,50,0,0
151342,350.877192982457,5,2,0,50,1,0
151342,-333.333333333333,5,2,0,50,0,0
153096,355.029585798816,5,2,0,50,1,0
153096,-328.947368421053,5,2,0,50,0,0
156646,350.877192982456,5,2,0,70,1,0
157698,-666.666666666667,5,2,0,70,0,0
160505,346.820809248555,5,2,0,70,1,1
160620,-100,5,2,0,70,0,0
160851,-100,5,2,0,70,0,1
160967,-100,5,2,0,70,0,0
161198,-100,5,2,0,70,0,1
161314,-100,5,2,0,70,0,0
161545,-100,5,2,0,70,0,1
161661,-100,5,2,0,70,0,0
161892,350.877192982456,5,2,0,70,1,0
161892,-200,5,2,0,70,0,1
162008,-200,5,2,0,70,0,0
162242,358.208955223881,5,2,0,70,1,0
162242,-166.666666666667,5,2,0,70,0,1
163674,-166.666666666667,5,2,0,70,0,1
164033,-166.666666666667,5,2,0,70,0,1
165465,-166.666666666667,5,2,0,70,0,1
165824,360.36036036036,5,2,0,70,1,1
167625,352.941176470588,5,2,0,70,1,0
167625,-166.666666666667,5,2,0,70,0,1
169036,368.098159509202,5,2,0,70,1,0
169036,-166.666666666667,5,2,0,70,0,0
169438,355.029585798816,5,2,0,70,1,0
169438,-133.333333333333,5,2,0,70,0,1
171213,361.44578313253,5,2,0,70,1,0
171213,-165.700082850041,5,2,0,70,0,1
173020,357.142857142857,5,2,0,70,1,1
174567,-100,5,2,0,5,0,0

[Colours]
Combo1 : 221,221,221
Combo2 : 250,143,80
Combo3 : 57,96,168
SliderTrackOverride : 133,52,21

[HitObjects]
0,167,300,5,0,1:0:0:0:
9,164,415,1,0,1:0:0:0:
17,165,531,1,0,1:0:0:0:
78,189,646,5,0,1:0:0:0:
87,191,762,1,0,1:0:0:0:
95,189,878,1,0,1:0:0:0:
156,166,993,5,0,1:0:0:0:
165,163,1109,1,0,1:0:0:0:
173,164,1224,1,0,1:0:0:0:
229,198,1340,5,12,2:3:0:0:
233,201,1456,1,8,2:3:0:0:
237,205,1571,1,8,2:3:0:0:
242,209,1687,1,12,2:3:0:0:
246,213,1802,1,4,2:3:0:0:
251,217,1918,1,4,2:3:0:0:
308,255,2034,6,0,P|352:268|334:150,1,207.000003948212,4|2,1:0|3:0,2:0:0:0:
430,172,2618,5,0,1:0:0:0:
365,167,2735,2,0,P|339:130|343:43,1,120,4|0,2:3|3:0,2:0:0:0:
377,1,3086,6,0,P|386:33|322:51,1,90.0000034332277,4|0,2:3|2:0,2:0:0:0:
315,124,3437,6,0,P|242:139|201:216,1,155.999992858887,0|2,1:0|3:0,2:0:0:0:
134,288,3788,6,0,P|105:233|214:230,1,207.000003948212,0|0,1:0|3:0,2:0:0:0:
134,224,4373,5,0,1:0:0:0:
82,261,4490,2,0,P|49:203|62:130,1,120,4|0,2:3|2:0,2:0:0:0:
75,97,4841,6,0,P|40:108|58:167,1,90.0000034332277,4|0,2:3|3:0,2:0:0:0:
134,224,5191,6,0,P|207:255|257:318,1,155.999992858887,0|0,1:0|2:0,2:0:0:0:
231,384,5542,6,0,P|346:343|312:176,1,270.000010299683,4|2,1:2|3:0,2:0:0:0:
256,274,6113,6,0,P|257:319|345:363,1,153.000002918243,0|0,1:0|2:0,2:0:0:0:
405,324,6570,6,0,P|423:310|421:255,1,71.9999978027344,4|2,2:3|3:0,2:0:0:0:
388,207,6913,2,0,P|370:221|372:276,1,71.9999978027344,2|0,1:2|2:0,2:0:0:0:
427,264,7256,6,0,P|318:256|378:105,1,270.000010299683,4|2,1:2|3:0,2:0:0:0:
340,5,7827,6,0,P|361:61|323:149,1,153.000002918243,0|0,1:0|2:0,2:0:0:0:
431,50,8284,6,0,P|409:51|389:96,1,71.9999978027344,4|8,2:3|2:3,2:0:0:0:
324,122,8627,2,0,P|295:104|311:58,1,71.9999978027344,12|8,1:3|2:3,2:0:0:0:
198,0,8970,6,0,P|198:97|106:94,1,207.000003948212,4|0,1:0|2:0,2:0:0:0:
136,94,9551,5,0,1:0:0:0:
198,125,9667,2,0,P|239:83|301:69,1,120,8|0,2:3|3:0,2:0:0:0:
263,177,10016,6,0,P|254:142|184:145,1,90.0000034332277,4|0,2:3|2:0,2:0:0:0:
136,94,10365,6,0,P|72:157|137:240,1,155.999992858887,0|4,1:0|2:3,2:0:0:0:
141,280,10714,6,0,P|155:193|68:226,1,207.000003948212,0|0,1:0|3:0,2:0:0:0:
143,290,11288,5,0,1:0:0:0:
204,256,11403,2,0,P|244:268|306:348,1,120,0|0,3:0|2:0,2:0:0:0:
188,358,11748,6,0,P|157:350|167:277,1,90.0000034332277,4|0,2:3|2:0,2:0:0:0:
201,246,12093,6,0,P|235:296|346:317,1,155.999992858887,0|4,1:0|2:3,2:0:0:0:
423,205,12438,6,0,P|330:232|345:404,1,270.000010299683,4|0,1:2|3:0,2:0:0:0:
441,321,13012,6,0,P|435:233|375:229,1,153.000002918243,0|0,1:0|2:0,2:0:0:0:
470,245,13472,6,0,P|504:234|515:192,1,71.9999978027344,8|4,2:3|2:3,2:0:0:0:
500,135,13817,2,0,P|466:146|455:188,1,71.9999978027344,0|0,1:0|2:0,2:0:0:0:
385,139,14162,5,0,1:0:0:0:
377,136,14277,1,0,1:0:0:0:
372,132,14392,1,0,1:0:0:0:
331,73,14507,5,0,1:0:0:0:
324,70,14622,1,0,1:0:0:0:
316,70,14736,1,0,1:0:0:0:
269,127,14851,5,0,1:0:0:0:
272,134,14966,1,0,1:0:0:0:
273,141,15081,1,0,1:0:0:0:
230,195,15196,5,12,2:3:0:0:
224,199,15311,5,8,2:3:0:0:
220,205,15426,5,8,2:3:0:0:
212,217,15541,6,0,P|232:224|239:231,1,24,12|4,2:3|2:3,2:0:0:0:
189,283,15886,6,2,B|155:294|98:260|113:225|86:170|-17:116|-125:290|-16:381|73:347|117:328|149:296|184:297|243:316|243:316|244:305|244:305|262:313|267:325|267:325|279:322|279:322|287:328|293:345|293:345|303:344|303:344|310:367|288:384,1,648,4|0,1:0|1:0,2:1:0:0:
427,318,19415,5,4,2:3:0:0:
411,287,19582,2,0,L|417:374,1,67.5000025749208,0|0,3:0|2:0,2:0:0:0:
473,253,19973,6,0,B|489:222|489:222|473:28|473:28|452:77|452:77|466:122,1,315.000012016297,0|0,1:0|1:0,2:0:0:0:
416,208,21090,6,0,B|415:194|404:181|347:178|282:231|277:323,1,216,4|4,2:3|2:3,2:0:0:0:
313,367,22469,1,0,1:0:0:0:
128,330,22814,6,2,B|47:360|47:360|19:354,1,107.999996704102,6|0,2:1|2:0,2:1:0:0:
84,164,23398,1,2,1:0:0:0:
100,235,23515,2,0,L|91:154,2,72,0|4|0,3:0|2:3|1:0,2:0:0:0:
159,253,24568,6,2,B|180:258|180:258|284:203,1,107.999996704102,6|0,2:1|2:0,2:1:0:0:
295,61,25153,1,2,1:0:0:0:
360,81,25270,2,0,L|272:66,2,72,0|4|0,3:0|2:3|1:0,2:0:0:0:
412,35,26322,6,2,B|430:45|430:45|447:144,1,107.999996704102,6|0,2:1|3:0,2:1:0:0:
434,294,26903,1,2,1:0:0:0:
489,286,27019,2,2,L|426:295,1,48,0|0,3:0|2:0,2:1:0:0:
395,338,27368,6,0,L|318:328,1,72,4|0,2:3|1:0,2:0:0:0:
169,274,28066,6,0,B|187:255|187:255|233:262|233:262|319:167,1,179.999994506836,12|0,2:3|1:0,2:0:0:0:
348,57,28996,5,0,1:0:0:0:
377,105,29112,1,8,2:3:0:0:
376,99,29228,1,0,3:0:0:0:
375,93,29345,1,4,1:3:0:0:
374,87,29461,6,0,L|377:36,1,35.9999989013672,8|0,2:3|1:0,2:0:0:0:
301,6,29810,6,0,P|232:45|205:122,1,135.000005149842,12|0,2:3|3:0,2:0:0:0:
153,121,30388,2,0,L|142:177,1,45.0000017166138,0|8,1:0|2:3,2:0:0:0:
206,89,30734,5,4,3:0:0:0:
153,128,30850,2,0,L|157:190,1,45.0000017166138,4|0,2:3|2:0,2:0:0:0:
116,227,31197,6,0,L|111:292,1,45.0000017166138,0|0,1:0|2:0,2:0:0:0:
238,384,31544,6,0,P|299:319|321:232,1,180,4|0,2:3|2:0,2:0:0:0:
337,143,32122,6,0,P|302:210|317:308,1,135.000005149842,0|4,1:0|2:3,2:0:0:0:
399,302,32584,6,0,L|351:314,1,45.0000017166138,4|0,2:3|2:0,2:0:0:0:
451,345,32931,6,0,L|503:357,1,45.0000017166138,0|0,1:0|2:0,2:0:0:0:
512,178,33278,6,0,P|515:113|461:79,1,135.000005149842,4|0,2:3|2:0,2:0:0:0:
401,78,33852,2,0,L|393:14,1,45.0000017166138,0|8,1:0|2:3,2:0:0:0:
459,69,34197,5,0,3:0:0:0:
395,21,34312,2,0,L|372:75,1,45.0000017166138,4|0,2:3|2:0,2:0:0:0:
309,85,34657,6,0,L|257:98,1,45.0000017166138,0|0,1:3|2:0,2:0:0:0:
129,161,35002,6,0,P|122:247|208:295,1,180,4|0,2:3|2:0,2:0:0:0:
258,279,35576,6,0,P|184:287|127:349,1,135.000005149842,0|8,1:0|2:3,2:0:0:0:
47,366,36036,6,0,L|-15:378,1,45.5999994433594,4|0,2:3|2:0,2:0:0:0:
10,221,36381,6,0,L|19:176,1,45.5999994433594,0|0,1:3|2:0,2:0:0:0:
48,119,36726,6,0,P|47:86|17:26,1,90,4|0,2:3|2:0,2:0:0:0:
81,12,37300,2,0,L|131:-5,1,30,0|0,1:0|2:0,2:0:0:0:
19,33,37645,5,8,2:3:0:0:
85,17,37760,2,0,L|129:22,1,30,12|0,2:3|2:3,2:3:0:0:
117,149,38105,6,0,L|86:141,1,30,0|0,1:0|2:0,2:0:0:0:
202,113,38450,6,0,B|208:101|208:87|208:87|247:143|306:155,1,150,4|0,2:3|1:0,2:0:0:0:
310,149,39369,5,8,2:3:0:0:
378,169,39484,2,0,L|390:133,1,30,4|0,2:3|2:0,2:0:0:0:
269,70,39829,6,0,L|259:98,1,30,0|0,1:0|2:0,2:0:0:0:
301,231,40174,6,0,B|306:279|334:302|368:296|376:358,1,150,4|0,2:3|1:0,2:0:0:0:
319,372,41093,1,4,2:3:0:0:
381,295,41208,6,0,L|428:292,1,45,4|0,2:3|1:0,2:0:0:0:
431,296,41898,1,4,2:3:0:0:
254,377,42243,5,0,1:0:0:0:
246,379,42472,1,8,2:3:0:0:
66,347,42817,5,0,1:0:0:0:
127,355,42932,5,8,1:3:0:0:
125,346,43047,1,8,1:3:0:0:
123,336,43162,1,4,1:3:0:0:
121,328,43277,1,12,2:3:0:0:
151,236,43507,5,4,2:3:0:0:
150,226,43622,2,0,P|152:171|68:150,1,135.000005149842,4|0,1:2|2:0,2:0:0:0:
29,110,44197,2,0,L|22:154,1,45.0000017166138,0|4,1:0|2:3,2:0:0:0:
88,146,44541,5,8,2:3:0:0:
22,159,44656,2,0,L|10:105,1,45.5999994433594,4|0,2:3|2:0,2:0:0:0:
59,55,45001,6,0,L|68:10,1,45.5999994433594,0|0,1:0|2:0,2:0:0:0:
237,7,45346,6,0,P|288:91|362:140,1,180,4|0,2:3|3:0,2:0:0:0:
396,67,45921,6,0,P|330:97|361:160,1,135.000005149842,0|8,1:0|2:3,2:0:0:0:
385,198,46380,6,0,L|436:202,1,45.5999994433594,4|0,2:3|2:0,2:0:0:0:
431,268,46725,6,0,L|458:328,1,45.5999994433594,0|0,1:0|2:0,2:0:0:0:
227,374,47070,6,0,P|233:298|284:217,1,135.000005149842,4|0,2:3|2:0,2:0:0:0:
231,184,47645,2,0,L|176:166,1,45.0000017166138,0|8,1:0|2:3,2:0:0:0:
250,242,47990,5,4,2:3:0:0:
230,178,48104,2,0,L|218:133,1,45.5999994433594,4|0,2:3|2:0,2:0:0:0:
194,21,48449,6,0,L|188:83,1,45.5999994433594,0|0,1:0|2:0,2:0:0:0:
82,205,48794,6,0,P|52:302|-11:363,1,180,4|0,2:3|2:0,2:0:0:0:
71,384,49369,6,0,P|74:317|141:316,1,135.000005149842,0|0,1:0|2:0,2:0:0:0:
168,360,49829,6,0,L|226:371,1,45.5999994433594,4|0,2:3|2:0,2:0:0:0:
300,275,50173,6,0,L|353:270,1,45.5999994433594,0|0,1:0|2:0,2:0:0:0:
391,330,50518,6,0,B|413:286|488:342|513:257,1,150,4|0,2:3|1:0,2:0:0:0:
512,256,51438,1,8,2:3:0:0:
445,243,51553,6,0,L|404:236,1,30,4|0,2:3|2:0,2:0:0:0:
450,341,51899,6,0,L|479:346,1,30,0|0,1:0|2:0,2:0:0:0:
344,275,52244,6,0,P|318:219|279:194,1,90,4|0,2:3|2:0,2:0:0:0:
233,210,52820,1,0,1:0:0:0:
297,194,53165,5,0,3:0:0:0:
228,211,53280,2,0,L|195:201,1,30,4|0,2:3|2:0,2:0:0:0:
292,104,53625,6,0,L|311:143,1,30,0|0,1:0|2:0,2:0:0:0:
152,105,53971,6,0,P|144:56|238:20,1,150,4|0,2:3|1:0,2:0:0:0:
66,87,54892,5,8,2:3:0:0:
63,147,55007,2,0,L|62:174,1,26.9999991760254,4|0,2:3|1:0,2:0:0:0:
39,357,55697,5,0,1:0:0:0:
46,350,55812,1,0,1:0:0:0:
54,347,55928,1,0,1:0:0:0:
117,330,56043,5,0,1:0:0:0:
125,325,56158,1,0,1:0:0:0:
131,320,56273,1,0,1:0:0:0:
157,260,56388,5,2,1:2:0:0:
162,251,56503,1,0,1:0:0:0:
169,247,56618,1,0,1:0:0:0:
235,223,56733,6,0,L|262:196,2,30,8|0|8,2:3|2:0|2:3,2:0:0:0:
246,222,57068,6,0,L|289:209,2,30,4|0|4,2:3|2:0|2:3,2:0:0:0:
237,117,57404,6,2,B|218:81|218:81|340:136|340:136|352:127|352:127|475:210|475:210|474:223|474:223|487:317,1,431.999986816407,6|6,1:0|1:0,2:1:0:0:
180,383,59184,6,2,B|162:349|162:349|86:307|86:307|55:112|55:112|64:96|64:96|73:4,1,431.999986816407,6|6,1:0|1:0,2:1:0:0:
129,148,60964,6,2,B|109:112|109:112|17:39|17:39|514:326,1,720,6|10,1:0|1:3,2:1:0:0:
498,240,62760,5,0,1:0:0:0:
489,241,62872,1,0,1:0:0:0:
483,244,62984,1,0,1:0:0:0:
440,294,63096,5,0,1:0:0:0:
434,297,63207,1,0,1:0:0:0:
426,298,63319,1,0,1:0:0:0:
362,296,63431,5,0,1:0:0:0:
353,298,63543,1,0,1:0:0:0:
347,301,63654,1,8,2:3:0:0:
307,351,63766,5,8,1:3:0:0:
301,352,63882,5,4,2:3:0:0:
295,353,63998,5,4,1:3:0:0:
289,349,64114,6,0,L|280:381,2,24,4|4|4,2:3|2:3|2:3,2:0:0:0:
142,359,64462,6,0,P|147:254|245:236,1,207.000003948212,4|2,1:0|3:0,2:0:0:0:
160,304,65060,5,0,1:0:0:0:
117,251,65180,2,0,P|121:209|40:181,1,120,4|0,2:3|3:0,2:0:0:0:
89,117,65539,6,0,P|65:115|72:175,1,90.0000034332277,4|0,2:3|2:0,2:0:0:0:
115,221,65899,6,0,P|166:189|162:79,1,155.999992858887,0|2,1:0|3:0,2:0:0:0:
224,152,66258,6,0,P|226:54|330:29,1,207.000003948212,4|2,1:0|3:0,2:0:0:0:
261,0,66836,5,0,1:0:0:0:
318,39,66951,2,0,P|361:88|366:148,1,120,4|0,2:3|3:0,2:0:0:0:
419,193,67298,6,0,P|422:157|361:157,1,90.0000034332277,4|0,2:3|3:0,2:0:0:0:
512,86,67645,6,0,P|483:90|450:205,1,155.999992858887,0|0,1:0|2:0,2:0:0:0:
454,295,67992,6,0,P|356:285|385:141,1,270.000010299683,4|2,1:2|3:0,2:0:0:0:
350,202,68566,6,0,P|266:232|226:280,1,153.000002918243,0|0,1:0|2:0,2:0:0:0:
267,327,69026,6,0,P|270:302|235:275,1,71.9999978027344,4|2,2:3|3:0,2:0:0:0:
192,329,69371,2,0,P|170:350|183:391,1,71.9999978027344,2|0,1:2|2:0,2:0:0:0:
267,327,69716,6,0,P|217:347|214:183,1,270.000010299683,4|2,1:2|3:0,2:0:0:0:
159,260,70290,6,0,P|110:207|10:174,1,153.000002918243,0|0,1:0|2:0,2:0:0:0:
35,119,70750,6,0,P|58:133|43:179,1,71.9999978027344,4|8,2:3|2:3,2:0:0:0:
4,207,71095,2,0,P|-2:243|30:257,1,71.9999978027344,12|8,1:3|2:3,2:0:0:0:
96,271,71440,6,0,P|116:281|144:163,1,207.000003948212,4|0,1:0|2:0,2:0:0:0:
216,208,72014,5,0,1:0:0:0:
155,176,72129,2,0,P|151:122|205:119,1,120,8|0,2:3|3:0,2:0:0:0:
221,205,72474,6,0,P|222:257|282:281,1,90.0000034332277,4|0,2:3|2:0,2:0:0:0:
354,267,72819,6,0,P|286:275|311:362,1,155.999992858887,0|4,1:0|2:3,2:0:0:0:
424,384,73164,6,0,P|338:275|340:173,1,207.000003948212,4|0,1:0|2:0,2:0:0:0:
354,267,73739,5,0,1:0:0:0:
399,321,73854,2,0,P|433:318|457:242,1,120,8|0,2:3|3:0,2:0:0:0:
377,183,74198,6,0,P|352:211|354:261,1,90.0000034332277,4|0,2:3|2:0,2:0:0:0:
471,242,74543,6,0,P|402:177|415:89,1,162.000000617981,0|4,1:0|2:3,2:0:0:0:
466,156,74888,6,0,P|386:71|213:19,1,270.000010299683,4|0,1:2|3:0,2:0:0:0:
322,5,75463,6,0,P|270:74|163:93,1,153.000002918243,0|0,1:0|2:0,2:0:0:0:
286,166,75923,6,0,P|294:129|259:106,1,71.9999978027344,8|4,2:3|2:3,2:0:0:0:
210,88,76267,2,0,P|179:55|184:26,1,71.9999978027344,0|0,1:0|2:0,2:0:0:0:
80,4,76612,5,0,1:0:0:0:
86,13,76728,1,0,1:0:0:0:
88,24,76845,1,0,1:0:0:0:
120,86,76962,5,0,1:0:0:0:
126,95,77079,1,0,1:0:0:0:
128,106,77196,1,0,1:0:0:0:
92,173,77313,5,0,1:0:0:0:
98,182,77430,1,0,1:0:0:0:
100,193,77547,1,0,1:0:0:0:
118,260,77664,5,12,2:3:0:0:
115,262,77781,1,8,2:3:0:0:
112,264,77898,1,8,2:3:0:0:
109,266,78015,1,12,2:3:0:0:
106,268,78132,1,4,2:3:0:0:
103,271,78249,1,4,2:3:0:0:
33,282,78366,6,0,P|80:293|147:362,1,135.000005149842,4|0,1:0|3:0,2:0:0:0:
201,375,78947,2,0,L|207:297,1,45.0000017166138,0|8,1:0|2:3,2:0:0:0:
145,347,79296,5,4,3:0:0:0:
211,316,79412,2,0,L|214:360,1,45.0000017166138,4|0,2:3|2:0,2:0:0:0:
293,300,79761,6,0,L|322:255,1,45.0000017166138,0|0,1:0|2:0,2:0:0:0:
507,284,80110,6,0,P|417:240|377:151,1,180,4|0,2:3|2:0,2:0:0:0:
412,103,80691,6,0,P|436:140|452:237,1,135.000005149842,0|4,1:0|2:3,2:0:0:0:
382,167,81156,6,0,L|391:111,1,45.0000017166138,4|0,2:3|2:0,2:0:0:0:
459,71,81505,6,0,L|498:47,1,45.0000017166138,0|0,1:0|2:0,2:0:0:0:
278,4,81854,6,0,P|230:54|216:212,1,180,4|0,2:3|2:0,2:0:0:0:
234,108,82422,1,0,1:0:0:0:
192,61,82763,5,0,3:0:0:0:
240,107,82876,2,0,L|286:95,1,45.0000017166138,4|0,2:3|2:0,2:0:0:0:
144,139,83217,6,0,L|123:196,1,45.0000017166138,0|0,1:3|2:0,2:0:0:0:
213,383,83558,6,0,P|196:323|77:255,1,180,4|0,2:3|2:0,2:0:0:0:
214,290,84126,6,0,P|262:369|331:386,1,135.000005149842,0|8,1:0|2:3,2:0:0:0:
468,366,84581,6,0,L|531:354,1,45.0000017166138,4|0,2:3|2:0,2:0:0:0:
363,281,84922,6,0,L|330:321,1,45.0000017166138,0|0,1:3|2:0,2:0:0:0:
319,236,85263,6,0,P|344:179|343:148,1,90,4|0,2:3|2:0,2:0:0:0:
304,101,85833,2,0,L|312:56,1,30,0|0,1:0|2:0,2:0:0:0:
341,149,86175,5,8,2:3:0:0:
300,88,86289,2,0,L|298:59,1,30,12|0,2:3|2:3,2:3:0:0:
425,42,86631,6,0,L|422:71,1,30,0|0,1:0|2:0,2:0:0:0:
230,83,86973,6,0,B|152:96|178:29|80:45,1,150,4|0,2:3|1:0,2:0:0:0:
164,36,87886,5,8,2:3:0:0:
223,87,88000,2,0,L|240:48,1,30,4|0,2:3|2:0,2:0:0:0:
87,7,88342,6,0,L|91:47,1,30,0|0,1:0|2:0,2:0:0:0:
127,129,88684,6,0,B|90:177|104:240|104:240|95:220|75:208,1,150,4|0,2:3|1:0,2:0:0:0:
140,253,89597,5,4,2:3:0:0:
86,220,89711,2,0,L|47:234,1,30,4|0,2:3|2:0,2:0:0:0:
1,304,90053,6,0,L|39:310,1,30,0|0,1:0|2:0,2:0:0:0:
158,376,90395,5,4,2:3:0:0:
294,357,90747,5,0,1:0:0:0:
294,357,90983,1,8,2:3:0:0:
316,214,91336,5,0,1:0:0:0:
365,168,91453,5,8,1:3:0:0:
367,159,91571,1,8,1:3:0:0:
369,149,91689,1,4,1:3:0:0:
371,141,91806,1,12,2:3:0:0:
277,10,92042,5,4,2:3:0:0:
278,0,92159,2,0,P|318:54|381:73,1,135.000005149842,4|0,1:2|2:0,2:0:0:0:
392,23,92733,2,0,L|376:98,1,45.0000017166138,0|4,1:0|2:3,2:0:0:0:
447,64,93078,5,8,2:3:0:0:
381,73,93193,2,0,L|373:19,1,45.0000017166138,4|0,2:3|2:0,2:0:0:0:
274,64,93538,6,0,L|256:123,1,45.0000017166138,0|0,1:0|2:0,2:0:0:0:
71,216,93883,6,0,P|60:169|161:132,1,180,4|0,2:3|3:0,2:0:0:0:
44,57,94457,6,0,P|70:122|69:198,1,135.000005149842,0|8,1:0|2:3,2:0:0:0:
59,252,94917,6,0,L|7:238,1,45.0000017166138,4|0,2:3|2:0,2:0:0:0:
138,240,95262,6,0,L|197:226,1,45.0000017166138,0|0,1:0|2:0,2:0:0:0:
268,384,95607,6,0,P|353:352|456:245,1,226.499997407913,4|0,2:3|1:0,2:0:0:0:
417,312,96526,5,4,2:3:0:0:
443,257,96641,2,0,L|438:202,1,45.0000017166138,4|0,2:3|2:0,2:0:0:0:
373,173,96986,6,0,L|378:128,1,45.0000017166138,0|0,1:0|2:0,2:0:0:0:
290,0,97331,6,0,P|214:37|229:120,1,180,4|0,2:3|2:0,2:0:0:0:
177,154,97903,6,0,P|219:112|306:90,1,135.000005149842,0|0,1:0|2:0,2:0:0:0:
346,122,98361,5,4,2:3:0:0:
423,95,98590,5,0,3:0:0:0:
423,95,98705,1,0,1:0:0:0:
487,202,98934,5,0,3:0:0:0:
487,202,99049,2,0,P|463:235|465:306,1,90,4|0,2:3|2:0,2:0:0:0:
474,340,99621,2,0,L|481:300,1,30,0|0,1:0|2:0,2:0:0:0:
427,378,99965,5,8,2:3:0:0:
481,338,100079,2,0,L|473:284,1,30,4|0,2:3|2:0,2:0:0:0:
353,295,100423,6,0,L|348:333,1,30,0|0,1:0|2:0,2:0:0:0:
284,303,100767,6,0,P|251:282|183:276,1,90,4|0,2:3|2:0,2:0:0:0:
153,331,101339,2,0,P|182:303|191:251,1,90,0|4,1:0|2:3,2:0:0:0:
121,237,101797,6,0,L|126:266,1,30,4|0,2:3|2:0,2:0:0:0:
248,207,102141,6,0,L|248:170,1,30,0|0,1:0|2:0,2:0:0:0:
134,160,102485,6,0,P|136:86|223:70,1,150,4|0,2:3|1:0,2:0:0:0:
238,13,103401,1,8,2:3:0:0:
304,54,103516,5,4,2:3:0:0:
499,87,103859,5,0,1:3:0:0:
443,140,104203,5,0,1:0:0:0:
435,140,104317,1,0,1:0:0:0:
429,142,104432,1,0,1:0:0:0:
384,190,104546,5,0,1:0:0:0:
376,189,104661,1,0,1:0:0:0:
369,191,104775,1,0,1:0:0:0:
302,186,104890,5,2,1:2:0:0:
294,185,105005,1,0,1:0:0:0:
287,187,105119,1,0,1:0:0:0:
240,234,105234,5,8,2:3:0:0:
234,232,105348,5,0,3:0:0:0:
228,230,105463,5,8,2:3:0:0:
209,227,105577,6,0,L|237:255,2,30,4|0|4,2:3|2:0|2:3,2:0:0:0:
58,89,105921,6,2,B|248:126|248:126|255:137|255:137|360:199|360:199|440:192|440:192|484:201,1,431.999986816407,6|6,1:0|1:0,2:1:0:0:
417,281,107717,6,2,B|446:331|446:331|334:240|334:240|332:218|332:218|371:107|371:107|347:40|347:40|308:15,1,431.999986816407,4|4,1:0|1:2,2:1:0:0:
121,0,109464,6,2,B|136:29|136:29|294:107|294:107|33:52|33:52|-7:79|-7:79|34:143|34:143|3:268,1,720,6|6,1:0|1:0,1:3:0:0:
102,137,111228,6,2,B|118:161|118:161|59:363|59:363|74:369|74:369|120:355|120:355|152:353,1,323.999990112305,4|8,1:0|2:3,2:1:0:0:
148,355,112397,1,8,2:3:0:0:
155,357,112514,1,4,2:3:0:0:
97,299,112631,6,0,L|-9:264,1,90,4|4,2:3|2:3,2:0:0:0:
225,293,112982,6,2,B|251:301|251:301|416:290|416:290|504:344|504:344|483:374|483:374|414:372|414:372|357:390,1,431.999986816407,6|6,1:0|1:0,2:1:0:0:
505,166,114767,6,2,B|483:175|483:175|393:143|393:143|325:188|325:188|308:338|308:338|337:345|337:345|386:383,1,434.160001656189,6|6,1:0|1:0,2:1:0:0:
427,228,116531,6,2,B|72:38|72:38|29:40,1,431.999986816407,6|10,1:0|1:3,2:1:0:0:
123,7,118295,5,0,1:0:0:0:
131,17,118411,1,0,1:0:0:0:
141,27,118528,1,0,1:0:0:0:
167,87,118645,5,0,1:0:0:0:
175,97,118762,1,0,1:0:0:0:
185,107,118879,1,0,1:0:0:0:
249,123,118996,5,0,1:0:0:0:
257,133,119113,1,0,1:0:0:0:
267,143,119230,1,0,1:0:0:0:
292,205,119347,5,8,2:3:0:0:
438,169,119581,5,4,2:3:0:0:
437,178,119698,1,4,2:3:0:0:
505,227,119932,5,4,2:3:0:0:
505,227,120049,2,0,P|517:310|393:291,1,207.000003948212,4|2,1:0|3:0,2:0:0:0:
463,364,120630,5,0,1:0:0:0:
403,319,120746,2,0,P|351:302|369:251,1,120,4|0,2:3|3:0,2:0:0:0:
509,298,121095,6,0,P|468:321|478:371,1,90.0000034332277,4|0,2:3|2:0,2:0:0:0:
359,244,121444,6,0,P|343:123|256:91,1,155.999992858887,0|2,1:0|3:0,2:0:0:0:
233,172,121793,6,0,P|244:80|333:102,1,207.000003948212,4|2,1:0|3:0,2:0:0:0:
241,163,122374,5,0,1:0:0:0:
183,125,122490,2,0,P|125:137|82:178,1,120,4|0,2:3|2:0,2:0:0:0:
145,64,122839,6,0,P|185:77|185:119,1,90.0000034332277,4|0,2:3|3:0,2:0:0:0:
233,172,123188,6,0,P|226:236|315:272,1,155.999992858887,0|0,1:0|2:0,2:0:0:0:
208,262,123537,6,0,P|77:278|0:384,1,270.000010299683,4|2,1:2|3:0,2:0:0:0:
64,329,124115,6,0,P|86:265|3:259,1,153.000002918243,0|0,1:0|2:0,2:0:0:0:
29,177,124577,6,0,P|5:206|32:245,1,71.9999978027344,4|2,2:3|3:0,2:0:0:0:
81,218,124924,2,0,P|104:188|77:149,1,71.9999978027344,2|0,1:2|2:0,2:0:0:0:
130,39,125271,6,0,P|10:48|26:167,1,270.000010299683,4|2,1:2|3:0,2:0:0:0:
30,108,125849,6,0,P|90:134|157:217,1,153.000002918243,0|0,1:0|2:0,2:0:0:0:
217,202,126311,5,4,2:3:0:0:
224,207,126427,1,0,3:0:0:0:
232,210,126542,1,8,2:3:0:0:
276,266,126658,6,0,P|274:280|271:290,1,17.9999994506836,12|8,1:3|2:3,2:0:0:0:
239,212,127005,6,0,P|217:149|324:163,1,207.000003948212,4|0,1:0|2:0,2:0:0:0:
256,141,127579,5,0,1:0:0:0:
288,85,127694,2,0,P|327:63|365:-21,1,120,8|0,2:3|3:0,2:0:0:0:
273,17,128039,6,0,P|259:33|300:78,1,90.0000034332277,4|0,2:3|2:0,2:0:0:0:
361,6,128384,6,0,P|414:78|413:155,1,155.999992858887,0|4,1:0|2:3,2:0:0:0:
345,242,128729,6,0,P|429:235|392:124,1,207.000003948212,4|0,1:0|2:0,2:0:0:0:
433,77,129300,5,0,1:0:0:0:
415,144,129414,2,0,P|418:215|454:271,1,120,0|0,3:0|2:0,2:0:0:0:
498,235,129757,6,0,P|484:273|445:262,1,90.0000034332277,4|0,2:3|2:0,2:0:0:0:
397,208,130100,6,0,P|321:251|331:343,1,155.999992858887,0|4,1:0|2:3,2:0:0:0:
328,384,130443,6,0,P|305:259|208:328,1,270.000010299683,4|0,1:2|3:0,2:0:0:0:
315,313,131004,6,0,P|278:238|278:157,1,149.40000216568,0|0,1:0|2:0,2:0:0:0:
321,133,131454,6,0,P|317:165|273:170,1,71.9999978027344,8|4,2:3|2:3,2:0:0:0:
227,133,131791,2,0,P|197:116|200:82,1,71.9999978027344,0|0,1:0|2:0,2:0:0:0:
226,6,132128,5,0,1:0:0:0:
217,11,132244,1,0,1:0:0:0:
207,12,132361,1,0,1:0:0:0:
136,20,132478,5,0,1:0:0:0:
126,21,132595,1,0,1:0:0:0:
117,26,132712,1,0,1:0:0:0:
77,83,132829,5,0,1:0:0:0:
77,92,132946,1,0,1:0:0:0:
75,101,133063,1,0,1:0:0:0:
10,133,133180,5,12,2:3:0:0:
9,128,133297,1,8,2:3:0:0:
8,124,133414,1,8,2:3:0:0:
6,119,133531,1,12,2:3:0:0:
87,201,133765,5,4,2:3:0:0:
85,183,133882,2,2,B|99:193|99:193|116:304,1,107.999996704102,6|0,2:1|2:0,2:1:0:0:
243,364,134463,1,2,1:0:0:0:
304,335,134579,2,0,L|228:384,2,72,0|4|0,3:0|2:3|1:0,2:0:0:0:
333,278,135626,6,2,B|352:287|352:287|454:264,1,107.999996704102,6|0,2:1|2:0,2:1:0:0:
493,111,136207,1,2,1:0:0:0:
428,71,136323,2,0,L|502:106,2,72,0|4|0,3:0|2:3|1:0,2:0:0:0:
386,122,137370,6,2,B|369:132|369:132|351:242,1,107.999996704102,6|0,2:1|3:0,2:1:0:0:
446,372,137951,1,2,1:0:0:0:
447,296,138068,2,2,L|453:368,1,72,0|4,3:0|2:3,2:1:0:0:
333,377,138765,1,0,1:0:0:0:
226,277,139114,6,0,B|192:269|192:269|150:171|150:171|103:163,1,179.999994506836,4|4,1:3|1:3,2:0:0:0:
90,81,140044,1,0,1:0:0:0:
93,78,140161,2,0,L|88:19,1,48,8|4,2:3|1:3,2:0:0:0:
107,0,140509,6,0,L|98:16,1,17.9999994506836,8|4,2:3|2:3,2:0:0:0:
202,63,140858,6,2,B|281:41|281:41|309:43,1,107.999996704102,6|0,2:1|2:0,2:1:0:0:
489,100,141440,1,2,1:0:0:0:
512,161,141556,2,0,L|491:89,2,72,0|4|0,3:0|2:3|1:0,2:0:0:0:
499,223,142602,6,2,B|417:235|417:235|395:255,1,107.999996704102,6|0,2:1|2:0,2:1:0:0:
182,122,143180,1,2,1:0:0:0:
253,146,143295,2,0,L|172:131,2,72,0|4|0,3:0|2:3|1:0,2:0:0:0:
317,122,144336,6,2,B|326:148|326:148|281:241,1,107.999996704102,6|0,2:1|2:0,2:1:0:0:
90,185,144914,1,0,1:0:0:0:
20,205,145029,2,0,L|92:197,1,72,0|4,3:0|2:3,2:0:0:0:
81,259,145723,6,0,L|83:280,1,17.9999994506836,2|0,2:3|2:0,2:0:0:0:
112,202,146070,6,0,B|100:90|100:90|96:47|59:35,1,180,12|0,2:3|1:0,2:0:0:0:
4,21,146775,1,4,2:3:0:0:
133,128,147011,6,0,P|205:102|236:65,2,107.999996704102,0|0|0,1:0|2:0|1:0,2:0:0:0:
74,258,147775,5,0,2:0:0:0:
81,259,147834,6,0,L|74:318,1,53.9999983520508,2|0,3:0|2:0,2:0:0:0:
122,358,148415,2,0,L|150:361,1,17.9999994506836,2|0,2:0|2:0,2:0:0:0:
122,367,148764,5,0,3:0:0:0:
181,361,148880,2,0,L|237:354,1,53.9999983520508,2|2,2:0|2:0,2:0:0:0:
286,312,149578,6,0,L|349:324,1,53.9999983520508,2|0,2:0|2:0,2:0:0:0:
286,312,150166,1,2,2:0:0:0:
376,237,150519,5,0,3:0:0:0:
435,265,150636,2,0,L|381:270,1,53.9999983520508,2|2,2:0|2:0,2:0:0:0:
313,227,151342,6,0,L|251:219,1,53.9999983520508,2|0,2:0|2:0,2:0:0:0:
196,211,151926,2,0,L|193:239,1,17.9999994506836,2|0,2:0|2:0,2:0:0:0:
193,239,152277,5,0,3:0:0:0:
187,180,152394,2,0,L|180:124,1,53.9999983520508,2|2,2:0|2:0,2:0:0:0:
102,15,153096,6,0,L|111:116,1,91.2000031171876,2|2,2:0|2:0,2:0:0:0:
10,180,154042,5,0,3:0:0:0:
67,158,154161,2,0,L|32:152,1,36.480001246875,2|0,2:0|2:0,2:0:0:0:
67,158,154516,1,2,2:0:0:0:
128,212,154871,6,0,L|197:204,1,54.7200018703126,2|0,2:0|2:0,2:0:0:0:
241,197,155462,2,0,L|310:189,1,54.7200018703126,2|0,2:0|2:0,2:0:0:0:
242,205,155936,6,0,L|280:211,1,36.480001246875,2|0,2:0|2:0,2:0:0:0:
343,226,156291,1,2,2:0:0:0:
446,281,156646,5,0,1:0:0:0:
512,227,156996,5,0,1:0:0:0:
449,262,157230,1,8,2:3:0:0:
411,100,157581,5,0,1:0:0:0:
464,148,157698,2,0,L|461:180,1,26.9999991760254,8|0,2:3|1:0,2:0:0:0:
462,175,158283,5,8,2:3:0:0:
381,117,158634,5,0,1:0:0:0:
381,117,158751,2,0,L|378:90,1,26.9999991760254,8|0,2:3|1:0,2:0:0:0:
423,32,159336,1,8,2:3:0:0:
383,83,159453,5,0,3:0:0:0:
244,35,159686,5,0,1:0:0:0:
236,0,159803,1,4,2:3:0:0:
200,107,160154,5,0,1:0:0:0:
215,191,160505,5,0,1:0:0:0:
227,195,160620,1,0,1:0:0:0:
236,201,160736,1,0,1:0:0:0:
275,253,160851,5,0,1:0:0:0:
284,259,160967,1,0,1:0:0:0:
296,263,161083,1,0,1:0:0:0:
354,233,161198,5,0,1:0:0:0:
366,237,161314,1,0,1:0:0:0:
375,243,161429,1,0,1:0:0:0:
421,289,161545,5,8,2:3:0:0:
420,295,161661,5,8,2:3:0:0:
419,301,161776,5,8,2:3:0:0:
435,318,161892,6,0,L|432:270,2,30,4|4|4,2:3|2:3|2:3,2:0:0:0:
353,384,162242,6,2,B|319:368|319:368|315:364|315:364|170:349|170:349|134:369|134:369|75:257|75:257|180:288,1,431.999986816407,6|2,1:0|2:3,2:1:0:0:
321,219,164033,6,2,B|338:227|338:227|236:286|236:286|262:134|262:134|236:23|236:23|250:-12,1,431.999986816407,6|2,1:0|2:3,2:1:0:0:
172,77,165824,6,2,B|99:24|99:24|323:106|323:106|332:115|332:115|447:88|447:88|483:185|483:185|442:203|442:203|432:341,1,720,6|2,1:0|2:3,2:1:0:0:
371,184,167625,6,2,B|359:197|359:197|345:363|345:363|326:390|326:390|318:382|318:382|272:358|272:358|293:303,1,323.999990112305,6|2,1:0|2:3,2:1:0:0:
292,308,168801,1,8,2:3:0:0:
296,300,168919,1,8,2:3:0:0:
377,307,169036,6,0,L|428:381,1,71.9999978027344,4|0,2:3|2:0,2:0:0:0:
182,363,169438,6,2,B|153:310|153:310|186:222|186:222|192:213|192:213|135:64|135:64|21:2|21:2|90:111,1,540.000020599366,6|2,1:0|2:3,2:1:0:0:
36,252,171213,6,2,B|59:268|59:268|79:176|79:176|282:80|282:80|390:127,1,434.519985181394,6|2,1:0|2:3,2:1:0:0:
470,331,173020,6,2,B|462:354|462:354|399:397|399:397|532:360|532:360|521:264|521:264|405:207|405:207|308:395,1,660,6|2,1:0|2:1,2:1:0:0:
315,380,174448,2,0,B|340:310,1,60,2|0,2:3|2:0,2:0:0:0:
