osu file format v14

[General]
AudioFilename: audio.ogg
AudioLeadIn: 0
PreviewTime: 2034
Countdown: 0
SampleSet: Soft
StackLeniency: 0.7
Mode: 0
LetterboxInBreaks: 0
WidescreenStoryboard: 0

[Editor]
Bookmarks: 105621
DistanceSpacing: 1.3
BeatDivisor: 3
GridSize: 8
TimelineZoom: 8

[Metadata]
Title:Wah Wah
TitleUnicode:Wah Wah
Artist:King Gizzard & The Lizard Wizard
ArtistUnicode:King Gizzard & The Lizard Wizard
Creator:Wispy
Version:Ludicrous
Source:
Tags:squirrelpascals a bat a_bat porgdeity kowari banger bonanza and english rock nonagon infinity alternative garage psychedelic krautrock stuart mackenzie kgatlw kglw track 8 #8
BeatmapID:3915315
BeatmapSetID:1899486

[Difficulty]
HPDrainRate:5.5
CircleSize:4.7
OverallDifficulty:7.7
ApproachRate:8.8
SliderMultiplier:2.22
SliderTickRate:1

[Events]
//Background and Video events
0,0,"technochroma-push3.jpg",0,0
//Break Periods
2,149278,154571
//Storyboard Layer 0 (Background)
//Storyboard Layer 1 (Fail)
//Storyboard Layer 2 (Pass)
//Storyboard Layer 3 (Foreground)
//Storyboard Layer 4 (Overlay)
//Storyboard Sound Samples

[TimingPoints]
300,346.820809248555,5,2,0,80,1,0
1319,-125,5,2,0,80,0,0
2034,350.877192982456,5,2,0,80,1,0
3086,-90.9090909090909,5,2,0,80,0,0
3437,-83.3333333333333,5,2,0,80,0,0
3788,-100,5,2,0,80,0,0
4841,-90.9090909090909,5,2,0,80,0,0
5191,-83.3333333333333,5,2,0,80,0,0
5542,342.857142857143,5,2,0,80,1,0
5542,-71.4285714285714,5,2,0,80,0,0
6570,-76.9230769230769,5,2,0,80,0,0
6913,-76.9230769230769,5,2,0,80,0,0
7256,-71.4285714285714,5,2,0,80,0,0
8284,-76.9230769230769,5,2,0,80,0,0
8970,348.837209302326,5,2,0,80,1,0
10016,-90.9090909090909,5,2,0,80,0,0
10365,-83.3333333333333,5,2,0,80,0,0
10714,344.827586206897,5,2,0,80,1,0
10714,-100,5,2,0,80,0,0
11748,-90.9090909090909,5,2,0,80,0,0
12093,-83.3333333333333,5,2,0,80,0,0
12438,-71.4285714285714,5,2,0,80,0,0
13472,-76.9230769230769,5,2,0,80,0,0
13817,-111.111111111111,5,2,0,80,0,0
15196,-66.6666666666667,5,2,0,80,0,0
15886,352.941176470589,5,2,0,60,1,0
16944,-90.9090909090909,5,2,0,60,0,0
17297,-83.3333333333333,5,2,0,60,0,0
17650,-100,5,2,0,60,0,0
18709,-90.9090909090909,5,2,0,60,0,0
19062,-83.3333333333333,5,2,0,60,0,0
19415,335.195530726257,5,2,0,60,1,0
20420,-90.9090909090909,5,2,0,60,0,0
20755,-83.3333333333333,5,2,0,60,0,0
21090,344.827586206897,5,2,0,60,1,0
22124,-90.9090909090909,5,2,0,60,0,0
22469,-83.3333333333333,5,2,0,60,0,0
22814,350.877192982457,5,2,0,70,1,0
23398,-100,5,2,0,70,0,0
24568,-111.111111111111,5,2,0,70,0,0
24801,-111.111111111111,5,2,0,70,0,0
25153,-111.111111111111,5,2,0,70,0,0
26322,348.837209302326,5,2,0,70,1,0
26322,-125,5,2,0,70,0,0
29810,346.820809248555,5,2,0,60,1,0
29810,-142.857142857143,5,2,0,60,0,0
33278,344.827586206897,5,2,0,60,1,0
33278,-142.857142857143,5,2,0,60,0,0
36726,344.817677652941,5,2,0,60,1,0
36726,-142.857142857143,5,2,0,60,0,0
43622,-142.257142857143,5,2,0,60,0,0
44657,-142.857142857143,5,2,0,60,0,0
45346,-142.857142857143,5,2,0,60,0,0
50518,345.323741007194,5,2,0,60,1,0
50518,-142.857142857143,5,2,0,60,0,0
55811,-142.857142857143,5,2,0,70,0,0
56733,335.664335664336,5,2,0,70,1,0
56733,-166.666666666667,5,2,0,70,0,0
57404,356.083086053412,5,2,0,70,1,0
57404,-76.9230769230769,5,2,0,70,0,0
59189,-76.9230769230769,5,2,0,70,0,0
60964,359.281437125748,5,2,0,70,1,0
60964,-76.9230769230769,5,2,0,70,0,0
62401,-166.666666666667,5,2,0,70,0,0
62761,335.195530726257,5,2,0,70,1,0
63765,-166.666666666667,5,2,0,70,0,0
63766,348.33091436865,5,2,0,70,1,0
63766,-166.666666666667,5,2,0,70,0,0
64462,359.281437125748,5,2,0,80,1,0
65539,-90.9090909090909,5,2,0,80,0,0
65899,-83.3333333333333,5,2,0,80,0,0
66258,346.820809248555,5,2,0,80,1,0
67298,-90.9090909090909,5,2,0,80,0,0
67645,-83.3333333333333,5,2,0,80,0,0
67992,344.827586206897,5,2,0,80,1,0
67992,-71.4285714285714,5,2,0,80,0,0
69026,-76.9230769230769,5,2,0,80,0,0
69371,-71.4285714285714,5,2,0,80,0,0
70750,-76.9230769230769,5,2,0,80,0,0
71095,-71.4285714285714,5,2,0,80,0,0
71440,-100,5,2,0,80,0,0
72474,-90.9090909090909,5,2,0,80,0,0
72819,-83.3333333333333,5,2,0,80,0,0
73164,-100,5,2,0,80,0,0
74198,-90.9090909090909,5,2,0,80,0,0
74543,-83.3333333333333,5,2,0,80,0,0
74888,-71.4285714285714,5,2,0,80,0,0
76267,-111.111111111111,5,2,0,80,0,0
76612,350.877192982456,5,2,0,80,1,0
77664,-166.666666666667,5,2,0,80,0,0
78366,348.837209302326,5,2,0,60,1,0
78947,-142.857142857143,5,2,0,60,0,0
81854,340.909090909091,5,2,0,60,1,0
82422,-142.857142857143,5,2,0,60,0,0
85263,342.172797262618,5,2,0,60,1,0
85263,-142.857142857143,5,2,0,60,0,0
90395,352.941176470588,5,2,0,60,1,0
92159,344.827586206897,5,2,0,60,1,0
92159,-142.857142857143,5,2,0,60,0,0
97331,343.613091658792,5,2,0,60,1,0
97331,-142.857142857143,5,2,0,60,0,0
100779,-142.857142857143,5,2,0,60,0,0
102473,-142.857142857143,5,2,0,60,0,0
105227,-166.666666666667,5,2,0,60,0,0
105921,359.281437125748,5,2,0,70,1,0
105921,-76.9230769230769,4,2,0,70,0,1
107717,349.548499854355,5,2,0,70,1,0
107717,-76.9230769230769,4,2,0,70,0,1
109464,352.941176470588,5,2,0,70,1,0
109464,-76.9230769230769,4,2,0,70,0,1
110875,-76.9230769230769,4,2,0,70,0,1
111228,350.877192982457,5,2,0,70,1,0
111228,-76.9230769230769,4,2,0,70,0,1
112982,357.142857142858,5,2,0,70,1,0
112982,-76.9230769230769,4,2,0,70,0,1
114767,352.941176470589,5,2,0,70,1,0
114767,-76.9230769230769,4,2,0,70,0,1
116531,352.941176470589,5,2,0,70,1,0
116531,-76.9230769230769,4,2,0,70,0,1
118295,350.877192982457,5,2,0,70,1,0
119347,-166.666666666667,5,2,0,70,0,0
120049,348.837209302326,5,2,0,80,1,0
121095,-90.9090909090909,5,2,0,80,0,0
121444,-83.3333333333333,5,2,0,80,0,0
121793,-100,5,2,0,80,0,0
122839,-90.9090909090909,5,2,0,80,0,0
123188,-83.3333333333333,5,2,0,80,0,0
123537,346.820809248555,5,2,0,80,1,0
123537,-71.4285714285714,5,2,0,80,0,0
124577,-76.9230769230769,5,2,0,80,0,0
124924,-71.4285714285714,5,2,0,80,0,0
126311,-76.9230769230769,5,2,0,80,0,0
126658,-71.4285714285714,5,2,0,80,0,0
127005,344.827586206897,5,2,0,80,1,0
128039,-90.9090909090909,5,2,0,80,0,0
128384,-83.3333333333333,5,2,0,80,0,0
128729,342.857142857143,5,2,0,80,1,0
129757,-90.9090909090909,5,2,0,80,0,0
130100,-83.3333333333333,5,2,0,80,0,0
130443,337.078651685393,5,2,0,80,1,0
130443,-71.4285714285714,5,2,0,80,0,0
131454,-76.9230769230769,5,2,0,80,0,0
131791,-71.4285714285714,5,2,0,80,0,0
132128,350.877192982456,5,2,0,80,1,0
133180,-50,5,2,0,80,0,0
133531,-66.6666666666667,5,2,0,80,0,0
133882,348.837209302326,5,2,0,70,1,0
135626,-125,5,2,0,70,0,0
140858,-100,5,2,0,70,0,0
142602,346.820809248555,5,2,0,70,1,0
142602,-125,5,2,0,70,0,0
146070,352.941176470588,5,2,0,70,1,0
146070,-125,5,2,0,70,0,0
147481,-333.333333333333,5,2,0,70,0,0
147834,348.837209302326,5,2,0,50,1,0
149578,352.941176470589,5,2,0,50,1,0
151342,350.877192982457,5,2,0,50,1,0
153096,355.029585798816,5,2,0,50,1,0
156646,350.877192982456,5,2,0,70,1,0
160505,346.820809248555,5,2,0,70,1,0
161892,350.877192982456,5,2,0,70,1,0
162242,358.208955223881,5,2,0,70,1,0
165824,360.36036036036,5,2,0,70,1,1
167625,352.941176470588,5,2,0,70,1,0
169036,368.098159509202,5,2,0,70,1,1
169438,355.029585798816,5,2,0,70,1,0
171213,361.44578313253,5,2,0,70,1,0
173020,357.142857142857,5,2,0,70,1,0

[Colours]
Combo1 : 247,235,6
Combo2 : 40,122,153
Combo3 : 248,90,73
Combo4 : 112,112,112
Combo5 : 162,213,211

[HitObjects]
502,371,300,5,0,1:0:0:0:
457,350,415,1,0,1:0:0:0:
440,303,531,1,0,1:0:0:0:
374,263,646,5,0,1:0:0:0:
370,223,762,1,0,1:0:0:0:
395,192,878,1,0,1:0:0:0:
368,124,993,5,0,1:0:0:0:
388,99,1109,1,0,1:0:0:0:
420,95,1224,1,0,1:0:0:0:
437,30,1340,6,0,L|495:41,1,59.2,12|8,2:3|2:3,2:0:0:0:
478,106,1571,2,0,L|419:94,1,59.2,12|8,2:3|2:3,2:0:0:0:
244,19,1802,1,4,2:3:0:0:
244,19,1918,1,4,2:3:0:0:
244,19,2034,6,0,P|289:76|301:167,1,148,4|0,1:0|2:0,2:0:0:0:
287,182,2384,1,2,3:0:0:0:
376,140,2618,2,0,P|335:80|185:94,1,222,0|0,1:0|3:0,2:0:0:0:
156,19,3086,2,0,P|112:108|67:79,1,162.800004968262,4|0,2:3|2:0,2:0:0:0:
16,141,3437,2,0,P|22:215|80:160,1,177.599994580078,0|0,1:0|3:0,2:0:0:0:
264,22,3788,6,0,P|300:84|299:176,1,148,0|0,1:0|2:0,2:0:0:0:
284,189,4139,1,2,3:0:0:0:
373,117,4373,2,0,P|325:63|178:98,1,222,0|0,1:0|2:0,2:0:0:0:
139,28,4841,2,0,P|108:122|59:99,1,162.800004968262,4|0,2:3|3:0,2:0:0:0:
17,168,5191,2,0,P|33:240|83:178,1,177.599994580078,0|0,1:0|2:0,2:0:0:0:
188,84,5542,6,0,P|292:122|478:100,1,207.199993676758,4|0,1:2|2:0,2:0:0:0:
494,91,5884,1,2,3:0:0:0:
310,262,6113,2,0,P|313:129|457:157,1,310.799990515137,0|0,1:0|2:0,2:0:0:0:
388,223,6570,2,0,P|314:278|269:410,1,192.399991192627,4|2,2:3|3:0,2:0:0:0:
243,89,6913,2,0,P|297:165|299:304,1,192.399991192627,2|0,1:2|2:0,2:0:0:0:
44,338,7256,6,0,P|148:300|334:322,1,207.199993676758,4|0,1:2|2:0,2:0:0:0:
272,367,7599,1,2,3:0:0:0:
165,151,7827,2,0,P|168:283|312:255,1,310.799990515137,0|0,1:0|2:0,2:0:0:0:
272,191,8284,2,0,P|198:136|153:4,1,192.399991192627,4|8,2:3|2:3,2:0:0:0:
145,62,8627,2,0,P|107:88|37:89,1,96.1999955963137,12|0,1:3|2:0,2:0:0:0:
47,11,8856,1,8,2:3:0:0:
47,10,8970,6,0,P|14:77|7:150,1,148,4|0,1:0|2:0,2:0:0:0:
23,164,9318,1,2,3:0:0:0:
58,93,9551,2,0,P|162:112|236:35,1,222,0|0,1:0|3:0,2:0:0:0:
150,132,10016,2,0,P|237:122|299:171,1,162.800004968262,4|0,2:3|2:0,2:0:0:0:
84,190,10365,2,0,P|-2:225|41:270,1,177.599994580078,0|4,1:0|2:3,2:0:0:0:
34,18,10714,6,0,P|6:87|6:160,1,148,4|0,1:0|2:0,2:0:0:0:
24,173,11058,1,2,3:0:0:0:
52,99,11288,2,0,P|157:108|224:25,1,222,0|0,1:0|3:0,2:0:0:0:
147,130,11748,2,0,P|232:112|298:155,1,162.800004968262,4|0,2:3|2:0,2:0:0:0:
85,196,12093,2,0,P|-3:226|37:273,1,177.599994580078,0|4,1:0|2:3,2:0:0:0:
309,123,12438,6,0,P|199:133|82:106,1,207.199993676758,4|0,1:2|2:0,2:0:0:0:
69,53,12782,1,2,3:0:0:0:
204,214,13012,2,0,P|202:107|27:187,1,310.799990515137,0|0,1:0|2:0,2:0:0:0:
105,114,13472,6,0,P|139:207|100:325,1,192.399991192627,8|4,2:3|2:3,2:0:0:0:
48,345,13817,6,0,B|85:319|126:328|107:342|145:352|175:334,1,133.199995935059,0|0,1:0|2:0,2:0:0:0:
262,294,14162,5,0,1:0:0:0:
258,303,14277,1,0,1:0:0:0:
250,295,14392,1,0,1:0:0:0:
263,313,14507,1,0,1:0:0:0:
275,294,14622,1,0,1:0:0:0:
255,318,14736,1,0,1:0:0:0:
255,288,14851,1,0,1:0:0:0:
272,295,14966,1,0,1:0:0:0:
245,308,15081,1,0,1:0:0:0:
269,319,15196,6,0,B|291:291|291:291|300:309|300:309|319:314|319:314|322:334|322:334|338:308|338:308|357:314|357:314|368:304|368:304|387:319|387:319|396:300|396:300|422:291|422:291|438:325|438:325|443:306|443:306|452:302|452:302|465:312|465:312|494:306,1,333.000012702942,12|12,2:3|2:3,2:0:0:0:
270,82,15886,6,0,B|239:95|239:95|83:56,1,148,4|0,1:0|2:0,2:0:0:0:
116,47,16238,1,2,3:0:0:0:
6,91,16474,2,0,B|22:98|22:98|118:260|118:260|133:266,1,222,0|0,1:0|2:0,2:0:0:0:
201,301,16944,2,0,B|313:278|313:278|241:248,1,162.800004968262,4|0,2:3|2:0,2:0:0:0:
126,356,17297,2,0,B|13:333|13:333|21:320|21:320|90:303,1,177.599994580078,0|2,1:0|3:0,2:0:0:0:
277,97,17650,6,0,B|246:110|246:110|90:71,1,148,4|0,1:3|2:0,2:0:0:0:
123,62,18003,1,2,3:0:0:0:
13,106,18238,2,0,B|29:113|29:113|125:275|125:275|140:281,1,222,0|0,1:0|2:0,2:0:0:0:
208,316,18709,2,0,B|320:293|320:293|248:263,1,162.800004968262,4|0,2:3|2:0,2:0:0:0:
133,371,19062,2,0,B|20:348|20:348|28:335|28:335|97:318,1,177.599994580078,0|0,1:0|2:0,2:0:0:0:
275,274,19415,6,0,B|304:297|304:297|277:382,2,74,4|0|0,2:3|2:0|3:0,2:0:0:0:
227,325,19750,1,8,3:0:0:0:
238,48,19973,2,0,B|226:61|226:61|199:246|199:246|211:263,1,222,0|0,1:0|2:0,2:0:0:0:
136,175,20420,2,0,B|144:161|144:161|290:146,1,162.800004968262,4|0,2:3|2:0,2:0:0:0:
274,215,20755,2,0,B|256:216|256:216|150:85,1,177.599994580078,0|2,1:0|3:0,2:0:0:0:
50,232,21090,6,0,B|21:255|21:255|48:340,2,74,4|0|0,2:3|2:0|2:0,2:0:0:0:
98,283,21434,1,8,3:0:0:0:
87,6,21664,2,0,B|99:19|99:19|126:204|126:204|114:221,1,222,0|0,1:0|2:0,2:0:0:0:
189,133,22124,2,0,B|181:119|181:119|35:104,1,162.800004968262,4|0,2:3|2:0,2:0:0:0:
51,173,22469,2,0,B|69:174|69:174|175:43,1,177.599994580078,0|4,1:0|2:3,2:0:0:0:
262,111,22814,6,2,B|288:114|288:114|167:169,1,148,6|0,2:1|2:0,2:1:0:0:
165,182,23164,1,2,3:0:0:0:
236,46,23398,2,2,B|391:131|391:131|290:147,1,222,2|0,1:0|2:0,2:1:0:0:
403,54,23866,2,0,B|424:106|424:106|429:107|429:107|397:309,1,222,4|0,2:3|1:0,2:0:0:0:
165,182,24568,6,2,B|141:185|141:185|253:236,1,133.199995935059,6|0,2:1|2:0,2:1:0:0:
254,247,24919,1,2,3:0:0:0:
189,121,25153,2,2,B|45:199|45:199|139:214,1,199.799993902588,2|0,1:0|2:0,2:1:0:0:
34,129,25621,2,0,B|15:177|15:177|10:178|10:178|40:365,1,199.799993902588,4|0,2:3|1:0,2:0:0:0:
32,319,26322,6,2,L|188:302,1,118.4,6|0,2:1|2:0,2:1:0:0:
167,320,26670,1,2,3:0:0:0:
88,243,26903,2,0,B|161:259|161:259|180:276|180:276|284:298,1,177.6,2|0,1:0|2:0,2:0:0:0:
232,365,27368,2,0,B|279:330|279:330|348:343,1,118.4,4|0,2:3|2:0,2:0:0:0:
354,326,27717,1,0,1:0:0:0:
196,187,28066,5,12,2:3:0:0:
253,88,28415,5,0,1:0:0:0:
180,71,28647,1,0,1:0:0:0:
447,129,28996,1,0,1:0:0:0:
430,118,29112,5,8,2:3:0:0:
458,110,29228,1,0,3:0:0:0:
466,138,29345,1,4,1:3:0:0:
437,146,29461,1,8,2:3:0:0:
459,75,29694,5,0,1:0:0:0:
437,188,29810,6,0,L|467:348,1,155.399995257569,12|0,2:3|3:0,2:0:0:0:
386,384,30388,1,0,1:0:0:0:
386,384,30503,1,8,2:3:0:0:
372,165,30734,1,4,3:0:0:0:
351,176,30850,2,0,L|338:252,1,51.7999984191895,4|0,2:3|2:0,2:0:0:0:
376,39,31197,2,0,L|363:115,1,51.7999984191895,0|0,1:0|2:0,2:0:0:0:
365,100,31544,6,0,L|398:293,1,155.399995257569,4|0,2:3|2:0,2:0:0:0:
479,318,32122,1,0,1:0:0:0:
251,129,32468,1,4,2:3:0:0:
272,140,32584,2,0,L|285:216,1,51.7999984191895,4|0,2:3|2:0,2:0:0:0:
247,3,32931,2,0,L|260:79,1,51.7999984191895,0|0,1:0|2:0,2:0:0:0:
259,69,33278,6,0,L|99:39,1,155.399995257569,4|0,2:3|2:0,2:0:0:0:
63,120,33852,1,0,1:0:0:0:
63,120,33967,1,8,2:3:0:0:
282,134,34197,1,8,3:0:0:0:
271,155,34312,2,0,L|195:168,1,51.7999984191895,4|0,2:3|2:0,2:0:0:0:
408,130,34657,2,0,L|332:143,1,51.7999984191895,0|0,1:3|2:0,2:0:0:0:
347,141,35002,6,0,L|154:108,1,155.399995257569,4|0,2:3|2:0,2:0:0:0:
129,27,35576,1,0,1:0:0:0:
318,255,35921,1,8,2:3:0:0:
307,234,36036,2,0,L|231:221,1,51.7999984191895,4|0,2:3|2:0,2:0:0:0:
444,259,36381,2,0,L|368:246,1,51.7999984191895,0|0,1:3|2:0,2:0:0:0:
377,263,36726,6,0,L|359:78,1,155.399995257569,4|0,2:3|2:0,2:0:0:0:
238,368,37300,2,0,L|262:200,1,155.399995257569,0|8,1:0|2:3,2:0:0:0:
278,195,37760,1,12,2:3:0:0:
170,230,37990,1,4,3:0:0:0:
170,230,38105,1,0,1:0:0:0:
5,197,38450,6,0,L|23:12,1,155.399995257569,4|0,2:3|2:0,2:0:0:0:
144,302,39024,2,0,L|120:134,1,155.399995257569,0|8,1:0|2:3,2:0:0:0:
104,129,39484,1,4,2:3:0:0:
212,164,39714,1,8,3:0:0:0:
212,164,39829,1,0,1:0:0:0:
377,263,40174,6,0,L|359:78,1,155.399995257569,4|0,2:3|2:0,2:0:0:0:
238,368,40748,2,0,L|262:200,1,155.399995257569,0|4,1:0|2:3,2:0:0:0:
278,195,41208,1,4,2:3:0:0:
170,230,41438,1,8,3:0:0:0:
170,230,41553,1,0,1:0:0:0:
86,116,41898,5,4,2:3:0:0:
122,53,42243,5,0,1:0:0:0:
190,77,42472,1,8,2:3:0:0:
226,14,42817,5,0,1:0:0:0:
259,2,42932,5,8,1:3:0:0:
277,34,43047,1,8,1:3:0:0:
312,21,43162,1,4,1:3:0:0:
330,54,43277,1,12,2:3:0:0:
485,5,43507,1,4,2:3:0:0:
467,38,43622,6,0,L|505:229,1,155.399995257569,4|0,1:2|2:0,2:0:0:0:
452,274,44197,1,0,1:0:0:0:
378,356,44541,1,8,2:3:0:0:
391,339,44656,2,0,L|275:331,1,103.599996838379,4|0,2:3|2:0,2:0:0:0:
206,347,45001,2,0,L|309:354,1,103.599996838379,0|0,1:0|2:0,2:0:0:0:
303,253,45346,6,0,L|450:152,1,155.399995257569,4|0,2:3|3:0,2:0:0:0:
512,197,45921,1,0,1:0:0:0:
291,164,46265,1,8,2:3:0:0:
315,157,46380,2,0,L|169:138,1,103.599996838379,4|0,2:3|2:0,2:0:0:0:
200,162,46725,2,0,L|54:181,1,103.599996838379,0|0,1:0|2:0,2:0:0:0:
45,38,47070,6,0,L|7:229,1,155.399995257569,4|0,2:3|2:0,2:0:0:0:
60,274,47645,1,0,1:0:0:0:
134,356,47990,1,4,2:3:0:0:
121,339,48104,2,0,L|237:331,1,103.599996838379,4|0,2:3|2:0,2:0:0:0:
306,347,48449,2,0,L|203:354,1,103.599996838379,0|0,1:0|2:0,2:0:0:0:
209,253,48794,6,0,L|62:152,1,155.399995257569,4|0,2:3|2:0,2:0:0:0:
0,197,49369,1,0,1:0:0:0:
221,164,49714,1,0,3:0:0:0:
197,157,49829,2,0,L|343:138,1,103.599996838379,4|0,2:3|2:0,2:0:0:0:
312,162,50173,2,0,L|458:181,1,103.599996838379,0|0,1:0|2:0,2:0:0:0:
464,298,50518,6,0,L|493:111,1,155.399995257569,4|0,2:3|2:0,2:0:0:0:
459,77,51093,1,0,1:0:0:0:
312,162,51438,1,8,2:3:0:0:
332,148,51553,2,0,L|312:270,1,103.599996838379,4|0,2:3|2:0,2:0:0:0:
330,253,51899,2,0,L|345:150,1,103.599996838379,0|0,1:0|2:0,2:0:0:0:
355,60,52244,6,0,L|384:247,1,155.399995257569,4|0,2:3|2:0,2:0:0:0:
350,281,52820,1,0,1:0:0:0:
203,196,53165,1,4,3:0:0:0:
223,210,53280,2,0,L|203:88,1,103.599996838379,4|0,2:3|2:0,2:0:0:0:
221,105,53625,2,0,L|236:208,1,103.599996838379,0|0,1:0|2:0,2:0:0:0:
246,298,53971,6,0,L|275:111,1,155.399995257569,4|0,2:3|2:0,2:0:0:0:
241,77,54546,1,0,1:0:0:0:
94,162,54892,1,8,2:3:0:0:
114,148,55007,2,0,L|94:270,1,103.599996838379,4|0,2:3|2:0,2:0:0:0:
112,253,55352,2,0,L|127:150,1,103.599996838379,0|0,1:0|2:0,2:0:0:0:
11,115,55697,5,0,1:0:0:0:
60,93,55812,1,0,1:0:0:0:
109,71,55928,1,0,1:0:0:0:
180,110,56043,5,0,1:0:0:0:
214,125,56158,1,0,1:0:0:0:
248,140,56273,1,0,1:0:0:0:
321,170,56388,5,2,1:2:0:0:
344,159,56503,1,0,1:0:0:0:
368,149,56618,1,0,1:0:0:0:
438,124,56733,6,0,L|451:61,2,44.3999986450196,8|0|8,2:3|2:0|2:3,2:0:0:0:
426,195,57068,2,0,L|413:258,2,44.3999986450196,4|0|4,2:3|2:0|2:3,2:0:0:0:
502,186,57404,6,0,B|419:171|419:171|399:156|399:156|328:149|328:149|327:153|327:153|299:170|299:170|300:175|300:175|30:209,1,480.999977981568,4|4,1:0|2:3,2:0:0:0:
216,333,58353,5,4,2:3:0:0:
289,320,58472,1,8,2:3:0:0:
279,348,58709,5,4,2:3:0:0:
235,355,58828,1,4,1:2:0:0:
91,132,59184,6,0,B|76:102|76:102|444:283|444:283|418:238,1,480.999977981568,4|8,1:0|2:3,2:0:0:0:
261,83,60133,5,8,2:3:0:0:
214,134,60252,1,4,2:3:0:0:
267,75,60490,5,4,2:3:0:0:
335,89,60608,1,4,1:2:0:0:
258,73,60846,5,0,3:0:0:0:
236,7,60964,6,0,B|180:32|180:32|186:34|186:34|317:350|317:350|312:347|312:347|235:384,1,480.999977981568,4|4,1:0|2:3,2:0:0:0:
506,158,61922,5,8,2:3:0:0:
492,225,62041,1,4,2:3:0:0:
495,156,62281,5,0,3:0:0:0:
481,223,62401,2,0,L|424:251,2,44.3999986450196,8|8|8,2:3|2:3|2:3,2:0:0:0:
430,174,62760,5,0,1:0:0:0:
415,143,62872,1,0,1:0:0:0:
384,132,62984,1,0,1:0:0:0:
357,88,63096,5,0,1:0:0:0:
331,85,63207,1,0,1:0:0:0:
310,102,63319,1,0,1:0:0:0:
265,84,63431,5,0,1:0:0:0:
248,97,63543,1,0,1:0:0:0:
245,119,63654,1,8,2:3:0:0:
228,138,63766,6,0,P|243:161|240:201,1,44.3999986450196,8|4,1:3|2:3,2:0:0:0:
275,208,63998,2,0,P|260:231|263:271,1,44.3999986450196,4|4,1:3|2:3,2:0:0:0:
256,384,64230,1,4,2:3:0:0:
256,384,64346,1,4,2:3:0:0:
256,353,64462,6,0,P|205:305|121:304,1,148,4|0,1:0|2:0,2:0:0:0:
106,332,64821,1,2,3:0:0:0:
257,247,65060,2,0,P|316:210|446:278,1,222,0|0,1:0|3:0,2:0:0:0:
249,257,65539,2,0,P|326:265|368:200,1,162.800004968262,4|0,2:3|2:0,2:0:0:0:
469,157,65899,2,0,P|396:194|349:128,1,177.599994580078,0|2,1:0|3:0,2:0:0:0:
255,353,66258,6,0,P|198:313|114:324,1,148,4|0,1:0|2:0,2:0:0:0:
104,353,66604,1,2,3:0:0:0:
242,248,66836,2,0,P|295:203|433:252,1,222,0|0,1:0|3:0,2:0:0:0:
235,259,67298,2,0,P|312:256|345:186,1,162.800004968262,4|0,2:3|3:0,2:0:0:0:
439,129,67645,2,0,P|372:176|316:117,1,177.599994580078,0|0,1:0|2:0,2:0:0:0:
395,4,67992,6,0,P|332:96|373:221,1,207.199993676758,4|0,1:2|2:0,2:0:0:0:
429,244,68336,1,2,3:0:0:0:
203,204,68566,1,0,1:0:0:0:
227,212,68681,2,0,P|186:119|93:79,1,207.199993676758,8|0,2:3|2:0,2:0:0:0:
47,223,69026,2,0,P|129:188|115:245,1,192.399991192627,4|2,2:3|3:0,2:0:0:0:
76,161,69371,2,0,P|114:252|51:236,1,207.199993676758,2|0,1:2|2:0,2:0:0:0:
132,330,69716,6,0,P|207:247|183:118,1,207.199993676758,4|0,1:2|2:0,2:0:0:0:
132,88,70060,1,2,3:0:0:0:
350,159,70290,1,0,1:0:0:0:
327,147,70405,2,0,P|354:244|441:297,1,207.199993676758,4|0,2:3|2:0,2:0:0:0:
436,133,70750,2,0,P|445:212|507:162,1,192.399991192627,4|8,2:3|2:3,2:0:0:0:
497,137,71095,2,0,P|413:154|470:219,1,207.199993676758,12|8,1:3|2:3,2:0:0:0:
448,304,71440,6,0,P|385:277|263:288,1,148,4|0,1:0|2:0,2:0:0:0:
251,342,71785,1,2,3:0:0:0:
300,283,72014,2,0,P|237:255|201:116,1,222,0|0,1:0|3:0,2:0:0:0:
106,131,72474,2,0,P|160:123|147:-23,1,162.800004968262,4|0,2:3|2:0,2:0:0:0:
86,123,72819,2,0,P|105:223|52:244,1,177.599994580078,0|4,1:0|2:3,2:0:0:0:
448,304,73164,6,0,P|381:286|262:313,1,148,4|0,1:0|2:0,2:0:0:0:
259,369,73509,1,2,3:0:0:0:
299,303,73739,2,0,P|232:284|177:151,1,222,0|0,1:0|3:0,2:0:0:0:
86,180,74198,2,0,P|138:164|105:21,1,162.800004968262,4|0,2:3|2:0,2:0:0:0:
65,175,74543,2,0,P|97:271|48:299,1,177.599994580078,0|4,1:0|2:3,2:0:0:0:
118,273,74888,6,0,P|145:292|242:190,1,207.199993676758,4|0,1:2|2:0,2:0:0:0:
177,153,75233,1,2,3:0:0:0:
322,318,75463,1,0,1:0:0:0:
299,303,75578,2,0,P|393:289|425:379,1,207.199993676758,4|0,2:3|2:0,2:0:0:0:
461,318,75923,2,0,P|432:234|450:98,1,207.199993676758,8|4,2:3|2:3,2:0:0:0:
495,78,76267,6,0,B|458:104|417:95|436:81|398:71|368:89,1,133.199995935059,0|0,1:0|2:0,2:0:0:0:
308,15,76612,5,0,1:0:0:0:
306,32,76728,1,0,1:0:0:0:
293,26,76845,1,0,1:0:0:0:
314,33,76962,1,0,1:0:0:0:
303,44,77079,1,0,1:0:0:0:
302,29,77196,1,0,1:0:0:0:
292,42,77313,1,0,1:0:0:0:
282,27,77430,1,0,1:0:0:0:
295,32,77547,1,0,1:0:0:0:
283,43,77664,6,0,L|294:127,2,44.3999986450196,12|8|8,2:3|2:3|2:3,2:0:0:0:
298,158,78015,2,0,L|309:242,2,44.3999986450196,12|4|4,2:3|2:3|2:3,2:0:0:0:
233,133,78366,5,4,1:0:0:0:
488,88,78714,1,0,3:0:0:0:
468,0,78947,6,0,L|445:185,1,155.399995257569,0|4,1:0|3:0,2:0:0:0:
355,252,79412,2,0,L|457:234,1,103.599996838379,4|0,2:3|2:0,2:0:0:0:
442,163,79761,2,0,L|339:180,1,103.599996838379,0|0,1:0|2:0,2:0:0:0:
346,259,80110,2,0,L|314:71,1,155.399995257569,4|0,2:3|2:0,2:0:0:0:
258,54,80691,1,0,1:0:0:0:
402,310,81040,1,4,2:3:0:0:
421,291,81156,2,0,L|267:273,1,155.399995257569,4|0,2:3|1:0,2:0:0:0:
98,255,81854,5,4,2:3:0:0:
344,283,82194,1,0,3:0:0:0:
279,352,82422,6,0,L|256:167,1,155.399995257569,0|0,1:0|2:0,2:0:0:0:
166,100,82876,2,0,L|268:117,1,103.599996838379,4|0,2:3|2:0,2:0:0:0:
253,189,83217,2,0,L|150:171,1,103.599996838379,0|0,1:3|2:0,2:0:0:0:
157,93,83558,2,0,L|125:281,1,155.399995257569,4|0,2:3|2:0,2:0:0:0:
69,298,84126,1,0,1:0:0:0:
213,42,84467,1,8,2:3:0:0:
232,60,84581,2,0,L|77:78,1,155.399995257569,4|0,2:3|1:3,2:0:0:0:
318,133,85263,6,0,L|471:158,1,155.399995257569,4|0,2:3|2:0,2:0:0:0:
321,239,85833,1,0,1:0:0:0:
348,232,85947,1,2,2:0:0:0:
358,243,86289,6,0,L|344:347,1,103.599996838379,12|0,2:3|2:3,2:3:0:0:
373,260,86631,2,0,L|387:156,1,103.599996838379,0|0,1:0|2:0,2:0:0:0:
167,264,86973,6,0,L|320:239,1,155.399995257569,4|0,2:3|2:0,2:0:0:0:
170,158,87544,1,0,1:0:0:0:
197,165,87658,1,2,2:0:0:0:
207,154,88000,6,0,L|193:50,1,103.599996838379,4|0,2:3|2:0,2:0:0:0:
222,137,88342,2,0,L|236:241,1,103.599996838379,0|0,1:0|2:0,2:0:0:0:
16,132,88684,6,0,L|169:157,1,155.399995257569,4|0,2:3|2:0,2:0:0:0:
19,238,89255,1,0,1:0:0:0:
46,231,89369,1,2,2:0:0:0:
56,242,89711,6,0,L|42:346,1,103.599996838379,4|0,2:3|2:0,2:0:0:0:
71,259,90053,2,0,L|85:155,1,103.599996838379,0|0,1:0|2:0,2:0:0:0:
157,71,90395,5,4,2:3:0:0:
193,134,90747,5,0,1:0:0:0:
261,110,90983,1,8,2:3:0:0:
297,173,91336,5,0,1:0:0:0:
330,185,91453,5,8,1:3:0:0:
348,153,91571,1,8,1:3:0:0:
383,166,91689,1,4,1:3:0:0:
401,133,91806,1,12,2:3:0:0:
56,26,92042,1,4,2:3:0:0:
74,59,92159,6,0,L|50:237,1,155.399995257569,4|0,1:2|2:0,2:0:0:0:
94,303,92733,1,0,1:0:0:0:
168,140,93078,1,8,2:3:0:0:
152,156,93193,2,0,L|146:105,2,51.7999984191895,4|0|0,2:3|2:0|2:0,2:0:0:0:
228,169,93538,2,0,L|213:60,1,103.599996838379,0|0,1:0|2:0,2:0:0:0:
201,30,93883,6,0,L|357:49,1,155.399995257569,4|0,2:3|3:0,2:0:0:0:
431,20,94457,1,0,1:0:0:0:
370,212,94802,1,8,2:3:0:0:
386,197,94917,2,0,L|371:305,1,103.599996838379,4|0,2:3|2:0,2:0:0:0:
363,370,95262,1,0,1:0:0:0:
154,333,95607,6,0,L|130:155,1,155.399995257569,4|0,2:3|2:0,2:0:0:0:
174,89,96181,1,0,1:0:0:0:
248,252,96526,1,4,2:3:0:0:
232,236,96641,2,0,L|226:287,2,51.7999984191895,4|0|0,2:3|2:0|2:0,2:0:0:0:
308,223,96986,2,0,L|293:331,1,103.599996838379,0|0,1:0|2:0,2:0:0:0:
281,362,97331,6,0,L|437:343,1,155.399995257569,4|0,2:3|2:0,2:0:0:0:
511,372,97903,1,0,1:0:0:0:
450,180,98247,1,8,3:0:0:0:
466,195,98361,2,0,L|451:86,1,103.599996838379,4|0,2:3|2:0,2:0:0:0:
443,22,98705,1,0,1:0:0:0:
188,62,98934,1,4,3:0:0:0:
173,87,99049,6,0,L|363:101,1,155.399995257569,4|0,2:3|2:0,2:0:0:0:
43,77,99621,1,0,1:0:0:0:
270,117,99965,1,8,2:3:0:0:
288,131,100079,2,0,L|272:29,1,103.599996838379,4|0,2:3|2:0,2:0:0:0:
245,34,100423,2,0,L|262:137,1,103.599996838379,0|0,1:0|2:0,2:0:0:0:
342,213,100767,6,0,L|152:227,1,155.399995257569,4|0,2:3|2:0,2:0:0:0:
472,203,101339,1,0,1:0:0:0:
246,240,101683,1,4,2:3:0:0:
227,257,101797,2,0,L|243:155,1,103.599996838379,4|0,2:3|2:0,2:0:0:0:
270,160,102141,2,0,L|253:263,1,103.599996838379,0|0,1:0|2:0,2:0:0:0:
238,299,102485,6,0,L|48:313,1,155.399995257569,4|0,2:3|2:0,2:0:0:0:
368,289,103057,1,0,1:0:0:0:
157,228,103401,1,8,2:3:0:0:
139,241,103516,2,0,L|117:378,1,103.599996838379,4|0,2:3|2:0,2:0:0:0:
149,349,103859,2,0,L|166:246,1,103.599996838379,0|0,1:3|2:0,2:0:0:0:
160,170,104203,5,0,1:0:0:0:
111,148,104317,1,0,1:0:0:0:
62,126,104432,1,0,1:0:0:0:
2,164,104546,5,0,1:0:0:0:
7,200,104661,1,0,1:0:0:0:
11,237,104775,1,0,1:0:0:0:
52,256,104890,5,2,1:2:0:0:
74,241,105005,1,0,1:0:0:0:
94,225,105119,1,0,1:0:0:0:
45,174,105234,6,0,L|-1:163,1,44.3999986450196,8|0,2:3|2:0,2:0:0:0:
113,88,105463,1,8,2:3:0:0:
127,77,105577,2,0,L|84:67,1,44.3999986450196,4|0,2:3|2:0,2:0:0:0:
304,35,105806,1,4,2:3:0:0:
244,80,105921,6,0,B|229:41|215:56|196:9|196:9|264:353|284:80|344:404,1,480.999977981568,4|4,1:0|2:3,2:0:0:0:
490,151,106879,5,4,2:3:0:0:
477,224,106998,1,8,2:3:0:0:
512,170,107238,5,4,2:3:0:0:
505,214,107358,1,4,1:2:0:0:
204,354,107717,6,0,B|239:322|285:337|285:337|333:271|319:213|319:213|298:195|298:195|322:185|322:185|294:126|310:59|310:59|270:63|217:5,1,480.999977981568,4|8,1:0|2:3,2:0:0:0:
24,272,108649,5,8,2:3:0:0:
41,341,108765,1,4,2:3:0:0:
54,198,108998,5,4,2:3:0:0:
37,267,109115,1,4,1:2:0:0:
24,124,109348,5,8,3:0:0:0:
41,193,109464,6,0,B|132:173|132:173|130:181|130:181|193:230|193:230|198:226|198:226|227:222|227:222|241:197|241:197|238:193|238:193|411:162|411:162|518:229,1,480.999977981568,4|4,1:0|2:3,2:0:0:0:
293,380,110405,5,8,2:3:0:0:
223,368,110522,1,4,2:3:0:0:
206,302,110758,5,4,3:0:0:0:
311,284,110875,2,0,B|239:220|239:220|125:257,1,192.399991192627,8|4,2:3|2:3,2:0:0:0:
104,186,111228,6,0,B|261:145|225:292|467:223,1,288.599986788941,4|4,1:0|1:3,2:0:0:0:
257,68,111812,1,4,1:3:0:0:
247,116,112163,5,0,1:0:0:0:
267,19,112280,1,8,2:3:0:0:
208,57,112514,5,4,2:3:0:0:
305,77,112631,2,0,B|377:13|377:13|491:50,1,192.399991192627,4|4,2:3|2:3,2:0:0:0:
485,116,112982,6,0,B|510:86|510:86|477:4|477:4|426:219|426:219|418:237|394:232,1,384.799982385255,4|0,1:0|2:0,2:0:0:0:
359,157,113577,1,4,2:3:0:0:
359,291,113934,5,4,2:3:0:0:
440,303,114053,1,8,2:3:0:0:
343,317,114291,5,4,2:3:0:0:
262,329,114410,2,0,B|141:378|141:378|128:337|61:309,1,192.399991192627,4|0,1:2|2:0,2:0:0:0:
272,343,114767,6,0,B|258:241|291:136|291:136|207:217,1,288.599986788941,4|4,1:0|2:3,2:0:0:0:
343,317,115355,1,8,2:3:0:0:
234,191,115708,5,8,2:3:0:0:
331,206,115825,1,4,2:3:0:0:
95,167,116061,5,4,2:3:0:0:
184,109,116178,2,0,B|195:114|195:114|231:91|231:91|56:59,1,192.399991192627,4|0,1:2|2:0,2:0:0:0:
31,27,116531,6,0,B|15:60|-15:294|126:279|231:87|45:-173|440:237|176:280|205:341|311:407|486:350|480:231,1,769.599964770509,4|8,1:2|2:3,2:0:0:0:
487,136,117589,6,0,B|470:155|470:155|443:134|443:134|405:162|405:162|389:155|389:155|361:168|361:168|318:178,1,192.399991192627,4|0,2:3|2:0,2:0:0:0:
270,133,117942,2,0,B|261:123|261:123|247:134|247:134|226:119|226:119|218:123|218:123|204:116|204:116|181:111,1,96.1999955963137,8|8,2:3|2:3,2:0:0:0:
82,210,118178,1,4,2:3:0:0:
82,210,118295,5,0,1:0:0:0:
97,241,118411,1,0,1:0:0:0:
128,252,118528,1,0,1:0:0:0:
155,296,118645,5,0,1:0:0:0:
181,299,118762,1,0,1:0:0:0:
202,282,118879,1,0,1:0:0:0:
247,300,118996,5,0,1:0:0:0:
264,287,119113,1,0,1:0:0:0:
267,265,119230,1,0,1:0:0:0:
284,246,119347,6,0,P|269:223|272:183,1,44.3999986450196,8|8,2:3|2:3,2:0:0:0:
237,176,119581,2,0,P|252:153|249:113,1,44.3999986450196,4|4,2:3|2:3,2:0:0:0:
256,0,119815,1,4,2:3:0:0:
256,0,119932,1,4,2:3:0:0:
256,31,120049,6,0,P|351:26|425:109,1,148,4|0,1:0|2:0,2:0:0:0:
392,90,120397,1,2,3:0:0:0:
502,127,120630,2,0,P|436:118|433:254,1,222,0|0,1:0|3:0,2:0:0:0:
284,359,121095,2,0,P|380:341|374:303,1,162.800004968262,4|0,2:3|2:0,2:0:0:0:
496,312,121444,2,0,P|400:294|420:236,1,177.599994580078,0|2,1:0|3:0,2:0:0:0:
256,31,121793,6,0,P|350:39|412:131,1,148,4|0,1:0|2:0,2:0:0:0:
382,108,122142,1,2,3:0:0:0:
486,160,122374,2,0,P|421:141|399:276,1,222,0|0,1:0|2:0,2:0:0:0:
238,359,122839,2,0,P|335:354|334:316,1,162.800004968262,4|0,2:3|3:0,2:0:0:0:
452,340,123188,2,0,P|359:308|387:254,1,177.599994580078,0|0,1:0|2:0,2:0:0:0:
238,359,123537,6,0,P|156:246|98:276,1,207.199993676758,4|0,1:2|2:0,2:0:0:0:
95,281,123883,1,2,3:0:0:0:
229,259,124115,1,0,1:0:0:0:
241,272,124230,2,0,P|274:226|263:151,2,103.599996838379,8|0|0,2:3|2:0|2:0,2:0:0:0:
35,156,124577,2,0,P|100:132|186:236,1,192.399991192627,4|2,2:3|3:0,2:0:0:0:
395,286,124924,2,0,P|353:315|303:313,1,103.599996838379,2|0,1:2|2:0,2:0:0:0:
278,209,125155,1,8,3:0:0:0:
278,209,125271,6,0,P|360:96|418:126,1,207.199993676758,4|0,1:2|2:0,2:0:0:0:
420,128,125617,1,2,3:0:0:0:
286,106,125849,1,0,1:0:0:0:
274,119,125964,2,0,P|241:73|252:-2,2,103.599996838379,4|0|0,2:3|2:0|2:0,2:0:0:0:
480,3,126311,2,0,P|415:-21|329:83,1,192.399991192627,4|8,2:3|2:3,2:0:0:0:
224,41,126658,2,0,P|155:35|131:-73,1,103.599996838379,12|0,1:3|2:0,2:0:0:0:
37,100,126889,1,8,2:3:0:0:
37,100,127005,6,0,P|11:205|46:300,1,148,4|0,1:0|2:0,2:0:0:0:
94,279,127349,1,2,3:0:0:0:
49,374,127579,2,0,P|101:252|209:289,1,222,0|0,1:0|3:0,2:0:0:0:
240,148,128039,2,0,P|164:190|179:264,1,162.800004968262,4|0,2:3|2:0,2:0:0:0:
113,91,128384,2,0,P|88:152|156:96,1,177.599994580078,0|4,1:0|2:3,2:0:0:0:
76,101,128729,6,0,P|35:201|57:300,1,148,4|0,1:0|2:0,2:0:0:0:
109,280,129071,1,2,3:0:0:0:
49,374,129300,2,0,P|117:260|219:312,1,222,0|0,1:0|2:0,2:0:0:0:
270,177,129757,2,0,P|188:208|193:283,1,162.800004968262,4|0,2:3|2:0,2:0:0:0:
152,102,130100,2,0,P|118:158|193:112,1,177.599994580078,0|4,1:0|2:3,2:0:0:0:
470,257,130443,6,0,P|365:294|280:236,1,207.199993676758,4|0,1:2|2:0,2:0:0:0:
292,222,130780,1,2,3:0:0:0:
473,147,131004,1,0,1:0:0:0:
489,178,131117,2,0,P|405:161|364:106,1,103.599996838379,4|0,2:3|2:0,2:0:0:0:
295,68,131341,1,0,3:0:0:0:
308,50,131454,2,0,P|362:131|346:260,1,192.399991192627,8|4,2:3|2:3,2:0:0:0:
393,151,131791,2,0,P|279:169|292:252,1,207.199993676758,0|0,1:0|2:0,2:0:0:0:
301,337,132128,5,0,1:0:0:0:
332,341,132244,1,0,1:0:0:0:
306,345,132361,1,0,1:0:0:0:
315,306,132478,1,0,1:0:0:0:
323,348,132595,1,0,1:0:0:0:
305,327,132712,1,0,1:0:0:0:
319,330,132829,1,0,1:0:0:0:
334,328,132946,1,0,1:0:0:0:
312,334,133063,1,0,1:0:0:0:
321,354,133180,6,0,B|347:348|347:348|365:363|365:363|375:355|375:355|366:375|366:375|399:362|399:362|406:368|406:368|431:364,2,148,12|8|8,2:3|2:3|2:3,2:0:0:0:
248,379,133531,6,0,B|175:362|175:362|145:329|145:329|16:356,1,222.000008468628,12|4,2:3|2:3,2:0:0:0:
14,369,133882,6,2,B|65:220|65:220|35:146,1,222,6|0,2:1|2:0,2:1:0:0:
132,24,134463,1,2,1:0:0:0:
104,9,134579,2,0,B|173:166|173:166|112:155,1,222,2|4,3:0|3:0,3:0:0:0:
21,77,135277,1,0,1:0:0:0:
264,71,135626,6,2,B|247:205|247:205|196:251,1,177.6,6|0,2:1|2:0,2:1:0:0:
223,381,136207,1,2,1:0:0:0:
196,383,136323,2,0,B|308:287|308:287|257:272,1,177.6,2|4,3:0|2:3,2:0:0:0:
158,298,137021,1,0,1:0:0:0:
492,162,137370,6,2,B|443:178|443:178|432:187|432:187|412:181|412:181|303:220,1,177.6,6|0,2:1|3:0,2:1:0:0:
296,278,137951,1,2,1:0:0:0:
292,294,138068,2,2,B|264:288|264:288|270:216,2,59.2,2|0|0,3:0|2:0|2:0,2:1:0:0:
454,280,138416,2,0,B|376:274|376:274|504:362,1,177.6,4|0,2:3|1:0,2:0:0:0:
457,330,139114,6,0,L|426:171,1,118.4,12|0,2:3|2:0,2:0:0:0:
434,137,139463,2,0,L|454:229,1,59.2,0|0,1:0|2:0,2:0:0:0:
376,274,139695,1,0,1:0:0:0:
483,57,140044,1,0,1:0:0:0:
468,73,140161,2,0,L|455:15,1,59.2,8|0,2:3|2:0,2:0:0:0:
288,76,140393,1,4,1:3:0:0:
388,60,140509,2,0,B|364:66|364:66|326:53|326:53|235:77,1,118.4,8|4,2:3|2:3,2:0:0:0:
498,15,140858,6,2,B|447:164|447:164|477:238,1,222,6|0,2:1|2:0,2:1:0:0:
380,360,141440,1,2,1:0:0:0:
408,375,141556,2,0,B|339:218|339:218|400:229,1,222,2|4,3:0|2:3,2:0:0:0:
491,307,142254,1,0,1:0:0:0:
248,313,142602,6,2,B|265:179|265:179|316:133,1,177.6,6|0,2:1|2:0,2:1:0:0:
289,3,143180,1,2,1:0:0:0:
316,1,143295,2,0,B|204:97|204:97|255:112,1,177.6,2|4,3:0|2:3,2:0:0:0:
354,86,143989,1,0,1:0:0:0:
20,222,144336,6,2,B|69:206|69:206|80:197|80:197|100:203|100:203|209:164,1,177.6,6|0,2:1|3:0,2:1:0:0:
216,106,144914,1,2,1:0:0:0:
220,90,145029,2,2,B|248:96|248:96|242:168,2,59.2,2|0|0,3:0|2:0|2:0,2:1:0:0:
58,104,145376,2,0,B|136:110|136:110|8:22,1,177.6,4|0,2:3|1:0,2:0:0:0:
54,53,146070,6,0,L|243:33,1,177.6,12|0,2:3|1:0,2:0:0:0:
316,117,146658,1,0,1:0:0:0:
322,89,146775,1,4,2:3:0:0:
376,15,147011,1,0,1:0:0:0:
376,15,147128,1,8,2:3:0:0:
448,2,147481,6,0,L|522:19,1,66.5999979675294,0|2,1:0|3:0,2:0:0:0:
8,8,156646,5,0,1:0:0:0:
80,32,156996,5,0,1:0:0:0:
58,117,157230,1,8,2:3:0:0:
132,108,157581,5,0,1:0:0:0:
140,141,157698,1,8,2:3:0:0:
220,126,158049,5,0,1:0:0:0:
198,211,158283,1,8,2:3:0:0:
274,197,158634,5,0,1:0:0:0:
282,230,158751,1,8,2:3:0:0:
356,211,159102,5,0,1:0:0:0:
334,297,159336,1,8,2:3:0:0:
409,283,159686,5,0,1:0:0:0:
417,316,159803,1,4,2:3:0:0:
501,364,160154,5,0,1:0:0:0:
502,377,160505,5,0,1:0:0:0:
454,360,160620,1,0,1:0:0:0:
405,352,160736,1,0,1:0:0:0:
374,307,160851,5,0,1:0:0:0:
326,324,160967,1,0,1:0:0:0:
287,290,161083,1,0,1:0:0:0:
300,260,161198,5,0,1:0:0:0:
300,209,161314,1,0,1:0:0:0:
255,235,161429,1,0,1:0:0:0:
220,197,161545,5,8,2:3:0:0:
228,170,161661,1,8,2:3:0:0:
230,198,161776,1,8,2:3:0:0:
188,227,161892,5,4,2:3:0:0:
192,240,162008,1,4,2:3:0:0:
193,226,162125,1,4,2:3:0:0:
152,160,162242,5,4,1:2:0:0:
