osu file format v14

[General]
AudioFilename: audio.ogg
AudioLeadIn: 0
PreviewTime: 41600
Countdown: 0
SampleSet: Soft
StackLeniency: 0.2
Mode: 0
LetterboxInBreaks: 0
WidescreenStoryboard: 0

[Editor]
Bookmarks: 12252,27905,55731,80078,93992,121818,146165,160078,187905,212252,226165,267905,295731
DistanceSpacing: 0.9
BeatDivisor: 4
GridSize: 32
TimelineZoom: 2.3

[Metadata]
Title:The Hungry Wolf Of Fate
TitleUnicode:The Hungry Wolf Of Fate
Artist:King Gizzard & The Lizard Wizard
ArtistUnicode:King Gizzard & The Lizard Wizard
Creator:CORROSIVE
Version:mindless pissants
Source:
Tags:rock alternative garage english K.G. KG and kgatlw kglw WashedUp Player
BeatmapID:4297356
BeatmapSetID:2056481

[Difficulty]
HPDrainRate:6
CircleSize:3.2
OverallDifficulty:8.5
ApproachRate:9.2
SliderMultiplier:2
SliderTickRate:1

[Events]
//Background and Video events
0,0,"the.jpg",0,0
//Break Periods
//Storyboard Layer 0 (Background)
//Storyboard Layer 1 (Fail)
//Storyboard Layer 2 (Pass)
//Storyboard Layer 3 (Foreground)
//Storyboard Layer 4 (Overlay)
//Storyboard Sound Samples

[TimingPoints]
79,434.782608695652,4,2,1,40,1,0
79,-625,4,2,1,40,0,0
10731,-400,4,2,1,40,0,0
12252,-40,4,2,1,70,0,0
13013,-40,4,2,1,5,0,0
13122,-40,4,2,1,70,0,0
13267,-40,4,2,1,5,0,0
13339,-40,4,2,1,70,0,0
13557,-100,4,2,1,70,0,0
13883,-100,4,2,1,5,0,0
13992,-50,4,2,1,70,0,0
15731,-58.8235294117647,4,2,1,70,0,0
17361,-58.8235294117647,4,2,1,5,0,0
17470,-50,4,2,1,70,0,0
19318,-50,4,2,1,5,0,0
19426,-50,4,2,1,70,0,0
19535,-50,4,2,1,5,0,0
19644,-50,4,2,1,70,0,0
19752,-50,4,2,1,5,0,0
19861,-50,4,2,1,70,0,0
19970,-50,4,2,1,5,0,0
20078,-50,4,2,1,70,0,0
20513,-1000,4,2,1,70,0,0
20839,-50,4,2,1,5,0,0
20948,-50,4,2,1,70,0,0
21818,-66.6666666666667,4,2,1,70,0,0
21890,-50,4,2,1,5,0,0
21981,-50,4,2,1,70,0,0
22089,-50,4,2,1,5,0,0
22252,-62.5,4,2,1,70,0,0
22361,-50,4,2,1,5,0,0
22470,-62.5,4,2,1,70,0,0
22578,-50,4,2,1,5,0,0
22687,-58.8235294117647,4,2,1,70,0,0
23448,-50,4,2,1,5,0,0
23557,-58.8235294117647,4,2,1,70,0,0
23629,-50,4,2,1,5,0,0
23702,-58.8235294117647,4,2,1,70,0,0
23774,-50,4,2,1,5,0,0
23847,-83.3333333333333,4,2,1,70,0,0
23919,-50,4,2,1,5,0,0
23992,-333.333333333333,4,2,1,70,0,0
24100,-50,4,2,1,5,0,0
24209,-333.333333333333,4,2,1,70,0,0
24318,-50,4,2,1,5,0,0
24426,-58.8235294117647,4,2,1,70,0,0
25296,-50,4,2,1,70,0,0
26274,-50,4,2,1,5,0,0
26383,-50,4,2,1,70,0,0
26492,-50,4,2,1,5,0,0
26600,-50,4,2,1,70,0,0
26709,-50,4,2,1,5,0,0
26818,-50,4,2,1,70,0,0
26926,-50,4,2,1,5,0,0
27035,-50,4,2,1,70,0,0
27470,-500,4,2,1,70,0,0
27959,-500,4,2,1,40,0,0
28665,-500,4,2,1,5,0,0
28774,-500,4,2,1,40,0,0
32252,-333.333333333333,4,2,1,40,0,0
34318,-333.333333333333,4,2,1,5,0,0
34426,-333.333333333333,4,2,1,40,0,0
34861,-500,4,2,1,40,0,0
35622,-500,4,2,1,5,0,0
35731,-500,4,2,1,40,0,0
39209,-333.333333333333,4,2,1,40,0,0
41274,-333.333333333333,4,2,1,5,0,0
41383,-333.333333333333,4,2,1,40,0,0
41818,-250,4,2,1,50,0,0
42470,-250,4,2,1,5,0,0
42687,-250,4,2,1,50,0,0
43339,-250,4,2,1,5,0,0
43557,-250,4,2,1,50,0,0
45078,-250,4,2,1,5,0,0
45296,-250,4,2,1,50,0,0
45948,-250,4,2,1,5,0,0
46165,-250,4,2,1,50,0,0
46818,-250,4,2,1,5,0,0
47035,-250,4,2,1,50,0,0
47144,-250,4,2,1,5,0,0
47252,-250,4,2,1,50,0,0
47361,-250,4,2,1,5,0,0
47470,-250,4,2,1,50,0,0
47578,-250,4,2,1,5,0,0
47687,-250,4,2,1,50,0,0
47796,-250,4,2,1,5,0,0
47905,-250,4,2,1,50,0,0
48013,-250,4,2,1,5,0,0
48122,-250,4,2,1,50,0,0
48665,-250,4,2,1,5,0,0
48774,-250,4,2,1,50,0,0
49426,-250,4,2,1,5,0,0
49644,-125,4,2,1,50,0,0
50296,-250,4,2,1,5,0,0
50513,-250,4,2,1,50,0,0
51165,-250,4,2,1,5,0,0
51383,-250,4,2,1,50,0,0
52470,-400,4,2,1,50,0,0
53992,-27.3972602739726,4,2,1,70,0,0
54752,-27.3972602739726,4,2,1,5,0,0
54861,-33.3333333333333,4,2,1,70,0,0
55006,-33.3333333333333,4,2,1,5,0,0
55078,-33.3333333333333,4,2,1,70,0,0
55296,-100,4,2,1,70,0,0
55350,-100,4,2,1,5,0,0
55405,-50,4,2,1,70,0,0
55622,-33.3333333333333,4,2,1,5,0,0
55731,-50,4,2,1,70,0,0
55839,-33.3333333333333,4,2,1,5,0,0
55948,-33.3333333333333,4,2,1,70,0,0
57035,-50,4,2,1,70,0,0
57144,-33.3333333333333,4,2,1,5,0,0
57252,-33.3333333333333,4,2,1,70,0,0
57905,-50,4,2,1,70,0,0
58013,-33.3333333333333,4,2,1,5,0,0
58122,-33.3333333333333,4,2,1,70,0,0
58774,-50,4,2,1,70,0,0
58883,-33.3333333333333,4,2,1,5,0,0
58991,-33.3333333333333,4,2,1,70,0,0
59644,-50,4,2,1,70,0,0
59970,-33.3333333333333,4,2,1,5,0,0
60078,-40,4,2,1,70,0,0
60405,-40,4,2,1,5,0,0
60513,-40,4,2,1,70,0,0
60948,-100,4,2,1,70,0,0
61057,-33.3333333333333,4,2,1,5,0,0
61165,-100,4,2,1,70,0,0
61274,-33.3333333333333,4,2,1,5,0,0
61383,-100,4,2,1,70,0,0
61492,-33.3333333333333,4,2,1,5,0,0
61600,-100,4,2,1,70,0,0
61709,-33.3333333333333,4,2,1,5,0,0
61818,-100,4,2,1,70,0,0
61926,-33.3333333333333,4,2,1,5,0,0
62035,-100,4,2,1,70,0,0
62144,-33.3333333333333,4,2,1,5,0,0
62252,-100,4,2,1,70,0,0
62361,-33.3333333333333,4,2,1,5,0,0
62470,-100,4,2,1,70,0,0
62578,-33.3333333333333,4,2,1,5,0,0
62687,-50,4,2,1,70,0,0
62796,-33.3333333333333,4,2,1,5,0,0
62905,-33.3333333333333,4,2,1,70,0,0
63992,-50,4,2,1,70,0,0
64100,-33.3333333333333,4,2,1,5,0,0
64209,-33.3333333333333,4,2,1,70,0,0
64861,-50,4,2,1,70,0,0
64970,-33.3333333333333,4,2,1,5,0,0
65078,-33.3333333333333,4,2,1,70,0,0
65731,-50,4,2,1,70,0,0
65839,-33.3333333333333,4,2,1,5,0,0
65948,-33.3333333333333,4,2,1,70,0,0
66600,-40,4,2,1,70,0,0
66709,-33.3333333333333,4,2,1,5,0,0
66818,-40,4,2,1,70,0,0
66926,-33.3333333333333,4,2,1,5,0,0
67035,-40,4,2,1,70,0,0
67361,-33.3333333333333,4,2,1,5,0,0
67470,-40,4,2,1,70,0,0
67905,-100,4,2,1,70,0,0
68013,-33.3333333333333,4,2,1,5,0,0
68122,-100,4,2,1,70,0,0
68231,-33.3333333333333,4,2,1,5,0,0
68339,-100,4,2,1,70,0,0
68448,-33.3333333333333,4,2,1,5,0,0
68557,-100,4,2,1,70,0,0
68665,-33.3333333333333,4,2,1,5,0,0
68774,-100,4,2,1,70,0,0
68883,-33.3333333333333,4,2,1,5,0,0
68992,-100,4,2,1,70,0,0
69100,-33.3333333333333,4,2,1,5,0,0
69209,-100,4,2,1,70,0,0
69318,-33.3333333333333,4,2,1,5,0,0
69426,-100,4,2,1,70,0,0
69535,-33.3333333333333,4,2,1,5,0,0
69644,-50,4,2,1,70,0,0
69752,-33.3333333333333,4,2,1,5,0,0
69861,-33.3333333333333,4,2,1,70,0,0
70948,-50,4,2,1,70,0,0
71057,-33.3333333333333,4,2,1,5,0,0
71165,-33.3333333333333,4,2,1,70,0,0
71818,-50,4,2,1,70,0,0
71926,-33.3333333333333,4,2,1,5,0,0
72035,-33.3333333333333,4,2,1,70,0,0
72687,-50,4,2,1,70,0,0
72796,-33.3333333333333,4,2,1,5,0,0
72904,-33.3333333333333,4,2,1,70,0,0
73557,-40,4,2,1,70,0,0
73665,-33.3333333333333,4,2,1,5,0,0
73774,-40,4,2,1,70,0,0
73883,-33.3333333333333,4,2,1,5,0,0
73992,-40,4,2,1,70,0,0
74318,-33.3333333333333,4,2,1,5,0,0
74426,-40,4,2,1,70,0,0
74970,-33.3333333333333,4,2,1,5,0,0
75078,-40,4,2,1,70,0,0
75405,-33.3333333333333,4,2,1,5,0,0
75513,-40,4,2,1,70,0,0
75622,-33.3333333333333,4,2,1,5,0,0
75731,-40,4,2,1,70,0,0
76057,-33.3333333333333,4,2,1,5,0,0
76165,-40,4,2,1,70,0,0
76600,-50,4,2,1,70,0,0
76709,-33.3333333333333,4,2,1,5,0,0
76818,-33.3333333333333,4,2,1,70,0,0
77905,-50,4,2,1,70,0,0
78013,-33.3333333333333,4,2,1,5,0,0
78123,-33.3333333333333,4,2,1,70,0,0
78774,-40,4,2,1,70,0,0
78883,-33.3333333333333,4,2,1,5,0,0
78992,-40,4,2,1,70,0,0
79100,-33.3333333333333,4,2,1,5,0,0
79209,-55.5555555555556,4,2,1,70,0,0
79535,-33.3333333333333,4,2,1,5,0,0
79644,-166.666666666667,4,2,1,70,0,0
79970,-166.666666666667,4,2,1,5,0,0
80078,-50,4,2,1,70,0,0
80839,-50,4,2,1,5,0,0
80948,-41.6666666666667,4,2,1,70,0,0
81709,-41.6666666666667,4,2,1,5,0,0
81818,-41.6666666666667,4,2,1,70,0,0
81981,-41.6666666666667,4,2,1,5,0,0
82035,-55.5555555555556,4,2,1,70,0,0
83720,-55.5555555555556,4,2,1,5,0,0
83774,-50,4,2,1,70,0,0
84318,-50,4,2,1,5,0,0
84426,-52.6315789473684,4,2,1,70,0,0
85187,-50,4,2,1,5,0,0
85296,-62.5,4,2,1,70,0,0
85405,-62.5,4,2,1,5,0,0
85513,-62.5,4,2,1,70,0,0
85622,-62.5,4,2,1,5,0,0
85731,-62.5,4,2,1,70,0,0
85839,-62.5,4,2,1,5,0,0
85948,-62.5,4,2,1,70,0,0
86057,-62.5,4,2,1,5,0,0
86165,-62.5,4,2,1,70,0,0
86600,-50,4,2,1,70,0,0
87035,-55.5555555555556,4,2,1,70,0,0
87796,-62.5,4,2,1,5,0,0
87905,-64.5161290322581,4,2,1,70,0,0
88665,-64.5161290322581,4,2,1,5,0,0
88774,-64.5161290322581,4,2,1,70,0,0
88883,-64.5161290322581,4,2,1,5,0,0
88992,-64.5161290322581,4,2,1,70,0,0
89100,-64.5161290322581,4,2,1,5,0,0
89209,-64.5161290322581,4,2,1,70,0,0
89318,-64.5161290322581,4,2,1,5,0,0
89426,-64.5161290322581,4,2,1,70,0,0
89535,-64.5161290322581,4,2,1,5,0,0
89644,-64.5161290322581,4,2,1,70,0,0
89716,-64.5161290322581,4,2,1,5,0,0
89789,-64.5161290322581,4,2,1,70,0,0
89861,-64.5161290322581,4,2,1,5,0,0
89934,-64.5161290322581,4,2,1,70,0,0
90006,-64.5161290322581,4,2,1,5,0,0
90078,-64.5161290322581,4,2,1,70,0,0
90151,-64.5161290322581,4,2,1,5,0,0
90223,-200,4,2,1,70,0,0
90405,-64.5161290322581,4,2,1,5,0,0
90513,-55.5555555555556,4,2,1,70,0,0
91274,-64.5161290322581,4,2,1,5,0,0
91383,-57.1428571428571,4,2,1,70,0,0
92252,-66.6666666666667,4,2,1,70,0,0
92361,-66.6666666666667,4,2,1,70,0,0
92470,-66.6666666666667,4,2,1,70,0,0
92578,-66.6666666666667,4,2,1,5,0,0
92687,-66.6666666666667,4,2,1,70,0,0
92796,-66.6666666666667,4,2,1,5,0,0
92905,-66.6666666666667,4,2,1,70,0,0
93013,-66.6666666666667,4,2,1,5,0,0
93122,-66.6666666666667,4,2,1,70,0,0
93557,-400,4,2,1,70,0,0
93883,-500,4,2,1,5,0,0
93992,-500,4,2,1,70,0,0
94100,-500,4,2,1,40,0,0
94752,-500,4,2,1,5,0,0
94861,-500,4,2,1,40,0,0
98339,-333.333333333333,4,2,1,40,0,0
100405,-500,4,2,1,5,0,0
100513,-333.333333333333,4,2,1,40,0,0
100948,-500,4,2,1,40,0,0
101709,-500,4,2,1,5,0,0
101818,-500,4,2,1,40,0,0
105296,-333.333333333333,4,2,1,40,0,0
107361,-500,4,2,1,5,0,0
107470,-333.333333333333,4,2,1,40,0,0
107905,-250,4,2,1,50,0,0
108557,-250,4,2,1,5,0,0
108774,-250,4,2,1,50,0,0
109426,-250,4,2,1,5,0,0
109644,-250,4,2,1,50,0,0
111165,-250,4,2,1,5,0,0
111383,-250,4,2,1,50,0,0
112035,-250,4,2,1,5,0,0
112252,-200,4,2,1,50,0,0
113013,-250,4,2,1,5,0,0
113122,-250,4,2,1,50,0,0
113231,-250,4,2,1,5,0,0
113339,-250,4,2,1,50,0,0
113448,-250,4,2,1,5,0,0
113557,-250,4,2,1,50,0,0
113665,-250,4,2,1,5,0,0
113774,-250,4,2,1,50,0,0
113883,-250,4,2,1,5,0,0
113992,-250,4,2,1,50,0,0
114100,-250,4,2,1,5,0,0
114209,-250,4,2,1,50,0,0
114752,-250,4,2,1,5,0,0
114861,-250,4,2,1,50,0,0
115513,-250,4,2,1,5,0,0
115731,-125,4,2,1,50,0,0
116383,-250,4,2,1,5,0,0
116600,-250,4,2,1,50,0,0
117252,-250,4,2,1,5,0,0
117470,-250,4,2,1,50,0,0
118557,-500,4,2,1,50,0,0
120078,-33.3333333333333,4,2,1,70,0,0
120948,-40,4,2,1,70,0,0
121383,-80,4,2,1,70,0,0
121709,-250,4,2,1,5,0,0
121818,-50,4,2,1,70,0,0
121926,-250,4,2,1,5,0,0
122035,-33.3333333333333,4,2,1,70,0,0
123122,-50,4,2,1,70,0,0
123231,-250,4,2,1,5,0,0
123339,-33.3333333333333,4,2,1,70,0,0
123502,-250,4,2,1,5,0,0
123557,-333.333333333333,4,2,1,70,0,0
123883,-250,4,2,1,5,0,0
123992,-50,4,2,1,70,0,0
124100,-250,4,2,1,5,0,0
124209,-33.3333333333333,4,2,1,70,0,0
124372,-250,4,2,1,5,0,0
124426,-200,4,2,1,70,0,0
124861,-50,4,2,1,70,0,0
124970,-250,4,2,1,5,0,0
125078,-33.3333333333333,4,2,1,70,0,0
125731,-50,4,2,1,70,0,0
125839,-250,4,2,1,5,0,0
125948,-50,4,2,1,70,0,0
126057,-250,4,2,1,5,0,0
126165,-40,4,2,1,70,0,0
126492,-250,4,2,1,5,0,0
126600,-40,4,2,1,70,0,0
127035,-90.9090909090909,4,2,1,70,0,0
127144,-250,4,2,1,5,0,0
127252,-90.9090909090909,4,2,1,70,0,0
127361,-250,4,2,1,5,0,0
127470,-90.9090909090909,4,2,1,70,0,0
127578,-250,4,2,1,5,0,0
127687,-90.9090909090909,4,2,1,70,0,0
127796,-250,4,2,1,5,0,0
127905,-90.9090909090909,4,2,1,70,0,0
128013,-250,4,2,1,5,0,0
128122,-90.9090909090909,4,2,1,70,0,0
128231,-250,4,2,1,5,0,0
128339,-125,4,2,1,70,0,0
128448,-250,4,2,1,5,0,0
128557,-125,4,2,1,70,0,0
128665,-250,4,2,1,5,0,0
128774,-50,4,2,1,70,0,0
128883,-250,4,2,1,5,0,0
128991,-33.3333333333333,4,2,1,70,0,0
130078,-50,4,2,1,70,0,0
130187,-250,4,2,1,5,0,0
130295,-33.3333333333333,4,2,1,70,0,0
130948,-50,4,2,1,70,0,0
131057,-250,4,2,1,5,0,0
131165,-33.3333333333333,4,2,1,70,0,0
131328,-250,4,2,1,5,0,0
131383,-250,4,2,1,70,0,0
131818,-50,4,2,1,70,0,0
131926,-250,4,2,1,5,0,0
132035,-33.3333333333333,4,2,1,70,0,0
132687,-44.4444444444445,4,2,1,70,0,0
132796,-250,4,2,1,5,0,0
132905,-44.4444444444445,4,2,1,70,0,0
133013,-250,4,2,1,5,0,0
133122,-38.4615384615385,4,2,1,70,0,0
133448,-250,4,2,1,5,0,0
133557,-38.4615384615385,4,2,1,70,0,0
134100,-250,4,2,1,5,0,0
134209,-38.4615384615385,4,2,1,70,0,0
134535,-250,4,2,1,5,0,0
134644,-38.4615384615385,4,2,1,70,0,0
134752,-250,4,2,1,5,0,0
134861,-38.4615384615385,4,2,1,70,0,0
135187,-250,4,2,1,5,0,0
135296,-38.4615384615385,4,2,1,70,0,0
135622,-250,4,2,1,5,0,0
135731,-50,4,2,1,70,0,0
135839,-250,4,2,1,5,0,0
135948,-33.3333333333333,4,2,1,70,0,0
137035,-50,4,2,1,70,0,0
137144,-250,4,2,1,5,0,0
137252,-33.3333333333333,4,2,1,70,0,0
137905,-50,4,2,1,70,0,0
138013,-250,4,2,1,5,0,0
138122,-33.3333333333333,4,2,1,70,0,0
138774,-50,4,2,1,70,0,0
138883,-250,4,2,1,5,0,0
138991,-33.3333333333333,4,2,1,70,0,0
139644,-44.4444444444445,4,2,1,70,0,0
139752,-250,4,2,1,5,0,0
139861,-44.4444444444445,4,2,1,70,0,0
139970,-250,4,2,1,5,0,0
140078,-44.4444444444445,4,2,1,70,0,0
140405,-250,4,2,1,5,0,0
140513,-44.4444444444445,4,2,1,70,0,0
140948,-100,4,2,1,70,0,0
141057,-100,4,2,1,5,0,0
141165,-100,4,2,1,70,0,0
141274,-100,4,2,1,5,0,0
141383,-100,4,2,1,70,0,0
141492,-100,4,2,1,5,0,0
141600,-100,4,2,1,70,0,0
141709,-100,4,2,1,5,0,0
141818,-100,4,2,1,70,0,0
141926,-100,4,2,1,5,0,0
142035,-100,4,2,1,70,0,0
142144,-100,4,2,1,5,0,0
142252,-100,4,2,1,70,0,0
142361,-100,4,2,1,5,0,0
142470,-100,4,2,1,70,0,0
142578,-100,4,2,1,5,0,0
142687,-50,4,2,1,70,0,0
142796,-250,4,2,1,5,0,0
142904,-33.3333333333333,4,2,1,70,0,0
143992,-50,4,2,1,70,0,0
144100,-250,4,2,1,5,0,0
144209,-66.6666666666667,4,2,1,70,0,0
144861,-40,4,2,1,70,0,0
144970,-250,4,2,1,5,0,0
145078,-40,4,2,1,70,0,0
145187,-250,4,2,1,5,0,0
145296,-50,4,2,1,70,0,0
145622,-250,4,2,1,5,0,0
145731,-133.333333333333,4,2,1,70,0,0
146057,-250,4,2,1,5,0,0
146165,-50,4,2,1,70,0,0
146926,-250,4,2,1,5,0,0
147035,-41.6666666666667,4,2,1,70,0,0
147796,-250,4,2,1,5,0,0
147905,-41.6666666666667,4,2,1,70,0,0
148068,-250,4,2,1,5,0,0
148122,-66.6666666666667,4,2,1,70,0,0
149644,-62.5,4,2,1,70,0,0
149807,-62.5,4,2,1,5,0,0
149861,-50,4,2,1,70,0,0
150405,-250,4,2,1,5,0,0
150513,-60.6060606060606,4,2,1,70,0,0
151274,-250,4,2,1,5,0,0
151383,-60.6060606060606,4,2,1,70,0,0
151492,-60.6060606060606,4,2,1,5,0,0
151600,-60.6060606060606,4,2,1,70,0,0
151709,-60.6060606060606,4,2,1,5,0,0
151818,-60.6060606060606,4,2,1,70,0,0
151926,-60.6060606060606,4,2,1,5,0,0
152035,-60.6060606060606,4,2,1,70,0,0
152144,-60.6060606060606,4,2,1,5,0,0
152252,-60.6060606060606,4,2,1,70,0,0
152687,-57.1428571428571,4,2,1,70,0,0
153122,-133.333333333333,4,2,1,70,0,0
153883,-60.6060606060606,4,2,1,5,0,0
153992,-62.5,4,2,1,70,0,0
154861,-50,4,2,1,70,0,0
155024,-60.6060606060606,4,2,1,5,0,0
155078,-50,4,2,1,70,0,0
155242,-60.6060606060606,4,2,1,5,0,0
155296,-66.6666666666667,4,2,1,70,0,0
155785,-66.6666666666667,4,2,1,5,0,0
155839,-66.6666666666667,4,2,1,70,0,0
155894,-66.6666666666667,4,2,1,5,0,0
155948,-66.6666666666667,4,2,1,70,0,0
156002,-66.6666666666667,4,2,1,5,0,0
156057,-66.6666666666667,4,2,1,70,0,0
156111,-66.6666666666667,4,2,1,5,0,0
156165,-66.6666666666667,4,2,1,70,0,0
156220,-66.6666666666667,4,2,1,5,0,0
156274,-66.6666666666667,4,2,1,70,0,0
156328,-66.6666666666667,4,2,1,5,0,0
156383,-66.6666666666667,4,2,1,70,0,0
156437,-66.6666666666667,4,2,1,5,0,0
156600,-66.6666666666667,4,2,1,70,0,0
157361,-66.6666666666667,4,2,1,5,0,0
157470,-50,4,2,1,70,0,0
158231,-50,4,2,1,5,0,0
158339,-66.6666666666667,4,2,1,70,0,0
158448,-50,4,2,1,5,0,0
158557,-66.6666666666667,4,2,1,70,0,0
158665,-50,4,2,1,5,0,0
158774,-66.6666666666667,4,2,1,70,0,0
158883,-50,4,2,1,5,0,0
158992,-66.6666666666667,4,2,1,70,0,0
159100,-50,4,2,1,5,0,0
159209,-66.6666666666667,4,2,1,70,0,0
160078,-40,4,2,1,80,0,1
160839,-40,4,2,1,5,0,1
160948,-43.4782608695652,4,2,1,80,0,1
161709,-40,4,2,1,5,0,1
161818,-41.6666666666667,4,2,1,80,0,1
163557,-40,4,2,1,80,0,1
164318,-32.258064516129,4,2,1,5,0,1
164426,-43.4782608695652,4,2,1,80,0,1
165187,-40,4,2,1,5,0,1
165296,-66.6666666666667,4,2,1,80,0,1
166600,-250,4,2,1,80,0,1
167035,-37.037037037037,4,2,1,80,0,1
167796,-37.037037037037,4,2,1,5,0,1
167905,-32.258064516129,4,2,1,80,0,1
168665,-32.258064516129,4,2,1,5,0,1
168774,-32.258064516129,4,2,1,80,0,1
168937,-32.258064516129,4,2,1,5,0,1
168992,-35.7142857142857,4,2,1,80,0,1
169535,-32.258064516129,4,2,1,5,0,1
169644,-33.3333333333333,4,2,1,80,0,1
170405,-32.258064516129,4,2,1,5,0,1
170513,-35.7142857142857,4,2,1,80,0,1
171274,-32.258064516129,4,2,1,5,0,1
171383,-31.25,4,2,1,80,0,1
172144,-32.258064516129,4,2,1,5,0,1
172252,-31.25,4,2,1,80,0,1
172361,-32.258064516129,4,2,1,5,0,1
172470,-31.25,4,2,1,80,0,1
173013,-32.258064516129,4,2,1,5,0,1
173122,-31.25,4,2,1,80,0,1
173557,-100,4,2,1,80,0,1
173774,-100,4,2,1,80,0,0
173992,-23.8095238095238,4,2,1,85,0,1
174752,-40,4,2,1,5,0,1
174861,-23.8095238095238,4,2,1,85,0,1
175187,-50,4,2,1,5,0,1
175296,-22.2222222222222,4,2,1,85,0,1
175731,-33.3333333333333,4,2,1,85,0,1
175839,-40,4,2,1,5,0,1
175948,-33.3333333333333,4,2,1,85,0,1
177035,-500,4,2,1,85,0,1
177361,-40,4,2,1,5,0,1
177470,-27.7777777777778,4,2,1,85,0,1
178231,-40,4,2,1,5,0,1
178339,-34.4827586206897,4,2,1,85,0,1
179100,-40,4,2,1,5,0,1
179209,-66.6666666666667,4,2,1,85,0,1
180513,-333.333333333333,4,2,1,85,0,1
180948,-28.5714285714286,4,2,1,85,0,1
181709,-40,4,2,1,5,0,1
181818,-43.4782608695652,4,2,1,85,0,1
182687,-45.4545454545455,4,2,1,85,0,1
182850,-40,4,2,1,5,0,1
182905,-25,4,2,1,85,0,1
183448,-40,4,2,1,5,0,1
183557,-38.4615384615385,4,2,1,85,0,1
183883,-40,4,2,1,5,0,1
183992,-58.8235294117647,4,2,1,85,0,1
184318,-40,4,2,1,5,0,1
184426,-66.6666666666667,4,2,1,85,0,1
185187,-40,4,2,1,5,0,1
185296,-50,4,2,1,85,0,1
186057,-40,4,2,1,5,0,1
186165,-33.3333333333333,4,2,1,85,0,1
186274,-40,4,2,1,5,0,1
186383,-33.3333333333333,4,2,1,85,0,1
186926,-40,4,2,1,5,0,1
187035,-33.3333333333333,4,2,1,85,0,1
187796,-40,4,2,1,5,0,1
187905,-50,4,2,1,70,0,0
188013,-40,4,2,1,5,0,1
188122,-33.3333333333333,4,2,1,70,0,0
189209,-50,4,2,1,70,0,0
189318,-40,4,2,1,5,0,0
189426,-33.3333333333333,4,2,1,70,0,0
190078,-50,4,2,1,70,0,0
190187,-40,4,2,1,5,0,0
190296,-33.3333333333333,4,2,1,70,0,0
190948,-50,4,2,1,70,0,0
191057,-40,4,2,1,5,0,0
191165,-33.3333333333333,4,2,1,70,0,0
191818,-50,4,2,1,70,0,0
192144,-40,4,2,1,5,0,0
192252,-33.3333333333333,4,2,1,70,0,0
192633,-40,4,2,1,5,0,0
192687,-33.3333333333333,4,2,1,70,0,0
193122,-66.6666666666667,4,2,1,70,0,0
193231,-66.6666666666667,4,2,1,5,0,0
193339,-66.6666666666667,4,2,1,70,0,0
193448,-66.6666666666667,4,2,1,5,0,0
193557,-66.6666666666667,4,2,1,70,0,0
193665,-66.6666666666667,4,2,1,5,0,0
193774,-66.6666666666667,4,2,1,70,0,0
193883,-66.6666666666667,4,2,1,5,0,0
193992,-66.6666666666667,4,2,1,70,0,0
194100,-66.6666666666667,4,2,1,5,0,0
194209,-66.6666666666667,4,2,1,70,0,0
194318,-66.6666666666667,4,2,1,5,0,0
194426,-66.6666666666667,4,2,1,70,0,0
194535,-66.6666666666667,4,2,1,5,0,0
194644,-66.6666666666667,4,2,1,70,0,0
194752,-66.6666666666667,4,2,1,5,0,0
194861,-50,4,2,1,70,0,0
194970,-40,4,2,1,5,0,0
195078,-33.3333333333333,4,2,1,70,0,0
196165,-50,4,2,1,70,0,0
196274,-40,4,2,1,5,0,0
196383,-33.3333333333333,4,2,1,70,0,0
197035,-50,4,2,1,70,0,0
197144,-40,4,2,1,5,0,0
197252,-33.3333333333333,4,2,1,70,0,0
197905,-50,4,2,1,70,0,0
198013,-40,4,2,1,5,0,0
198122,-33.3333333333333,4,2,1,70,0,0
198774,-50,4,2,1,70,0,0
198883,-40,4,2,1,5,0,0
198992,-50,4,2,1,70,0,0
199100,-40,4,2,1,5,0,0
199209,-50,4,2,1,70,0,0
199535,-40,4,2,1,5,0,0
199644,-50,4,2,1,70,0,0
200078,-50,4,2,1,70,0,0
200187,-50,4,2,1,5,0,0
200296,-50,4,2,1,70,0,0
200405,-50,4,2,1,5,0,0
200513,-50,4,2,1,70,0,0
200622,-50,4,2,1,5,0,0
200731,-50,4,2,1,70,0,0
200839,-50,4,2,1,5,0,0
200948,-50,4,2,1,70,0,0
201057,-50,4,2,1,5,0,0
201165,-50,4,2,1,70,0,0
201274,-50,4,2,1,5,0,0
201383,-66.6666666666667,4,2,1,70,0,0
201492,-50,4,2,1,5,0,0
201600,-66.6666666666667,4,2,1,70,0,0
201709,-50,4,2,1,5,0,0
201818,-50,4,2,1,70,0,0
201926,-40,4,2,1,5,0,0
202035,-33.3333333333333,4,2,1,70,0,0
203122,-50,4,2,1,70,0,0
203231,-40,4,2,1,5,0,0
203339,-33.3333333333333,4,2,1,70,0,0
203502,-40,4,2,1,5,0,0
203557,-133.333333333333,4,2,1,70,0,0
203992,-50,4,2,1,70,0,0
204100,-40,4,2,1,5,0,0
204209,-33.3333333333333,4,2,1,70,0,0
204861,-50,4,2,1,70,0,0
204970,-40,4,2,1,5,0,0
205078,-33.3333333333333,4,2,1,70,0,0
205242,-33.3333333333333,4,2,1,5,0,0
205296,-100,4,2,1,70,0,0
205405,-100,4,2,1,5,0,0
205731,-50,4,2,1,70,0,0
205839,-40,4,2,1,5,0,0
205948,-50,4,2,1,70,0,0
206057,-40,4,2,1,5,0,0
206165,-33.3333333333333,4,2,1,70,0,0
206492,-40,4,2,1,5,0,0
206600,-33.3333333333333,4,2,1,70,0,0
207035,-50,4,2,1,70,0,0
207144,-50,4,2,1,5,0,0
207252,-50,4,2,1,70,0,0
207361,-50,4,2,1,5,0,0
207470,-50,4,2,1,70,0,0
207578,-50,4,2,1,5,0,0
207687,-50,4,2,1,70,0,0
207796,-50,4,2,1,5,0,0
207905,-50,4,2,1,70,0,0
208013,-50,4,2,1,5,0,0
208122,-50,4,2,1,70,0,0
208231,-50,4,2,1,5,0,0
208339,-100,4,2,1,70,0,0
208448,-50,4,2,1,5,0,0
208557,-100,4,2,1,70,0,0
208665,-50,4,2,1,5,0,0
208774,-50,4,2,1,70,0,0
208883,-40,4,2,1,5,0,0
208992,-33.3333333333333,4,2,1,70,0,0
210078,-50,4,2,1,70,0,0
210187,-40,4,2,1,5,0,0
210296,-33.3333333333333,4,2,1,70,0,0
210948,-66.6666666666667,4,2,1,60,0,0
211111,-40,4,2,1,5,0,0
211165,-66.6666666666667,4,2,1,60,0,0
211328,-40,4,2,1,5,0,0
211383,-100,4,2,1,60,0,0
211763,-40,4,2,1,5,0,0
211818,-400,4,2,1,60,0,0
212144,-40,4,2,1,5,0,0
212252,-333.333333333333,4,2,1,60,0,0
212361,-333.333333333333,4,2,1,40,0,0
226165,-333.333333333333,4,2,1,41,0,0
227905,-333.333333333333,4,2,1,42,0,0
229644,-250,4,2,1,43,0,0
231383,-250,4,2,1,44,0,0
231673,-250,4,2,1,5,0,0
231818,-250,4,2,1,44,0,0
232107,-250,4,2,1,44,0,0
232252,-166.666666666667,4,2,1,44,0,0
232542,-250,4,2,1,5,0,0
232687,-166.666666666667,4,2,1,44,0,0
232977,-250,4,2,1,44,0,0
233122,-166.666666666667,4,2,1,45,0,0
234861,-166.666666666667,4,2,1,46,0,0
236600,-166.666666666667,4,2,1,47,0,0
238339,-166.666666666667,4,2,1,48,0,0
238629,-250,4,2,1,5,0,0
238774,-166.666666666667,4,2,1,48,0,0
239064,-250,4,2,1,48,0,0
239209,-125,4,2,1,48,0,0
239499,-250,4,2,1,5,0,0
239644,-125,4,2,1,48,0,0
239934,-250,4,2,1,48,0,0
240078,-125,4,2,1,49,0,0
241818,-125,4,2,1,50,0,0
243557,-125,4,2,1,51,0,0
245296,-125,4,2,1,52,0,0
246021,-250,4,2,1,52,0,0
246165,-125,4,2,1,52,0,0
246455,-250,4,2,1,5,0,0
246600,-125,4,2,1,52,0,0
246963,-250,4,2,1,5,0,0
247035,-125,4,2,1,53,0,0
248774,-125,4,2,1,54,0,0
250513,-125,4,2,1,55,0,0
252252,-125,4,2,1,56,0,0
252542,-250,4,2,1,5,0,0
252687,-125,4,2,1,56,0,0
252977,-250,4,2,1,56,0,0
253122,-100,4,2,1,57,0,0
253412,-250,4,2,1,5,0,0
253557,-100,4,2,1,57,0,0
253847,-250,4,2,1,57,0,0
253992,-100,4,2,1,58,0,0
255731,-100,4,2,1,59,0,0
257470,-100,4,2,1,60,0,0
259209,-100,4,2,1,61,0,0
259499,-250,4,2,1,5,0,0
259644,-100,4,2,1,61,0,0
259934,-250,4,2,1,61,0,0
260078,-80,4,2,1,61,0,0
260368,-250,4,2,1,5,0,0
260513,-80,4,2,1,61,0,0
260803,-250,4,2,1,61,0,0
260948,-80,4,2,1,62,0,0
262687,-80,4,2,1,63,0,0
263557,-166.666666666667,4,2,1,50,0,0
263847,-25,4,2,1,5,0,0
263992,-100,4,2,1,55,0,0
264281,-25,4,2,1,5,0,0
264426,-66.6666666666667,4,2,1,60,0,0
264716,-25,4,2,1,5,0,0
264861,-50,4,2,1,65,0,0
265151,-25,4,2,1,5,0,0
265296,-40,4,2,1,70,0,0
265586,-25,4,2,1,5,0,0
265731,-28.5714285714286,4,2,1,75,0,0
266021,-25,4,2,1,75,0,0
266165,-25,4,2,1,80,0,0
266310,-25,4,2,1,5,0,0
266383,-25,4,2,1,80,0,0
266600,-100,4,2,1,80,0,0
266745,-25,4,2,1,5,0,0
266818,-25,4,2,1,80,0,0
266963,-25,4,2,1,5,0,0
267035,-10,4,2,1,80,0,0
267397,-25,4,2,1,5,0,0
267470,-50,4,2,1,80,0,0
267832,-25,4,2,1,5,0,0
267905,-29.4117647058824,4,2,1,80,0,0
268774,-29.4117647058824,4,2,1,80,0,0
269100,-29.4117647058824,4,2,1,5,0,0
269209,-29.4117647058824,4,2,1,80,0,0
269535,-29.4117647058824,4,2,1,5,0,0
269644,-29.4117647058824,4,2,1,80,0,0
269752,-29.4117647058824,4,2,1,5,0,0
269861,-29.4117647058824,4,2,1,80,0,0
270405,-29.4117647058824,4,2,1,5,0,0
270513,-111.111111111111,4,2,1,80,0,0
271383,-33.3333333333333,4,2,1,80,0,0
272252,-38.4615384615385,4,2,1,80,0,0
273013,-29.4117647058824,4,2,1,5,0,0
273122,-25,4,2,1,80,0,0
273231,-29.4117647058824,4,2,1,5,0,0
273339,-50,4,2,1,80,0,0
273448,-29.4117647058824,4,2,1,5,0,0
273557,-50,4,2,1,80,0,0
273665,-29.4117647058824,4,2,1,5,0,0
273774,-25,4,2,1,80,0,0
273883,-29.4117647058824,4,2,1,5,0,0
273992,-25,4,2,1,80,0,0
274100,-29.4117647058824,4,2,1,5,0,0
274209,-25,4,2,1,80,0,0
274861,-35.0877192982456,4,2,1,80,0,0
275622,-29.4117647058824,4,2,1,5,0,0
275731,-35.0877192982456,4,2,1,80,0,0
275839,-35.0877192982456,4,2,1,5,0,0
275948,-35.0877192982456,4,2,1,80,0,0
276057,-35.0877192982456,4,2,1,5,0,0
276165,-35.0877192982456,4,2,1,80,0,0
276274,-35.0877192982456,4,2,1,5,0,0
276383,-35.0877192982456,4,2,1,80,0,0
276492,-35.0877192982456,4,2,1,5,0,0
276600,-35.0877192982456,4,2,1,80,0,0
276709,-35.0877192982456,4,2,1,5,0,0
276818,-35.0877192982456,4,2,1,80,0,0
276926,-35.0877192982456,4,2,1,5,0,0
277035,-35.0877192982456,4,2,1,80,0,0
277144,-35.0877192982456,4,2,1,5,0,0
277252,-35.0877192982456,4,2,1,80,0,0
277361,-35.0877192982456,4,2,1,5,0,0
277470,-35.0877192982456,4,2,1,80,0,0
277578,-35.0877192982456,4,2,1,5,0,0
277687,-35.0877192982456,4,2,1,80,0,0
277905,-35.0877192982456,4,2,1,5,0,0
278013,-35.0877192982456,4,2,1,80,0,0
278231,-35.0877192982456,4,2,1,5,0,0
278339,-35.0877192982456,4,2,1,80,0,0
279644,-28.5714285714286,4,2,1,80,0,0
280223,-35.0877192982456,4,2,1,5,0,0
280296,-28.5714285714286,4,2,1,80,0,0
280513,-100,4,2,1,80,0,0
280658,-35.0877192982456,4,2,1,5,0,0
280731,-25,4,2,1,80,0,0
280876,-35.0877192982456,4,2,1,5,0,0
280948,-25,4,2,1,80,0,0
281165,-66.6666666666667,4,2,1,80,0,0
281310,-35.0877192982456,4,2,1,5,0,0
281383,-37.7358490566038,4,2,1,80,0,0
281709,-66.6666666666667,4,2,1,5,0,0
281818,-37.7358490566038,4,2,1,80,0,0
283013,-35.0877192982456,4,2,1,5,0,0
283122,-37.7358490566038,4,2,1,80,0,0
283448,-35.0877192982456,4,2,1,5,0,0
283557,-37.7358490566038,4,2,1,80,0,0
283774,-35.0877192982456,4,2,1,5,0,0
283883,-37.7358490566038,4,2,1,80,0,0
284100,-35.0877192982456,4,2,1,5,0,0
284209,-37.7358490566038,4,2,1,80,0,0
284318,-35.0877192982456,4,2,1,5,0,0
284426,-133.333333333333,4,2,1,80,0,0
284752,-35.0877192982456,4,2,1,5,0,0
284861,-133.333333333333,4,2,1,80,0,0
285296,-33.3333333333333,4,2,1,80,0,0
286165,-33.3333333333333,4,2,1,80,0,0
286492,-35.0877192982456,4,2,1,5,0,0
286600,-33.3333333333333,4,2,1,80,0,0
286926,-35.0877192982456,4,2,1,5,0,0
287035,-25,4,2,1,80,0,0
287144,-35.0877192982456,4,2,1,5,0,0
287252,-50,4,2,1,80,0,0
287361,-35.0877192982456,4,2,1,5,0,0
287470,-50,4,2,1,80,0,0
287578,-35.0877192982456,4,2,1,5,0,0
287687,-25,4,2,1,80,0,0
287796,-35.0877192982456,4,2,1,5,0,0
287905,-25,4,2,1,80,0,0
288013,-35.0877192982456,4,2,1,5,0,0
288122,-25,4,2,1,80,0,0
288774,-33.3333333333333,4,2,1,80,0,0
289970,-35.0877192982456,4,2,1,5,0,0
290078,-33.3333333333333,4,2,1,80,0,0
290405,-35.0877192982456,4,2,1,5,0,0
290513,-33.3333333333333,4,2,1,80,0,0
290622,-35.0877192982456,4,2,1,5,0,0
290731,-27.7777777777778,4,2,1,80,0,0
291274,-35.0877192982456,4,2,1,5,0,0
291383,-83.3333333333333,4,2,1,80,0,0
292252,-47.6190476190476,4,2,1,80,0,0
293122,-35.7142857142857,4,2,1,80,0,0
293992,-33.3333333333333,4,2,1,80,0,0
294100,-33.3333333333333,4,2,1,5,0,0
294209,-33.3333333333333,4,2,1,80,0,0
294318,-33.3333333333333,4,2,1,5,0,0
294426,-33.3333333333333,4,2,1,80,0,0
294535,-33.3333333333333,4,2,1,5,0,0
294644,-33.3333333333333,4,2,1,80,0,0
294752,-35.0877192982456,4,2,1,5,0,0
294861,-200,4,2,1,80,0,0
295296,-23.2558139534884,4,2,1,80,0,0
295676,-35.0877192982456,4,2,1,5,0,0
295731,-136.986301369863,4,2,1,80,0,0
295839,-136.986301369863,4,2,1,15,0,0
304644,-35.0877192982456,4,2,1,5,0,0
304861,-1000,4,2,1,15,0,0
305839,-35.0877192982456,4,2,1,5,0,0

[Colours]
Combo1 : 180,129,130
Combo2 : 166,166,166
Combo3 : 125,125,125
Combo4 : 145,0,0
Combo5 : 217,0,0
Combo6 : 237,158,158
Combo7 : 255,1,1

[HitObjects]
143,356,79,6,0,B|110:361|102:370|79:376,2,64,0|0|0,3:0|3:0|3:0,0:0:0:0:
153,357,2687,1,0,3:0:0:0:
284,336,3557,6,0,B|313:349|321:349|344:353,2,64,0|0|0,3:0|3:0|3:0,0:0:0:0:
276,330,6165,1,0,3:0:0:0:
116,372,7035,86,0,B|98:378|84:376|47:381,2,64,0|0|0,3:0|3:0|3:0,0:0:0:0:
126,372,9644,1,0,3:0:0:0:
126,372,10296,1,0,3:0:0:0:
502,185,10513,53,8,1:0:0:0:
400,243,10731,2,0,P|402:266|404:295,1,50,0|0,3:0|3:0,0:0:0:0:
33,74,11383,21,8,3:0:0:0:
36,77,11601,2,0,P|34:100|32:129,1,50,0|0,3:0|3:0,0:0:0:0:
503,22,12252,54,0,B|430:3|415:21|415:21|378:33|346:26|291:78|323:126|403:120|335:176|335:176|388:181|403:212|403:212|362:274|391:265|434:292|434:292|379:336|453:369|316:404|300:381|328:369|308:305|308:305|320:294|223:273|283:303|201:314|201:314|180:276|155:336,1,875,2|0,3:1|0:0,0:0:0:0:
155,251,13122,2,0,B|218:258|261:207|276:251|311:232|334:263|352:303,1,166.666666666667,8|0,1:0|0:0,0:0:0:0:
360,330,13339,1,8,1:0:0:0:
352,347,13412,1,8,3:0:0:0:
352,367,13484,1,0,3:0:0:0:
339,381,13557,2,0,B|299:374|301:302|358:276|412:309,1,150,0|0,3:0|0:0,0:0:0:0:
503,104,13992,86,0,B|424:211|293:200|203:137|151:54|-14:115|8:239,1,600,6|0,3:1|0:0,0:0:0:0:
496,292,14861,6,0,B|364:312|279:212|260:103|282:8|122:-66|50:38,1,600,10|0,1:0|0:0,0:0:0:0:
40,381,15731,86,0,B|127:340|206:295|200:252|72:265|22:267|-55:236|-51:160|0:123|64:137|119:171|176:396|346:324|317:189|175:128|122:128|101:117|74:98|130:31|209:87|244:93|256:104|270:118|318:142|297:51|297:51|354:48|207:27|343:184|343:184|365:183|371:207|371:207|366:218|366:218|366:228|350:221|368:197|370:176|391:172|391:172|381:190|381:190|398:189|419:185|436:197|436:197|449:200|480:184|480:184|490:166|478:159|478:159|458:141|452:143|441:153|441:153|431:168|454:157,1,1275.0000243187,2|0,3:1|0:0,0:0:0:0:
443,306,17470,6,0,B|494:185|334:66|218:161|-9:314,1,600,2|0,3:1|0:0,0:0:0:0:
193,0,18339,2,0,B|326:-35|440:122|311:208|57:400,1,600,10|0,1:1|0:0,0:0:0:0:
168,113,19209,86,0,B|208:121|208:121|150:97,1,100,2|0,3:1|0:0,0:0:0:0:
256,244,19426,2,0,B|296:236|296:236|238:260,1,100,2|0,3:1|0:0,0:0:0:0:
319,67,19644,2,0,B|279:75|279:75|337:51,1,100,2|0,0:1|0:0,0:0:0:0:
220,270,19861,2,0,B|180:262|180:262|238:286,1,100,2|0,0:1|0:0,0:0:0:0:
47,172,20078,5,8,1:0:0:0:
452,124,20296,1,8,3:0:0:0:
227,367,20513,2,0,L|223:383,1,15,2|0,0:1|0:0,0:0:0:0:
3,380,20948,86,0,B|43:227|196:211|114:376|271:374|342:302|283:211|397:146|500:255,1,600,6|0,3:1|0:0,0:0:0:0:
30,33,21818,6,0,B|53:23|82:32|80:90,1,75.0000028610231,10|0,1:1|0:0,0:0:0:0:
104,32,21981,2,0,B|133:44|152:80|91:146,1,100,2|0,0:1|0:0,0:0:0:0:
35,228,22252,2,0,B|26:232|15:239|20:268|13:303|42:289,1,80,2|0,0:1|0:0,0:0:0:0:
72,273,22470,2,0,B|17:256|19:288|14:324|18:345,1,80,2|0,0:1|0:0,0:0:0:0:
128,353,22687,86,0,B|128:343|141:320|154:316|174:318|201:327|235:345|264:354|296:355|333:346|376:321|404:295|414:270|417:242|402:228|385:224|373:226|354:207|338:235|328:258|305:270|274:283|251:279|238:260|224:233|215:197|183:182|155:181|136:178|123:178|88:173|65:193|56:194,1,595.000011348725,2|0,3:1|0:0,0:0:0:0:
93,199,23557,6,0,B|53:212|52:249|57:270,1,56.6666677474976,10|0,1:1|0:0,0:0:0:0:
36,186,23702,2,0,B|76:199|77:236|72:257,1,56.6666677474976,2|0,0:1|0:0,0:0:0:0:
98,149,23847,2,0,B|70:158|69:183|72:198,1,39.9999987792969,2|0,0:1|0:0,0:0:0:0:
56,126,23992,86,0,B|63:128|63:135|62:139,1,14.9999995422363,2|0,0:1|0:0,0:0:0:0:
65,110,24209,2,0,B|68:116|63:121|60:124,1,14.9999995422363,2|0,0:1|0:0,0:0:0:0:
137,228,24426,6,0,B|146:159|290:-5|430:4|438:172|467:266|309:234|307:220,1,510.000009727478,2|0,3:1|0:0,0:0:0:0:
105,60,25296,86,0,B|174:7|451:-11|567:122|424:279|365:389|253:219|264:206,1,600,10|0,1:1|0:0,0:0:0:0:
15,297,26165,6,0,B|19:258|60:224|89:241|94:249,1,100,2|0,3:1|0:0,0:0:0:0:
217,383,26383,2,0,B|228:345|204:298|170:302|163:307,1,100,2|0,3:1|0:0,0:0:0:0:
34,343,26600,2,0,B|27:304|57:260|89:268|96:275,1,100,2|0,0:1|0:0,0:0:0:0:
310,265,26818,2,0,B|310:225|274:187|243:200|237:207,1,100,2|0,3:1|0:0,0:0:0:0:
117,378,27035,85,8,1:0:0:0:
147,189,27252,1,8,1:0:0:0:
177,0,27470,2,0,L|203:6,1,20,2|0,0:1|3:0,0:0:0:0:
504,104,27905,70,0,P|470:111|450:144,1,70,4|0,3:0|0:0,0:0:0:0:
426,125,28774,6,0,L|437:212,1,80,2|0,3:1|3:0,0:0:0:0:
446,190,30513,2,0,L|457:103,1,80,2|0,3:1|3:0,0:0:0:0:
410,87,32252,2,0,L|426:219,1,119.999996337891,2|0,3:1|3:0,0:0:0:0:
373,147,33992,2,0,L|424:157,1,44.999998626709,2|0,3:1|0:1,0:0:0:0:
437,183,34426,85,2,0:1:0:0:
367,287,34861,2,0,P|347:258|313:252,1,70,2|0,3:1|0:0,0:0:0:0:
288,271,35731,6,0,L|296:357,1,80,2|0,3:1|3:0,0:0:0:0:
284,297,37470,2,0,L|330:363,1,80,2|0,3:1|3:0,0:0:0:0:
242,333,39209,2,0,L|314:236,1,119.999996337891,2|0,3:1|3:0,0:0:0:0:
313,236,40948,2,0,L|344:198,1,44.999998626709,2|0,3:1|0:0,0:0:0:0:
400,135,41383,2,0,B|394:117|394:117|401:105,1,29.9999990844727,2|0,0:1|0:0,0:0:0:0:
303,85,41818,70,0,P|361:91|400:135,1,120,2|0,3:1|0:0,0:0:0:0:
254,147,42687,2,0,B|285:116|349:125|355:114|367:102,1,120,2|0,3:1|0:0,0:0:0:0:
144,17,43557,2,0,B|185:23|263:75|267:131|212:186|211:251,1,280,2|0,3:1|0:0,0:0:0:0:
139,187,45296,6,0,B|160:212|179:225|176:249|160:261|177:274|176:311,1,120,2|0,3:1|0:0,0:0:0:0:
255,290,46165,2,0,B|239:287|211:302|195:313|162:323|140:350,1,120,2|0,3:1|0:0,0:0:0:0:
375,322,47035,86,0,L|386:296,1,20,2|0,3:1|0:0,0:0:0:0:
364,270,47252,2,0,L|370:295,1,20,2|0,0:1|0:0,0:0:0:0:
400,328,47470,2,0,L|379:315,1,20,2|0,0:1|0:0,0:0:0:0:
356,254,47687,2,0,L|383:269,1,20,2|0,0:1|0:0,0:0:0:0:
381,341,47905,2,0,L|360:352,1,20,2|0,3:1|0:0,0:0:0:0:
348,356,48122,1,2,0:1:0:0:
348,351,48231,1,2,0:1:0:0:
345,347,48339,2,0,L|421:353,1,60,2|0,0:1|0:0,0:0:0:0:
481,57,48774,6,0,B|461:63|466:101|449:115|427:113|416:74|390:82,1,120,2|0,3:1|0:0,0:0:0:0:
350,169,49644,2,0,B|297:153|274:231|231:235|196:206|207:130|167:117,1,240,2|0,3:1|0:0,0:0:0:0:
91,183,50513,2,0,B|110:176|105:138|123:124|144:126|155:165|182:157,1,120,2|0,3:1|0:0,0:0:0:0:
150,236,51383,2,0,B|122:199|122:197|147:164|151:121,1,120,2|0,3:1|3:0,0:0:0:0:
509,48,52252,53,10,1:0:0:0:
423,99,52470,2,0,L|429:148,1,50,0|0,3:0|3:0,0:0:0:0:
136,308,53122,21,10,3:1:0:0:
139,311,53339,2,0,L|133:360,1,50,0|0,3:0|3:0,0:0:0:0:
421,383,53992,54,0,B|448:360|515:343|501:243|478:186|478:186|436:136|378:220|316:249|263:218|256:134|220:107|220:107|174:241|198:296|88:317|71:284|56:328|56:328|-10:116|49:99|60:54|38:28|24:22|24:22|61:9|61:9|109:63|161:52|141:18|141:18,1,1277.49998172522,2|0,3:1|0:0,0:0:0:0:
131,125,54861,2,0,B|155:105|165:71|165:71|110:101|180:140|185:191|176:218|144:264|145:267,1,200.000007629395,8|0,1:0|0:0,0:0:0:0:
123,268,55078,85,8,1:0:0:0:
124,277,55151,1,8,1:0:0:0:
123,289,55223,1,8,1:0:0:0:
123,289,55296,2,0,B|117:303|121:310|121:310|116:327,1,25,10|0,1:1|0:0,0:0:0:0:
72,350,55405,6,0,B|96:306|104:309|128:333|130:337|103:347|155:322|146:290|133:272|206:272|179:303|179:326|222:316|212:299|240:292,1,200,2|0,0:1|0:0,0:0:0:0:
351,350,55731,6,0,L|378:237,1,100,6|0,3:1|0:0,0:0:0:0:
436,74,55948,2,0,L|358:397,1,300.000011444092,2|0,3:1|0:0,0:0:0:0:
472,328,56383,1,0,0:0:0:0:
366,366,56600,1,8,1:0:0:0:
32,163,57035,22,0,L|145:136,1,100,2|0,3:1|0:0,0:0:0:0:
307,78,57252,2,0,L|-16:155,1,300.000011444092,2|0,3:1|0:0,0:0:0:0:
182,197,57687,1,0,0:0:0:0:
227,343,57905,70,0,L|147:258,1,100,2|0,3:1|0:0,0:0:0:0:
15,147,58122,2,0,L|243:388,1,300.000011444092,2|8,3:1|1:0,0:0:0:0:
182,197,58557,1,0,0:0:0:0:
285,84,58774,22,0,L|251:195,1,100,2|0,3:1|0:0,0:0:0:0:
221,364,58991,2,0,L|315:45,1,300.000011444092,2|0,3:1|0:0,0:0:0:0:
182,197,59426,1,0,0:0:0:0:
436,317,59644,70,0,B|408:251|345:200|296:207|256:248|165:186,1,300.000011444092,2|0,3:1|0:0,0:0:0:0:
65,222,60078,2,0,B|1:113|127:66|234:138|253:247|155:329,1,375,14|0,1:0|0:0,0:0:0:0:
164,318,60513,21,0,0:0:0:0:
154,316,60622,1,0,0:0:0:0:
144,314,60731,1,0,3:0:0:0:
134,313,60839,1,0,0:0:0:0:
105,330,60948,70,2,L|38:342,1,50,10|2,1:1|0:1,0:1:0:0:
180,209,61165,2,2,L|113:196,1,50,10|2,1:1|0:1,0:1:0:0:
166,340,61383,2,2,L|102:358,1,50,10|2,1:1|0:1,0:1:0:0:
238,167,61600,2,2,L|172:150,1,50,10|2,1:1|0:1,0:1:0:0:
218,357,61818,2,2,L|167:391,1,50,10|2,1:1|0:1,0:1:0:0:
315,146,62035,2,2,L|247:150,1,50,10|2,1:1|0:1,0:1:0:0:
484,353,62252,22,2,L|425:337,1,50,10|0,3:3|0:1,0:1:0:0:
437,354,62470,2,2,L|485:367,1,50,10|0,3:0|0:1,0:1:0:0:
386,264,62687,70,0,P|373:210|377:163,1,100,6|0,3:1|0:0,0:0:0:0:
512,65,62905,2,0,P|367:128|366:254,1,300.000011444092,2|0,3:1|0:0,0:0:0:0:
476,202,63339,1,0,0:0:0:0:
365,252,63557,1,8,1:0:0:0:
20,124,63992,22,0,P|45:81|82:48,1,100,2|0,3:1|0:0,0:0:0:0:
248,73,64209,2,0,P|119:11|11:103,1,300.000011444092,2|0,3:1|0:0,0:0:0:0:
138,156,64644,1,0,0:0:0:0:
170,275,64861,70,0,P|120:274|73:258,1,100,2|0,3:1|0:0,0:0:0:0:
11,101,65078,2,0,P|22:242|155:290,1,300.000011444092,2|8,3:1|1:0,0:0:0:0:
138,156,65513,1,0,0:0:0:0:
225,69,65731,22,0,P|249:112|258:161,1,100,2|0,3:1|0:0,0:0:0:0:
156,289,65948,2,0,P|273:208|248:68,1,300.000011444092,2|0,3:1|0:0,0:0:0:0:
138,156,66383,1,0,0:0:0:0:
387,311,66600,70,0,P|301:286|296:184,1,125,2|0,3:1|0:0,0:0:0:0:
411,172,66818,2,0,P|497:197|502:299,1,125,2|0,3:1|0:0,0:0:0:0:
389,335,67035,2,0,P|294:303|380:20,1,375,14|0,1:1|0:0,0:0:0:0:
306,52,67470,21,0,0:0:0:0:
318,53,67578,1,0,0:0:0:0:
330,54,67687,1,0,3:0:0:0:
342,55,67796,1,0,0:0:0:0:
354,56,67905,70,2,L|405:60,1,50,10|2,1:1|0:1,0:1:0:0:
289,208,68122,2,2,L|340:204,1,50,10|2,1:1|0:1,0:1:0:0:
302,35,68339,2,2,L|345:60,1,50,10|2,1:1|0:1,0:1:0:0:
228,217,68557,2,2,L|279:220,1,50,10|2,1:1|0:1,0:1:0:0:
245,8,68774,2,2,L|298:-1,1,50,10|2,1:1|0:1,0:1:0:0:
154,225,68992,2,2,L|206:210,1,50,10|2,1:1|0:1,0:1:0:0:
50,60,69209,22,0,L|55:118,1,50,8|0,3:0|0:0,0:0:0:0:
74,108,69426,2,0,L|70:59,1,50,8|0,3:0|0:0,0:0:0:0:
16,343,69644,70,0,B|38:324|38:324|165:335,1,100,6|0,3:1|0:0,0:0:0:0:
338,291,69861,2,0,B|292:327|292:327|39:305,1,300,2|0,3:1|0:0,0:0:0:0:
0,226,70296,1,0,0:0:0:0:
51,306,70513,1,8,1:0:0:0:
512,191,70948,22,0,B|483:187|483:187|401:90,1,100,2|0,3:1|0:0,0:0:0:0:
247,0,71165,2,0,B|304:6|304:6|467:201,1,300,2|0,3:1|0:0,0:0:0:0:
323,172,71600,1,0,0:0:0:0:
247,0,71818,70,0,B|258:26|258:26|215:145,1,100,2|0,3:1|0:0,0:0:0:0:
214,324,72035,2,0,B|190:270|190:270|277:32,1,300,2|8,3:1|1:0,0:0:0:0:
323,172,72470,1,0,0:0:0:0:
214,324,72687,22,0,B|231:300|231:300|356:278,1,100,2|0,3:1|0:0,0:0:0:0:
511,190,72904,2,0,B|476:236|476:236|226:280,1,300,2|0,3:1|0:0,0:0:0:0:
323,172,73339,1,0,0:0:0:0:
0,41,73557,70,0,B|33:56|33:56|58:141,1,125,2|0,3:1|0:0,0:0:0:0:
122,264,73774,2,0,B|88:248|88:248|63:163,1,125,2|0,3:1|0:0,0:0:0:0:
145,24,73992,2,0,B|86:75|86:75|113:376,1,375,14|0,1:1|0:0,0:0:0:0:
124,368,74426,21,0,0:0:0:0:
136,365,74535,1,0,0:0:0:0:
148,362,74644,1,0,3:0:0:0:
160,359,74752,1,0,0:0:0:0:
172,355,74861,2,0,B|211:334|211:334|218:253,1,125,8|0,1:0|0:0,0:0:0:0:
77,197,75078,69,8,1:0:0:0:
85,216,75151,1,8,3:0:0:0:
104,208,75223,1,0,3:0:0:0:
96,188,75296,2,0,B|117:227|117:227|197:234,1,125,0|0,3:0|0:0,0:0:0:0:
344,287,75513,2,0,B|323:248|323:248|242:240,1,125,8|0,1:0|0:0,0:0:0:0:
167,100,75731,21,8,1:0:0:0:
158,118,75804,1,8,3:0:0:0:
177,126,75876,1,0,3:0:0:0:
186,108,75949,2,0,B|171:149|171:149|237:240,1,125,0|0,3:0|0:0,0:0:0:0:
395,44,76165,2,0,B|335:86|335:86|382:385,1,375,8|0,1:0|0:0,0:0:0:0:
471,209,76600,70,0,L|280:191,1,100,6|0,3:1|0:0,0:0:0:0:
189,264,76818,2,0,L|510:233,1,300.000011444092,2|0,3:1|0:0,0:0:0:0:
461,348,77252,1,0,0:0:0:0:
371,199,77470,1,8,1:0:0:0:
217,60,77905,22,0,L|235:251,1,100,2|0,3:1|0:0,0:0:0:0:
162,342,78123,2,0,L|192:20,1,300.000011444092,2|0,3:1|0:0,0:0:0:0:
309,29,78557,1,0,0:0:0:0:
104,102,78774,70,0,B|72:46|19:37|-30:66,1,125,2|0,3:1|0:0,0:0:0:0:
51,174,78992,2,0,B|83:118|136:109|185:138,1,125,2|0,3:1|0:0,0:0:0:0:
246,264,79209,2,0,B|228:159|48:131|6:278,1,269.999991760254,10|0,1:1|0:0,0:0:0:0:
128,298,79644,2,0,P|141:266|113:285,1,89.9999972534181,2|0,3:1|0:0,0:0:0:0:
209,380,80078,70,0,B|281:376|386:375|432:173|306:222|214:45|322:-93|556:-52|494:116,1,700,6|0,3:1|0:0,0:0:0:0:
384,250,80948,6,0,B|230:118|-2:42|-2:42|172:152|315:317,1,839.999974365235,10|0,1:1|0:0,0:0:0:0:
235,347,81818,86,0,B|189:364|130:359|117:331|164:285|192:328|225:347|231:343,1,179.999994506836,2|0,3:1|0:0,0:0:0:0:
227,377,82035,2,0,B|129:386|8:292|28:143|91:65|201:147|239:260|213:338|216:366,2,539.999983520508,2|8|0,3:1|1:0|0:0,0:0:0:0:
489,329,83557,6,0,B|393:258|420:186,1,134.999995880127,2|0,3:1|0:0,0:0:0:0:
414,294,83774,2,0,B|484:224|549:67|478:-11|410:-60|400:48|296:64|254:-18,1,500,2|0,0:1|0:0,0:0:0:0:
102,95,84426,86,0,B|49:184|174:196|75:310|208:383|377:327|376:251|260:120|350:152|323:-6|184:8,1,664.999982242585,10|0,1:1|0:0,0:0:0:0:
206,322,85296,6,0,P|237:347|227:387,1,80,2|0,3:1|0:0,0:0:0:0:
94,262,85514,2,0,P|54:258|32:293,1,80,2|0,3:1|0:0,0:0:0:0:
331,316,85731,2,0,B|299:347|275:345|245:349,1,80,2|0,0:1|0:0,0:0:0:0:
44,167,85948,2,0,B|44:211|63:227|81:251,1,80,2|0,3:1|0:0,0:0:0:0:
208,193,86165,85,10,3:0:0:0:
288,130,86310,1,2,0:1:0:0:
261,37,86455,1,2,0:1:0:0:
172,0,86600,2,0,B|146:56|163:82|178:115|225:140|199:194,1,200,2|0,0:1|0:0,0:0:0:0:
472,382,87035,6,0,B|582:284|448:149|251:287|272:381|84:368|-11:290,1,629.999980773926,6|0,3:1|0:0,0:0:0:0:
6,198,87905,86,0,B|195:99|355:147|354:295|250:372|173:344|155:308|176:229|204:246,1,542.500004138947,10|0,1:1|0:0,0:0:0:0:
363,291,88774,6,0,B|339:312|323:314|281:311,1,77.5000005912781,2|0,3:1|0:0,0:0:0:0:
468,280,88992,2,0,B|442:257|428:257|386:260,1,77.5000005912781,2|0,3:1|0:0,0:0:0:0:
312,158,89209,2,0,B|357:182|366:215|366:215,1,77.5000005912781,2|0,0:1|0:0,0:0:0:0:
505,101,89426,2,0,B|455:112|438:142|438:142,1,77.5000005912781,2|0,0:1|0:0,0:0:0:0:
352,43,89644,86,0,P|358:18|382:4,1,51.6666670608521,10|0,1:1|0:0,0:0:0:0:
264,45,89789,2,0,P|275:69|299:81,1,51.6666670608521,2|0,0:1|0:0,0:0:0:0:
175,33,89934,2,0,P|187:8|162:-4,1,51.6666670608521,2|2,0:1|0:1,0:0:0:0:
99,69,90078,2,0,P|123:92|125:118,1,51.6666670608521,2|0,0:1|0:0,0:0:0:0:
19,37,90223,6,0,B|2:17|2:17|25:20,1,41.6666666666667,2|0,0:1|0:0,0:0:0:0:
79,314,90513,2,0,B|39:274|75:72|128:229|167:33|280:80|449:182|390:274|275:335|248:287|219:283|181:298|172:218,1,629.999980773926,2|0,3:1|0:0,0:0:0:0:
221,114,91383,2,0,B|411:146|342:294|339:344|418:376|492:360|538:310|553:235|456:195|396:260|404:225|407:348,1,525.000020027161,10|0,1:1|0:0,0:0:0:0:
74,308,92252,86,0,P|70:271|28:231,1,75.0000028610231,8|0,3:0|0:0,0:0:0:0:
205,362,92470,2,0,P|174:382|116:376,1,75.0000028610231,8|0,3:0|0:0,0:0:0:0:
119,179,92687,2,0,P|92:224|80:266,1,75.0000028610231,2|0,0:1|0:0,0:0:0:0:
272,292,92905,2,0,P|207:352|184:360,1,75.0000028610231,2|0,3:1|0:0,0:0:0:0:
352,37,93122,5,10,3:0:0:0:
279,115,93267,1,2,3:1:0:0:
385,139,93412,1,2,0:1:0:0:
492,162,93557,2,0,L|498:117,1,37.5,2|0,0:1|0:0,0:0:0:0:
338,313,93992,70,0,B|304:320|297:323|284:353,1,70,6|0,3:1|0:0,0:0:0:0:
309,381,94861,86,0,L|333:296,1,80,2|0,3:1|3:0,0:0:0:0:
294,313,96600,2,0,L|338:379,1,80,2|0,3:1|3:0,0:0:0:0:
267,372,98339,2,0,L|280:246,1,119.999996337891,2|0,3:1|3:0,0:0:0:0:
279,252,100078,2,0,L|231:237,1,44.999998626709,2|0,3:1|0:0,0:0:0:0:
171,187,100513,2,0,B|154:196|154:196|141:215,1,29.9999990844727,2|2,0:1|0:1,0:0:0:0:
33,262,100948,6,0,P|67:269|87:302,1,70,2|0,3:1|0:0,0:0:0:0:
88,322,101818,86,0,L|167:335,1,80,2|0,3:1|3:0,0:0:0:0:
184,325,103557,2,0,L|102:355,1,80,2|0,3:1|3:0,0:0:0:0:
174,384,105296,2,0,L|163:257,1,119.999996337891,2|0,3:1|3:0,0:0:0:0:
163,264,107035,2,0,L|155:216,1,44.999998626709,2|0,3:1|0:0,0:0:0:0:
61,217,107470,2,0,B|43:223|43:223|37:236,1,29.9999990844727,2|2,0:1|0:1,0:0:0:0:
106,139,107905,86,0,B|112:128|102:102|46:98|57:36,1,120,0|0,3:1|0:0,0:0:0:0:
51,202,108774,2,0,B|12:178|16:132|50:94,1,120,2|0,3:1|0:0,0:0:0:0:
0,284,109644,2,0,B|32:218|73:198|118:236|141:288|168:289|226:283|212:259|259:263,1,280,2|0,3:1|0:0,0:0:0:0:
334,204,111383,6,0,B|295:220|282:225|262:300,1,120,2|0,3:1|0:0,0:0:0:0:
179,199,112252,2,0,B|248:224|291:270|283:323|282:333,1,175,2|0,3:1|0:0,0:0:0:0:
402,327,113122,86,0,L|416:312,1,20,2|0,3:1|0:0,0:0:0:0:
464,222,113339,2,0,L|476:237,1,20,2|0,0:1|0:0,0:0:0:0:
420,321,113557,2,0,L|410:294,1,20,2|0,0:1|0:0,0:0:0:0:
471,225,113774,2,0,L|445:238,1,20,2|0,0:1|0:0,0:0:0:0:
397,304,113992,2,0,L|374:309,1,20,2|0,3:1|0:0,0:0:0:0:
371,311,114209,1,2,0:1:0:0:
370,305,114318,1,2,0:1:0:0:
369,299,114426,2,0,L|431:303,1,60,2|0,0:1|0:0,0:0:0:0:
491,120,114861,6,0,B|461:100|414:131|409:147|374:147,1,120,2|0,3:1|0:0,0:0:0:0:
432,234,115731,2,0,B|372:273|278:211|269:179|198:179,1,240,2|0,3:1|0:0,0:0:0:0:
159,261,116600,2,0,B|174:228|231:232|242:243|273:226,1,120,2|0,3:1|0:0,0:0:0:0:
201,331,117470,2,0,B|146:310|133:288|112:278|91:292,1,120,2|0,3:1|3:0,0:0:0:0:
401,118,118339,53,8,1:0:0:0:
484,178,118557,2,0,L|479:226,1,40,0|0,3:0|3:0,0:0:0:0:
15,15,119209,21,8,3:0:0:0:
18,18,119426,2,0,L|23:66,1,40,0|0,3:0|3:0,0:0:0:0:
497,64,120078,54,0,B|437:-9|291:-28|223:83|275:200|335:158|413:196|439:197|426:257|412:283|412:283|339:316|351:383|351:383|253:380|159:316|311:280|171:192|81:187|-2:251,1,1050.00004005432,2|0,3:1|0:0,0:0:0:0:
132,324,120948,2,0,B|88:350|87:350|138:306|97:244,1,125,10|0,1:1|0:0,0:0:0:0:
66,101,121165,85,10,3:1:0:0:
0,154,121274,1,2,0:1:0:0:
77,19,121383,2,0,B|114:8|114:8|134:10|150:21|146:29|163:32|168:26|176:17|176:17|180:33|191:33|209:47|209:47|225:33|239:48|260:49,1,187.5,2|0,3:1|0:0,0:0:0:0:
450,87,121818,22,0,L|423:200,1,100,6|0,3:1|0:0,0:0:0:0:
365,362,122035,2,0,L|443:39,1,300.000011444092,2|0,3:1|0:0,0:0:0:0:
329,109,122470,1,0,0:0:0:0:
435,70,122687,1,8,1:0:0:0:
15,208,123122,22,0,L|150:219,1,100,2|0,3:1|0:0,0:0:0:0:
256,212,123339,2,0,L|-27:188,1,225.000008583069,2|0,3:1|0:0,0:0:0:0:
0,219,123557,2,0,L|5:265,1,44.999998626709,2|0,0:1|0:0,0:0:0:0:
162,88,123992,70,0,L|151:223,1,100,2|0,3:1|0:0,0:0:0:0:
157,329,124209,2,0,L|175:104,1,225.000008583069,2|0,3:1|0:0,0:0:0:0:
146,71,124426,2,0,L|93:63,1,50,10|0,1:1|0:0,0:0:0:0:
381,30,124861,22,0,L|392:165,1,100,2|0,3:1|0:0,0:0:0:0:
394,350,125078,2,0,L|369:47,1,300.000011444092,2|0,3:1|0:0,0:0:0:0:
467,81,125513,1,0,0:0:0:0:
339,194,125731,70,0,L|225:185,1,100,2|0,3:1|0:0,0:0:0:0:
117,84,125948,2,0,L|216:91,1,100,2|0,3:1|0:0,0:0:0:0:
415,153,126165,2,0,L|7:120,1,375,14|0,1:1|0:0,0:0:0:0:
34,120,126600,21,0,0:0:0:0:
32,113,126709,1,0,0:0:0:0:
30,106,126818,1,0,3:0:0:0:
28,99,126926,1,0,0:0:0:0:
34,87,127035,70,2,L|25:158,1,55.0000016784668,10|2,1:1|0:1,0:1:0:0:
83,261,127252,2,2,L|75:198,1,55.0000016784668,10|2,1:1|0:1,0:1:0:0:
5,76,127470,2,2,L|32:143,1,55.0000016784668,10|2,1:1|0:1,0:1:0:0:
110,291,127687,2,2,L|85:233,1,55.0000016784668,10|2,1:1|0:1,0:1:0:0:
77,25,127905,2,2,L|48:91,1,55.0000016784668,10|2,1:1|0:1,0:1:0:0:
26,322,128122,2,2,L|49:264,1,55.0000016784668,10|2,1:1|0:1,0:1:0:0:
237,84,128339,22,0,L|260:127,1,40,8|0,3:0|0:0,0:0:0:0:
245,127,128557,2,0,L|227:92,1,40,8|0,3:0|0:0,0:0:0:0:
490,166,128774,70,0,P|436:153|389:157,1,100,6|0,3:1|0:0,0:0:0:0:
291,292,128992,2,0,P|354:147|480:146,1,300.000011444092,2|0,3:1|0:0,0:0:0:0:
413,247,129426,1,0,0:0:0:0:
478,145,129644,1,8,1:0:0:0:
0,229,130078,22,0,P|54:216|101:220,1,100,2|0,3:1|0:0,0:0:0:0:
199,355,130296,2,0,P|136:210|10:209,1,300.000011444092,2|0,3:1|0:0,0:0:0:0:
77,310,130730,1,0,0:0:0:0:
11,208,130948,70,0,P|65:221|112:217,1,100,2|0,3:1|0:0,0:0:0:0:
210,83,131166,2,0,P|147:228|33:232,1,225.000008583069,2|0,3:1|0:0,0:0:0:0:
11,208,131383,22,2,P|2:188|1:164,1,40,10|0,1:1|0:0,0:0:0:0:
323,53,131818,70,0,P|307:106|280:144,1,100,2|0,3:1|0:0,0:0:0:0:
114,162,132036,2,0,P|271:179|334:71,1,300.000011444092,2|0,3:1|0:0,0:0:0:0:
210,83,132470,1,0,0:0:0:0:
424,199,132687,22,0,P|377:169|321:167,1,112.500004291535,2|0,3:1|0:0,0:0:0:0:
293,287,132905,2,0,P|339:316|395:318,1,112.500004291535,2|0,3:1|0:0,0:0:0:0:
381,149,133122,2,0,P|270:124|186:338,1,389.999982147218,12|0,1:0|0:0,0:0:0:0:
192,337,133557,69,0,0:0:0:0:
198,334,133665,1,0,0:0:0:0:
204,335,133774,1,0,3:0:0:0:
211,336,133883,1,0,0:0:0:0:
216,333,133992,2,0,P|195:263|130:234,1,129.999994049073,8|0,1:0|0:0,0:0:0:0:
0,277,134209,21,8,1:0:0:0:
3,257,134282,1,8,3:0:0:0:
20,280,134354,1,0,3:0:0:0:
23,258,134426,2,0,P|93:274|151:232,1,129.999994049073,0|0,3:0|0:0,0:0:0:0:
184,128,134644,2,0,P|133:180|141:251,1,129.999994049073,8|0,1:0|0:0,0:0:0:0:
349,150,134861,69,8,1:0:0:0:
352,170,134934,1,8,3:0:0:0:
329,155,135006,1,0,3:0:0:0:
334,175,135078,2,0,P|261:182|221:240,1,129.999994049073,0|0,3:0|0:0,0:0:0:0:
416,309,135296,2,0,P|337:142|143:101,1,389.999982147218,8|0,1:0|0:0,0:0:0:0:
65,33,135731,22,0,B|46:55|46:55|57:182,1,100,6|0,3:1|0:0,0:0:0:0:
13,355,135948,2,0,B|49:309|49:309|27:56,1,300,2|0,3:1|0:0,0:0:0:0:
149,99,136383,1,0,0:0:0:0:
28,68,136600,1,8,1:0:0:0:
252,343,137035,70,0,B|233:321|233:321|244:194,1,100,2|0,3:1|0:0,0:0:0:0:
200,21,137252,2,0,B|236:67|236:67|214:320,1,300,2|0,3:1|0:0,0:0:0:0:
132,340,137687,1,0,0:0:0:0:
384,270,137905,22,0,B|356:276|356:276|251:203,1,100,2|0,3:1|0:0,0:0:0:0:
79,154,138122,2,0,B|137:146|137:146|345:292,1,300,2|8,3:1|1:0,0:0:0:0:
300,366,138557,1,0,0:0:0:0:
364,102,138774,70,0,B|355:130|355:130|239:184,1,100,2|0,3:1|0:0,0:0:0:0:
111,308,138991,2,0,B|133:254|133:254|363:147,1,300,2|0,3:1|0:0,0:0:0:0:
415,218,139426,1,0,0:0:0:0:
31,100,139644,22,0,B|57:87|57:87|176:130,1,112.500004291535,2|0,3:1|0:0,0:0:0:0:
199,239,139861,2,0,B|172:251|172:251|53:208,1,112.500004291535,2|0,3:1|0:0,0:0:0:0:
107,16,140078,2,0,B|94:42|94:42|169:348,1,337.500012874604,14|0,1:1|0:0,0:0:0:0:
178,347,140513,69,0,0:0:0:0:
187,352,140622,1,0,0:0:0:0:
197,348,140731,1,0,3:0:0:0:
207,355,140839,1,0,0:0:0:0:
222,360,140948,22,2,L|306:350,1,50,10|2,1:1|0:1,0:1:0:0:
450,318,141165,2,2,L|400:312,1,50,10|2,1:1|0:1,0:1:0:0:
178,322,141383,2,2,L|253:334,1,50,10|2,1:1|0:1,0:1:0:0:
476,333,141600,2,2,L|410:350,1,50,10|2,1:1|0:1,0:1:0:0:
133,354,141818,2,2,L|187:359,1,50,10|2,1:1|0:1,0:1:0:0:
512,313,142035,2,2,L|438:293,1,50,10|2,1:1|0:1,0:1:0:0:
291,170,142252,70,0,L|282:234,1,50,8|0,3:0|0:0,0:0:0:0:
298,225,142470,2,0,L|304:175,1,50,8|0,3:0|0:0,0:0:0:0:
427,50,142687,22,0,L|310:54,1,100,6|0,3:1|0:0,0:0:0:0:
159,82,142904,2,0,L|490:67,1,300.000011444092,2|0,3:1|0:0,0:0:0:0:
512,149,143339,1,0,0:0:0:0:
458,68,143557,1,8,1:0:0:0:
0,306,143992,70,0,L|16:191,1,100,2|0,3:1|0:0,0:0:0:0:
24,0,144209,2,0,B|6:90|6:90|32:167|32:167|7:383,1,300.000011444092,2|0,3:1|0:1,0:1:0:0:
192,314,144861,22,0,P|149:305|100:381,1,125,2|0,3:1|0:0,0:0:0:0:
277,335,145078,2,0,P|287:276|242:236,1,125,2|0,3:1|0:0,0:0:0:0:
276,98,145296,2,0,P|309:250|489:191,1,300,10|0,1:1|0:0,0:0:0:0:
391,151,145731,2,0,P|351:158|391:168,1,112.500004291535,6|0,3:1|0:0,0:0:0:0:
449,66,146165,38,0,B|317:-12|129:99|247:283|45:302|-120:230|-73:1|58:-5|131:23|172:48|107:142,1,700,6|0,3:1|0:0,0:0:0:0:
58,337,147035,22,0,B|138:150|313:-19|313:-19|205:155|149:366,1,839.999974365235,10|0,1:1|0:0,0:0:0:0:
339,382,147905,70,0,B|349:343|337:252|318:263|309:342|341:381,1,179.999994506836,2|0,3:1|0:0,0:0:0:0:
387,351,148122,2,0,B|337:301|170:259|28:243|225:328|322:353|384:357,2,450.000017166138,2|8|0,3:1|1:0|0:0,0:0:0:0:
503,118,149644,22,0,P|442:175|379:152,1,120,2|0,3:1|0:0,0:0:0:0:
512,233,149861,2,0,B|437:85|366:51|230:56|248:136|191:172|111:157|74:127,1,500,2|0,0:1|0:0,0:0:0:0:
216,27,150513,70,0,B|219:18|227:13|235:10|247:7|259:14|267:14|274:15|282:22|284:32|334:126|237:282|158:356|63:340|18:346|-18:324|-35:299|-35:276|-27:247|-7:241|5:239|16:239,1,577.500005507469,10|0,1:1|0:0,0:0:0:0:
263,176,151383,22,0,B|286:193|289:204|294:247,1,82.5000007867813,2|0,3:1|0:0,0:0:0:0:
163,206,151600,2,0,B|139:188|136:177|131:134,1,82.5000007867813,2|0,3:1|0:0,0:0:0:0:
318,245,151818,2,0,B|322:274|316:283|289:318,1,82.5000007867813,2|0,0:1|0:0,0:0:0:0:
97,139,152035,2,0,B|92:109|98:100|125:65,1,82.5000007867813,2|0,3:1|0:0,0:0:0:0:
362,40,152252,69,10,1:0:0:0:
493,88,152397,1,2,0:1:0:0:
464,209,152542,1,2,0:1:0:0:
351,159,152687,2,0,B|408:154|478:90|540:137,1,175.00000166893,2|0,0:1|3:0,0:0:0:0:
107,301,153122,22,0,B|145:377|269:350|225:285|306:268|350:323,1,262.500010013581,6|0,3:1|0:0,0:0:0:0:
0,335,153992,70,0,B|98:448|301:345|193:252|325:186|426:260,1,480,10|0,1:1|0:0,0:0:0:0:
140,19,154861,22,0,B|61:17|36:55|34:96|46:111,1,150,2|0,3:1|0:0,0:0:0:0:
15,93,155078,2,0,B|42:74|88:55|178:57,1,150,2|0,3:1|0:0,0:0:0:0:
232,108,155296,69,2,0:1:0:0:
230,115,155405,1,2,0:1:0:0:
232,121,155513,1,2,0:1:0:0:
228,127,155622,1,2,0:1:0:0:
227,134,155731,22,0,L|236:179,1,37.5000014305115,10|0,1:1|0:0,0:0:0:0:
316,207,155839,2,0,L|279:251,1,37.5000014305115,2|0,0:1|0:0,0:0:0:0:
325,220,155948,2,0,L|372:198,1,37.5000014305115,2|0,0:1|0:0,0:0:0:0:
316,207,156057,2,0,L|267:197,1,37.5000014305115,2|0,0:1|0:0,0:0:0:0:
318,233,156165,2,0,L|352:266,1,37.5000014305115,2|0,0:1|0:0,0:0:0:0:
342,212,156274,2,0,L|315:164,1,37.5000014305115,2|0,0:1|0:0,0:0:0:0:
305,221,156383,2,0,L|275:249,1,37.5000014305115,2|0,0:1|0:0,0:0:0:0:
486,384,156600,70,0,B|401:372|282:292|280:149|433:184|548:188|571:6|487:-34|467:6,1,525.000020027161,2|0,3:1|0:0,0:0:0:0:
209,169,157470,2,0,B|436:228|496:54|496:54|320:29|248:263,1,700,10|0,1:1|0:0,0:0:0:0:
138,338,158339,22,0,P|151:283|145:252,1,75.0000028610231,2|0,3:1|0:0,0:0:0:0:
269,131,158557,2,0,P|267:187|253:215,1,75.0000028610231,2|0,3:1|0:0,0:0:0:0:
92,328,158774,2,0,P|128:289|157:272,1,75.0000028610231,2|0,0:1|0:0,0:0:0:0:
314,179,158992,2,0,P|268:192|243:228,1,75.0000028610231,2|0,3:1|0:0,0:0:0:0:
0,15,159209,69,8,1:0:0:0:
0,15,159426,1,8,3:0:0:0:
232,128,159644,1,8,1:0:0:0:
0,337,159861,1,0,3:0:0:0:
475,379,160078,6,0,B|332:243|519:221|500:66|400:7|270:26|137:132|300:214|226:335|31:298|9:254|-13:110|24:63,1,875,6|0,3:1|0:0,0:0:0:0:
34,384,160948,2,0,B|-62:225|81:123|93:91|150:76|292:111|246:230|291:291|410:243|496:189|507:102|472:21,1,805.000015354157,10|0,1:1|0:0,0:0:0:0:
389,22,161818,22,0,B|288:74|238:182|310:398|466:426|561:340|634:182|410:77|352:213|352:217|352:221|321:356|203:420|-60:262|148:208|248:282,1,959.999970703126,2|8,3:1|1:1,0:0:0:0:
361,306,162796,1,0,0:0:0:0:
402,346,162905,1,0,0:0:0:0:
321,384,163013,1,0,0:0:0:0:
301,236,163122,1,0,0:0:0:0:
307,227,163339,1,2,0:1:0:0:
4,5,163557,70,0,B|159:-59|308:112|234:250|189:349|56:353|14:289|76:203|124:172|174:185|259:168|360:269|357:400,1,875,2|0,3:1|0:0,0:0:0:0:
0,312,164426,22,0,B|54:382|175:424|376:282|84:153|184:108|239:79|349:16|380:96|456:148|556:292|366:318|326:254,1,805.000015354157,10|0,1:1|0:0,0:0:0:0:
393,120,165296,70,0,B|431:149|433:172|440:209,1,75.0000028610231,2|0,3:1|0:0,0:0:0:0:
257,195,165513,2,0,B|219:224|213:245|204:275,1,75.0000028610231,2|0,3:1|0:0,0:0:0:0:
337,11,165731,21,2,0:1:0:0:
365,0,165839,1,0,0:0:0:0:
456,17,165948,1,2,3:1:0:0:
495,106,166057,1,0,0:0:0:0:
460,222,166165,70,0,L|361:208,1,75.0000028610231,10|0,1:1|0:0,0:0:0:0:
233,188,166383,2,0,L|134:174,1,75.0000028610231,10|0,3:1|0:0,0:0:0:0:
0,151,166600,2,0,L|46:159,1,40,2|0,0:1|0:0,0:0:0:0:
315,379,167035,22,0,B|372:379|474:256|437:39|363:-92|184:-138|53:-5|25:177|60:289|69:339|128:374,1,945.000003604889,6|0,3:1|0:0,0:0:0:0:
511,75,167905,70,0,B|368:36|267:122|281:253|168:235|60:148|22:163|22:163|68:192|110:254|177:313|312:247|363:184|452:197|508:273|507:348|502:368,1,1085.00000827789,10|0,1:1|0:0,0:0:0:0:
81,35,168774,22,0,B|131:65|161:91|180:131|191:152|134:104|101:73|80:36,1,232.500001773834,2|0,3:1|0:0,0:0:0:0:
220,21,168992,2,0,B|200:27|5:209|-57:344|38:275|-28:345|-6:353|63:285|130:208|201:104|237:30|232:25|222:23,1,699.999978637696,2|0,3:1|0:0,0:0:0:0:
391,115,169644,70,0,B|488:148|524:239|587:426|375:421|211:434|88:393|104:289|177:24|325:-26|508:15,1,1049.99996795654,10|0,1:1|0:0,0:0:0:0:
451,227,170513,22,0,B|368:277|201:262|89:110|36:45|47:11|47:11|165:47|241:202|220:122|261:249|280:315|283:346|284:384,1,979.999970092774,2|0,3:1|0:0,0:0:0:0:
22,355,171383,70,0,B|342:319|476:199|485:48|468:-17|396:-17|385:-14|385:-14|364:-6|369:9|391:-3|299:49|316:93|450:138|387:225|397:254|483:390|330:381,1,1120,10|0,1:1|0:0,0:0:0:0:
240,278,172252,22,0,B|224:264|174:216|102:225|71:291,1,160,8|0,1:1|0:0,0:0:0:0:
191,154,172470,1,8,1:0:0:0:
161,158,172542,1,8,3:0:0:0:
117,181,172615,1,0,3:0:0:0:
77,228,172687,1,0,3:0:0:0:
224,52,172905,2,0,B|116:104|131:83|72:176|60:206,1,160,8|0,1:0|0:0,0:0:0:0:
23,99,173122,1,8,1:0:0:0:
12,135,173194,1,8,3:0:0:0:
18,170,173267,1,0,3:0:0:0:
56,211,173339,1,0,3:0:0:0:
0,3,173557,2,0,P|26:17|0:0,1,100,8|0,1:0|0:0,0:0:0:0:
504,11,173992,70,0,B|415:14|219:87|112:217|87:322|90:355|95:346|95:346|201:346|282:301|344:203|362:92|347:29|325:0|325:0|252:44|228:118|240:219|288:294|372:346|454:368|487:370,1,1469.99995513916,6|0,3:1|0:0,0:0:0:0:
417,207,174861,2,0,B|328:117|185:88|108:90|71:98|71:98|234:270|362:216|401:210|440:199,1,629.999980773926,10|0,1:1|0:0,0:0:0:0:
348,121,175296,21,2,0:1:0:0:
345,110,175405,1,0,0:1:0:0:
346,98,175513,1,0,0:1:0:0:
339,88,175622,1,0,0:1:0:0:
265,33,175731,70,0,B|243:35|180:118|178:131|182:159,1,150.000005722046,2|0,3:1|0:1,0:1:0:0:
475,146,175948,2,0,B|299:42|178:67|121:134|88:218|16:274|98:334|126:402,1,600.000022888185,2|0,3:1|0:0,0:0:0:0:
135,364,176492,1,0,0:0:0:0:
226,328,176600,1,8,1:0:0:0:
305,371,176818,1,0,0:0:0:0:
25,22,177035,2,0,P|14:22|0:37,1,30,2|0,0:1|0:0,0:0:0:0:
0,135,177470,22,0,B|26:209|249:334|158:61|317:121|498:153|513:261|512:262|512:262|453:348|379:325|292:252|313:180|343:121|380:77|366:45|348:30|348:30|465:73|466:100|461:192|412:284|358:354,1,1259.99996154785,2|0,3:1|0:0,0:0:0:0:
336,382,178339,2,0,B|246:386|111:258|116:32|186:28|261:-10|261:-10|231:103|205:190|71:213|11:264|4:328|-7:353|1:392,1,1015.00003097534,10|0,1:1|0:0,0:0:0:0:
222,241,179209,70,0,B|226:238|240:270|240:300|229:328,1,75.0000028610231,2|0,3:1|0:0,0:0:0:0:
140,74,179426,2,0,B|162:49|197:9|242:-2,1,75.0000028610231,2|0,3:1|0:0,0:0:0:0:
79,248,179644,2,0,B|44:252|19:255|-5:255|-10:256,1,75.0000028610231,2|0,0:1|0:0,0:0:0:0:
264,116,179861,2,0,B|254:115|278:115|303:118|338:122,1,75.0000028610231,2|0,0:1|0:0,0:0:0:0:
0,299,180078,21,8,1:0:0:0:
512,0,180296,1,8,3:0:0:0:
158,355,180513,2,0,L|150:391,1,29.9999990844727,2|0,0:1|0:0,0:0:0:0:
508,246,180948,70,0,B|299:-58|-144:-84|-174:167|11:465|409:6|473:394,1,1225.00001168251,6|0,3:1|0:0,0:0:0:0:
371,374,181818,22,0,B|303:335|149:152|172:-38|334:-35|398:-61|487:-40|454:143|320:162|251:201|325:290|395:315|416:315|416:315|455:297,1,805.000015354157,10|0,1:1|0:0,0:0:0:0:
448,182,182687,70,0,B|360:189|360:189|451:179,1,165.000005035401,2|0,3:1|0:0,0:0:0:0:
501,248,182905,2,0,B|250:219|7:129|7:129|251:216|529:238,1,1000,2|0,3:1|0:0,0:0:0:0:
486,338,183557,22,0,B|446:379|275:354|272:256|417:267|475:296|502:167|411:109,1,389.999982147218,10|0,1:1|0:0,0:0:0:0:
355,141,183992,2,0,B|326:220|371:277|444:252|477:264|492:316|496:329|496:336|479:332|506:356,1,255.000004863739,2|0,0:1|0:0,0:0:0:0:
408,377,184426,70,0,B|324:401|240:377|200:318|239:255|235:214|173:161|107:139|24:145|-15:231,1,525.000020027161,2|0,3:1|0:0,0:0:0:0:
15,384,185296,22,0,B|70:379|219:290|274:167|303:27|255:-23|149:-40|32:22|79:144|151:144,1,700,10|0,1:1|0:0,0:0:0:0:
365,16,186165,70,0,P|288:1|212:38,1,150.000005722046,8|0,1:0|0:0,0:0:0:0:
404,170,186383,21,8,1:0:0:0:
421,135,186455,1,8,3:0:0:0:
424,94,186528,1,0,3:0:0:0:
448,80,186600,1,0,3:0:0:0:
384,384,186818,70,0,P|469:324|621:327,1,150.000005722046,8|0,1:0|0:0,0:0:0:0:
475,107,187035,21,8,1:0:0:0:
421,135,187107,1,8,3:0:0:0:
371,121,187180,1,0,3:0:0:0:
333,158,187252,1,0,3:0:0:0:
0,0,187470,70,0,B|172:49|234:172|146:359,1,450.000017166138,8|0,1:0|0:0,0:0:0:0:
41,248,187905,6,0,L|156:263,1,100,6|0,3:1|0:0,0:0:0:0:
323,303,188122,2,0,L|-6:259,1,300.000011444092,2|0,3:1|0:0,0:0:0:0:
114,364,188557,1,0,0:0:0:0:
25,263,188774,1,8,1:0:0:0:
453,183,189209,22,0,L|337:198,1,100,2|0,3:1|0:0,0:0:0:0:
171,237,189426,2,0,L|500:193,1,300.000011444092,2|0,3:1|0:0,0:0:0:0:
423,286,189861,1,0,0:0:0:0:
453,183,190078,70,0,L|342:147,1,100,2|0,3:1|0:0,0:0:0:0:
174,112,190296,2,0,L|491:211,1,300.000011444092,2|8,3:1|1:0,0:0:0:0:
423,286,190730,1,0,0:0:0:0:
453,183,190948,22,0,L|367:104,1,100,2|0,3:1|0:0,0:0:0:0:
230,0,191165,2,0,L|475:224,1,300.000011444092,2|0,3:1|0:0,0:0:0:0:
423,286,191600,1,0,0:0:0:0:
271,106,191818,70,0,B|281:26|385:46|368:121|368:121|354:183|272:221|309:310,1,300,2|0,3:1|0:0,0:0:0:0:
243,85,192252,22,0,B|299:-20|434:62|370:158|370:158|317:236|182:245|186:389,1,525.000020027161,14|0,1:1|0:0,0:0:0:0:
204,363,192687,69,0,0:0:0:0:
218,360,192796,1,0,0:0:0:0:
232,357,192905,1,0,3:0:0:0:
246,354,193013,1,0,0:0:0:0:
271,315,193122,22,2,P|231:286|188:277,1,75.0000028610231,10|2,1:1|0:1,0:1:0:0:
70,356,193339,2,2,P|21:363|-15:387,1,75.0000028610231,10|2,1:1|0:1,0:1:0:0:
317,317,193557,2,2,P|279:284|237:271,1,75.0000028610231,10|2,1:1|0:1,0:1:0:0:
63,326,193774,2,2,P|17:346|-11:378,1,75.0000028610231,10|2,1:1|0:1,0:1:0:0:
374,347,193992,2,2,P|346:306|309:282,1,75.0000028610231,10|2,1:1|0:1,0:1:0:0:
51,291,194209,2,2,P|12:322|-7:361,1,75.0000028610231,10|2,1:1|0:1,0:1:0:0:
493,222,194426,70,0,P|445:234|411:262,1,75.0000028610231,8|0,3:0|0:0,0:0:0:0:
429,262,194644,2,0,P|476:249|510:221,1,75.0000028610231,8|0,3:0|0:0,0:0:0:0:
282,208,194861,22,0,P|228:192|190:165,1,100,6|0,3:1|0:0,0:0:0:0:
172,0,195079,2,0,P|154:157|262:220,1,300.000011444092,2|0,3:1|0:0,0:0:0:0:
259,94,195513,1,0,0:0:0:0:
282,208,195731,1,8,1:0:0:0:
0,283,196165,70,0,P|41:255|89:242,1,100,2|0,3:1|0:0,0:0:0:0:
310,332,196383,2,0,P|152:349|89:241,1,300.000011444092,2|0,3:1|0:0,0:0:0:0:
202,267,196818,1,0,0:0:0:0:
511,216,197035,22,0,P|469:188|421:175,1,100,2|0,3:1|0:0,0:0:0:0:
202,267,197253,2,0,P|359:284|422:176,2,300.000011444092,2|8|0,3:1|1:0|0:0,0:0:0:0:
0,154,197905,70,0,P|41:126|89:113,1,100,2|0,3:1|0:0,0:0:0:0:
310,203,198123,2,0,P|152:220|89:112,1,300.000011444092,2|0,3:1|0:0,0:0:0:0:
207,139,198558,1,0,0:0:0:0:
420,204,198774,22,0,P|406:252|379:293,1,100,2|0,3:1|0:0,0:0:0:0:
363,118,198992,2,0,P|376:69|403:28,1,100,2|0,3:1|0:0,0:0:0:0:
438,376,199209,70,0,P|344:297|145:245,1,300,14|0,1:1|0:0,0:0:0:0:
86,293,199644,21,0,0:0:0:0:
91,315,199752,1,0,0:0:0:0:
90,329,199861,1,0,3:0:0:0:
96,342,199970,1,0,0:0:0:0:
58,371,200078,70,2,P|105:334|155:327,1,100,10|2,1:1|0:1,0:1:0:0:
157,130,200296,2,2,P|204:167|254:174,1,100,10|2,1:1|0:1,0:1:0:0:
23,370,200513,2,2,P|78:347|129:353,1,100,10|2,1:1|0:1,0:1:0:0:
191,130,200731,2,2,P|226:177|273:197,1,100,10|2,1:1|0:1,0:1:0:0:
0,361,200948,2,2,P|50:353|97:372,1,100,10|2,1:1|0:1,0:1:0:0:
223,139,201166,2,2,P|245:194|285:225,1,100,10|2,1:1|0:1,0:1:0:0:
2,97,201383,22,0,P|24:41|64:10,1,75.0000028610231,8|0,3:0|0:0,0:0:0:0:
43,39,201600,2,0,P|21:95|-19:126,1,75.0000028610231,8|0,3:0|0:0,0:0:0:0:
54,191,201818,70,0,B|76:172|76:172|203:183,1,100,6|0,3:1|0:0,0:0:0:0:
376,139,202035,2,0,B|330:175|330:175|77:153,1,300,2|0,3:1|0:0,0:0:0:0:
140,66,202470,1,0,0:0:0:0:
89,154,202687,1,8,1:0:0:0:
437,211,203122,22,0,B|418:189|418:189|429:62,1,100,2|0,3:1|0:0,0:0:0:0:
357,0,203339,2,0,B|393:46|393:46|371:277,1,225.000008583069,2|0,3:1|0:0,0:0:0:0:
414,303,203557,2,0,L|405:399,1,75.0000028610231,2|0,0:1|0:0,0:0:0:0:
289,247,203992,70,0,B|270:225|270:225|281:98,1,100,2|0,3:1|0:0,0:0:0:0:
209,36,204209,2,0,B|245:82|245:82|223:335,2,300,2|8|0,3:1|1:0|0:0,0:0:0:0:
141,283,204861,22,0,B|122:261|122:261|133:134,1,100,2|0,3:1|0:0,0:0:0:0:
61,72,205078,2,0,B|97:118|97:118|77:348,1,225.000008583069,2|0,3:1|0:0,0:0:0:0:
50,360,205296,2,0,L|-8:360,1,50,2|0,0:1|0:0,0:0:0:0:
508,56,205731,70,0,B|434:45|434:45|425:91,1,100,2|0,3:1|0:0,0:0:0:0:
290,146,205948,2,0,B|364:135|364:135|373:181,1,100,2|0,3:1|0:0,0:0:0:0:
260,0,206165,2,0,B|379:36|422:156|422:156|335:243|399:381,1,450.000017166138,14|0,1:1|0:0,0:0:0:0:
481,283,206600,21,0,0:0:0:0:
466,287,206709,1,0,0:0:0:0:
450,285,206818,1,0,3:0:0:0:
441,303,206926,1,0,0:0:0:0:
411,346,207035,70,2,L|303:326,1,100,10|2,1:1|0:1,0:1:0:0:
126,292,207252,2,2,L|225:311,1,100,10|2,1:1|0:1,0:1:0:0:
466,270,207470,2,2,L|358:250,1,100,10|2,1:1|0:1,0:1:0:0:
109,203,207687,2,2,L|207:221,1,100,10|2,1:1|0:1,0:1:0:0:
512,191,207905,2,2,L|404:171,1,100,10|2,1:1|0:1,0:1:0:0:
91,113,208122,2,2,L|189:131,1,100,10|2,1:1|0:1,0:1:0:0:
336,0,208339,22,0,L|323:64,1,50,8|0,3:0|0:0,0:0:0:0:
336,57,208557,2,0,L|345:9,1,50,8|0,3:0|0:0,0:0:0:0:
413,172,208774,70,0,P|350:204|336:244,1,100,6|0,3:1|0:0,0:0:0:0:
258,341,208992,2,0,P|332:259|558:248,1,300.000011444092,2|0,3:1|0:0,0:0:0:0:
457,310,209426,1,0,0:0:0:0:
512,229,209644,1,8,1:0:0:0:
80,35,210078,22,0,L|51:160,1,100,2|0,3:1|0:0,0:0:0:0:
188,3,210296,2,0,L|-31:273,1,300.000011444092,2|0,3:1|0:0,0:0:0:0:
58,133,210731,1,0,0:0:0:0:
275,322,210948,22,0,B|289:309|276:315|272:327|259:343|240:349|221:344|195:324|183:341|170:350,1,112.500004291535,2|0,3:1|0:0,0:0:0:0:
159,341,211166,2,0,B|172:332|184:315|210:335|229:340|248:334|261:318|265:306|278:300|288:300,1,112.500004291535,2|0,3:1|0:0,0:0:0:0:
340,356,211383,2,0,B|318:337|285:315|261:303|209:310|181:311|180:315|195:333,1,175,14|0,1:1|0:0,0:0:0:0:
223,345,211818,2,0,B|206:333|205:323|213:317|221:322|215:327|210:329,1,37.5,6|0,3:1|0:0,0:0:0:0:
132,238,212252,86,0,B|175:211|252:33|1:217|11:51|86:-30|240:-84|315:-92|103:109|282:352|311:16|445:17|490:18|554:130|560:338|432:332|432:332|47:288|47:288|-30:275|-1:197|-1:197|55:103|189:273|368:272|394:135,1,1859.99994323731,6|0,3:0|0:0,0:0:0:0:
41,68,226165,85,10,3:0:0:0:
41,68,226600,1,8,3:0:0:0:
41,68,226745,1,8,3:0:0:0:
41,68,226890,1,8,3:0:0:0:
96,137,227035,1,10,3:0:0:0:
96,137,227470,1,8,3:0:0:0:
96,137,227615,1,8,3:0:0:0:
96,137,227760,1,8,3:0:0:0:
96,137,227905,1,8,3:0:0:0:
96,137,228339,1,8,3:0:0:0:
96,137,228484,1,8,3:0:0:0:
96,137,228629,1,8,3:0:0:0:
90,163,228774,1,10,3:0:0:0:
90,163,229209,1,8,3:0:0:0:
90,163,229354,1,8,3:0:0:0:
90,163,229499,1,8,3:0:0:0:
90,163,229644,1,8,3:0:0:0:
90,163,230078,1,8,3:0:0:0:
90,163,230223,1,8,3:0:0:0:
90,163,230368,1,8,3:0:0:0:
10,213,230513,1,10,3:0:0:0:
10,213,230948,1,8,3:0:0:0:
10,213,231093,1,8,3:0:0:0:
10,213,231238,1,8,3:0:0:0:
10,213,231383,6,0,P|29:243|36:273,1,53.3333333333333,10|0,3:0|0:0,0:0:0:0:
135,258,231818,2,0,P|127:292|110:318,1,53.3333333333333,10|8,3:0|3:0,0:0:0:0:
324,198,232252,2,0,P|348:160|356:122,1,79.9999975585938,10|0,3:0|0:0,0:0:0:0:
482,141,232687,2,0,P|472:97|451:64,1,79.9999975585938,10|8,3:0|3:0,0:0:0:0:
277,18,233122,85,10,3:0:0:0:
265,14,233557,1,8,3:0:0:0:
253,10,233702,1,8,3:0:0:0:
241,6,233847,1,8,3:0:0:0:
156,44,233992,1,10,3:0:0:0:
156,44,234426,1,8,3:0:0:0:
144,40,234571,1,8,3:0:0:0:
132,36,234716,1,8,3:0:0:0:
120,32,234861,1,8,3:0:0:0:
120,32,235296,1,8,3:0:0:0:
108,28,235441,1,8,3:0:0:0:
96,24,235586,1,8,3:0:0:0:
27,84,235731,1,10,3:0:0:0:
31,96,236165,1,8,3:0:0:0:
35,108,236310,1,8,3:0:0:0:
39,120,236455,1,8,3:0:0:0:
43,132,236600,1,8,3:0:0:0:
43,132,237035,1,8,3:0:0:0:
47,144,237180,1,8,3:0:0:0:
51,156,237325,1,8,3:0:0:0:
140,216,237470,1,10,3:0:0:0:
140,216,237905,1,8,3:0:0:0:
136,228,238050,1,8,3:0:0:0:
132,240,238195,1,8,3:0:0:0:
128,252,238339,6,0,P|136:304|153:336,1,79.9999975585938,10|0,3:0|0:0,0:0:0:0:
254,296,238774,2,0,P|296:327|331:337,1,79.9999975585938,10|8,3:0|3:0,0:0:0:0:
429,186,239209,2,0,P|369:206|336:245,1,106.666666666667,10|0,3:0|0:0,0:0:0:0:
301,21,239644,2,0,P|293:83|315:130,1,106.666666666667,10|8,3:0|3:0,0:0:0:0:
466,15,240078,85,10,3:0:0:0:
466,15,240513,1,8,3:0:0:0:
433,57,240658,1,8,3:0:0:0:
380,66,240803,1,8,3:0:0:0:
279,28,240948,1,10,3:0:0:0:
279,28,241383,1,8,3:0:0:0:
228,10,241528,1,8,3:0:0:0:
197,15,241600,1,2,3:1:0:0:
177,28,241673,1,8,3:0:0:0:
157,77,241818,1,8,3:0:0:0:
157,77,242252,1,8,3:0:0:0:
189,119,242397,1,8,3:0:0:0:
201,170,242542,1,8,3:0:0:0:
159,269,242687,1,10,3:0:0:0:
159,269,243122,1,8,3:0:0:0:
193,310,243267,1,8,3:0:0:0:
215,319,243339,1,2,3:1:0:0:
245,318,243412,1,8,3:0:0:0:
294,298,243557,1,8,3:0:0:0:
294,298,243992,1,8,3:0:0:0:
323,254,244136,1,8,3:0:0:0:
365,221,244281,1,8,3:0:0:0:
475,237,244426,1,10,3:0:0:0:
475,237,244861,1,8,3:0:0:0:
480,183,245006,1,8,3:0:0:0:
485,129,245151,1,8,3:0:0:0:
490,75,245296,1,8,3:0:0:0:
490,75,245731,6,0,L|361:55,1,106.666666666667,10|8,3:0|3:0,0:0:0:0:
299,0,246165,2,0,L|170:20,1,106.666666666667,10|0,3:0|0:0,0:0:0:0:
55,63,246600,1,10,3:0:0:0:
55,63,246673,1,0,3:0:0:0:
55,63,246745,1,8,3:0:0:0:
55,63,246818,2,0,L|71:129,1,53.3333333333333,0|0,3:0|3:0,3:0:0:0:
156,147,247035,2,0,P|130:177|118:222,1,80,10|2,3:0|0:0,0:0:0:0:
6,340,247470,85,8,3:0:0:0:
58,303,247615,1,8,3:0:0:0:
121,293,247760,1,8,3:0:0:0:
229,384,247905,1,10,3:0:0:0:
229,384,248339,1,8,3:0:0:0:
292,380,248484,1,8,3:0:0:0:
344,342,248629,1,8,3:0:0:0:
357,279,248774,1,8,3:0:0:0:
357,279,249209,1,8,3:0:0:0:
326,222,249354,1,8,3:0:0:0:
323,158,249499,1,8,3:0:0:0:
390,57,249644,1,10,3:0:0:0:
390,57,250078,1,8,3:0:0:0:
338,95,250223,1,8,3:0:0:0:
273,96,250368,1,8,3:0:0:0:
218,62,250513,1,8,3:0:0:0:
218,62,250948,1,8,3:0:0:0:
163,28,251093,1,8,3:0:0:0:
99,35,251238,1,8,3:0:0:0:
1,141,251383,1,10,3:0:0:0:
1,141,251818,1,8,3:0:0:0:
9,204,251963,1,8,3:0:0:0:
17,267,252107,1,8,3:0:0:0:
77,354,252252,6,0,B|119:346|119:346|181:283,1,106.666666666667,10|0,3:0|0:0,0:0:0:0:
256,352,252687,2,0,B|298:344|298:344|360:281,1,106.666666666667,10|8,3:0|3:0,0:0:0:0:
229,163,253122,2,0,L|58:141,1,133.333333333333,10|0,3:0|0:0,0:0:0:0:
249,182,253557,2,0,L|420:204,1,133.333333333333,10|8,3:0|3:0,0:0:0:0:
175,11,253992,85,10,3:0:0:0:
175,11,254426,1,8,3:0:0:0:
76,27,254571,1,8,3:0:0:0:
94,125,254716,1,8,3:0:0:0:
280,81,254861,1,10,3:0:0:0:
280,81,255296,1,8,3:0:0:0:
379,97,255441,1,8,3:0:0:0:
361,195,255586,1,8,3:0:0:0:
286,297,255731,1,8,3:0:0:0:
286,297,256165,1,8,3:0:0:0:
187,313,256310,1,8,3:0:0:0:
88,330,256455,1,8,3:0:0:0:
0,227,256600,1,10,3:0:0:0:
0,227,257035,1,8,3:0:0:0:
99,210,257180,1,8,3:0:0:0:
198,194,257325,1,8,3:0:0:0:
297,178,257470,1,8,3:0:0:0:
297,178,257905,1,8,3:0:0:0:
198,194,258050,1,8,3:0:0:0:
99,210,258195,1,8,3:0:0:0:
233,81,258340,1,10,3:0:0:0:
233,81,258775,1,8,3:0:0:0:
335,94,258919,1,8,3:0:0:0:
434,107,259064,1,8,3:0:0:0:
497,215,259209,6,0,P|405:244|376:293,1,133.333333333333,10|0,3:0|0:0,0:0:0:0:
443,337,259644,2,0,P|489:289|499:225,1,133.333333333333,10|8,3:0|3:0,0:0:0:0:
299,194,260078,2,0,P|182:222|179:300,1,166.666666666667,10|0,3:0|0:0,0:0:0:0:
217,333,260513,2,0,P|334:305|337:227,1,166.666666666667,10|8,3:0|3:0,0:0:0:0:
53,275,260948,85,10,3:0:0:0:
53,275,261383,1,8,3:0:0:0:
68,142,261528,1,8,3:0:0:0:
68,281,261673,1,8,3:0:0:0:
183,221,261818,1,10,3:0:0:0:
183,221,262252,1,8,3:0:0:0:
193,87,262397,1,8,3:0:0:0:
198,227,262542,1,8,3:0:0:0:
208,93,262687,1,8,3:0:0:0:
208,93,263122,1,8,3:0:0:0:
198,227,263267,1,8,3:0:0:0:
229,90,263412,1,8,3:0:0:0:
321,232,263557,70,0,L|323:321,1,79.9999975585938,2|0,3:1|0:0,0:0:0:0:
421,187,263992,2,0,L|424:356,1,133.333333333333,2|8,3:1|3:0,0:0:0:0:
199,151,264426,86,0,L|401:363,1,200.000007629395,2|0,3:1|0:0,0:0:0:0:
279,28,264861,2,0,L|519:279,1,266.666666666667,2|8,3:1|3:0,0:0:0:0:
77,276,265296,86,0,L|487:285,1,333.333333333333,2|0,3:1|0:0,0:0:0:0:
26,131,265731,2,0,L|552:142,1,466.666671117147,2|8,3:1|3:0,0:0:0:0:
424,12,266165,38,0,B|286:-15|226:201|344:243|296:301,1,266.666666666667,8|0,1:0|0:0,0:0:0:0:
361,263,266383,1,8,3:0:0:0:
361,263,266455,1,8,3:0:0:0:
361,263,266528,1,8,3:0:0:0:
361,263,266600,2,0,P|405:226|411:207,1,66.6666666666667,8|0,3:0|0:0,0:0:0:0:
377,132,266818,2,0,B|347:123|289:115|241:169|222:202|179:208|144:182|130:178|115:174,1,266.666666666667,8|0,1:0|0:0,0:0:0:0:
47,0,267035,54,2,B|181:54|181:54|45:4|45:4|180:62|180:62|42:14|42:14|178:73|178:73|38:22|38:22|179:84|179:84|34:31|34:31|179:93|179:93|30:42|30:42|177:102|177:102|22:51|22:51|174:111,1,1666.66666666667,10|0,3:1|0:0,0:1:0:0:
31,146,267470,86,0,B|-2:159|-2:159|31:147|31:147|-2:161|-2:161|32:149|32:149|-1:164|-1:164|33:151|33:151|-2:167|-2:167|34:153|34:153|-2:169|-2:169|35:156|35:156|-1:171|-1:171|37:158|37:158|0:173,1,333.333333333333,10|0,1:1|0:0,0:0:0:0:
5,290,267905,54,0,B|239:121|495:84|495:84|309:144|5:397,1,1020.00001945496,6|0,3:1|0:0,0:0:0:0:
223,30,268774,70,0,B|117:88|103:228|161:339|283:366|348:296|341:222|295:204,1,510.000009727478,10|0,1:1|0:0,0:0:0:0:
321,195,269209,2,0,B|367:212|373:287|308:357|186:330|128:219|142:79|248:20,1,510.000009727478,2|0,0:1|0:0,0:0:0:0:
356,83,269644,22,0,B|403:69|525:116|391:120|333:81,1,170.000003242493,2|0,3:1|0:0,0:0:0:0:
496,23,269861,2,0,B|487:71|476:157|424:211|405:294|370:341|341:386|336:391|334:394|328:396|300:389|297:372|295:371|296:375|295:350|299:324|308:298|324:255|365:206|443:74|465:-4|478:-5|491:0,1,850.000016212464,2|0,3:1|0:0,0:0:0:0:
436,168,270513,2,0,B|422:180|445:217|327:176|421:144|400:286|338:333|335:351,1,179.999994506836,10|0,1:1|0:0,0:0:0:0:
3,29,271383,70,0,B|28:-1|143:9|167:21|187:58|182:163|123:127|93:155|1:197|41:257|47:302|76:359|128:374|175:359|196:326|198:298|171:259|184:221|242:212|284:229|404:217|424:268|472:346|427:381|362:385,1,900.000034332277,2|0,3:1|0:0,0:0:0:0:
511,8,272252,22,0,B|424:26|284:-27|256:182|362:173|460:174|530:221|469:288|425:346|395:373|305:336|256:339|293:246|315:209|275:226|265:226|267:185|183:165|132:182|90:214|28:296|5:379,1,909.999958343508,10|0,1:1|0:0,0:0:0:0:
139,347,273122,70,0,B|134:133|129:322,1,200,8|0,1:0|0:0,0:0:0:0:
325,384,273339,2,0,B|322:277|320:371,1,100,8|0,1:0|0:0,0:0:0:0:
32,167,273557,2,0,B|29:60|27:154,1,100,8|0,1:0|0:0,0:0:0:0:
420,240,273774,2,0,B|415:26|410:215,1,200,8|0,1:0|0:0,0:0:0:0:
171,112,273992,2,0,B|166:-102|161:87,1,200,8|0,1:0|0:0,0:0:0:0:
512,96,274209,21,8,1:0:0:0:
365,31,274318,1,0,3:0:0:0:
298,167,274426,1,8,1:0:0:0:
308,161,274535,1,0,3:0:0:0:
0,325,274861,70,0,B|30:370|351:438|546:404|614:300|620:193|526:114|365:108|228:150|139:265|98:336|63:376|21:407|117:386,1,1000,6|0,3:1|0:0,0:0:0:0:
124,93,275731,22,0,B|104:57|-25:66|-8:133|42:137,1,142.500001358986,10|0,1:1|0:0,0:0:0:0:
16,128,275948,2,0,B|-7:118|1:187|126:146|130:106,1,142.500001358986,2|0,0:1|0:0,0:0:0:0:
307,34,276165,70,0,B|384:9|454:39|479:115|407:114|377:44|470:103|504:106|511:98,1,142.500001358986,2|0,0:1|0:0,0:0:0:0:
424,86,276383,2,0,B|347:111|277:81|252:5|324:6|354:76|261:17|227:14|220:22,1,142.500001358986,2|0,0:1|0:0,0:0:0:0:
209,320,276600,22,0,B|237:238|244:207|239:175|235:126|236:125,1,142.500001358986,2|0,3:1|0:0,0:0:0:0:
181,160,276818,2,0,B|234:205|237:281|231:334|221:372|266:359|265:347,1,142.500001358986,2|0,3:1|0:0,0:0:0:0:
310,130,277035,2,0,B|243:168|222:247|211:284|210:284,1,142.500001358986,2|0,0:1|0:0,0:0:0:0:
190,372,277252,2,0,B|215:358|230:291|232:243|271:227|261:193|259:159,1,142.500001358986,2|0,0:1|0:0,0:0:0:0:
176,122,277470,2,0,B|196:163|230:207|232:260|210:304|210:315|221:341|224:350,1,142.500001358986,10|0,1:1|0:0,0:0:0:0:
321,355,277687,2,0,B|278:285|255:262|247:258|234:216|208:193|190:214|182:187|175:184|162:168|112:118,1,285.000002717972,2|0,0:1|0:0,0:0:0:0:
64,242,278013,2,0,B|206:202|218:175|271:209|305:229|351:242|366:291|409:276|418:270|425:270|428:286,1,285.000002717972,2|0,0:1|0:0,0:0:0:0:
468,139,278339,70,0,B|463:274|267:380|163:328|120:152|214:42|162:-6|44:9|32:8|17:27|15:40|14:52|13:62|14:70|14:79|12:85|7:70|5:58|4:48|4:40|4:32|5:28|8:24|13:17,1,570.000005435944,2|2,3:1|0:1,0:0:0:0:
46,55,278883,1,2,0:1:0:0:
92,32,278992,1,2,0:1:0:0:
39,37,279100,1,2,0:1:0:0:
97,75,279209,22,0,B|116:106|102:158|61:184|82:184|71:225|82:282,2,190.000001811981,10|2|2,1:1|0:1|0:1,0:0:0:0:
213,177,279644,2,0,B|209:222|156:265|95:261|116:277|74:311|43:377,2,233.333335558573,2|2|2,0:1|0:1|0:1,0:0:0:0:
316,355,280078,70,0,B|355:374|378:368|410:339|403:280|341:229|400:153,1,233.333335558573,0|0,3:0|0:0,0:0:0:0:
464,104,280296,1,8,1:0:0:0:
485,121,280368,1,8,3:0:0:0:
477,140,280441,1,0,3:0:0:0:
454,135,280513,2,0,P|464:115|504:79,1,66.6666666666667,0|0,3:0|0:0,0:0:0:0:
503,0,280731,22,0,B|412:-5|417:57|387:105|317:74|302:34|258:28|229:42,1,266.666666666667,8|0,1:0|0:0,0:0:0:0:
132,40,280948,1,8,1:0:0:0:
161,56,281021,1,8,3:0:0:0:
161,37,281093,1,0,3:0:0:0:
144,68,281165,2,0,B|158:57|171:52|193:61|209:84|212:118,1,100.000003814697,0|0,3:0|0:0,0:0:0:0:
30,105,281383,70,0,B|87:44|150:67|247:127|196:180|260:197|230:235|208:266|272:341,1,397.500016679764,8|0,1:0|0:0,0:0:0:0:
418,287,281818,22,0,B|395:258|281:222|226:362|131:323|131:323|160:316,1,265.000011119843,6|0,3:1|0:0,0:0:0:0:
131,305,282144,1,0,0:0:0:0:
151,318,282252,1,0,0:0:0:0:
193,331,282361,1,0,0:0:0:0:
157,350,282470,1,0,0:0:0:0:
164,367,282578,1,0,0:0:0:0:
196,373,282687,70,0,B|260:330|260:330|179:-44,1,397.500016679764,10|0,1:1|0:0,0:0:0:0:
104,124,283122,2,0,B|147:60|147:60|521:141,1,397.500016679764,2|0,0:1|0:0,0:0:0:0:
447,217,283557,22,0,B|391:228|322:130|356:56|411:46|447:52|458:24,1,265.000011119843,2|0,3:1|3:0,0:0:0:0:
481,128,283883,2,0,B|448:221|408:261|336:248|306:208|289:131|290:129,1,265.000011119843,2|0,0:1|0:0,0:0:0:0:
336,88,284209,2,0,B|393:98|391:129|393:147|391:182|384:205,1,132.500005559922,2|0,0:1|0:0,0:0:0:0:
288,295,284426,70,0,L|146:281,1,112.500004291535,10|0,1:1|0:0,0:0:0:0:
150,294,284861,1,2,0:1:0:0:
135,292,284970,1,0,0:0:0:0:
120,290,285078,1,0,0:0:0:0:
105,288,285187,1,0,0:0:0:0:
25,339,285296,22,0,B|78:393|179:392|220:358|310:214|169:218|105:176|106:60|141:0|217:-7|284:-5|390:-8|426:38|457:107|421:200|365:220|296:239,1,900.000034332277,2|0,3:1|0:0,0:0:0:0:
4,46,286165,70,0,B|124:98|300:162|444:96|508:52|511:50,1,450.000017166138,10|0,1:1|0:0,0:0:0:0:
512,24,286600,2,0,B|357:68|277:238|301:383,1,450.000017166138,2|0,0:1|0:0,0:0:0:0:
439,283,287035,22,0,B|225:288|414:293,1,200,8|0,3:0|3:0,3:0:0:0:
479,112,287252,2,0,B|372:114|466:117,1,100,8|0,1:0|0:0,0:0:0:0:
376,190,287470,2,0,B|269:192|363:195,1,100,8|0,1:0|0:0,0:0:0:0:
100,24,287687,2,0,B|-114:29|75:34,1,200,8|0,1:0|0:0,0:0:0:0:
186,142,287905,2,0,B|-28:147|161:152,1,200,8|0,1:0|0:0,0:0:0:0:
43,320,288122,69,8,1:0:0:0:
217,255,288231,1,0,3:0:0:0:
203,384,288340,1,8,1:0:0:0:
181,383,288448,1,0,3:0:0:0:
276,14,288774,22,0,B|366:1|496:1|544:33|540:130|517:199|483:237|400:232|344:266|316:324|331:366|364:393|366:395,1,600.000022888185,6|0,3:1|0:0,0:0:0:0:
372,376,289318,1,0,0:0:0:0:
395,361,289426,2,0,B|425:338|433:254|378:172|345:185,1,150.000005722046,2|0,0:1|0:0,0:0:0:0:
61,220,289644,70,0,L|544:171,1,450.000017166138,10|0,1:1|0:0,0:0:0:0:
503,198,290078,2,0,L|55:243,1,450.000017166138,2|0,0:1|0:0,0:0:0:0:
31,100,290513,22,0,B|126:79|134:56|80:76|41:102|22:103,1,150.000005722046,2|0,3:1|0:0,0:0:0:0:
23,10,290731,2,0,B|195:25|462:305|395:473|308:554|160:389|61:199|82:105|131:19|139:-5|139:-12,1,899.999972534181,2|0,3:1|0:0,0:0:0:0:
206,69,291383,70,0,B|231:53|344:55|406:96|409:152|420:188|459:215|491:222|505:218|520:209|524:206,1,359.999989013672,10|0,1:1|0:0,0:0:0:0:
0,290,292252,22,0,B|37:313|114:321|128:309|208:310|302:249|306:163|322:109|336:54|422:42|456:40|489:54|526:87,1,629.999980773926,2|0,3:1|0:0,0:0:0:0:
31,3,293122,2,0,B|256:28|394:161|429:298|337:361|208:344|117:321|38:227|20:118|39:73|49:49|69:41|85:42,1,839.999974365235,10|0,1:1|0:0,0:0:0:0:
437,224,293992,70,0,B|409:226|392:261|392:261|382:232|404:214|422:191|393:180|422:102,1,150.000005722046,10|0,1:1|0:0,0:0:0:0:
387,136,294209,2,0,B|412:136|428:102|428:102|437:129|417:146|401:168|427:178|400:252,1,150.000005722046,2|0,3:1|0:0,0:0:0:0:
354,269,294426,22,0,B|379:270|395:304|395:304|404:277|384:260|368:238|394:228|367:154,1,150.000005722046,2|0,3:1|0:0,0:0:0:0:
466,108,294644,2,0,B|438:107|421:72|421:72|411:101|433:119|451:142|422:153|451:231,1,150.000005722046,10|0,1:1|0:0,0:0:0:0:
273,365,294861,70,0,B|245:359|244:379|208:380,1,50,10|0,3:0|3:0,0:0:0:0:
251,384,295187,1,2,0:1:0:0:
67,180,295296,22,0,B|29:143|8:114|-1:-4|136:-44|237:-26|395:42|397:153|453:224|537:295|506:371|490:379|492:391,1,752.500011482239,2|0,0:1|0:0,0:0:0:0:
494,372,295731,38,0,B|457:385|444:376|407:355|378:380|378:380|324:363|325:316|299:368|315:318|266:329|266:329|220:354|143:335|143:335|188:372|133:383|133:383|119:328|52:361|34:378|34:378|44:342|6:338|6:338|41:294|41:294|-8:253|33:250|111:289|126:242|134:239|173:255|195:277|210:281|232:213|232:213|278:287|328:227|329:208|329:208|347:298|395:299|403:290|437:287|437:287|532:320|437:248|467:220|518:226|517:213|486:239|471:161|414:210|414:210|493:153|355:168|413:80|468:155|525:176|485:92|486:89|503:139|514:9|514:9|490:16|462:6|429:22|449:66|399:30|399:30|400:95|352:64|342:135|342:135|271:101|285:168|224:124|224:124|183:147|188:154|104:196|142:172|179:133|179:133|161:95|135:118|135:118|131:148|90:120|89:123|83:179|72:178|72:178|25:187|25:187|62:102|28:150|-46:108|36:38|36:38|71:74|94:60|57:14|117:39|117:39|166:-2|115:53|117:49|198:-1|183:32|183:32|187:60|251:-15|229:19|231:43|263:73|264:51|307:54|326:-2,1,2993.0000822052,4|0,3:0|0:0,0:0:0:0:
0,371,304861,86,0,B|2:376|2:376|-3:373|-3:373|-5:374|-5:374|3:380|3:380|-4:379|-4:379|4:384|4:384|1:384,1,45,2|2,0:1|0:1,0:0:0:0:
