osu file format v14

[General]
AudioFilename: audio.mp3
AudioLeadIn: 0
PreviewTime: 29828
Countdown: 1
SampleSet: Normal
StackLeniency: 0.7
Mode: 1
LetterboxInBreaks: 0
WidescreenStoryboard: 1

[Editor]
Bookmarks: 175049
DistanceSpacing: 1.2
BeatDivisor: 4
GridSize: 32
TimelineZoom: 1.82

[Metadata]
Title:21st Century Schizoid Man
TitleUnicode:21st Century Schizoid Man
Artist:King Crimson
ArtistUnicode:King Crimson
Creator:Ney
Version:Frantic
Source:
Tags:in the court of the crimson king 1969 mirrors english instrumental progressive rock nifty n1doking
BeatmapID:1986836
BeatmapSetID:942623

[Difficulty]
HPDrainRate:5
CircleSize:5
OverallDifficulty:6
ApproachRate:5
SliderMultiplier:1.4
SliderTickRate:1

[Events]
//Background and Video events
0,0,"kc.jpg",0,0
//Break Periods
//Storyboard Layer 0 (Background)
//Storyboard Layer 1 (Fail)
//Storyboard Layer 2 (Pass)
//Storyboard Layer 3 (Foreground)
//Storyboard Layer 4 (Overlay)
//Storyboard Sound Samples

[TimingPoints]
121,828.073,4,1,0,70,1,0
121,-48.3049199768619,4,1,0,70,0,0
30760,837.665,4,1,0,70,1,8
30760,-47.7517862152531,4,1,0,70,0,8
31598,734.467,4,1,0,70,1,8
31598,-54.4612623848314,4,1,0,70,0,8
32332,816.599,4,1,0,70,1,8
32332,-48.9836504820603,4,1,0,70,0,8
32536,-51.5066334105504,4,1,0,70,0,8
33149,748.798,4,1,0,70,1,0
33149,-59.8087912942323,4,1,0,70,0,0
33898,813.696,4,1,0,70,1,8
33898,-54.5184926727146,4,1,0,70,0,8
34304,-49.1584080541136,4,1,0,70,0,8
34711,778.867,4,1,0,70,1,8
34711,-51.3566501084267,4,1,0,70,0,8
35101,848.571,4,1,0,70,1,8
35101,-47.1380709451537,4,1,0,70,0,8
35525,749.547,4,1,0,70,1,8
35525,-48.2190882493698,4,1,0,70,0,8
36275,820.658,4,1,0,70,1,0
36275,-44.411974356526,4,1,0,70,0,0
36634,-48.7413758228154,4,1,0,70,0,0
37095,792.835,4,1,0,70,1,8
37095,-50.4518594663455,4,1,0,70,0,8
37888,783.651,4,1,0,70,1,8
37888,-51.0431301689145,4,1,0,70,0,8
38672,814.717,4,1,0,70,1,8
38672,-49.0968029389346,4,1,0,70,0,8
38875,-51.6317571448671,4,1,0,70,0,8
39487,666.666666666667,4,1,0,70,1,0
39487,-67.5675675675676,4,1,0,70,0,0
39820,750,4,1,0,70,1,8
39820,-59.8802395209581,4,1,0,70,0,0
40070,1048.95104895105,4,1,0,70,1,8
40070,-42.7350427350427,4,1,0,70,0,0
40244,874.648,4,1,0,70,1,8
40244,-51.2820512820513,4,1,0,70,0,8
40682,735.328,4,1,0,70,1,8
40682,-51.5910685542119,4,1,0,70,0,8
41050,781.769,4,1,0,70,1,8
41050,-48.6754793622052,4,1,0,70,0,8
41441,874.648,4,1,0,70,1,8
41441,-43.7326709291443,4,1,0,70,0,8
41878,759.493670886076,4,1,0,70,1,8
41878,-45.4545454545455,4,1,0,70,0,8
42513,821.917808219178,4,1,0,70,1,8
42513,-42.0168067226891,4,1,0,70,0,8
42646,795.261,4,1,0,70,1,0
42646,-43.4782608695652,4,1,0,70,0,0
42844,-46.0293124327727,4,1,0,70,0,0
43442,822.132,4,1,0,70,1,8
43442,-44.3912972104775,4,1,0,70,0,8
44264,789.343,4,1,0,70,1,8
44264,-46.4064410531426,4,1,0,70,0,8
45053,799.184,4,1,0,70,1,8
45053,-45.7826768361996,4,1,0,70,0,8
45452,-49.0196078431373,4,1,0,70,0,8
45852,689.655172413793,4,1,0,70,1,0
45852,-64.9350649350649,4,1,0,70,0,0
46311,882.352941176471,4,1,0,70,1,8
46311,-50.761421319797,4,1,0,70,0,0
46458,986.842105263158,4,1,0,70,1,8
46458,-45.4545454545455,4,1,0,70,0,8
46622,785.555,4,1,0,70,1,8
46622,-56.6929580259512,4,1,0,70,0,8
47014,-50,4,1,0,70,0,8
47407,674.157303370787,4,1,0,70,1,8
47407,-58.4795321637427,4,1,0,70,0,8
47519,1071.42857142857,4,1,0,70,1,8
47519,-36.7647058823529,4,1,0,70,0,8
47697,705.882352941176,4,1,0,70,1,8
47697,-55.5555555555556,4,1,0,70,0,8
47814,874.63556851312,4,1,0,70,1,8
47814,-44.8430493273543,4,1,0,70,0,8
48251,731.707317073171,4,1,0,70,1,8
48251,-45.4545454545455,4,1,0,70,0,8
48738,983.606557377049,4,1,0,70,1,8
48738,-33.7837837837838,4,1,0,70,0,8
48901,833.333333333333,4,1,0,70,1,8
48901,-39.8406374501992,4,1,0,70,0,8
49039,934.74,4,1,0,50,1,0
49039,-35.7142857142857,4,1,0,50,0,0
49974,857.257,4,1,0,50,1,8
49974,-51.4630296028212,4,1,0,50,0,8
50831,849.275,4,1,0,50,1,8
50831,-51.9970101719151,4,1,0,50,0,8
51680,872.902,4,1,0,50,1,8
51680,-50.4475962981554,4,1,0,50,0,8
52553,859.139,4,1,0,50,1,0
52553,-51.3387213321371,4,1,0,50,0,0
53412,872.789,4,1,0,50,1,8
53412,-50.4547868348325,4,1,0,50,0,8
54285,890.317,4,1,0,50,1,8
54285,-49.3633972877281,4,1,0,50,0,8
55175,857.233,4,1,0,50,1,8
55175,-46.6617594049692,4,1,0,50,0,8
56033,870.884,4,1,0,50,1,0
56033,-45.9303420432572,4,1,0,50,0,0
56904,882.494,4,1,0,50,1,8
56904,-45.3260872028592,4,1,0,50,0,8
57786,901.927,4,1,0,50,1,8
57786,-44.3494872644904,4,1,0,50,0,8
58688,888.164,4,1,0,50,1,8
58688,-45.0367274512365,4,1,0,50,0,8
59576,867.914,4,1,0,50,1,0
59576,-46.0875155833412,4,1,0,50,0,0
61312,923.289,4,1,0,50,1,8
61312,-39.8688712823523,4,1,0,50,0,8
62235,913.537,4,1,0,50,1,8
62235,-40.2602016834803,4,1,0,50,0,8
63149,883.175,4,1,0,70,1,0
63149,-41.5293171022919,4,1,0,70,0,0
63590,-45.2911370906106,4,1,0,70,0,0
64032,816.599,4,1,0,70,1,8
64032,-48.9836504820603,4,1,0,70,0,8
64849,722.89156626506,4,1,0,70,1,8
64849,-55.5555555555556,4,1,0,70,0,8
65451,1123.59550561798,4,1,0,70,1,8
65451,-35.84229390681,4,1,0,70,0,8
65638,857.233,4,1,0,70,1,8
65638,-46.6617594049692,4,1,0,70,0,8
65852,-48.9456495271238,4,1,0,70,0,8
66495,727.272727272727,4,1,0,70,1,0
66495,-61.3496932515337,4,1,0,70,0,0
67101,976.721471593684,4,1,0,70,1,8
67101,-45.662100456621,4,1,0,70,0,0
67263,834.013,4,1,0,70,1,8
67263,-53.0494832317215,4,1,0,70,0,8
67680,-47.9608831037406,4,1,0,70,0,8
68097,759.493670886076,4,1,0,70,1,8
68097,-52.6315789473684,4,1,0,70,0,8
68476,950.871632329636,4,1,0,70,1,8
68476,-42.1940928270042,4,1,0,70,0,8
68951,783.537,4,1,0,70,1,8
68951,-46.3211188403045,4,1,0,70,0,8
69342,666.666666666667,4,1,0,70,1,8
69342,-54.3478260869565,4,1,0,70,0,8
69453,845.070422535211,4,1,0,70,1,8
69453,-42.9184549356223,4,1,0,70,0,8
69734,847.392,4,1,0,70,1,0
69734,-43.1317069804355,4,1,0,70,0,0
70104,-47.2036554510781,4,1,0,70,0,0
70582,801.088,4,1,0,70,1,8
70582,-49.932092354398,4,1,0,70,0,8
71383,799.184,4,1,0,70,1,8
71383,-50.0510520731146,4,1,0,70,0,8
72182,830.25,4,1,0,70,1,8
72182,-48.1782595603734,4,1,0,70,0,8
73012,839.75,4,1,0,70,1,0
73012,-47.6332241738613,4,1,0,70,0,0
73852,839.773,4,1,0,70,1,8
73852,-50.0141915268457,4,1,0,70,0,8
74692,849.547,4,1,0,70,1,8
74692,-49.410349244701,4,1,0,70,0,8
75222,-51.9786315845556,4,1,0,70,0,8
75541,806.35,4,1,0,70,1,8
75541,-54.054054054054,4,1,0,70,0,8
76347,841.859,4,1,0,70,1,0
76347,-47.5138948446236,4,1,0,70,0,0
77189,816.327,4,1,0,70,1,8
77189,-48.9999718250162,4,1,0,70,0,8
78006,818.64,4,1,0,70,1,8
78006,-48.8615264340858,4,1,0,70,0,8
78824,849.275,4,1,0,70,1,8
78824,-47.0989962026434,4,1,0,70,0,8
79036,-49.4269562262519,4,1,0,70,0,8
79674,722.89156626506,4,1,0,70,1,0
79674,-61.7283950617284,4,1,0,70,0,0
80155,851.063829787234,4,1,0,70,1,8
80155,-52.6315789473684,4,1,0,70,0,8
80438,882.494,4,1,0,70,1,8
80438,-49.8446094301017,4,1,0,70,0,8
80824,-41.5587006256662,4,1,0,70,0,8
81044,-45.3260872028592,4,1,0,70,0,8
81320,937.5,4,1,0,70,1,8
81320,-42.5531914893617,4,1,0,70,0,8
82257,833.318222206104,4,1,0,70,1,8
82257,-44.4444444444445,4,1,0,70,0,8
82812,907.715582450832,4,1,0,70,1,8
82812,-40.8163265306122,4,1,0,70,0,8
83085,867.12,4,1,0,50,1,0
83085,-39.8777507672479,4,1,0,50,0,0
83952,896.123,4,1,0,50,1,8
83952,-50.7235563137487,4,1,0,50,0,8
84849,882.516,4,1,0,50,1,8
84849,-51.5056332741225,4,1,0,50,0,8
85731,909.773,4,1,0,50,1,8
85731,-49.9625131264013,4,1,0,50,0,8
86641,778.431000000002,4,1,0,50,1,0
86641,-58.3925170690085,4,1,0,50,0,0
87030,945.522388059701,4,1,0,50,1,8
87030,-48.0734734878382,4,1,0,50,0,8
87502,927.082000000003,4,1,0,50,1,8
87502,-49.0296925779438,4,1,0,50,0,8
88429,968.059000000003,4,1,0,50,1,8
88429,-46.954313171558,4,1,0,50,0,8
89383,830.25,4,1,0,50,1,8
89383,-50.6168933881683,4,1,0,50,0,8
90213,967.741935483871,4,1,0,50,1,0
90213,-41.3223140495868,4,1,0,50,0,0
91136,886.417,4,1,0,50,1,8
91136,-45.1254883423942,4,1,0,50,0,8
92023,898.163,4,1,0,50,1,8
92023,-44.5353460340718,4,1,0,50,0,8
92921,892.358,4,1,0,50,1,8
92921,-44.8250590009839,4,1,0,50,0,8
93813,929.228,4,1,0,50,1,0
93813,-43.0464859001235,4,1,0,50,0,0
94743,816.031,4,1,0,50,1,8
94743,-49.0177456493687,4,1,0,50,0,8
95559,869.728,4,1,0,50,1,8
95559,-42.1173220121972,4,1,0,50,0,8
96428,893.378,4,1,0,50,1,8
96428,-41.0940045902003,4,1,0,50,0,8
97322,874.966,4,1,0,70,1,0
97322,-41.8863079942113,4,1,0,70,0,0
97595,-45.716062109842,4,1,0,70,0,0
98197,816.327,4,1,0,70,1,8
98197,-48.9999718250162,4,1,0,70,0,8
99013,810.793,4,1,0,70,1,8
99013,-49.3344170460278,4,1,0,70,0,8
99418,731.707317073171,4,1,0,70,1,8
99418,-54.6448087431694,4,1,0,70,0,8
99661,980.392156862745,4,1,0,70,1,8
99661,-40.8163265306122,4,1,0,70,0,8
99824,824.308,4,1,0,70,1,8
99824,-48.5255511289469,4,1,0,70,0,8
100030,-51.0003723027178,4,1,0,70,0,8
100648,799.184,4,1,0,70,1,0
100648,-55.6185899575074,4,1,0,70,0,0
100914,731.707317073171,4,1,0,70,1,8
100914,-60.6060606060606,4,1,0,70,0,8
101279,1008.40336134454,4,1,0,70,1,8
101279,-44.0528634361233,4,1,0,70,0,8
101447,872.631,4,1,0,70,1,8
101447,-50.464844297031,4,1,0,70,0,8
101828,-45.8383898807171,4,1,0,70,0,8
102320,872.654,4,1,0,70,1,8
102320,-45.8371817467175,4,1,0,70,0,8
103193,779.220779220779,4,1,0,70,1,8
103193,-46.7289719626168,4,1,0,70,0,8
103842,925.925925925926,4,1,0,70,1,8
103842,-39.2156862745098,4,1,0,70,0,8
103996,816.599,4,1,0,70,1,0
103996,-44.6130321358824,4,1,0,70,0,0
104251,-48.9836504820603,4,1,0,70,0,0
104812,847.392,4,1,0,70,1,8
104812,-47.2036554510781,4,1,0,70,0,8
105660,801.066,4,1,0,70,1,8
105660,-49.9334636596735,4,1,0,70,0,8
106461,828.209,4,1,0,70,1,8
106461,-48.296987837611,4,1,0,70,0,8
106875,-50.7479615178208,4,1,0,70,0,8
107289,727.272727272727,4,1,0,70,1,0
107289,-60.9756097560976,4,1,0,70,0,0
107773,958.466453674121,4,1,0,70,1,8
107773,-46.2962962962963,4,1,0,70,0,0
108092,881.541,4,1,0,70,1,8
108092,-49.9038726652785,4,1,0,70,0,8
108422,-45.3750874888406,4,1,0,70,0,8
108974,881.565,4,1,0,70,1,8
108974,-43.4044261663583,4,1,0,70,0,8
109855,759.493670886076,4,1,0,70,1,8
109855,-45.8715596330275,4,1,0,70,0,8
110487,1075.2688172043,4,1,0,70,1,8
110487,-32.3624595469256,4,1,0,70,0,8
110666,834.172,4,1,0,70,1,0
110666,-41.921163060748,4,1,0,70,0,0
110978,-47.9517413674878,4,1,0,70,0,0
111500,820.091,4,1,0,70,1,8
111500,-48.7750749611933,4,1,0,70,0,8
112320,841.724,4,1,0,70,1,8
112320,-47.521515366082,4,1,0,70,0,8
113162,866.962,4,1,0,70,1,8
113162,-46.1381237009235,4,1,0,70,0,8
114029,2926.82926829268,4,1,0,70,1,0
114029,-14.3884892086331,4,1,0,70,0,0
115492,2797.2027972028,4,1,0,70,1,8
115492,-14.3061516452074,4,1,0,70,0,8
116890,2962.96296296296,4,1,0,70,1,8
116890,-13.4952766531714,4,1,0,70,0,8
118186,1935.48387096774,4,1,0,70,1,8
118186,-20.6611570247934,4,1,0,70,0,8
118305,2500,4,1,0,70,1,0
118305,-16,4,1,0,70,0,0
120805,2343.75,4,1,0,70,1,8
120805,-17.0648464163823,4,1,0,70,0,8
121977,2631.08,4,1,0,70,1,0
121977,-15.2028824665157,4,1,0,70,0,0
122853,2291.49,4,1,0,70,1,8
122853,-17.4558911450628,4,1,0,70,0,8
123619,1978.02,4,1,0,70,1,8
123619,-20.2222424444647,4,1,0,70,0,8
124277,1609.39,4,1,0,70,1,0
124277,-24.8541372818273,4,1,0,70,0,0
124813,1443.95,4,1,0,70,1,8
124813,-27.7017902281935,4,1,0,70,0,8
125295,1200.2,4,1,0,70,1,8
125295,-33.3277787035494,4,1,0,70,0,8
125695,998.707,4,1,0,70,1,0
125695,-38.5094160335879,4,1,0,70,0,0
126028,937.755,4,1,0,70,1,8
126028,-40.9100439271597,4,1,0,70,0,8
126341,798.503,4,1,0,70,1,8
126341,-47.7040630743122,4,1,0,70,0,8
126607,799.048,4,1,0,70,1,0
126607,-45.5037722627206,4,1,0,70,0,0
126873,764.217,4,1,0,70,1,8
126873,-45.2377640330371,4,1,0,70,0,8
127128,624.898,4,1,0,70,1,8
127128,-50.9620358314074,4,1,0,70,0,8
127336,446.1296387,4,1,0,70,1,0
127336,-65.6049052652346,4,1,0,70,0,0
128674,459.0102827,4,1,0,70,1,0
128674,-63.7639150712796,4,1,0,70,0,8
129363,417.6928836,4,1,0,70,1,8
129363,-70.0713223329784,4,1,0,70,0,8
129990,444.9655805,4,1,0,70,1,0
129990,-65.7765318612702,4,1,0,70,0,0
130657,408.163265306122,4,1,0,70,1,8
130657,-71.4285714285714,4,1,0,70,0,8
131065,456.273764258555,4,1,0,70,1,8
131065,-64.1025641025641,4,1,0,70,0,8
131293,455.1247551,4,1,0,70,1,0
131293,-64.3082854864618,4,1,0,70,0,0
131976,420.3083477,4,1,0,70,1,8
131976,-69.6352876241645,4,1,0,70,0,8
132606,452.509291,4,1,0,70,1,0
132606,-64.6799817485445,4,1,0,70,0,0
133285,418.947613,4,1,0,70,1,8
133285,-69.8614618504267,4,1,0,70,0,8
133913,446.0389675,4,1,0,70,1,0
133913,-65.6182414890171,4,1,0,70,0,0
134583,413.7166848,4,1,0,70,1,8
134583,-70.7447723484388,4,1,0,70,0,8
135203,442.2594452,4,1,0,70,1,0
135203,-66.1790109868451,4,1,0,70,0,0
135866,402.684563758389,4,1,0,70,1,8
135866,-72.463768115942,4,1,0,70,0,8
136268,442.80442804428,4,1,0,70,1,8
136268,-66.2251655629139,4,1,0,70,0,8
136489,439.6439811,4,1,0,70,1,0
136489,-66.5727132433312,4,1,0,70,0,0
137148,422.8178065,4,1,0,70,1,8
137148,-69.2219964083439,4,1,0,70,0,8
137783,449.909161,4,1,0,70,1,0
137783,-65.0537824521578,4,1,0,70,0,0
138457,413.793103448276,4,1,0,70,1,8
138457,-70.9219858156028,4,1,0,70,0,8
138870,441.176470588235,4,1,0,70,1,8
138870,-66.2251655629139,4,1,0,70,0,8
139090,422.9084777,4,1,0,70,1,0
139090,-69.2071552741229,4,1,0,70,0,0
139724,416.2414777,4,1,0,70,1,8
139724,-70.3156562980048,4,1,0,70,0,8
139932,387.096774193548,4,1,0,70,1,8
139932,-75.7575757575758,4,1,0,70,0,8
140061,451.127819548872,4,1,0,70,1,8
140061,-64.9350649350649,4,1,0,70,0,8
140136,422.535211267606,4,1,0,70,1,8
140136,-69.4444444444444,4,1,0,70,0,8
140348,428.0334006,4,1,0,70,1,0
140348,-68.3785252316752,4,1,0,70,0,0
140990,438.2985805,4,1,0,70,1,8
140990,-66.7770647341324,4,1,0,70,0,8
141648,426.7786712,4,1,0,70,1,0
141648,-68.5795581129473,4,1,0,70,0,0
142288,420.1116712,4,1,0,70,1,8
142288,-69.6678875864728,4,1,0,70,0,8
142918,446.1296387,4,1,0,70,1,0
142918,-65.6049052652346,4,1,0,70,0,0
143587,436.9231784,4,1,0,70,1,8
143587,-66.9872740331755,4,1,0,70,0,8
144243,424.5490597,4,1,0,70,1,0
144243,-68.9397185418541,4,1,0,70,0,0
144879,400,4,1,0,70,1,8
144879,-73.5294117647059,4,1,0,70,0,8
145279,476.947535771065,4,1,0,70,1,8
145279,-61.3496932515337,4,1,0,70,0,8
145517,429.3941353,4,1,0,70,1,0
145517,-68.1618361240036,4,1,0,70,0,0
146161,410.958904109589,4,1,0,70,1,8
146161,-70.9219858156028,4,1,0,70,0,8
146674,487.80487804878,4,1,0,70,1,8
146674,-59.8802395209581,4,1,0,70,0,8
146795,442.598943697808,4,1,0,70,1,0
146795,-66.1282479311796,4,1,0,70,0,0
147456,425.3272653,4,1,0,70,1,8
147456,-68.8135820831584,4,1,0,70,0,8
148093,455.3214316,4,1,0,70,1,0
148093,-64.2805074649748,4,1,0,70,0,0
148775,443.6048458,4,1,0,70,1,8
148775,-65.9782979379862,4,1,0,70,0,8
149440,429.1133613,4,1,0,70,1,0
149440,-68.2064352278812,4,1,0,70,0,0
150083,426.5819947,4,1,0,70,1,8
150083,-68.611176858297,4,1,0,70,0,8
150723,433.1583235,4,1,0,70,1,0
150723,-67.5695031009299,4,1,0,70,0,0
151372,442.2747793,4,1,0,70,1,8
151372,-66.1767164956829,4,1,0,70,0,8
152036,447.0670189,4,1,0,70,1,0
152036,-65.467349291256,4,1,0,70,0,0
152706,432.2362774,4,1,0,70,1,8
152706,-67.7136423138342,4,1,0,70,0,8
153355,444.4515548,4,1,0,70,1,0
153355,-65.8526050068547,4,1,0,70,0,0
154021,427.0053492,4,1,0,70,1,8
154021,-68.5431522995235,4,1,0,70,0,8
154662,452.2979471,4,1,0,70,1,0
154662,-64.710204568883,4,1,0,70,0,0
155340,431.654676258993,4,1,0,70,1,8
155340,-68.0272108843537,4,1,0,70,0,8
155998,441.176470588235,4,1,0,70,1,0
155998,-66.6666666666667,4,1,0,70,0,0
156439,419.58041958042,4,1,0,70,1,8
156439,-69.9300699300699,4,1,0,70,0,0
156636,445.1922585,4,1,0,70,1,8
156636,-65.7430405046606,4,1,0,70,0,8
157304,439.1299554,4,1,0,70,1,0
157304,-66.6506402558363,4,1,0,70,0,0
157962,425.531914893617,4,1,0,70,1,8
157962,-68.4931506849315,4,1,0,70,0,8
158387,456.273764258555,4,1,0,70,1,8
158387,-64.1025641025641,4,1,0,70,0,8
158615,439.1299554,4,1,0,70,1,0
158615,-66.6506402558363,4,1,0,70,0,0
159273,447.8077226,4,1,0,70,1,8
159273,-65.3590619496092,4,1,0,70,0,8
159945,425.0099161,4,1,0,70,1,0
159945,-68.8649642613052,4,1,0,70,0,0
160582,447.8983938,4,1,0,70,1,8
160582,-65.3458308582281,4,1,0,70,0,8
161254,441.6547483,4,1,0,70,1,0
161254,-66.2696207741119,4,1,0,70,0,0
161917,447.8983938,4,1,0,70,1,8
161917,-65.3458308582281,4,1,0,70,0,8
162588,433.1736576,4,1,0,70,1,0
162588,-67.5671111791236,4,1,0,70,0,0
163238,437.1345223,4,1,0,70,1,8
163238,-66.9548873169078,4,1,0,70,0,8
163429,-69.9300699300699,4,1,0,70,0,8
163675,-71.9424460431655,4,1,0,70,0,8
163894,461.7010839,4,1,0,60,1,0
163894,-73.8376197927507,4,1,0,60,0,0
164586,449.909161,4,1,0,60,1,8
164586,-75.7728716062065,4,1,0,60,0,8
165261,447.309031,4,1,0,60,1,0
165261,-76.2133261979884,4,1,0,60,0,0
165932,451.3452328,4,1,0,60,1,8
165932,-75.5317805827262,4,1,0,60,0,8
166609,444.7842381,4,1,0,60,1,0
166609,-76.6459468899716,4,1,0,60,0,0
167276,461.6104127,4,1,0,60,1,8
167276,-73.8521232471953,4,1,0,60,0,8
167969,421.6537483,4,1,0,60,1,0
167969,-80.8504827203717,4,1,0,60,0,0
168601,427.9427294,4,1,0,60,1,8
168601,-79.6623163541217,4,1,0,60,0,8
169243,455.2154263,4,1,0,60,1,0
169243,-74.8896173576556,4,1,0,60,0,0
169926,415.1680907,4,1,0,60,1,8
169926,-82.1135098158185,4,1,0,60,0,8
170549,425.5239418,4,1,0,60,1,0
170549,-80.1151374625405,4,1,0,60,0,0
171187,444.8749093,4,1,0,60,1,8
171187,-76.6303254650848,4,1,0,60,0,8
171854,431.9942653,4,1,0,60,1,0
171854,-78.9151889950079,4,1,0,60,0,0
172502,420.2930136,4,1,0,60,1,8
172502,-81.1122430965602,4,1,0,60,0,8
173132,406.066969,4,1,0,60,1,0
173132,-83.9539083291187,4,1,0,60,0,0
173741,446.1296387,4,1,0,60,1,8
173741,-76.4148044282562,4,1,0,60,0,8
174411,425.5239418,4,1,0,60,1,0
174411,-74.211916807406,4,1,0,60,0,0
175049,408.163265306122,4,1,0,60,1,8
175049,-77.5193798449612,4,1,0,60,0,8
175457,428.571428571429,4,1,0,60,1,8
175457,-74.0740740740741,4,1,0,60,0,8
175671,416.3321489,4,1,0,60,1,0
175671,-75.8503695951813,4,1,0,60,0,0
176296,433.1583235,4,1,0,60,1,8
176296,-72.9039375562664,4,1,0,60,0,8
176512,400,4,1,0,60,1,8
176512,-79.3650793650794,4,1,0,60,0,8
176712,468.75,4,1,0,60,1,8
176712,-67.5675675675676,4,1,0,60,0,8
176946,438.4045858,4,1,0,60,1,0
176946,-72.0315169851516,4,1,0,60,0,0
177603,413.7013507,4,1,0,60,1,8
177603,-76.3327151699847,4,1,0,60,0,8
178224,439.7653205,4,1,0,60,1,0
178224,-71.8086349612942,4,1,0,60,0,0
178883,402.684563758389,4,1,0,60,1,8
178883,-78.125,4,1,0,60,0,8
179285,447.761194029851,4,1,0,60,1,8
179285,-70.4225352112676,4,1,0,60,0,8
179508,430.75487,4,1,0,60,1,0
179508,-73.3107146726421,4,1,0,60,0,0
180154,424.0572018,4,1,0,60,1,8
180154,-74.4686029016311,4,1,0,60,0,8
180790,425.4332706,4,1,0,60,1,0
180790,-74.2277333502488,4,1,0,60,0,0
181428,425.5392759,4,1,0,60,1,8
181428,-74.2092426172243,4,1,0,60,0,8
182066,406.066969,4,1,0,60,1,0
182066,-77.7678308732889,4,1,0,60,0,0
182675,421.547743,4,1,0,60,1,8
182675,-74.9119118600548,4,1,0,60,0,8
183308,419.7789879,4,1,0,60,1,0
183308,-75.2275561156573,4,1,0,60,0,0
183937,363.636363636364,4,1,0,60,1,8
183937,-86.9565217391304,4,1,0,60,0,8
184118,428.571428571429,4,1,0,60,1,8
184118,-74.0740740740741,4,1,0,60,0,8
184332,495.867768595041,4,1,0,60,1,8
184332,-63.6942675159236,4,1,0,60,0,8
184579,434.6097294,4,1,0,60,1,0
184579,-72.6604703765315,4,1,0,60,0,0
185230,422.535211267606,4,1,0,60,1,8
185230,-75.187969924812,4,1,0,60,0,8
185652,474.308300395257,4,1,0,60,1,8
185652,-66.6666666666667,4,1,0,60,0,8
185889,412.5526266,4,1,0,60,1,0
185889,-76.5452583072248,4,1,0,60,0,0
186508,435.6831164,4,1,0,60,1,8
186508,-72.4814576918984,4,1,0,60,0,8
187161,415.1680907,4,1,0,60,1,0
187161,-76.0630406714951,4,1,0,60,0,0
187784,422.9084777,4,1,0,60,1,8
187784,-74.6708780589221,4,1,0,60,0,8
188418,422.535211267606,4,1,0,60,1,0
188418,-74.6268656716418,4,1,0,60,0,0
188840,480,4,1,0,60,1,8
188840,-65.7894736842105,4,1,0,60,0,0
189080,400,4,1,0,60,1,8
189080,-79.3650793650794,4,1,0,60,0,8
189480,432.276657060519,4,1,0,60,1,8
189480,-72.992700729927,4,1,0,60,0,8
189696,435.7891217,4,1,0,60,1,0
189696,-72.4638266444847,4,1,0,60,0,0
190350,422.7118012,4,1,0,60,1,8
190350,-74.7056204221749,4,1,0,60,0,8
190984,419.1442895,4,1,0,60,1,0
190984,-75.3414710864647,4,1,0,60,0,0
191613,420.0056659,4,1,0,60,1,8
191613,-75.1869556348789,4,1,0,60,0,8
192243,413.9133613,4,1,0,60,1,0
192243,-76.2936167830856,4,1,0,60,0,0
192864,412.371134020619,4,1,0,60,1,8
192864,-76.9230769230769,4,1,0,60,0,8
193276,458.015267175573,4,1,0,60,1,8
193276,-68.9655172413793,4,1,0,60,0,8
193505,417.7835548,4,1,0,60,1,0
193505,-75.5868607215486,4,1,0,60,0,0
194132,409.9371625,4,1,0,60,1,8
194132,-77.0336291929158,4,1,0,60,0,8
194747,433.2643288,4,1,0,60,1,0
194747,-72.8861003994591,4,1,0,60,0,0
195397,419.58041958042,4,1,0,60,1,8
195397,-75.187969924812,4,1,0,60,0,8
195816,452.830188679245,4,1,0,60,1,8
195816,-69.9300699300699,4,1,0,60,0,8
196042,424.1632071,4,1,0,60,1,0
196042,-74.4499919838074,4,1,0,60,0,0
196679,417.5868783,4,1,0,60,1,8
196679,-75.6224608804262,4,1,0,60,0,8
197305,426.8693424,4,1,0,60,1,0
197305,-73.9780167647407,4,1,0,60,0,0
197945,414.880743,4,1,0,60,1,8
197945,-76.1157221713254,4,1,0,60,0,8
198567,405.4476047,4,1,0,60,1,0
198567,-77.8866294987414,4,1,0,60,0,0
199176,420.927712,4,1,0,60,1,8
199176,-75.0222579035639,4,1,0,60,0,8
199807,441.5340756,4,1,0,60,1,0
199807,-71.52097451484,4,1,0,60,0,0
200469,415.8027891,4,1,0,60,1,8
200469,-75.9469349322387,4,1,0,60,0,8
201093,424.6925669,4,1,0,60,1,0
201093,-74.3571934845207,4,1,0,60,0,0
201730,408.6824331,4,1,0,60,1,8
201730,-77.2701364452679,4,1,0,60,0,8
202343,413.807356,4,1,0,60,1,0
202343,-76.3131609686055,4,1,0,60,0,0
202964,420.2930136,4,1,0,60,1,8
202964,-75.1355514999716,4,1,0,60,0,8
203594,413.793103448276,4,1,0,60,1,0
203594,-76.3358778625954,4,1,0,60,0,0
204007,493.827160493827,4,1,0,60,1,8
204007,-64.1025641025641,4,1,0,60,0,0
204253,389.61038961039,4,1,0,60,1,8
204253,-81.3008130081301,4,1,0,60,0,8
204642,465.116279069767,4,1,0,60,1,8
204642,-68.0272108843537,4,1,0,60,0,8
204874,410.958904109589,4,1,0,60,1,0
204874,-76.9230769230769,4,1,0,60,0,0
205284,437.956204379562,4,1,0,60,1,8
205284,-71.9424460431655,4,1,0,60,0,0
205502,413.793103448276,4,1,0,60,1,8
205502,-76.3358778625954,4,1,0,60,0,8
206122,425.531914893617,4,1,0,60,1,0
206122,-74.0740740740741,4,1,0,60,0,0
206761,405.405405405405,4,1,0,60,1,8
206761,-78.125,4,1,0,60,0,8
207166,434.782608695652,4,1,0,60,1,8
207166,-72.463768115942,4,1,0,60,0,8
207382,429.454522299999,4,1,0,60,1,0
207382,-73.5326925870892,4,1,0,60,0,0
208026,400.247623221713,4,1,0,60,1,8
208026,-78.898525653276,4,1,0,60,0,8
208677,426.7786712,4,1,0,60,1,0
208677,-73.9937337534431,4,1,0,60,0,0
209318,402.684563758389,4,1,0,60,1,8
209318,-78.7401574803149,4,1,0,60,0,8
209720,421.052631578947,4,1,0,60,1,8
209720,-75.187969924812,4,1,0,60,0,8
209930,431.9942653,4,1,0,60,1,0
209930,-73.1003855953758,4,1,0,60,0,0
210578,405.8856266,4,1,0,60,1,8
210578,-77.8025761418304,4,1,0,60,0,8
211187,425.5239418,4,1,0,60,1,0
211187,-74.211916807406,4,1,0,60,0,0
211825,422.62113,4,1,0,60,1,8
211825,-74.7216481306106,4,1,0,60,0,8
212459,416.666666666667,4,1,0,60,1,0
212459,-75.7575757575758,4,1,0,60,0,0
212875,447.761194029851,4,1,0,60,1,8
212875,-70.9219858156028,4,1,0,60,0,0
213098,410.958904109589,4,1,0,60,1,8
213098,-76.9230769230769,4,1,0,60,0,8
213508,449.438202247191,4,1,0,60,1,8
213508,-69.9300699300699,4,1,0,60,0,8
213732,419.2349607,4,1,0,60,1,0
213732,-75.3251764015421,4,1,0,60,0,0
214360,424.2692124,4,1,0,60,1,8
214360,-74.431390366003,4,1,0,60,0,8
214997,412.3559501,4,1,0,60,1,0
214997,-76.581767186245,4,1,0,60,0,0
215615,421.6537483,4,1,0,60,1,8
215615,-74.8930787304495,4,1,0,60,0,8
216248,416.666666666667,4,1,0,60,1,0
216248,-75.7575757575758,4,1,0,60,0,0
216408,-76.3358778625954,4,1,0,60,0,0
216664,452.830188679245,4,1,0,60,1,8
216664,-70.9219858156028,4,1,0,60,0,0
216890,417.7835548,4,1,0,60,1,8
216890,-76.9230769230769,4,1,0,60,0,8
217046,-78.125,4,1,0,60,0,8
217281,-79.3650793650794,4,1,0,60,0,8
217516,441.0047158,4,1,0,60,1,1
217516,-76.8660829924526,4,1,0,60,0,1
218178,437.1345223,4,1,0,60,1,9
218178,-77.5466209037633,4,1,0,60,0,9
218833,441.176470588235,4,1,0,60,1,1
218833,-76.9230769230769,4,1,0,60,0,1
219494,422.535211267606,4,1,0,60,1,9
219494,-80,4,1,0,60,0,9
219916,466.926070038911,4,1,0,60,1,9
219916,-72.463768115942,4,1,0,60,0,9
220149,429.3941353,4,1,0,60,1,1
220149,-78.9444994656539,4,1,0,60,0,1
220793,446.1296387,4,1,0,60,1,9
220793,-75.9830823693395,4,1,0,60,0,9
221462,431.9035941,4,1,0,60,1,1
221462,-78.4858138432096,4,1,0,60,0,1
222110,428.571428571429,4,1,0,60,1,9
222110,-78.7401574803149,4,1,0,60,0,9
222538,495.867768595041,4,1,0,60,1,9
222538,-68.0272108843537,4,1,0,60,0,9
222785,416.4228201,4,1,0,60,1,1
222785,-81.4035721591948,4,1,0,60,0,1
223409,433.2643288,4,1,0,60,1,9
223409,-78.2393168129787,4,1,0,60,0,9
224059,434.5190582,4,1,0,60,1,1
224059,-78.0133907708671,4,1,0,60,0,1
224711,439.6439811,4,1,0,60,1,9
224711,-77.1039899145926,4,1,0,60,0,9
225370,426.7786712,4,1,0,60,1,1
225370,-79.4283017692327,4,1,0,60,0,1
226010,434.5190582,4,1,0,60,1,9
226010,-78.0133907708671,4,1,0,60,0,9
226662,437.028517,4,1,0,60,1,1
226662,-77.5654305523174,4,1,0,60,0,1
227318,442.2747793,4,1,0,60,1,9
227318,-76.6453496136441,4,1,0,60,0,9
227981,417.7835548,4,1,0,60,1,1
227981,-74.3793662765978,4,1,0,60,0,1
228608,431.8129229,4,1,0,60,1,9
228608,-67.7800295701313,4,1,0,60,0,9
229255,404.8129063,4,1,0,60,1,1
229255,-72.3007893953771,4,1,0,60,0,1
229863,434.3377158,4,1,0,60,1,9
229863,-67.3860261686416,4,1,0,60,0,9
230514,407.4277037,4,1,0,60,1,1
230514,-71.8367759902696,4,1,0,60,0,1
231125,400.7607037,4,1,0,60,1,9
231125,-73.0318427248705,4,1,0,60,0,9
231726,438.3892517,4,1,0,60,1,1
231726,-66.7632533631454,4,1,0,60,0,1
232384,386.215475568334,4,1,0,60,1,9
232384,-75.7822887336588,4,1,0,60,0,9
233024,422.7271353,4,1,0,60,1,1
233024,-69.2368439091467,4,1,0,60,0,1
233658,414.0040325,4,1,0,60,1,9
233658,-70.6956705377666,4,1,0,60,0,9
234279,408.8944437,4,1,0,60,1,1
234279,-71.5790912150436,4,1,0,60,0,1
234892,431.6469146,4,1,0,60,1,9
234892,-67.8060972821948,4,1,0,60,0,9
235540,425.6906168,4,1,0,60,1,1
235540,-68.754845720919,4,1,0,60,0,1
236178,400.6853666,4,1,0,60,1,9
236178,-73.0455742152048,4,1,0,60,0,9
236779,410.0124996,4,1,0,60,1,1
236779,-71.3839034455788,4,1,0,60,0,1
237394,416.4381542,4,1,0,60,1,9
237394,-70.2824474360491,4,1,0,60,0,9
238019,434.3223817,4,1,0,60,1,1
238019,-67.3884052863372,4,1,0,60,0,1
238670,423.014483,4,1,0,60,1,9
238670,-69.1898123093975,4,1,0,60,0,9
239305,419.0382842,4,1,0,60,1,1
239305,-69.8463452779831,4,1,0,60,0,1
239933,416.4228201,4,1,0,60,1,9
239933,-70.2850354740365,4,1,0,60,0,9
240558,431.8129229,4,1,0,60,1,1
240558,-67.7800295701313,4,1,0,60,0,1
241206,424.1632071,4,1,0,60,1,9
241206,-69.0024315947484,4,1,0,60,0,9
241842,413.7166848,4,1,0,60,1,1
241842,-70.7447723484388,4,1,0,60,0,1
242462,421.6537483,4,1,0,60,1,9
242462,-69.4130973599288,4,1,0,60,0,9
243095,419.0382842,4,1,0,60,1,1
243095,-69.8463452779831,4,1,0,60,0,1
243723,421.6537483,4,1,0,60,1,9
243723,-69.4130973599288,4,1,0,60,0,9
244356,435.6831164,4,1,0,60,1,1
244356,-67.1779363973693,4,1,0,60,0,1
245009,422.9084777,4,1,0,60,1,9
245009,-69.2071552741229,4,1,0,60,0,9
245644,428.1240718,4,1,0,60,1,1
245644,-68.3640435350237,4,1,0,60,0,1
246286,408.9339418,4,1,0,60,1,9
246286,-71.5721775358067,4,1,0,60,0,9
246924,436.6978458,4,1,0,60,1,1
246924,-67.0218389314684,4,1,0,60,0,1
247579,443.6048458,4,1,0,60,1,9
247579,-65.9782979379862,4,1,0,60,0,9
248245,430.6488647,4,1,0,60,1,1
248245,-67.9632412436889,4,1,0,60,0,1
248891,437.1345223,4,1,0,60,1,9
248891,-66.9548873169078,4,1,0,60,0,9
249546,433.1583235,4,1,0,60,1,1
249546,-67.5695031009299,4,1,0,60,0,1
250196,435.7891217,4,1,0,60,1,9
250196,-67.1615954265956,4,1,0,60,0,9
250850,430.5428594,4,1,0,60,1,1
250850,-67.9799746852493,4,1,0,60,0,1
251495,415.1834248,4,1,0,60,1,9
251495,-70.4948486251006,4,1,0,60,0,9
252118,430.4528549,4,1,0,60,1,1
252118,-67.9941887938605,4,1,0,60,0,1
252764,417.7835548,4,1,0,60,1,9
252764,-70.0561148150938,4,1,0,60,0,9
253391,441.095387,4,1,0,60,1,1
253391,-66.3536585181446,4,1,0,60,0,1
254052,451.0732192,4,1,0,60,1,9
254052,-64.8859019713818,4,1,0,60,0,9
254729,446.1296387,4,1,0,60,1,1
254729,-65.6049052652346,4,1,0,60,0,1
255398,433.2643288,4,1,0,60,1,9
255398,-67.5529711019377,4,1,0,60,0,9
255614,-68.4931506849315,4,1,0,60,0,9
255831,-69.4444444444444,4,1,0,60,0,9
256048,443.5141746,4,1,0,60,1,1
256048,-68.4931506849315,4,1,0,60,0,1
256269,-69.4444444444444,4,1,0,60,0,1
256491,-70.4225352112676,4,1,0,60,0,1
256713,444.8749093,4,1,0,60,1,9
256713,-70.8121379467332,4,1,0,60,0,9
256935,-71.9424460431655,4,1,0,60,0,9
257157,-72.992700729927,4,1,0,60,0,9
257380,437.1345223,4,1,0,60,1,1
257380,-74.6268656716418,4,1,0,60,0,1
257598,-75.7575757575758,4,1,0,60,0,1
257817,-76.9230769230769,4,1,0,60,0,1
258036,447.4750393,4,1,0,60,1,9
258036,-75.8329722162457,4,1,0,60,0,9
258259,-76.9230769230769,4,1,0,60,0,9
258483,-78.125,4,1,0,60,0,9
258707,425.531914893617,4,1,0,50,1,1
258707,-82.6446280991736,4,1,0,50,0,1
258919,-84.0336134453781,4,1,0,50,0,1
259132,474.308300395257,4,1,0,50,1,9
259132,-76.3358778625954,4,1,0,50,0,1
259369,425.531914893617,4,1,0,50,1,9
259369,-86.2068965517241,4,1,0,50,0,9
259581,-87.719298245614,4,1,0,50,0,9
259794,480,4,1,0,50,1,9
259794,-78.7401574803149,4,1,0,50,0,9
260034,413.793103448276,4,1,0,50,1,1
260034,-91.743119266055,4,1,0,50,0,1
260240,-93.4579439252336,4,1,0,50,0,1
260447,478.08764940239,4,1,0,50,1,9
260447,-82.6446280991736,4,1,0,50,0,1
260686,428.571428571429,4,1,0,50,1,9
260686,-93.4579439252336,4,1,0,50,0,9
261114,463.320463320463,4,1,0,50,1,9
261114,-86.2068965517241,4,1,0,50,0,9
261345,425.531914893617,4,1,0,50,1,1
261345,-93.4579439252336,4,1,0,50,0,1
261770,454.545454545455,4,1,0,50,1,9
261770,-87.719298245614,4,1,0,50,0,1
261997,431.654676258993,4,1,0,50,1,9
261997,-92.5925925925926,4,1,0,50,0,9
262428,476.190476190476,4,1,0,50,1,9
262428,-83.3333333333333,4,1,0,50,0,9
262666,431.9035941,4,1,0,50,1,1
262666,-92.6132603349873,4,1,0,50,0,1
263314,428.571428571429,4,1,0,50,1,9
263314,-93.4579439252336,4,1,0,50,0,9
263742,454.545454545455,4,1,0,50,1,9
263742,-88.4955752212389,4,1,0,50,0,9
263969,429.3941353,4,1,0,60,1,0
263969,-79.3930477580724,4,1,0,60,0,0
264613,420.2023424,4,1,0,60,1,8
264613,-81.1297454845152,4,1,0,60,0,8
265244,429.28813,4,1,0,60,1,0
265244,-79.4126525019666,4,1,0,60,0,0
265888,428.0487347,4,1,0,60,1,8
265888,-79.6425881618406,4,1,0,60,0,8
266530,436.9231784,4,1,0,60,1,0
266530,-78.0249498681874,4,1,0,60,0,0
267185,421.6690824,4,1,0,60,1,8
267185,-80.8475425726615,4,1,0,60,0,8
267817,425.3272653,4,1,0,60,1,0
267817,-80.1521836764061,4,1,0,60,0,0
268455,430.6488647,4,1,0,60,1,8
268455,-79.1617298577058,4,1,0,60,0,8
269101,424.1025374,4,1,0,60,1,0
269101,-80.383648020374,4,1,0,60,0,0
269738,435.7437861,4,1,0,60,1,8
269738,-78.2361336601722,4,1,0,60,0,8
270391,416.3321489,4,1,0,60,1,0
270391,-81.8839217220707,4,1,0,60,0,0
271016,443.6048458,4,1,0,60,1,8
271016,-76.8497220300408,4,1,0,60,0,8
271681,437.948296299999,4,1,0,60,1,0
271681,-77.8423146725897,4,1,0,60,0,0
272337,428.1240718,4,1,0,60,1,8
272337,-79.6285734356811,4,1,0,60,0,8
272979,418.947613,4,1,0,60,1,0
272979,-81.3727254507811,4,1,0,60,0,0
273607,435.6831164,4,1,0,60,1,8
273607,-78.2470281901176,4,1,0,60,0,8
274260,428.0334006,4,1,0,60,1,0
274260,-79.6454413209853,4,1,0,60,0,0
274902,437.471428571428,4,1,0,60,1,8
274902,-77.927167043191,4,1,0,60,0,0
275558,426.6726659,4,1,0,60,1,0
275558,-79.8994447394458,4,1,0,60,0,0
276198,438.4799229,4,1,0,60,1,8
276198,-77.747936246294,4,1,0,60,0,8
276856,424.1632071,4,1,0,60,1,0
276856,-80.3721504370648,4,1,0,60,0,0
277492,425.4186032,4,1,0,60,1,8
277492,-80.1349749034884,4,1,0,60,0,8
278130,439.5533099,4,1,0,60,1,0
278130,-77.5580761720686,4,1,0,60,0,0
278789,443.5295087,4,1,0,60,1,8
278789,-76.9230769230769,4,1,0,60,0,8
279454,415.1680907,4,1,0,50,1,0
279454,-76.0630406714951,4,1,0,50,0,0
280077,418.8416077,4,1,0,50,1,8
280077,-75.3959176640345,4,1,0,50,0,8
280705,429.3941353,4,1,0,50,1,8
280705,-73.5430337127407,4,1,0,50,0,0
281134,429.3941353,4,1,0,50,1,0
281134,-73.5294117647059,4,1,0,50,0,0
281349,435.8797929,4,1,0,50,1,8
281349,-72.4487528048035,4,1,0,50,0,8
282003,559.7253182,4,1,0,50,1,8
282003,-56.4186509732571,4,1,0,50,0,8
282843,426.7786712,4,1,0,50,1,0
282843,-73.9937337534431,4,1,0,50,0,0
283483,411.1918919,4,1,0,50,1,8
283483,-76.79856531826,4,1,0,50,0,8
284100,434.5190582,4,1,0,50,1,8
284100,-72.6756324549657,4,1,0,50,0,0
284534,434.5190582,4,1,0,50,1,0
284534,-72.463768115942,4,1,0,50,0,0
284751,419.58041958042,4,1,0,50,1,8
284751,-75.187969924812,4,1,0,50,0,8
285065,474.308300395257,4,1,0,50,1,8
285065,-66.2251655629139,4,1,0,50,0,8
285420,421.6537483,4,1,0,50,1,8
285420,-74.8930787304495,4,1,0,50,0,0
286053,518.3025805,4,1,0,50,1,8
286053,-60.9276290655494,4,1,0,50,0,8
286312,431.2235601,4,1,0,50,1,0
286312,-73.2310344107774,4,1,0,50,0,0
286743,425.5239418,4,1,0,50,1,8
286743,-74.211916807406,4,1,0,50,0,8
287381,435.8644588,4,1,0,50,1,8
287381,-72.4513016164764,4,1,0,50,0,0
288035,426.7786712,4,1,0,50,1,0
288035,-73.9937337534431,4,1,0,50,0,8
288675,442.4561217,4,1,0,50,1,8
288675,-71.3719300505749,4,1,0,50,0,8
289339,386.3246486,4,1,0,50,1,8
289339,-81.7419946743234,4,1,0,50,0,8
289532,476.190476190476,4,1,0,50,1,8
289532,-66.6666666666667,4,1,0,50,0,8
289770,418.0709025,4,1,0,50,1,0
289770,-75.534908503758,4,1,0,50,0,0
290397,406.066969,4,1,0,50,1,8
290397,-77.7678308732889,4,1,0,50,0,8
291007,431.9035941,4,1,0,50,1,8
291007,-73.115731843411,4,1,0,50,0,0
291438,431.9035941,4,1,0,50,1,0
291438,-72.992700729927,4,1,0,50,0,0
291654,425.531914893617,4,1,0,50,1,8
291654,-74.0740740740741,4,1,0,50,0,8
291866,495.867768595041,4,1,0,50,1,8
291866,-63.6942675159236,4,1,0,50,0,8
291989,596.125186289121,4,1,0,50,1,8
291989,-52.9100529100529,4,1,0,50,0,8
293181,404.3742177,4,1,0,50,1,0
293181,-78.0933748645891,4,1,0,50,0,0
293383,403.1794913,4,1,0,50,1,8
293383,-78.324785982042,4,1,0,50,0,8
293685,529.567519858782,4,1,0,50,1,8
293685,-59.5238095238095,4,1,0,50,0,8
294876,422.535211267606,4,1,0,50,1,0
294876,-74.6268656716418,4,1,0,50,0,0
295404,512.163892445583,4,1,0,50,1,8
295404,-61.7283950617284,4,1,0,50,0,0
296812,418.55426,4,1,0,50,1,0
296812,-75.4476787989711,4,1,0,50,0,0
297127,445.6456145,4,1,0,50,1,8
297127,-70.86112000418,4,1,0,50,0,8
297796,393.7903552,4,1,0,50,1,8
297796,-80.1922823944802,4,1,0,50,0,0
298091,457.491422035837,4,1,0,50,1,8
298091,-68.4931506849315,4,1,0,50,0,8
298548,417.0121829,4,1,0,50,1,0
298548,-75.7266781723586,4,1,0,50,0,0
298861,436.1518065,4,1,0,50,1,8
298861,-72.4035688900008,4,1,0,50,0,8
299351,-74.6268656716418,4,1,0,50,0,8
299515,410.6983855,4,1,0,50,1,8
299515,-81.3008130081301,4,1,0,50,0,0
299694,-92.5925925925926,4,1,0,30,0,0
299823,451.127819548872,4,1,0,30,1,0
299823,-86.2068965517241,4,1,0,30,0,8
299920,-88.4955752212389,4,1,0,30,0,8
300048,414.507772020725,4,1,0,30,1,8
300048,-96.1538461538461,4,1,0,30,0,0
300255,451.127819548872,4,1,0,30,1,8
300255,-88.4955752212389,4,1,0,30,0,0
300480,423.131170662905,4,1,0,30,1,8
300480,-94.3396226415094,4,1,0,30,0,8
301114,461.538461538462,4,1,0,30,1,8
301114,-86.2068965517241,4,1,0,30,0,8
301460,461.538461538462,4,1,0,30,1,0
301460,-86.2068965517241,4,1,0,30,0,8
301690,348.837209302326,4,1,0,30,1,8
301690,-113.636363636364,4,1,0,30,0,8
301777,433.0529849,4,1,0,30,1,8
301777,-92.3674501614087,4,1,0,30,0,0
302426,443.4916251,4,1,0,30,1,8
302426,-90.1933604518026,4,1,0,30,0,8
303091,469.2754626,4,1,0,30,1,8
303091,-85.2377828970255,4,1,0,30,0,8
303326,416.117622581316,4,1,0,30,1,8
303326,-96.1538461538461,4,1,0,30,0,8
303534,429.697850794583,4,1,0,30,1,0
303534,-93.0886666666667,4,1,0,30,0,0
303963,454.545454545455,4,1,0,30,1,8
303963,-88.4955752212389,4,1,0,30,0,8
304531,327.868852459016,4,1,0,30,1,8
304531,-121.951219512195,4,1,0,30,0,8
304612,451.127819548872,4,1,0,30,1,8
304612,-88.4955752212389,4,1,0,30,0,8
305288,458.015267175573,4,1,0,30,1,0
305288,-86.9565217391304,4,1,0,30,0,0
305631,368.098159509202,4,1,0,30,1,8
305631,-108.695652173913,4,1,0,30,0,0
305907,455.1394225,4,1,0,30,1,8
305907,-87.885157871597,4,1,0,30,0,8
306590,433.5363424,4,1,0,30,1,8
306590,-92.2644680226005,4,1,0,30,0,8
306806,432.120993878286,4,1,0,30,1,8
306806,-92.5925925925926,4,1,0,30,0,8
307022,433.212996389892,5,1,0,30,1,0
307022,-86.5624999999999,5,1,0,30,0,0
307459,412.3559501,4,1,0,30,1,8
307459,-90.9408485336659,4,1,0,30,0,8
308077,437.1345223,4,1,0,30,1,8
308077,-85.7859493747881,4,1,0,30,0,8
308733,424.6472313,4,1,0,30,1,0
308733,-88.3085941363584,4,1,0,30,0,0
309370,433.8383575,4,1,0,30,1,8
309370,-86.4377235247116,4,1,0,30,0,8
309586,-84.7457627118644,4,1,0,30,0,8
309803,-83.3333333333333,4,1,0,30,0,8
310021,434.8970771,4,1,0,30,1,8
310021,-81.9672131147541,4,1,0,30,0,8
310238,452.830188679245,4,1,0,30,1,8
310238,-71.3022696303783,4,1,0,30,0,8
310464,411.8879267,4,1,0,50,1,0
310464,-76.6687861463385,4,1,0,50,0,0
311082,427.046263345196,4,1,0,50,1,8
311082,-73.5294117647059,4,1,0,50,0,8
311722,410.527192,4,1,0,50,1,8
311722,-76.9229127419678,4,1,0,50,0,0
312132,410.527192,4,1,0,50,1,0
312132,-76.9230769230769,4,1,0,50,0,0
312337,421.745181561301,4,1,0,50,1,8
312337,-74.6268656716418,4,1,0,50,0,8
312653,533.096401599289,4,1,0,50,1,8
312653,-59.1715976331361,4,1,0,50,0,8
313852,421.7444195,4,1,0,50,1,0
313852,-74.876977402237,4,1,0,50,0,0
314063,441.2467279,4,1,0,50,1,8
314063,-71.5675502427245,4,1,0,50,0,8
314393,533.807829181495,4,1,0,50,1,8
314393,-59.1715976331361,4,1,0,50,0,8
315594,433.4910068,4,1,0,50,1,0
315594,-72.8479873239692,4,1,0,50,0,0
315810,407.4277037,4,1,0,50,1,8
315810,-77.508100410554,4,1,0,50,0,8
316115,614.439324116743,4,1,0,50,1,8
316115,-51.2820512820513,4,1,0,50,0,8
317497,401.0327173,4,1,0,50,1,0
317497,-78.7440675190544,4,1,0,50,0,0
317799,459.0856198,4,1,0,50,1,8
317799,-68.7866184573117,4,1,0,50,0,8
318487,369.7831549,4,1,0,50,1,8
318487,-85.3985557480597,4,1,0,50,0,0
318764,616.142945163278,4,1,0,50,1,8
318764,-51.5463917525773,4,1,0,50,0,8
319226,431.7375858,4,1,0,50,1,0
319226,-73.1438457226419,4,1,0,50,0,0
319550,449.9998322,4,1,0,50,1,8
319550,-70.1754647641423,4,1,0,50,0,8
320224,384.615384615385,4,1,0,50,1,8
320224,-81.9672131147541,4,1,0,50,0,0
320417,410.9652139,4,1,0,50,1,8
320417,-76.8409254611636,4,1,0,50,0,8
320725,428.571428571429,4,1,0,50,1,0
320725,-73.6842105263157,4,1,0,50,0,0
321081,582.52427184466,4,1,0,50,1,8
321081,-54.3478260869565,4,1,0,50,0,8
321179,476.190476190476,4,1,0,50,1,8
321179,-66.3157894736842,4,1,0,50,0,8
321417,425.531914893617,4,1,0,50,1,8
321417,-74.0740740740741,4,1,0,50,0,8
321523,413.793103448276,4,1,0,50,1,8
321523,-76.3358778625954,4,1,0,50,0,8
321613,433.212996389892,4,1,0,50,1,8
321613,-72.992700729927,4,1,0,50,0,8
321937,402.684563758389,4,1,0,50,1,8
321937,-78.125,4,1,0,50,0,8
322335,346.820809248555,4,1,0,50,1,8
322335,-90.9090909090909,4,1,0,50,0,8
322424,413.793103448276,4,1,0,50,1,0
322424,-75.7575757575758,4,1,0,50,0,0
322769,405.405405405405,4,1,0,50,1,8
322769,-77.5193798449612,4,1,0,50,0,8
323477,416.666666666667,4,1,0,50,1,8
323477,-75.187969924812,4,1,0,50,0,8
323685,448.430493273543,4,1,0,50,1,8
323685,-76.3358778625954,4,1,0,50,0,8
324133,429.9841648,4,1,0,70,1,0
324133,-68.0683036235543,4,1,0,70,0,0
324778,429.9688307,4,1,0,70,1,8
324778,-68.0707311627155,4,1,0,70,0,8
325423,435.6831164,4,1,0,70,1,0
325423,-67.1779363973693,4,1,0,70,0,0
326076,417.9802313,4,1,0,70,1,8
326076,-70.023150597091,4,1,0,70,0,8
326703,415.1680907,4,1,0,70,1,0
326703,-70.4974523296784,4,1,0,70,0,0
327326,408.163265306122,4,1,0,70,1,8
327326,-71.4285714285714,4,1,0,70,0,8
327734,437.956204379562,4,1,0,70,1,8
327734,-66.6666666666667,4,1,0,70,0,8
327952,419.1289554,4,1,0,70,1,0
327952,-69.8312352459503,4,1,0,70,0,0
328581,438.101904,4,1,0,70,1,8
328581,-66.8070428722146,4,1,0,70,0,8
329238,418.947613,4,1,0,70,1,0
329238,-69.8614618504267,4,1,0,70,0,0
329866,400.9420461,4,1,0,70,1,8
329866,-72.9988110940775,4,1,0,70,0,8
330468,426.6726659,4,1,0,70,1,0
330468,-68.5965964592315,4,1,0,70,0,0
331108,400,4,1,0,70,1,8
331108,-72.992700729927,4,1,0,70,0,8
331508,428.571428571429,4,1,0,70,1,8
331508,-68.4931506849315,4,1,0,70,0,8
331722,417.6928836,4,1,0,70,1,0
331722,-70.0713223329784,4,1,0,70,0,0
332349,405.405405405405,4,1,0,70,1,8
332349,-71.9424460431655,4,1,0,70,0,8
332754,442.80442804428,4,1,0,70,1,8
332754,-65.7894736842105,4,1,0,70,0,8
332975,425.4332706,4,1,0,70,1,0
332975,-68.7964357880355,4,1,0,70,0,0
333613,430.5428594,4,1,0,70,1,8
333613,-67.9799746852493,4,1,0,70,0,8
334259,426.688,4,1,0,70,1,0
334259,-68.5941312690463,4,1,0,70,0,0
334899,416.4228201,4,1,0,70,1,8
334899,-70.2850354740365,4,1,0,70,0,8
335524,411.1918919,4,1,0,70,1,0
335524,-71.1791580998507,4,1,0,70,0,0
336140,425.4186032,4,1,0,70,1,8
336140,-68.7988077220193,4,1,0,70,0,8
336779,420.2930136,4,1,0,70,1,0
336779,-69.6378282194858,4,1,0,70,0,0
337409,422.7271353,4,1,0,70,1,8
337409,-69.2368439091467,4,1,0,70,0,8
338043,419.58041958042,4,1,0,70,1,0
338043,-69.4444444444444,4,1,0,70,0,0
338672,413.793103448276,4,1,0,70,1,8
338672,-70.4225352112676,4,1,0,70,0,8
339085,447.761194029851,4,1,0,70,1,8
339085,-65.359477124183,4,1,0,70,0,8
339308,426.688,4,1,0,70,1,0
339308,-68.5941312690463,4,1,0,70,0,0
339948,434.4130529,4,1,0,70,1,8
339948,-67.3743398996445,4,1,0,70,0,8
340599,413.807356,4,1,0,70,1,0
340599,-70.7292711416344,4,1,0,70,0,0
341219,402.684563758389,4,1,0,70,1,8
341219,-72.992700729927,4,1,0,70,0,8
341622,444.444444444444,4,1,0,70,1,8
341622,-65.7894736842105,4,1,0,70,0,8
341844,402.2874467,4,1,0,70,1,0
341844,-72.7546756007856,4,1,0,70,0,0
342448,421.3817347,4,1,0,70,1,8
342448,-69.4579054399788,4,1,0,70,0,8
343080,455.2000922,4,1,0,70,1,0
343080,-64.1025641025641,4,1,0,70,0,0
343193,-64.3747537665668,4,1,0,70,0,0
343307,-64.6492230133132,4,1,0,70,0,0
343421,-64.9260848986471,4,1,0,70,0,0
343535,-65.2053283186089,4,1,0,70,0,0
343649,-65.4869841344684,4,1,0,70,0,0
343762,451.2698957,4,1,0,70,1,8
343762,-66.3438532678115,4,1,0,70,0,0
343874,-66.6329240724292,4,1,0,70,0,0
343987,-66.9245249566859,4,1,0,70,0,0
344100,-67.2186892832019,4,1,0,70,0,0
344213,-67.5154058139997,4,1,0,70,0,0
344326,-67.8147990809525,4,1,0,70,0,0
344438,465.4046024,4,1,0,70,1,0
344438,-66.0480962951164,4,1,0,70,0,0
344554,-66.3436036823476,4,1,0,70,0,0
344670,-66.6417218202577,4,1,0,70,0,0
344787,-66.9425770854113,4,1,0,70,0,0
344903,-67.2461611026983,4,1,0,70,0,0
345019,-67.5525111658485,4,1,0,70,0,0
345136,443.6048458,4,1,0,70,1,8
345136,-71.1964934311241,4,1,0,70,0,0
345246,-71.5238219945271,4,1,0,70,0,0
345357,-71.8541742703902,4,1,0,70,0,0
345468,-72.1875923506479,4,1,0,70,0,0
345579,-72.5240678545037,4,1,0,70,0,0
345690,-72.8637464960755,4,1,0,70,0,0
345801,446.0389675,4,1,0,70,1,0
345801,-72.8071190197153,4,1,0,70,0,0
345912,-73.1513478862345,4,1,0,70,0,0
346024,-73.4987942797522,4,1,0,70,0,0
346135,-73.8496103915024,4,1,0,70,0,0
346247,-74.2037915161305,4,1,0,70,0,0
346358,-74.5613863025412,4,1,0,70,0,0
346470,461.7010839,4,1,0,70,1,8
346470,-72.3808247450291,4,1,0,70,0,0
346585,-72.7330288390809,4,1,0,70,0,0
346700,-73.0886773340596,4,1,0,70,0,0
346816,-73.4478210053318,4,1,0,70,0,0
346931,-73.8104563732577,4,1,0,70,0,0
347047,-74.1767462100164,4,1,0,70,0,0
347162,444.8749093,4,1,0,70,1,0
347162,-77.3662139621325,4,1,0,70,0,0
347273,-77.753998325371,4,1,0,70,0,0
347384,-78.1456299894607,4,1,0,70,0,0
347495,-78.5412870571233,4,1,0,70,0,0
347606,-78.9409709947463,4,1,0,70,0,0
347718,-79.3447435930472,4,1,0,70,0,0
347829,501.5664104,4,1,0,70,1,8
347829,-70.7382563765616,4,1,0,70,0,0
347954,-71.103812435409,4,1,0,70,0,0
348079,480,4,1,0,70,1,8
348079,-74.6268656716418,4,1,0,70,0,0
348199,-75.187969924812,4,1,0,70,0,0
348319,-75.7575757575758,4,1,0,70,0,0
348581,828.368,4,1,0,70,1,0
348581,-44.6428571428571,4,1,0,70,0,0
348995,-48.2877175361675,4,1,0,70,0,0
349412,769.751,4,1,0,70,1,8
349412,-51.9648561677737,4,1,0,70,0,8
350182,725.578,4,1,0,70,1,8
350182,-55.1284631011414,4,1,0,70,0,8
350544,697.674418604651,4,1,0,70,1,8
350544,-57.1428571428571,4,1,0,70,0,8
350777,1016.94915254237,4,1,0,70,1,8
350777,-39.2156862745098,4,1,0,70,0,8
350948,799.048,4,1,0,70,1,8
350948,-50.0595708893583,4,1,0,70,0,8
351347,-52.6975896122511,4,1,0,70,0,8
351747,714.285714285714,4,1,0,70,1,0
351747,-62.5,4,1,0,70,0,0
352342,983.606557377049,4,1,0,70,1,8
352342,-45.4545454545455,4,1,0,70,0,0
352504,812.654,4,1,0,70,1,8
352504,-49.2214398747807,4,1,0,70,0,8
352910,743.039,4,1,0,70,1,8
352910,-53.8329751197447,4,1,0,70,0,8
353282,789.343,4,1,0,70,1,8
353282,-50.6750550774505,4,1,0,70,0,8
353676,-46.0117583048348,4,1,0,70,0,8
354071,793.22,4,1,0,70,1,8
354071,-45.8715596330275,4,1,0,70,0,8
354203,-46.5838436981609,4,1,0,70,0,8
354335,-47.3186194508864,4,1,0,70,0,8
354467,-48.0769230769231,4,1,0,70,0,8
354599,-48.8599268957774,4,1,0,70,0,8
354732,-49.6688823955103,4,1,0,70,0,8
354864,833.333333333333,4,1,0,70,1,0
354864,-48.0769230769231,4,1,0,70,0,0
355280,769.230769230769,4,1,0,70,1,8
355280,-52.0833333333333,4,1,0,70,0,0
355664,791.202,4,1,0,70,1,8
355664,-50.5559894944654,4,1,0,70,0,8
356059,737.100737100737,4,1,0,70,1,8
356059,-54.3478260869565,4,1,0,70,0,8
356427,768.005,4,1,0,70,1,8
356427,-52.0829942513395,4,1,0,70,0,8
357195,789.456,4,1,0,70,1,8
357195,-50.6678016254231,4,1,0,70,0,8
357392,-53.3720458572618,4,1,0,70,0,8
357985,689.655172413793,4,1,0,70,1,0
357985,-64.9350649350649,4,1,0,70,0,0
358559,1048.03493449782,4,1,0,70,1,8
358559,-42.7350427350427,4,1,0,70,0,0
358733,795.261,4,1,0,70,1,8
358733,-50.2979524960988,4,1,0,70,0,8
359130,750,4,1,0,70,1,8
359130,-53.1914893617021,4,1,0,70,0,8
359755,952.380952380952,4,1,0,70,1,8
359755,-42.0168067226891,4,1,0,70,0,8
359913,782.268578878748,4,1,0,70,1,8
359913,-46.2962962962963,4,1,0,70,0,8
360304,769.230769230769,4,1,0,70,1,8
360304,-47.8468899521531,4,1,0,70,0,8
360432,-48.5436893203883,4,1,0,70,0,8
360560,-49.0196078431373,4,1,0,70,0,8
360688,-49.7512437810945,4,1,0,70,0,8
360816,-50.5050505050505,4,1,0,70,0,8
360945,1008.40336134454,4,1,0,70,1,8
360945,-39.0625,4,1,0,70,0,8
361113,812.426,4,1,0,70,1,0
361113,-49.2352534261582,4,1,0,70,0,0
361926,731.707317073171,4,1,0,70,1,8
361926,-54.6448087431694,4,1,0,70,0,8
362474,821.917808219178,4,1,0,70,1,8
362474,-48.5436893203883,4,1,0,70,0,8
362679,774.059,4,1,0,70,1,8
362679,-51.6756474635654,4,1,0,70,0,8
363259,813.559322033898,4,1,0,70,1,8
363259,-49.0196078431373,4,1,0,70,0,8
363462,794.876,4,1,0,70,1,8
363462,-50.322314423885,4,1,0,70,0,8
363859,-52.9888352524123,4,1,0,70,0,8
364257,852.948,4,1,0,70,1,0
364257,-51.7499236688626,4,1,0,70,0,0
364470,-49.2036391011479,4,1,0,70,0,0
365110,945.828,4,1,0,70,1,8
365110,-44.1584936654641,4,1,0,70,0,8
365582,1090.90909090909,4,1,0,70,1,8
365582,-38.6100386100386,4,1,0,70,0,8
365854,805.369127516779,4,1,0,70,1,8
365854,-49.7512437810945,4,1,0,70,0,8
366055,829.727,4,1,0,70,1,8
366055,-43.9692347264619,4,1,0,70,0,8
366885,852.744,4,1,0,70,1,8
366885,-44.8056777754877,4,1,0,70,0,8
367098,-43.1034482758621,4,1,0,70,0,8
367311,-41.8410041841004,4,1,0,70,0,8
367524,-40.8163265306122,4,1,0,70,0,8
367738,785.306,4,1,0,50,1,0
367738,-42.5531914893617,4,1,0,50,0,0
368523,834.013,4,1,0,50,1,8
368523,-53.2898701152673,4,1,0,50,0,8
369357,870.861,4,1,0,50,1,8
369357,-51.0350612146421,4,1,0,50,0,8
370228,874.694,4,1,0,50,1,8
370228,-50.8114202731978,4,1,0,50,0,8
371103,880.453,4,1,0,50,1,0
371103,-50.479065258957,4,1,0,50,0,0
371983,884.377,4,1,0,50,1,8
371983,-50.2550885475815,4,1,0,50,0,8
372868,839.682,4,1,0,50,1,8
372868,-52.930090730115,4,1,0,50,0,8
373707,816.644,4,1,0,50,1,8
373707,-51.503649033534,4,1,0,50,0,8
374524,876.44,4,1,0,50,1,0
374524,-45.6391766692529,4,1,0,50,0,0
375400,913.24200913242,4,1,0,50,1,8
375400,-43.859649122807,4,1,0,50,0,8
376273,878.571,4,1,0,50,1,8
376273,-45.5284774935663,4,1,0,50,0,8
377152,878.708,4,1,0,50,1,8
377152,-45.5213791157017,4,1,0,50,0,8
378030,962.018,4,1,0,50,1,0
378030,-41.5792635896626,4,1,0,50,0,0
378992,810.793,4,1,0,50,1,8
378992,-45.3997702877556,4,1,0,50,0,8
379803,420.940380810731,4,1,0,50,1,8
379803,-87.719298245614,4,1,0,50,0,8
380645,441.176470588235,4,1,0,50,1,8
380645,-83.3333333333333,4,1,0,50,0,8
381527,868.889,4,1,0,70,1,0
381527,-42.3642328892646,4,1,0,70,0,0
382396,817.823,4,1,0,70,1,8
382396,-45.0095142236404,4,1,0,70,0,8
383214,784.036,4,1,0,70,1,8
383214,-46.9491400279072,4,1,0,70,0,8
383998,812.654,4,1,0,70,1,8
383998,-45.2958035657491,4,1,0,70,0,8
384201,-47.4448564643641,4,1,0,70,0,8
384811,759.493670886076,4,1,0,70,1,0
384811,-53.475935828877,4,1,0,70,0,0
385443,944.88188976378,4,1,0,70,1,8
385443,-43.1034482758621,4,1,0,70,0,0
385600,839.728,4,1,0,70,1,8
385600,-48.0477925626885,4,1,0,70,0,8
385974,-43.8354037866073,4,1,0,70,0,8
386019,789.473684210526,4,1,0,70,1,8
386019,-46.7289719626168,4,1,0,70,0,8
386676,875.912408759124,4,1,0,70,1,8
386676,-42.1940928270042,4,1,0,70,0,8
386821,901.406,4,1,0,70,1,8
386821,-40.8360005934288,4,1,0,70,0,8
387272,740.740740740741,4,1,0,70,1,8
387272,-45.2488687782805,4,1,0,70,0,8
387889,839.160839160839,4,1,0,70,1,8
387889,-39.8406374501992,4,1,0,70,0,8
388028,812.562,4,1,0,70,1,0
388028,-41.5375523772959,4,1,0,70,0,0
388231,-45.3009320530867,4,1,0,70,0,0
388841,795.147,4,1,0,70,1,8
388841,-46.2930954287952,4,1,0,70,0,8
389636,769.230769230769,4,1,0,70,1,8
389636,-47.8468899521531,4,1,0,70,0,8
390405,799.184,4,1,0,70,1,8
390405,-46.0592503740318,4,1,0,70,0,8
390804,827.586206896552,4,1,0,70,1,8
390804,-46.7289719626168,4,1,0,70,0,8
391217,857.233,4,1,0,70,1,0
391217,-46.9744614493473,4,1,0,70,0,0
391266,-44.866864645695,4,1,0,70,0,0
392074,908.572,4,1,0,70,1,8
392074,-42.2246073808219,4,1,0,70,0,8
392528,-44.0861267748302,4,1,0,70,0,8
392812,-40.5139228931997,4,1,0,70,0,8
392983,827.302,4,1,0,70,1,8
392983,-40.8579555063129,4,1,0,70,0,8
393810,853.469,4,1,0,70,1,8
393810,-43.1296461276511,4,1,0,70,0,8
394023,-42.1940928270042,4,1,0,70,0,8
394236,-41.3223140495868,4,1,0,70,0,8
394450,-40.4858299595142,4,1,0,70,0,8
394664,841.542,4,1,0,70,1,0
394664,-40.983606557377,4,1,0,70,0,0
394874,-38.6100386100386,4,1,0,70,0,0
395505,789.473684210526,4,1,0,70,1,8
395505,-46.7289719626168,4,1,0,70,0,8
396294,810.810810810811,4,1,0,70,1,8
396294,-45.4545454545455,4,1,0,70,0,8
397107,833.333333333333,4,1,0,70,1,8
397107,-44.0528634361233,4,1,0,70,0,8
397523,869.565217391304,4,1,0,70,1,8
397523,-44.2477876106195,4,1,0,70,0,8
397957,2970.29702970297,4,1,0,70,1,0
397957,-12.3915737298637,4,1,0,70,0,0
399441,2912.6213592233,4,1,0,70,1,8
399441,-13.7362637362637,4,1,0,70,0,8
400895,2877.69784172662,4,1,0,70,1,8
400895,-13.9082058414465,4,1,0,70,0,8
402319,2830.18867924528,4,1,0,70,1,0
402319,-14.1242937853107,4,1,0,70,0,0
403748,2727.27272727273,4,1,0,70,1,8
403748,-14.6627565982405,4,1,0,70,0,8
405111,2536.9978858351,4,1,0,70,1,8
405111,-15.7728706624606,4,1,0,70,0,8
406374,2222.22222222222,4,1,0,70,1,0
406374,-17.9856115107914,4,1,0,70,0,0
407490,2000,4,1,0,70,1,8
407490,-20,4,1,0,70,0,8
408490,1791.0447761194,4,1,0,70,1,8
408490,-22.3214285714286,4,1,0,70,0,8
409382,2312.1387283237,4,1,0,70,1,0
409382,-17.3010380622837,4,1,0,70,0,0
410155,2057.82,4,1,0,70,1,8
410155,-19.4380460876073,4,1,0,70,0,8
410842,1904.7619047619,4,1,0,70,1,8
410842,-21.0084033613445,4,1,0,70,0,8
411476,1558.44155844156,4,1,0,70,1,0
411476,-25.6410256410256,4,1,0,70,0,0
411995,1311.47540983607,4,1,0,70,1,8
411995,-30.4878048780488,4,1,0,70,0,8
412432,1199.18,4,1,0,70,1,8
412432,-33.3561266865692,4,1,0,70,0,8
412831,1070.48,4,1,0,70,1,0
412831,-33.0568313043785,4,1,0,70,0,0
413187,931.156,4,1,0,70,1,8
413187,-36.8427438707183,4,1,0,70,0,8
413498,896.19,4,1,0,70,1,8
413498,-37.2296660871249,4,1,0,70,0,8
413797,779.728,4,1,0,70,1,0
413797,-42.3907956582781,4,1,0,70,0,0
414056,849.388,4,1,0,70,1,8
414056,-36.8402464465127,4,1,0,70,0,8
414340,762.449,4,1,0,70,1,8
414340,-40.0697801865356,4,1,0,70,0,8
414594,708.027,4,1,0,70,1,0
414594,-41.7345026228048,4,1,0,70,0,0
414830,655.782,4,1,0,70,1,8
414830,-41.5880998147666,4,1,0,70,0,8
414993,-41.5880998147666,4,1,0,70,0,8
415267,662.993,4,1,0,70,1,0
415267,-41.1357695672915,4,1,0,70,0,0
415488,628.299,4,1,0,70,1,8
415488,-43.4072428457267,4,1,0,70,0,8
415698,523.812,4,1,0,70,1,8
415698,-52.0658695729141,4,1,0,70,0,8
415872,535.714285714286,4,1,0,70,1,8
415872,-50.761421319797,4,1,0,70,0,8
416050,413.793103448276,4,1,0,70,1,8
416050,-65.7894736842105,4,1,0,70,0,8
416187,497.686,4,1,0,70,1,0
416187,-54.7990646164997,4,1,0,70,0,0
416352,272.789,4,1,0,70,1,9
416352,-99.9773717881853,4,1,0,70,0,9
416625,242.134,4,1,0,70,1,9
416625,-112.634852076649,4,1,0,70,0,9
416867,301.723,4,1,0,70,1,9
416867,-90.3899512888553,4,1,0,70,0,9
417188,301.588,4,1,0,70,1,1
417188,-90.4304125917718,4,1,0,70,0,1
417489,322.949,4,1,0,70,1,9
417489,-84.4490222069964,4,1,0,70,0,9
417811,316.462,4,1,0,70,1,9
417811,-86.1801014741968,4,1,0,70,0,9
418127,331.06,4,1,0,70,1,1
418127,-82.3800135103222,4,1,0,70,0,1
418458,283.946,4,1,0,70,1,9
418458,-96.0489926701812,4,1,0,70,0,9
418742,296.055,4,1,0,70,1,9
418742,-92.1204751574109,4,1,0,70,0,9
419038,309.569,4,1,0,70,1,1
419038,-88.0990256541426,4,1,0,70,0,1
419348,298.957,4,1,0,70,1,9
419348,-91.2262541861447,4,1,0,70,0,9
419647,310.567,4,1,0,70,1,9
419647,-87.8159214363641,4,1,0,70,0,9
419957,303.764,4,1,0,70,1,1
419957,-89.7826183245127,4,1,0,70,0,1
420261,277.552,4,1,0,70,1,9
420261,-98.2616852796134,4,1,0,70,0,9
420538,289.161,4,1,0,70,1,9
420538,-94.3167552772583,4,1,0,70,0,9
420828,308.844,4,1,0,70,1,1
420828,-88.3058348963466,4,1,0,70,0,1
421136,288.027,4,1,0,70,1,9
421136,-94.6880926882802,4,1,0,70,0,9
421425,281.133,4,1,0,70,1,9
421425,-97.0100531518081,4,1,0,70,0,9
421706,286.168,4,1,0,70,1,1
421706,-95.3032039666464,4,1,0,70,0,1
421992,322.404,4,1,0,70,1,9
421992,-84.5917770025411,4,1,0,70,0,9
422314,299.048,4,1,0,70,1,9
422314,-91.1984941304649,4,1,0,70,0,9
422613,305.488,4,1,0,70,1,1
422613,-89.275936445056,4,1,0,70,0,1
422919,303.81,4,1,0,70,1,9
422919,-89.7690243004749,4,1,0,70,0,9
423223,300.227,4,1,0,70,1,9
423223,-90.8403550404436,4,1,0,70,0,9
423523,344.4,4,1,0,70,1,1
423523,-79.1891035793475,4,1,0,70,0,1
423867,329.977,4,1,0,70,1,9
423867,-82.6503885808019,4,1,0,70,0,9
424197,317.098,4,1,0,70,1,9
424197,-86.0072509846397,4,1,0,70,0,9
424514,317.098,4,1,0,70,1,1
424514,-86.0072509846397,4,1,0,70,0,1
424831,346.667,4,1,0,70,1,9
424831,-78.6712530258931,4,1,0,70,0,9
425178,318.277,4,1,0,70,1,9
425178,-85.6886525659324,4,1,0,70,0,9
425496,299.774,4,1,0,70,1,1
425496,-90.9776273883902,4,1,0,70,0,1
425796,315.192,4,1,0,70,1,9
425796,-86.5273461024622,4,1,0,70,0,9
426111,300.272,4,1,0,70,1,9
426111,-90.8267413302848,4,1,0,70,0,9
426412,310.159,4,1,0,70,1,1
426412,-87.9314392705911,4,1,0,70,0,1
426722,320.544,4,1,0,70,1,9
426722,-85.0826322524436,4,1,0,70,0,9
427042,301.996,4,1,0,70,1,9
427042,-90.3082400850583,4,1,0,70,0,9
427344,309.478,4,1,0,70,1,1
427344,-88.1249306016172,4,1,0,70,0,1
427654,344.4,4,1,0,70,1,9
427654,-79.1891035793475,4,1,0,70,0,9
427998,362.676,4,1,0,70,1,8
427998,-75.1985995012829,4,1,0,70,0,8
428361,362.722,4,1,0,30,1,8
428361,-110.277292251366,4,1,0,30,0,8
429086,350.976,4,1,0,30,1,0
429086,-113.967906637491,4,1,0,30,0,0
429437,331.701,4,1,0,30,1,8
429437,-120.590531834393,4,1,0,30,0,8
429769,331.655,4,1,0,30,1,8
429769,-120.607257541723,4,1,0,30,0,8
430101,341.723,4,1,0,30,1,8
430101,-152.833339064583,4,1,0,30,0,8
430421,363.945,4,1,0,30,1,0
430421,-125,4,1,0,30,0,0
430602,-111.111111111111,4,1,0,30,0,0
430784,-100,4,1,0,40,0,0
430966,-90.9090909090909,4,1,0,40,0,0
431148,-83.3333333333333,4,1,0,50,0,0
431330,-76.9230769230769,4,1,0,50,0,0
431534,337.505,4,1,0,60,1,9
431534,-80.8068836690635,4,1,0,60,0,9
431872,337.551,4,1,0,70,1,1
431872,-80.795871654142,4,1,0,70,0,1
432209,336.598,4,1,0,70,1,9
432209,-81.0246266250164,4,1,0,70,0,9
433218,336.598,4,1,0,70,1,1
433218,-81.0246266250164,4,1,0,70,0,1
433892,336.644,4,1,0,70,1,9
433892,-81.0135551880541,4,1,0,70,0,9
434229,348.163,4,1,0,70,1,9
434229,-78.3332153983257,4,1,0,70,0,9
434577,348.208,4,1,0,70,1,1
434577,-78.3230921539059,4,1,0,70,0,1
434925,348.163,4,1,0,70,1,9
434925,-78.3332153983257,4,1,0,70,0,9
435273,348.208,4,1,0,70,1,9
435273,-78.3230921539059,4,1,0,70,0,9
435622,362.404,4,1,0,70,1,9
435622,-75.2550393282836,4,1,0,70,0,9
435984,362.448,4,1,0,70,1,1
435984,-75.2459036130073,4,1,0,70,0,1
436346,352.063,4,1,0,70,1,9
436346,-77.4654742836574,4,1,0,70,0,9
436698,384.672,4,1,0,70,1,9
436698,-70.8986546271298,4,1,0,70,0,9
437083,335.963,4,1,0,70,1,9
437083,-81.1777703875941,4,1,0,70,0,9
437418,335.963,4,1,0,70,1,1
437418,-81.1777703875941,4,1,0,70,0,1
437755,373.243,4,1,0,70,1,9
437755,-73.0696282923652,4,1,0,70,0,9
438128,311.792,4,1,0,70,1,9
438128,-87.4709013468186,4,1,0,70,0,9
438440,311.837,4,1,0,70,1,9
438440,-87.458278756938,4,1,0,70,0,9
438752,315.328,4,1,0,70,1,1
438752,-86.4900271232725,4,1,0,70,0,1
439067,318.095,4,1,0,70,1,9
439067,-85.7376798526455,4,1,0,70,0,9
439385,320.907,4,1,0,70,1,9
439385,-84.9863894297328,4,1,0,70,0,9
439706,328.073,4,1,0,70,1,9
439706,-83.1300572516704,4,1,0,70,0,9
440034,328.118,4,1,0,70,1,1
440034,-83.1186563148845,4,1,0,70,0,1
440362,328.073,4,1,0,70,1,9
440362,-83.1300572516704,4,1,0,70,0,9
440691,328.118,4,1,0,70,1,9
440691,-83.1186563148845,4,1,0,70,0,9
441347,328.073,4,1,0,70,1,1
441347,-83.1300572516704,4,1,0,70,0,1
441675,428.207,4,1,0,70,1,8
441675,-63.6905218100761,4,1,0,70,0,8

[HitObjects]
267,219,29931,5,4,0:0:0:0:
227,222,30760,1,8,0:0:0:0:
231,184,31178,1,0,0:0:0:0:
229,254,31458,1,0,0:0:0:0:
229,254,31598,1,8,0:0:0:0:
229,254,31720,1,8,0:0:0:0:
229,254,31842,1,0,0:0:0:0:
229,254,31965,1,8,0:0:0:0:
229,254,32087,1,0,0:0:0:0:
229,254,32210,1,0,0:0:0:0:
229,254,32332,1,8,0:0:0:0:
207,191,32740,1,0,0:0:0:0:
246,174,33149,1,8,0:0:0:0:
246,174,33273,1,8,0:0:0:0:
246,174,33398,1,0,0:0:0:0:
246,174,33523,1,0,0:0:0:0:
242,179,33648,1,0,0:0:0:0:
242,179,33772,1,0,0:0:0:0:
269,148,33898,1,8,0:0:0:0:
251,217,34304,1,8,0:0:0:0:
251,217,34440,1,8,0:0:0:0:
251,217,34576,1,0,0:0:0:0:
251,217,34711,1,8,0:0:0:0:
251,217,34840,1,0,0:0:0:0:
251,217,34970,1,0,0:0:0:0:
251,217,35101,1,8,0:0:0:0:
252,206,35525,1,8,0:0:0:0:
252,206,35649,1,8,0:0:0:0:
252,206,35774,1,0,0:0:0:0:
252,206,35899,1,8,0:0:0:0:
252,206,36024,1,8,0:0:0:0:
271,188,36149,1,8,0:0:0:0:
296,144,36275,1,4,0:0:0:0:
212,219,36685,1,0,0:0:0:0:
212,219,37095,1,0,0:0:0:0:
212,219,37293,1,8,0:0:0:0:
212,219,37491,1,0,0:0:0:0:
222,208,37689,1,0,0:0:0:0:
222,208,37888,1,8,0:0:0:0:
204,208,38083,1,0,0:0:0:0:
207,171,38279,1,0,0:0:0:0:
204,208,38475,1,0,0:0:0:0:
204,208,38672,1,8,0:0:0:0:
207,171,39079,1,0,0:0:0:0:
262,186,39487,1,8,0:0:0:0:
262,186,39598,1,8,0:0:0:0:
262,186,39709,1,0,0:0:0:0:
262,186,39820,1,8,0:0:0:0:
249,159,39945,1,0,0:0:0:0:
249,159,40070,1,0,0:0:0:0:
262,186,40244,1,8,0:0:0:0:
249,159,40682,1,8,0:0:0:0:
249,159,40804,1,8,0:0:0:0:
249,159,40927,1,0,0:0:0:0:
249,159,41050,1,8,0:0:0:0:
249,159,41180,1,8,0:0:0:0:
249,159,41310,1,0,0:0:0:0:
249,159,41441,1,8,0:0:0:0:
221,86,41878,1,0,0:0:0:0:
221,86,42004,1,8,0:0:0:0:
221,86,42131,1,0,0:0:0:0:
221,86,42257,1,8,0:0:0:0:
221,86,42384,1,8,0:0:0:0:
221,86,42513,1,0,0:0:0:0:
236,76,42646,1,12,0:0:0:0:
186,146,43043,1,0,0:0:0:0:
214,229,43442,1,0,0:0:0:0:
214,229,43647,1,8,0:0:0:0:
257,129,43853,1,8,0:0:0:0:
217,213,44058,1,0,0:0:0:0:
239,131,44264,1,8,0:0:0:0:
229,102,44461,1,0,0:0:0:0:
242,107,44658,1,0,0:0:0:0:
229,102,44856,1,0,0:0:0:0:
229,102,45053,1,8,0:0:0:0:
241,182,45452,1,0,0:0:0:0:
256,192,45852,1,0,0:0:0:0:
256,192,45966,1,8,0:0:0:0:
256,192,46081,1,8,0:0:0:0:
256,192,46196,1,8,0:0:0:0:
256,192,46311,1,8,0:0:0:0:
256,192,46458,1,0,0:0:0:0:
256,192,46622,1,8,0:0:0:0:
337,205,47014,1,0,0:0:0:0:
337,205,47145,1,8,0:0:0:0:
337,205,47276,1,8,0:0:0:0:
336,217,47407,1,8,0:0:0:0:
336,217,47519,1,8,0:0:0:0:
334,218,47697,1,0,0:0:0:0:
334,218,47814,1,8,0:0:0:0:
337,240,48251,1,0,0:0:0:0:
337,240,48372,1,8,0:0:0:0:
317,175,48494,1,8,0:0:0:0:
337,240,48616,1,8,0:0:0:0:
337,240,48738,1,8,0:0:0:0:
317,175,48901,1,0,0:0:0:0:
317,175,49039,1,8,0:0:0:0:
241,200,49974,1,0,0:0:0:0:
241,200,50831,1,8,0:0:0:0:
9,247,51255,1,0,0:0:0:0:
9,247,51467,1,0,0:0:0:0:
241,200,51680,1,8,0:0:0:0:
234,193,52553,1,8,0:0:0:0:
196,196,52982,1,0,0:0:0:0:
196,196,53197,1,0,0:0:0:0:
234,193,53412,1,8,0:0:0:0:
196,196,53630,1,8,0:0:0:0:
234,193,54285,1,8,0:0:0:0:
286,135,55175,1,8,0:0:0:0:
139,159,55246,1,8,0:0:0:0:
231,157,55389,1,0,0:0:0:0:
231,157,55603,1,8,0:0:0:0:
124,126,55675,1,0,0:0:0:0:
231,157,55817,1,0,0:0:0:0:
231,157,56033,1,8,0:0:0:0:
301,141,56105,1,8,0:0:0:0:
249,147,56468,1,0,0:0:0:0:
89,148,56522,1,0,0:0:0:0:
261,112,56686,1,0,0:0:0:0:
247,147,56904,1,8,0:0:0:0:
224,204,56959,1,8,0:0:0:0:
151,153,57345,1,0,0:0:0:0:
181,155,57400,1,0,0:0:0:0:
249,112,57786,1,8,0:0:0:0:
221,213,57861,1,8,0:0:0:0:
249,112,58236,1,0,0:0:0:0:
226,142,58293,1,0,0:0:0:0:
251,90,58462,1,0,0:0:0:0:
249,112,58688,1,8,0:0:0:0:
207,214,58743,1,8,0:0:0:0:
241,93,59132,1,0,0:0:0:0:
226,142,59187,1,0,0:0:0:0:
241,93,59576,1,8,0:0:0:0:
216,176,59630,1,8,0:0:0:0:
177,145,61312,1,8,0:0:0:0:
293,166,61388,1,8,0:0:0:0:
251,143,61658,1,0,0:0:0:0:
279,107,61889,1,0,0:0:0:0:
251,143,62004,1,8,0:0:0:0:
266,107,62235,1,8,0:0:0:0:
266,107,62463,1,0,0:0:0:0:
266,107,62691,1,8,0:0:0:0:
264,108,62767,1,8,0:0:0:0:
199,189,63149,1,4,0:0:0:0:
201,161,63811,1,0,0:0:0:0:
186,183,64032,1,8,0:0:0:0:
176,183,64440,1,0,0:0:0:0:
242,168,64712,1,8,0:0:0:0:
244,158,64849,1,0,0:0:0:0:
242,168,64969,1,8,0:0:0:0:
244,158,65089,1,8,0:0:0:0:
244,158,65210,1,0,0:0:0:0:
244,158,65330,1,0,0:0:0:0:
244,158,65451,1,0,0:0:0:0:
244,158,65638,1,8,0:0:0:0:
211,133,66066,1,0,0:0:0:0:
214,127,66495,1,0,0:0:0:0:
227,116,66616,1,8,0:0:0:0:
226,122,66737,1,8,0:0:0:0:
196,154,66858,1,0,0:0:0:0:
196,154,66979,1,0,0:0:0:0:
221,127,67101,1,0,0:0:0:0:
221,127,67263,1,8,0:0:0:0:
178,144,67680,1,0,0:0:0:0:
216,168,67819,1,8,0:0:0:0:
216,168,67958,1,8,0:0:0:0:
179,144,68097,1,0,0:0:0:0:
179,144,68223,1,0,0:0:0:0:
179,144,68350,1,0,0:0:0:0:
221,166,68476,1,8,0:0:0:0:
226,148,68951,1,8,0:0:0:0:
226,148,69081,1,8,0:0:0:0:
219,143,69212,1,0,0:0:0:0:
232,57,69342,1,0,0:0:0:0:
219,143,69453,1,0,0:0:0:0:
249,60,69593,1,8,0:0:0:0:
211,80,69734,1,4,0:0:0:0:
321,122,70157,1,0,0:0:0:0:
229,131,70582,1,0,0:0:0:0:
229,131,70782,1,8,0:0:0:0:
224,148,70982,1,0,0:0:0:0:
229,131,71182,1,0,0:0:0:0:
224,149,71383,1,8,0:0:0:0:
212,139,71582,1,0,0:0:0:0:
212,139,71782,1,0,0:0:0:0:
212,139,71982,1,0,0:0:0:0:
227,141,72182,1,8,0:0:0:0:
204,136,72597,1,0,0:0:0:0:
202,143,73012,1,0,0:0:0:0:
212,117,73221,1,8,0:0:0:0:
202,143,73431,1,8,0:0:0:0:
202,143,73641,1,0,0:0:0:0:
212,117,74061,1,8,0:0:0:0:
226,158,74271,1,0,0:0:0:0:
202,143,74481,1,8,0:0:0:0:
232,97,74692,1,8,0:0:0:0:
226,158,74904,1,0,0:0:0:0:
189,151,75329,1,8,0:0:0:0:
247,123,75541,1,0,0:0:0:0:
189,151,75742,1,8,0:0:0:0:
189,151,75944,1,8,0:0:0:0:
221,102,76145,1,0,0:0:0:0:
192,146,76347,1,12,0:0:0:0:
124,222,76767,1,0,0:0:0:0:
164,131,77189,1,0,0:0:0:0:
164,131,77393,1,8,0:0:0:0:
164,131,77597,1,0,0:0:0:0:
116,129,77801,1,0,0:0:0:0:
121,164,78006,1,8,0:0:0:0:
116,129,78210,1,0,0:0:0:0:
121,164,78415,1,0,0:0:0:0:
116,129,78619,1,0,0:0:0:0:
121,164,78824,1,8,0:0:0:0:
116,129,79248,1,0,0:0:0:0:
131,92,79674,1,0,0:0:0:0:
131,92,79794,1,8,0:0:0:0:
131,92,79914,1,8,0:0:0:0:
376,242,80035,1,8,0:0:0:0:
131,92,80155,1,0,0:0:0:0:
131,92,80296,1,0,0:0:0:0:
131,92,80438,1,8,0:0:0:0:
131,169,80879,1,4,0:0:0:0:
124,99,81173,1,8,0:0:0:0:
184,102,81210,1,8,0:0:0:0:
131,169,81788,1,8,0:0:0:0:
184,97,81847,1,8,0:0:0:0:
94,164,82257,1,0,0:0:0:0:
94,164,82395,1,8,0:0:0:0:
94,164,82534,1,8,0:0:0:0:
94,164,82673,1,8,0:0:0:0:
94,164,82812,1,0,0:0:0:0:
2,174,82963,1,0,0:0:0:0:
137,107,83085,1,8,0:0:0:0:
109,188,83952,1,0,0:0:0:0:
109,188,84849,1,8,0:0:0:0:
199,146,85290,1,0,0:0:0:0:
109,188,85731,1,8,0:0:0:0:
199,146,85958,1,0,0:0:0:0:
172,168,86641,1,8,0:0:0:0:
199,146,87030,1,0,0:0:0:0:
199,146,87266,1,0,0:0:0:0:
206,101,87502,1,8,0:0:0:0:
206,101,87733,1,0,0:0:0:0:
172,168,88429,1,8,0:0:0:0:
197,104,88671,1,0,0:0:0:0:
197,104,89155,1,0,0:0:0:0:
191,146,89383,1,8,0:0:0:0:
206,168,89452,1,8,0:0:0:0:
204,64,89590,1,0,0:0:0:0:
204,64,89798,1,8,0:0:0:0:
166,92,89867,1,0,0:0:0:0:
204,64,90005,1,0,0:0:0:0:
206,168,90213,1,8,0:0:0:0:
218,158,90273,1,8,0:0:0:0:
191,119,90696,1,0,0:0:0:0:
176,77,90757,1,0,0:0:0:0:
191,119,91136,1,8,0:0:0:0:
218,158,91191,1,8,0:0:0:0:
191,119,91579,1,0,0:0:0:0:
176,77,91634,1,0,0:0:0:0:
191,119,92023,1,8,0:0:0:0:
218,158,92079,1,8,0:0:0:0:
176,104,92472,1,0,0:0:0:0:
176,77,92528,1,0,0:0:0:0:
141,126,92696,1,0,0:0:0:0:
141,126,92921,1,8,0:0:0:0:
218,158,92976,1,8,0:0:0:0:
169,104,93367,1,0,0:0:0:0:
176,77,93422,1,0,0:0:0:0:
169,104,93813,1,8,0:0:0:0:
218,158,93890,1,8,0:0:0:0:
146,46,95559,1,8,0:0:0:0:
244,89,95631,1,8,0:0:0:0:
244,89,95848,1,0,0:0:0:0:
167,158,95921,1,0,0:0:0:0:
167,158,96138,1,8,0:0:0:0:
179,133,96211,1,8,0:0:0:0:
121,159,96428,1,0,0:0:0:0:
179,133,96651,1,0,0:0:0:0:
179,133,96874,1,8,0:0:0:0:
179,133,96949,1,8,0:0:0:0:
156,169,97322,1,4,0:0:0:0:
207,136,97759,1,0,0:0:0:0:
117,148,98197,1,8,0:0:0:0:
117,148,98401,1,0,0:0:0:0:
176,94,98605,1,0,0:0:0:0:
204,117,98877,1,8,0:0:0:0:
176,109,99013,1,0,0:0:0:0:
204,117,99148,1,8,0:0:0:0:
204,117,99283,1,8,0:0:0:0:
204,117,99418,1,8,0:0:0:0:
176,109,99539,1,0,0:0:0:0:
182,101,99661,1,0,0:0:0:0:
194,101,99824,1,8,0:0:0:0:
211,244,100236,1,0,0:0:0:0:
176,136,100648,1,0,0:0:0:0:
191,138,100781,1,8,0:0:0:0:
211,226,100914,1,8,0:0:0:0:
182,166,101035,1,0,0:0:0:0:
182,166,101157,1,0,0:0:0:0:
182,166,101279,1,0,0:0:0:0:
211,226,101447,1,8,0:0:0:0:
166,126,101883,1,0,0:0:0:0:
189,81,102174,1,8,0:0:0:0:
368,101,102210,1,8,0:0:0:0:
159,101,102756,1,8,0:0:0:0:
171,92,103193,1,8,0:0:0:0:
167,101,103322,1,8,0:0:0:0:
161,62,103452,1,0,0:0:0:0:
161,62,103582,1,8,0:0:0:0:
166,97,103712,1,0,0:0:0:0:
171,92,103842,1,0,0:0:0:0:
171,72,103996,1,8,0:0:0:0:
127,209,104404,1,0,0:0:0:0:
127,209,104812,1,0,0:0:0:0:
116,134,105023,1,8,0:0:0:0:
121,198,105235,1,0,0:0:0:0:
142,148,105447,1,0,0:0:0:0:
142,148,105660,1,8,0:0:0:0:
142,148,105860,1,0,0:0:0:0:
142,148,106060,1,0,0:0:0:0:
142,148,106260,1,0,0:0:0:0:
142,148,106461,1,8,0:0:0:0:
121,126,106875,1,0,0:0:0:0:
152,119,107289,1,0,0:0:0:0:
164,104,107410,1,8,0:0:0:0:
162,139,107531,1,8,0:0:0:0:
162,139,107652,1,8,0:0:0:0:
152,119,107773,1,0,0:0:0:0:
159,114,107932,1,0,0:0:0:0:
176,101,108092,1,8,0:0:0:0:
169,97,108532,1,0,0:0:0:0:
169,97,108808,1,8,0:0:0:0:
169,97,109414,1,8,0:0:0:0:
189,64,109855,1,0,0:0:0:0:
156,121,109981,1,8,0:0:0:0:
156,121,110108,1,8,0:0:0:0:
189,64,110234,1,0,0:0:0:0:
176,84,110361,1,0,0:0:0:0:
169,67,110487,1,0,0:0:0:0:
176,84,110666,1,8,0:0:0:0:
139,84,111083,1,0,0:0:0:0:
144,84,111500,1,0,0:0:0:0:
157,74,111705,1,8,0:0:0:0:
161,74,111910,1,0,0:0:0:0:
161,74,112115,1,0,0:0:0:0:
161,74,112320,1,8,0:0:0:0:
152,62,112530,1,0,0:0:0:0:
157,74,112740,1,0,0:0:0:0:
152,62,112951,1,0,0:0:0:0:
152,62,113162,1,12,0:0:0:0:
156,104,113595,1,0,0:0:0:0:
112,121,114029,1,4,0:0:0:0:
112,121,115492,1,12,0:0:0:0:
112,121,116890,1,12,0:0:0:0:
112,121,118305,1,4,0:0:0:0:
112,121,119555,1,12,0:0:0:0:
112,121,120805,1,12,0:0:0:0:
112,121,121977,1,4,0:0:0:0:
112,121,122853,1,12,0:0:0:0:
112,121,123619,1,12,0:0:0:0:
112,121,124277,1,4,0:0:0:0:
112,121,124813,1,12,0:0:0:0:
112,121,125295,1,12,0:0:0:0:
112,121,125695,1,4,0:0:0:0:
112,121,126028,1,12,0:0:0:0:
112,121,126341,1,12,0:0:0:0:
112,121,126607,1,4,0:0:0:0:
112,121,126873,1,12,0:0:0:0:
102,121,127128,1,12,0:0:0:0:
101,122,127336,1,8,0:0:0:0:
288,93,127559,1,0,0:0:0:0:
195,137,127670,1,8,0:0:0:0:
261,87,127893,1,0,0:0:0:0:
243,140,128005,1,8,0:0:0:0:
243,140,128079,1,8,0:0:0:0:
243,140,128153,1,8,0:0:0:0:
243,140,128228,1,8,0:0:0:0:
243,140,128302,1,0,0:0:0:0:
243,140,128376,1,0,0:0:0:0:
243,140,128451,1,8,0:0:0:0:
205,158,128674,1,8,0:0:0:0:
178,142,128788,1,0,0:0:0:0:
205,158,129018,1,8,0:0:0:0:
210,123,129247,1,0,0:0:0:0:
205,138,129363,1,0,0:0:0:0:
221,128,129467,1,8,0:0:0:0:
221,128,129571,1,8,0:0:0:0:
193,133,129676,1,8,0:0:0:0:
205,138,129780,1,0,0:0:0:0:
205,158,129990,1,8,0:0:0:0:
217,154,130101,1,0,0:0:0:0:
205,158,130323,1,8,0:0:0:0:
212,178,130546,1,0,0:0:0:0:
177,163,130657,1,0,0:0:0:0:
177,163,130725,1,0,0:0:0:0:
177,163,130793,1,8,0:0:0:0:
177,163,130861,1,8,0:0:0:0:
177,163,130929,1,8,0:0:0:0:
177,163,130997,1,8,0:0:0:0:
177,163,131065,1,0,0:0:0:0:
209,153,131293,1,0,0:0:0:0:
277,163,131406,1,8,0:0:0:0:
277,163,131520,1,8,0:0:0:0:
209,153,131634,1,0,0:0:0:0:
277,163,131748,1,8,0:0:0:0:
209,153,131861,1,0,0:0:0:0:
187,208,131976,1,0,0:0:0:0:
187,208,132081,1,8,0:0:0:0:
221,154,132186,1,8,0:0:0:0:
221,154,132291,1,0,0:0:0:0:
221,154,132396,1,8,0:0:0:0:
216,173,132606,1,8,0:0:0:0:
216,173,132719,1,0,0:0:0:0:
216,173,132945,1,8,0:0:0:0:
206,161,133171,1,0,0:0:0:0:
206,161,133285,1,0,0:0:0:0:
206,161,133389,1,8,0:0:0:0:
206,161,133494,1,8,0:0:0:0:
194,146,133599,1,8,0:0:0:0:
206,161,133703,1,0,0:0:0:0:
181,133,133913,1,8,0:0:0:0:
181,133,134024,1,0,0:0:0:0:
181,133,134247,1,8,0:0:0:0:
181,133,134470,1,0,0:0:0:0:
181,133,134583,1,0,0:0:0:0:
181,133,134686,1,8,0:0:0:0:
181,133,134789,1,8,0:0:0:0:
181,133,134893,1,8,0:0:0:0:
181,133,134996,1,0,0:0:0:0:
183,177,135203,1,8,0:0:0:0:
193,170,135313,1,0,0:0:0:0:
193,170,135534,1,8,0:0:0:0:
190,153,135755,1,0,0:0:0:0:
190,153,135866,1,0,0:0:0:0:
190,153,135966,1,8,0:0:0:0:
190,153,136067,1,8,0:0:0:0:
190,155,136168,1,8,0:0:0:0:
190,155,136268,1,0,0:0:0:0:
188,148,136378,1,8,0:0:0:0:
188,150,136489,1,0,0:0:0:0:
190,153,136598,1,8,0:0:0:0:
190,153,136708,1,8,0:0:0:0:
190,153,136818,1,0,0:0:0:0:
185,153,136928,1,8,0:0:0:0:
190,153,137038,1,0,0:0:0:0:
190,155,137148,1,0,0:0:0:0:
190,155,137253,1,8,0:0:0:0:
185,153,137359,1,8,0:0:0:0:
188,150,137465,1,0,0:0:0:0:
185,153,137570,1,8,0:0:0:0:
123,168,137783,1,8,0:0:0:0:
123,168,137895,1,0,0:0:0:0:
123,168,138120,1,8,0:0:0:0:
123,168,138345,1,0,0:0:0:0:
123,168,138457,1,0,0:0:0:0:
116,167,138560,1,8,0:0:0:0:
116,167,138663,1,0,0:0:0:0:
116,167,138767,1,8,0:0:0:0:
116,167,138870,1,0,0:0:0:0:
110,167,139090,1,8,0:0:0:0:
110,167,139195,1,0,0:0:0:0:
110,167,139407,1,8,0:0:0:0:
110,162,139618,1,0,0:0:0:0:
110,162,139724,1,8,0:0:0:0:
191,147,139793,1,8,0:0:0:0:
191,147,139862,1,8,0:0:0:0:
191,147,139932,1,0,0:0:0:0:
191,147,139996,1,8,0:0:0:0:
191,147,140061,1,8,0:0:0:0:
191,147,140136,1,0,0:0:0:0:
211,138,140348,1,8,0:0:0:0:
211,138,140455,1,0,0:0:0:0:
211,138,140669,1,8,0:0:0:0:
211,138,140883,1,0,0:0:0:0:
211,138,140990,1,0,0:0:0:0:
211,138,141099,1,8,0:0:0:0:
211,138,141209,1,8,0:0:0:0:
211,138,141318,1,0,0:0:0:0:
211,138,141428,1,0,0:0:0:0:
115,120,141537,1,8,0:0:0:0:
131,135,141648,1,0,0:0:0:0:
131,135,141754,1,8,0:0:0:0:
131,135,141861,1,8,0:0:0:0:
131,135,141968,1,0,0:0:0:0:
131,135,142074,1,0,0:0:0:0:
131,135,142181,1,8,0:0:0:0:
131,135,142288,1,0,0:0:0:0:
131,135,142393,1,8,0:0:0:0:
131,135,142498,1,8,0:0:0:0:
210,132,142603,1,0,0:0:0:0:
131,135,142708,1,8,0:0:0:0:
406,173,142813,1,0,0:0:0:0:
406,173,142918,1,8,0:0:0:0:
406,173,143029,1,0,0:0:0:0:
156,153,143252,1,8,0:0:0:0:
207,268,143475,1,0,0:0:0:0:
207,268,143587,1,8,0:0:0:0:
207,268,143696,1,0,0:0:0:0:
207,268,143805,1,8,0:0:0:0:
207,268,143914,1,8,0:0:0:0:
207,268,144023,1,0,0:0:0:0:
207,268,144243,1,8,0:0:0:0:
207,268,144349,1,0,0:0:0:0:
207,268,144561,1,8,0:0:0:0:
216,261,144773,1,0,0:0:0:0:
216,261,144879,1,0,0:0:0:0:
216,261,144979,1,8,0:0:0:0:
214,263,145079,1,8,0:0:0:0:
214,263,145179,1,8,0:0:0:0:
214,263,145279,1,0,0:0:0:0:
221,258,145517,1,8,0:0:0:0:
221,258,145624,1,0,0:0:0:0:
221,258,145839,1,8,0:0:0:0:
221,258,146053,1,0,0:0:0:0:
221,258,146161,1,0,0:0:0:0:
221,258,146263,1,8,0:0:0:0:
219,222,146366,1,0,0:0:0:0:
221,258,146469,1,8,0:0:0:0:
219,222,146571,1,0,0:0:0:0:
226,211,146674,1,8,0:0:0:0:
219,222,146795,1,0,0:0:0:0:
226,211,146905,1,8,0:0:0:0:
226,211,147016,1,8,0:0:0:0:
219,222,147126,1,0,0:0:0:0:
221,217,147237,1,8,0:0:0:0:
221,217,147348,1,8,0:0:0:0:
219,222,147456,1,0,0:0:0:0:
219,222,147562,1,8,0:0:0:0:
219,221,147668,1,8,0:0:0:0:
219,222,147774,1,0,0:0:0:0:
221,217,147881,1,8,0:0:0:0:
219,222,147987,1,8,0:0:0:0:
191,156,148263,1,8,0:0:0:0:
176,222,148462,1,0,0:0:0:0:
176,222,148548,1,8,0:0:0:0:
157,289,148941,1,8,0:0:0:0:
157,289,149135,1,0,0:0:0:0:
157,289,149218,1,8,0:0:0:0:
167,203,149600,1,8,0:0:0:0:
172,201,149788,1,0,0:0:0:0:
172,201,149869,1,8,0:0:0:0:
172,199,150083,1,8,0:0:0:0:
172,199,150296,1,8,0:0:0:0:
172,199,150509,1,0,0:0:0:0:
131,117,150723,1,0,0:0:0:0:
172,201,150885,1,8,0:0:0:0:
172,199,151074,1,0,0:0:0:0:
172,199,151156,1,8,0:0:0:0:
172,199,151537,1,8,0:0:0:0:
172,201,151731,1,0,0:0:0:0:
172,201,151814,1,8,0:0:0:0:
172,199,152036,1,0,0:0:0:0:
172,199,152203,1,8,0:0:0:0:
172,199,152371,1,0,0:0:0:0:
172,199,152483,1,8,0:0:0:0:
206,163,152594,1,0,0:0:0:0:
206,163,152706,1,8,0:0:0:0:
206,163,152922,1,8,0:0:0:0:
206,163,153138,1,0,0:0:0:0:
201,158,153355,1,0,0:0:0:0:
201,158,153521,1,8,0:0:0:0:
201,158,153688,1,0,0:0:0:0:
201,158,153799,1,8,0:0:0:0:
201,148,154021,1,0,0:0:0:0:
201,148,154127,1,8,0:0:0:0:
201,148,154234,1,0,0:0:0:0:
201,148,154341,1,0,0:0:0:0:
201,148,154448,1,8,0:0:0:0:
201,158,154662,1,0,0:0:0:0:
201,158,154803,1,8,0:0:0:0:
197,158,155001,1,0,0:0:0:0:
197,158,155114,1,8,0:0:0:0:
197,158,155340,1,8,0:0:0:0:
201,158,155555,1,0,0:0:0:0:
201,158,155771,1,0,0:0:0:0:
201,153,155998,1,0,0:0:0:0:
201,153,156108,1,8,0:0:0:0:
201,153,156218,1,0,0:0:0:0:
201,153,156328,1,0,0:0:0:0:
201,153,156439,1,8,0:0:0:0:
199,221,156636,1,0,0:0:0:0:
199,221,156802,1,8,0:0:0:0:
199,221,156969,1,0,0:0:0:0:
199,221,157081,1,8,0:0:0:0:
199,221,157304,1,0,0:0:0:0:
199,221,157413,1,8,0:0:0:0:
199,221,157523,1,0,0:0:0:0:
199,221,157633,1,0,0:0:0:0:
199,221,157743,1,8,0:0:0:0:
184,203,157962,1,8,0:0:0:0:
174,211,158174,1,8,0:0:0:0:
174,211,158387,1,0,0:0:0:0:
196,191,158615,1,0,0:0:0:0:
196,191,158724,1,8,0:0:0:0:
196,191,158834,1,0,0:0:0:0:
196,191,158944,1,0,0:0:0:0:
196,191,159054,1,8,0:0:0:0:
201,179,159273,1,8,0:0:0:0:
199,179,159384,1,8,0:0:0:0:
199,179,159496,1,0,0:0:0:0:
199,179,159608,1,0,0:0:0:0:
199,179,159720,1,8,0:0:0:0:
221,181,159945,1,8,0:0:0:0:
221,181,160051,1,8,0:0:0:0:
221,181,160157,1,8,0:0:0:0:
221,181,160263,1,0,0:0:0:0:
221,181,160370,1,8,0:0:0:0:
212,149,160582,1,8,0:0:0:0:
314,166,160656,1,0,0:0:0:0:
314,166,160731,1,0,0:0:0:0:
314,166,160805,1,8,0:0:0:0:
314,166,161029,1,0,0:0:0:0:
257,148,161254,1,0,0:0:0:0:
257,148,161364,1,8,0:0:0:0:
257,148,161474,1,0,0:0:0:0:
257,148,161585,1,0,0:0:0:0:
257,148,161695,1,8,0:0:0:0:
257,148,161917,1,8,0:0:0:0:
257,148,162028,1,8,0:0:0:0:
257,148,162140,1,0,0:0:0:0:
257,148,162252,1,0,0:0:0:0:
257,148,162364,1,8,0:0:0:0:
257,148,162588,1,8,0:0:0:0:
257,148,162696,1,8,0:0:0:0:
257,148,162804,1,8,0:0:0:0:
257,148,162912,1,0,0:0:0:0:
257,154,163021,1,8,0:0:0:0:
247,143,163238,1,8,0:0:0:0:
247,143,163456,1,8,0:0:0:0:
247,143,163675,1,0,0:0:0:0:
247,143,163894,1,8,0:0:0:0:
289,136,163951,1,0,0:0:0:0:
289,136,164009,1,0,0:0:0:0:
246,179,164240,1,8,0:0:0:0:
246,179,164586,1,0,0:0:0:0:
246,179,164923,1,8,0:0:0:0:
246,179,165261,1,0,0:0:0:0:
246,179,165596,1,8,0:0:0:0:
246,179,165932,1,8,0:0:0:0:
246,179,166157,1,8,0:0:0:0:
246,179,166383,1,8,0:0:0:0:
246,179,166609,1,0,0:0:0:0:
246,179,166942,1,8,0:0:0:0:
246,179,167276,1,0,0:0:0:0:
246,179,167622,1,8,0:0:0:0:
246,179,167969,1,0,0:0:0:0:
246,179,168285,1,8,0:0:0:0:
246,179,168601,1,8,0:0:0:0:
246,179,168814,1,8,0:0:0:0:
246,179,169028,1,8,0:0:0:0:
222,216,169135,1,0,0:0:0:0:
222,216,169189,1,0,0:0:0:0:
222,216,169243,1,8,0:0:0:0:
222,216,169584,1,8,0:0:0:0:
222,158,169660,1,0,0:0:0:0:
222,216,169926,1,8,0:0:0:0:
222,216,170237,1,8,0:0:0:0:
222,158,170289,1,0,0:0:0:0:
209,229,170549,1,0,0:0:0:0:
209,229,170868,1,8,0:0:0:0:
217,161,170921,1,0,0:0:0:0:
219,194,171187,1,8,0:0:0:0:
219,194,171409,1,8,0:0:0:0:
219,194,171631,1,0,0:0:0:0:
219,194,171854,1,0,0:0:0:0:
217,161,172177,1,8,0:0:0:0:
217,161,172249,1,0,0:0:0:0:
217,161,172502,1,0,0:0:0:0:
204,151,172817,1,8,0:0:0:0:
209,144,172887,1,0,0:0:0:0:
217,119,173132,1,8,0:0:0:0:
191,106,173436,1,0,0:0:0:0:
334,91,173504,1,8,0:0:0:0:
191,106,173741,1,8,0:0:0:0:
191,106,173964,1,8,0:0:0:0:
191,106,174187,1,8,0:0:0:0:
169,216,174411,1,0,0:0:0:0:
169,216,174623,1,0,0:0:0:0:
169,216,174730,1,8,0:0:0:0:
169,216,174942,1,0,0:0:0:0:
169,216,175049,1,8,0:0:0:0:
169,216,175151,1,8,0:0:0:0:
169,216,175253,1,8,0:0:0:0:
169,216,175355,1,0,0:0:0:0:
169,216,175457,1,0,0:0:0:0:
169,216,175671,1,8,0:0:0:0:
169,216,175879,1,0,0:0:0:0:
169,216,175983,1,8,0:0:0:0:
176,208,176191,1,0,0:0:0:0:
176,208,176296,1,8,0:0:0:0:
191,227,176368,1,8,0:0:0:0:
191,227,176440,1,8,0:0:0:0:
191,227,176512,1,8,0:0:0:0:
191,227,176578,1,0,0:0:0:0:
191,227,176645,1,0,0:0:0:0:
191,227,176712,1,8,0:0:0:0:
199,269,176946,1,8,0:0:0:0:
154,247,177165,1,0,0:0:0:0:
179,258,177274,1,8,0:0:0:0:
154,247,177494,1,0,0:0:0:0:
154,247,177603,1,0,0:0:0:0:
182,256,177706,1,8,0:0:0:0:
164,244,177809,1,0,0:0:0:0:
182,256,177913,1,8,0:0:0:0:
164,244,178016,1,0,0:0:0:0:
169,231,178224,1,8,0:0:0:0:
176,213,178443,1,0,0:0:0:0:
169,231,178553,1,8,0:0:0:0:
174,213,178773,1,0,0:0:0:0:
174,213,178883,1,0,0:0:0:0:
169,231,178983,1,8,0:0:0:0:
171,224,179084,1,8,0:0:0:0:
176,213,179285,1,8,0:0:0:0:
177,198,179508,1,0,0:0:0:0:
177,198,179615,1,8,0:0:0:0:
246,173,179831,1,8,0:0:0:0:
246,173,179938,1,0,0:0:0:0:
227,144,180046,1,8,0:0:0:0:
221,148,180154,1,0,0:0:0:0:
221,148,180366,1,8,0:0:0:0:
214,116,180578,1,0,0:0:0:0:
221,148,180684,1,8,0:0:0:0:
221,148,180896,1,8,0:0:0:0:
221,148,181109,1,8,0:0:0:0:
224,112,181215,1,0,0:0:0:0:
309,184,181428,1,8,0:0:0:0:
307,151,181640,1,0,0:0:0:0:
307,151,181747,1,8,0:0:0:0:
307,151,181853,1,0,0:0:0:0:
307,151,181959,1,8,0:0:0:0:
307,151,182066,1,0,0:0:0:0:
266,138,182269,1,8,0:0:0:0:
266,138,182472,1,0,0:0:0:0:
266,138,182573,1,8,0:0:0:0:
266,138,182675,1,0,0:0:0:0:
266,138,182780,1,0,0:0:0:0:
266,138,182885,1,0,0:0:0:0:
266,138,182991,1,8,0:0:0:0:
266,138,183096,1,0,0:0:0:0:
284,174,183308,1,8,0:0:0:0:
217,143,183517,1,0,0:0:0:0:
241,227,183622,1,8,0:0:0:0:
217,143,183832,1,8,0:0:0:0:
217,143,183937,1,0,0:0:0:0:
206,119,184118,1,8,0:0:0:0:
206,119,184332,1,8,0:0:0:0:
206,119,184579,1,4,0:0:0:0:
279,141,184796,1,0,0:0:0:0:
266,159,184904,1,8,0:0:0:0:
279,141,185013,1,8,0:0:0:0:
294,99,185122,1,8,0:0:0:0:
266,159,185230,1,0,0:0:0:0:
266,159,185441,1,0,0:0:0:0:
279,141,185652,1,8,0:0:0:0:
279,141,185889,1,8,0:0:0:0:
279,104,186095,1,0,0:0:0:0:
279,104,186198,1,8,0:0:0:0:
279,104,186301,1,0,0:0:0:0:
279,104,186404,1,8,0:0:0:0:
219,129,186508,1,0,0:0:0:0:
279,104,186616,1,8,0:0:0:0:
279,104,186725,1,8,0:0:0:0:
279,104,186834,1,0,0:0:0:0:
279,104,186943,1,0,0:0:0:0:
271,122,187161,1,8,0:0:0:0:
179,133,187368,1,0,0:0:0:0:
179,133,187472,1,0,0:0:0:0:
179,133,187576,1,8,0:0:0:0:
179,133,187784,1,0,0:0:0:0:
179,133,187889,1,8,0:0:0:0:
191,91,187995,1,0,0:0:0:0:
192,107,188101,1,8,0:0:0:0:
191,91,188206,1,0,0:0:0:0:
191,91,188312,1,8,0:0:0:0:
191,91,188418,1,0,0:0:0:0:
191,91,188523,1,8,0:0:0:0:
191,91,188629,1,8,0:0:0:0:
191,91,188734,1,8,0:0:0:0:
191,91,188840,1,0,0:0:0:0:
351,171,188960,1,0,0:0:0:0:
351,171,189080,1,8,0:0:0:0:
222,124,189180,1,0,0:0:0:0:
222,124,189280,1,8,0:0:0:0:
222,124,189380,1,8,0:0:0:0:
222,124,189480,1,8,0:0:0:0:
222,124,189588,1,0,0:0:0:0:
222,124,189696,1,0,0:0:0:0:
269,143,189913,1,8,0:0:0:0:
289,226,190131,1,0,0:0:0:0:
296,159,190240,1,8,0:0:0:0:
289,226,190350,1,0,0:0:0:0:
287,221,190455,1,0,0:0:0:0:
287,221,190561,1,0,0:0:0:0:
257,146,190667,1,8,0:0:0:0:
257,146,190772,1,0,0:0:0:0:
257,146,190984,1,8,0:0:0:0:
192,141,191193,1,0,0:0:0:0:
257,146,191298,1,8,0:0:0:0:
192,141,191403,1,0,0:0:0:0:
219,87,191507,1,0,0:0:0:0:
192,141,191613,1,0,0:0:0:0:
202,139,191718,1,8,0:0:0:0:
202,139,191823,1,8,0:0:0:0:
202,139,191928,1,8,0:0:0:0:
179,143,192033,1,0,0:0:0:0:
182,141,192243,1,8,0:0:0:0:
186,131,192449,1,0,0:0:0:0:
182,141,192553,1,8,0:0:0:0:
182,141,192760,1,8,0:0:0:0:
179,143,192967,1,8,0:0:0:0:
182,141,193070,1,8,0:0:0:0:
186,133,193173,1,0,0:0:0:0:
182,141,193276,1,8,0:0:0:0:
301,169,193390,1,0,0:0:0:0:
301,169,193505,1,0,0:0:0:0:
272,169,193609,1,8,0:0:0:0:
272,169,193713,1,8,0:0:0:0:
274,163,193818,1,0,0:0:0:0:
274,163,193922,1,0,0:0:0:0:
269,148,194027,1,8,0:0:0:0:
251,116,194132,1,0,0:0:0:0:
251,116,194234,1,8,0:0:0:0:
251,116,194336,1,8,0:0:0:0:
251,116,194439,1,8,0:0:0:0:
264,87,194541,1,0,0:0:0:0:
379,146,194747,1,4,0:0:0:0:
241,176,194963,1,0,0:0:0:0:
242,193,195071,1,8,0:0:0:0:
241,176,195180,1,0,0:0:0:0:
242,193,195288,1,8,0:0:0:0:
241,176,195397,1,0,0:0:0:0:
247,148,195501,1,0,0:0:0:0:
242,158,195606,1,8,0:0:0:0:
242,158,195711,1,8,0:0:0:0:
239,159,195816,1,0,0:0:0:0:
217,144,196042,1,8,0:0:0:0:
229,119,196254,1,0,0:0:0:0:
217,144,196360,1,8,0:0:0:0:
229,119,196572,1,8,0:0:0:0:
334,166,196679,1,0,0:0:0:0:
231,156,196783,1,0,0:0:0:0:
286,138,196887,1,0,0:0:0:0:
229,119,196992,1,8,0:0:0:0:
231,156,197096,1,0,0:0:0:0:
341,171,197305,1,8,0:0:0:0:
256,154,197518,1,0,0:0:0:0:
312,184,197625,1,8,0:0:0:0:
227,109,197731,1,0,0:0:0:0:
227,109,197945,1,0,0:0:0:0:
224,96,198048,1,8,0:0:0:0:
221,97,198152,1,0,0:0:0:0:
224,96,198256,1,8,0:0:0:0:
221,97,198359,1,0,0:0:0:0:
226,181,198567,1,8,0:0:0:0:
222,146,198668,1,0,0:0:0:0:
227,156,198769,1,8,0:0:0:0:
227,156,198871,1,8,0:0:0:0:
227,156,198972,1,0,0:0:0:0:
227,146,199073,1,8,0:0:0:0:
222,146,199176,1,0,0:0:0:0:
227,146,199281,1,8,0:0:0:0:
152,161,199386,1,0,0:0:0:0:
227,146,199491,1,8,0:0:0:0:
222,146,199596,1,0,0:0:0:0:
309,164,199807,1,4,0:0:0:0:
467,174,200138,1,8,0:0:0:0:
344,234,200193,1,0,0:0:0:0:
467,174,200248,1,8,0:0:0:0:
369,153,200469,1,8,0:0:0:0:
369,153,200572,1,0,0:0:0:0:
369,153,200676,1,0,0:0:0:0:
369,153,200780,1,8,0:0:0:0:
369,153,200884,1,0,0:0:0:0:
366,134,201093,1,8,0:0:0:0:
356,139,201305,1,0,0:0:0:0:
361,136,201411,1,8,0:0:0:0:
356,139,201517,1,0,0:0:0:0:
356,139,201623,1,0,0:0:0:0:
359,136,201730,1,8,0:0:0:0:
356,139,201832,1,0,0:0:0:0:
356,139,201934,1,0,0:0:0:0:
356,139,202036,1,8,0:0:0:0:
356,139,202138,1,8,0:0:0:0:
314,184,202343,1,8,0:0:0:0:
304,178,202446,1,0,0:0:0:0:
304,178,202549,1,0,0:0:0:0:
311,189,202653,1,8,0:0:0:0:
304,178,202756,1,0,0:0:0:0:
304,178,202860,1,0,0:0:0:0:
304,178,202964,1,8,0:0:0:0:
304,178,203069,1,8,0:0:0:0:
304,178,203174,1,8,0:0:0:0:
304,178,203279,1,0,0:0:0:0:
304,178,203384,1,8,0:0:0:0:
289,133,203594,1,8,0:0:0:0:
289,133,203697,1,0,0:0:0:0:
289,133,203800,1,0,0:0:0:0:
289,133,203904,1,8,0:0:0:0:
289,133,204007,1,0,0:0:0:0:
289,133,204130,1,0,0:0:0:0:
289,133,204253,1,8,0:0:0:0:
289,133,204350,1,0,0:0:0:0:
289,133,204447,1,0,0:0:0:0:
289,133,204545,1,8,0:0:0:0:
289,133,204642,1,0,0:0:0:0:
289,133,204874,1,0,0:0:0:0:
257,127,204976,1,0,0:0:0:0:
257,127,205079,1,0,0:0:0:0:
299,201,205182,1,8,0:0:0:0:
257,127,205284,1,0,0:0:0:0:
257,127,205393,1,0,0:0:0:0:
299,201,205502,1,8,0:0:0:0:
299,201,205605,1,8,0:0:0:0:
257,127,205708,1,0,0:0:0:0:
304,174,205812,1,8,0:0:0:0:
257,127,205915,1,0,0:0:0:0:
257,127,206019,1,0,0:0:0:0:
286,164,206122,1,8,0:0:0:0:
257,127,206228,1,0,0:0:0:0:
257,127,206334,1,0,0:0:0:0:
282,163,206441,1,8,0:0:0:0:
257,127,206547,1,0,0:0:0:0:
257,127,206653,1,0,0:0:0:0:
286,164,206761,1,8,0:0:0:0:
257,127,206862,1,0,0:0:0:0:
257,127,206963,1,0,0:0:0:0:
286,164,207065,1,8,0:0:0:0:
286,164,207166,1,8,0:0:0:0:
238,186,207382,1,8,0:0:0:0:
186,181,207596,1,0,0:0:0:0:
238,186,207704,1,8,0:0:0:0:
186,181,207811,1,0,0:0:0:0:
186,181,208026,1,0,0:0:0:0:
261,199,208126,1,8,0:0:0:0:
221,164,208226,1,8,0:0:0:0:
186,181,208326,1,0,0:0:0:0:
186,181,208426,1,0,0:0:0:0:
295,226,208677,1,8,0:0:0:0:
295,226,208890,1,0,0:0:0:0:
295,226,208997,1,8,0:0:0:0:
378,206,209210,1,0,0:0:0:0:
378,206,209318,1,0,0:0:0:0:
378,206,209418,1,8,0:0:0:0:
378,206,209519,1,8,0:0:0:0:
378,206,209620,1,8,0:0:0:0:
378,206,209720,1,0,0:0:0:0:
200,146,209930,1,8,0:0:0:0:
220,143,210145,1,0,0:0:0:0:
200,146,210253,1,8,0:0:0:0:
221,143,210361,1,0,0:0:0:0:
230,143,210578,1,0,0:0:0:0:
200,146,210679,1,8,0:0:0:0:
200,146,210780,1,8,0:0:0:0:
230,143,210882,1,0,0:0:0:0:
230,143,210983,1,0,0:0:0:0:
236,148,211187,1,8,0:0:0:0:
235,156,211293,1,0,0:0:0:0:
235,156,211399,1,0,0:0:0:0:
235,156,211506,1,8,0:0:0:0:
235,156,211612,1,0,0:0:0:0:
230,153,211825,1,8,0:0:0:0:
235,154,211930,1,0,0:0:0:0:
230,153,212036,1,8,0:0:0:0:
235,154,212141,1,8,0:0:0:0:
235,154,212247,1,0,0:0:0:0:
256,139,212459,1,8,0:0:0:0:
213,208,212667,1,0,0:0:0:0:
256,139,212771,1,8,0:0:0:0:
213,208,212875,1,0,0:0:0:0:
213,208,213098,1,0,0:0:0:0:
256,139,213200,1,8,0:0:0:0:
213,208,213303,1,0,0:0:0:0:
213,208,213406,1,0,0:0:0:0:
256,139,213508,1,8,0:0:0:0:
196,209,213732,1,0,0:0:0:0:
256,139,213836,1,8,0:0:0:0:
196,209,213941,1,0,0:0:0:0:
210,154,214151,1,0,0:0:0:0:
210,154,214256,1,0,0:0:0:0:
256,139,214360,1,8,0:0:0:0:
210,154,214572,1,0,0:0:0:0:
256,139,214678,1,8,0:0:0:0:
210,154,214784,1,0,0:0:0:0:
213,164,214890,1,0,0:0:0:0:
213,166,214997,1,0,0:0:0:0:
256,139,215203,1,8,0:0:0:0:
216,149,215409,1,0,0:0:0:0:
256,139,215512,1,8,0:0:0:0:
215,138,215615,1,0,0:0:0:0:
215,138,215720,1,0,0:0:0:0:
215,138,215825,1,0,0:0:0:0:
256,139,215931,1,8,0:0:0:0:
246,116,216036,1,0,0:0:0:0:
250,122,216142,1,0,0:0:0:0:
248,107,216248,1,8,0:0:0:0:
256,139,216456,1,0,0:0:0:0:
251,119,216664,1,8,0:0:0:0:
251,119,216890,1,8,0:0:0:0:
251,119,217098,1,8,0:0:0:0:
251,119,217307,1,8,0:0:0:0:
251,119,217516,1,8,0:0:0:0:
238,153,217846,1,0,0:0:0:0:
233,159,218178,1,8,0:0:0:0:
233,161,218505,1,8,0:0:0:0:
233,161,218833,1,0,0:0:0:0:
216,184,219163,1,0,0:0:0:0:
216,184,219494,1,8,0:0:0:0:
216,184,219705,1,8,0:0:0:0:
216,184,219916,1,8,0:0:0:0:
216,184,220149,1,0,0:0:0:0:
216,184,220471,1,0,0:0:0:0:
216,184,220793,1,8,0:0:0:0:
216,184,221127,1,8,0:0:0:0:
216,176,221462,1,8,0:0:0:0:
216,176,221785,1,0,0:0:0:0:
225,156,222110,1,0,0:0:0:0:
211,161,222324,1,8,0:0:0:0:
211,161,222538,1,8,0:0:0:0:
211,161,222785,1,8,0:0:0:0:
226,178,222993,1,0,0:0:0:0:
226,179,223097,1,8,0:0:0:0:
226,179,223166,1,0,0:0:0:0:
230,163,223409,1,8,0:0:0:0:
228,156,223625,1,0,0:0:0:0:
220,163,223733,1,8,0:0:0:0:
220,163,223842,1,0,0:0:0:0:
215,186,224059,1,8,0:0:0:0:
213,168,224276,1,0,0:0:0:0:
211,136,224384,1,8,0:0:0:0:
221,159,224493,1,0,0:0:0:0:
221,158,224602,1,0,0:0:0:0:
221,144,224711,1,8,0:0:0:0:
228,176,224930,1,0,0:0:0:0:
186,144,225150,1,8,0:0:0:0:
186,144,225260,1,0,0:0:0:0:
185,149,225370,1,8,0:0:0:0:
160,131,225583,1,0,0:0:0:0:
188,134,225690,1,8,0:0:0:0:
158,146,225796,1,0,0:0:0:0:
158,146,225903,1,0,0:0:0:0:
173,134,226010,1,8,0:0:0:0:
158,148,226118,1,0,0:0:0:0:
158,148,226227,1,0,0:0:0:0:
173,134,226335,1,8,0:0:0:0:
158,138,226444,1,0,0:0:0:0:
160,131,226553,1,0,0:0:0:0:
188,104,226662,1,8,0:0:0:0:
200,104,226771,1,0,0:0:0:0:
165,114,226880,1,0,0:0:0:0:
176,122,226989,1,8,0:0:0:0:
165,114,227099,1,0,0:0:0:0:
176,111,227208,1,0,0:0:0:0:
165,114,227318,1,8,0:0:0:0:
388,141,227391,1,8,0:0:0:0:
388,141,227465,1,0,0:0:0:0:
388,141,227539,1,8,0:0:0:0:
248,131,227649,1,0,0:0:0:0:
248,131,227760,1,0,0:0:0:0:
286,76,227981,1,8,0:0:0:0:
203,177,228050,1,0,0:0:0:0:
203,177,228120,1,0,0:0:0:0:
203,177,228189,1,8,0:0:0:0:
310,157,228294,1,8,0:0:0:0:
310,157,228398,1,0,0:0:0:0:
206,253,228608,1,0,0:0:0:0:
201,247,228715,1,0,0:0:0:0:
341,153,228823,1,8,0:0:0:0:
341,153,228895,1,0,0:0:0:0:
370,167,228967,1,8,0:0:0:0:
370,167,229039,1,0,0:0:0:0:
341,153,229111,1,8,0:0:0:0:
341,153,229183,1,8,0:0:0:0:
341,153,229255,1,0,0:0:0:0:
338,233,229457,1,0,0:0:0:0:
323,205,229558,1,0,0:0:0:0:
323,205,229659,1,0,0:0:0:0:
323,205,229761,1,0,0:0:0:0:
323,205,229863,1,8,0:0:0:0:
403,173,229935,1,0,0:0:0:0:
138,190,230007,1,8,0:0:0:0:
358,185,230080,1,8,0:0:0:0:
358,185,230152,1,8,0:0:0:0:
358,185,230224,1,8,0:0:0:0:
358,185,230297,1,0,0:0:0:0:
346,130,230405,1,0,0:0:0:0:
346,130,230514,1,8,0:0:0:0:
325,138,230581,1,0,0:0:0:0:
325,138,230649,1,0,0:0:0:0:
325,138,230717,1,8,0:0:0:0:
348,108,230785,1,0,0:0:0:0:
348,108,230853,1,0,0:0:0:0:
348,108,230921,1,8,0:0:0:0:
345,103,230989,1,0,0:0:0:0:
345,103,231057,1,8,0:0:0:0:
345,103,231125,1,8,0:0:0:0:
303,103,231191,1,8,0:0:0:0:
303,103,231258,1,0,0:0:0:0:
266,84,231325,1,8,0:0:0:0:
319,163,231425,1,0,0:0:0:0:
252,104,231525,1,0,0:0:0:0:
252,104,231625,1,8,0:0:0:0:
261,101,231726,1,8,0:0:0:0:
324,81,231835,1,8,0:0:0:0:
324,81,231945,1,0,0:0:0:0:
324,81,232054,1,8,0:0:0:0:
321,89,232164,1,0,0:0:0:0:
319,92,232273,1,8,0:0:0:0:
261,116,232384,1,0,0:0:0:0:
312,136,232577,1,8,0:0:0:0:
336,99,232673,1,0,0:0:0:0:
336,99,232770,1,0,0:0:0:0:
191,158,232866,1,8,0:0:0:0:
361,133,233024,1,0,0:0:0:0:
109,114,233129,1,0,0:0:0:0:
361,133,233235,1,8,0:0:0:0:
322,176,233305,1,0,0:0:0:0:
361,133,233376,1,0,0:0:0:0:
301,159,233446,1,8,0:0:0:0:
239,134,233517,1,0,0:0:0:0:
239,134,233587,1,0,0:0:0:0:
239,134,233658,1,8,0:0:0:0:
239,134,233727,1,0,0:0:0:0:
239,134,233796,1,0,0:0:0:0:
239,134,233865,1,8,0:0:0:0:
182,126,233934,1,8,0:0:0:0:
182,131,234003,1,0,0:0:0:0:
182,131,234072,1,8,0:0:0:0:
182,131,234175,1,0,0:0:0:0:
181,136,234279,1,8,0:0:0:0:
281,119,234347,1,0,0:0:0:0:
281,119,234415,1,0,0:0:0:0:
281,119,234483,1,8,0:0:0:0:
229,163,234585,1,8,0:0:0:0:
229,163,234653,1,0,0:0:0:0:
229,163,234721,1,0,0:0:0:0:
262,139,234790,1,8,0:0:0:0:
425,143,234892,1,8,0:0:0:0:
421,99,234963,1,8,0:0:0:0:
425,96,235035,1,8,0:0:0:0:
425,96,235107,1,0,0:0:0:0:
196,139,235215,1,0,0:0:0:0:
198,148,235323,1,8,0:0:0:0:
333,149,235540,1,8,0:0:0:0:
333,149,235610,1,0,0:0:0:0:
333,149,235681,1,0,0:0:0:0:
253,66,235752,1,8,0:0:0:0:
231,89,235859,1,8,0:0:0:0:
253,66,236072,1,8,0:0:0:0:
159,183,236178,1,0,0:0:0:0:
146,208,236244,1,0,0:0:0:0:
146,208,236311,1,0,0:0:0:0:
146,208,236378,1,8,0:0:0:0:
281,198,236578,1,0,0:0:0:0:
281,198,236678,1,8,0:0:0:0:
281,198,236779,1,8,0:0:0:0:
251,76,236847,1,0,0:0:0:0:
251,82,236915,1,0,0:0:0:0:
251,82,236984,1,8,0:0:0:0:
251,82,237052,1,0,0:0:0:0:
251,82,237120,1,0,0:0:0:0:
232,133,237189,1,8,0:0:0:0:
244,116,237257,1,8,0:0:0:0:
244,116,237325,1,0,0:0:0:0:
244,116,237394,1,8,0:0:0:0:
244,116,237463,1,8,0:0:0:0:
244,116,237532,1,8,0:0:0:0:
244,116,237602,1,0,0:0:0:0:
217,89,237671,1,0,0:0:0:0:
217,89,237741,1,0,0:0:0:0:
217,89,237810,1,8,0:0:0:0:
214,27,237879,1,8,0:0:0:0:
226,224,237949,1,8,0:0:0:0:
246,62,238019,1,0,0:0:0:0:
124,89,238127,1,8,0:0:0:0:
91,129,238236,1,0,0:0:0:0:
91,129,238344,1,0,0:0:0:0:
124,89,238453,1,8,0:0:0:0:
119,86,238561,1,8,0:0:0:0:
119,86,238670,1,0,0:0:0:0:
116,92,238775,1,8,0:0:0:0:
116,92,238881,1,0,0:0:0:0:
116,92,238987,1,0,0:0:0:0:
124,89,239093,1,8,0:0:0:0:
116,81,239198,1,8,0:0:0:0:
116,81,239305,1,8,0:0:0:0:
244,112,239409,1,8,0:0:0:0:
137,71,239514,1,0,0:0:0:0:
124,47,239619,1,8,0:0:0:0:
124,47,239724,1,0,0:0:0:0:
124,47,239828,1,0,0:0:0:0:
124,47,239933,1,8,0:0:0:0:
127,57,240037,1,8,0:0:0:0:
127,57,240141,1,0,0:0:0:0:
127,57,240245,1,0,0:0:0:0:
151,19,240349,1,0,0:0:0:0:
136,39,240453,1,0,0:0:0:0:
151,24,240558,1,8,0:0:0:0:
136,39,240665,1,8,0:0:0:0:
231,135,240773,1,0,0:0:0:0:
194,97,240881,1,8,0:0:0:0:
194,97,240989,1,8,0:0:0:0:
194,97,241097,1,0,0:0:0:0:
197,74,241206,1,0,0:0:0:0:
194,97,241312,1,8,0:0:0:0:
197,72,241418,1,0,0:0:0:0:
258,74,241524,1,8,0:0:0:0:
323,124,241630,1,0,0:0:0:0:
323,124,241736,1,0,0:0:0:0:
298,109,241842,1,8,0:0:0:0:
298,109,241945,1,8,0:0:0:0:
290,107,242048,1,0,0:0:0:0:
290,107,242152,1,0,0:0:0:0:
290,107,242255,1,0,0:0:0:0:
251,62,242462,1,8,0:0:0:0:
243,66,242567,1,0,0:0:0:0:
243,66,242672,1,8,0:0:0:0:
241,72,242778,1,8,0:0:0:0:
181,94,242883,1,0,0:0:0:0:
213,131,242989,1,8,0:0:0:0:
181,94,243095,1,0,0:0:0:0:
234,132,243234,1,8,0:0:0:0:
234,132,243374,1,0,0:0:0:0:
234,132,243514,1,8,0:0:0:0:
201,102,243583,1,8,0:0:0:0:
201,102,243653,1,0,0:0:0:0:
201,102,243723,1,0,0:0:0:0:
254,98,243828,1,8,0:0:0:0:
226,147,243933,1,8,0:0:0:0:
226,147,244004,1,0,0:0:0:0:
226,147,244074,1,0,0:0:0:0:
226,147,244144,1,8,0:0:0:0:
401,135,244250,1,8,0:0:0:0:
302,133,244356,1,0,0:0:0:0:
314,163,244464,1,8,0:0:0:0:
314,163,244573,1,0,0:0:0:0:
314,163,244682,1,0,0:0:0:0:
314,163,244791,1,8,0:0:0:0:
209,114,244864,1,8,0:0:0:0:
164,138,244936,1,8,0:0:0:0:
209,114,245009,1,8,0:0:0:0:
209,114,245079,1,0,0:0:0:0:
209,114,245149,1,0,0:0:0:0:
209,114,245220,1,8,0:0:0:0:
250,161,245290,1,0,0:0:0:0:
250,161,245361,1,8,0:0:0:0:
250,161,245431,1,8,0:0:0:0:
250,161,245537,1,0,0:0:0:0:
250,161,245644,1,8,0:0:0:0:
243,173,245715,1,8,0:0:0:0:
243,173,245786,1,0,0:0:0:0:
243,173,245858,1,8,0:0:0:0:
243,173,245929,1,8,0:0:0:0:
243,173,246000,1,0,0:0:0:0:
243,173,246072,1,8,0:0:0:0:
213,153,246143,1,0,0:0:0:0:
213,153,246214,1,0,0:0:0:0:
213,153,246286,1,8,0:0:0:0:
213,153,246354,1,8,0:0:0:0:
213,153,246422,1,0,0:0:0:0:
213,153,246490,1,8,0:0:0:0:
260,79,246592,1,8,0:0:0:0:
260,79,246694,1,0,0:0:0:0:
260,79,246797,1,0,0:0:0:0:
440,99,246924,1,8,0:0:0:0:
259,187,246996,1,8,0:0:0:0:
241,158,247069,1,0,0:0:0:0:
236,158,247142,1,0,0:0:0:0:
274,103,247251,1,0,0:0:0:0:
236,158,247360,1,8,0:0:0:0:
226,162,247579,1,8,0:0:0:0:
288,62,247689,1,8,0:0:0:0:
247,149,247800,1,0,0:0:0:0:
242,153,247911,1,0,0:0:0:0:
242,153,248022,1,0,0:0:0:0:
259,107,248133,1,0,0:0:0:0:
297,107,248245,1,8,0:0:0:0:
297,107,248316,1,8,0:0:0:0:
271,101,248388,1,0,0:0:0:0:
297,107,248460,1,8,0:0:0:0:
381,91,248567,1,0,0:0:0:0:
381,91,248675,1,0,0:0:0:0:
271,193,248783,1,0,0:0:0:0:
272,181,248891,1,8,0:0:0:0:
436,181,249000,1,0,0:0:0:0:
321,203,249109,1,8,0:0:0:0:
321,203,249182,1,0,0:0:0:0:
321,203,249255,1,0,0:0:0:0:
321,203,249328,1,8,0:0:0:0:
289,164,249437,1,0,0:0:0:0:
255,66,249546,1,8,0:0:0:0:
264,239,249654,1,8,0:0:0:0:
254,222,249762,1,0,0:0:0:0:
264,239,249870,1,8,0:0:0:0:
236,164,249979,1,0,0:0:0:0:
236,164,250087,1,0,0:0:0:0:
232,159,250196,1,8,0:0:0:0:
167,84,250304,1,0,0:0:0:0:
167,84,250413,1,0,0:0:0:0:
217,131,250522,1,8,0:0:0:0:
171,153,250631,1,0,0:0:0:0:
171,153,250740,1,0,0:0:0:0:
197,148,250850,1,8,0:0:0:0:
171,153,250957,1,0,0:0:0:0:
171,153,251065,1,0,0:0:0:0:
217,131,251172,1,8,0:0:0:0:
217,131,251280,1,8,0:0:0:0:
192,153,251388,1,0,0:0:0:0:
192,153,251495,1,8,0:0:0:0:
192,153,251598,1,0,0:0:0:0:
207,102,251702,1,8,0:0:0:0:
207,102,251806,1,8,0:0:0:0:
192,153,251910,1,0,0:0:0:0:
192,153,252013,1,0,0:0:0:0:
192,153,252118,1,8,0:0:0:0:
211,27,252225,1,0,0:0:0:0:
211,27,252333,1,0,0:0:0:0:
222,109,252440,1,8,0:0:0:0:
221,109,252548,1,8,0:0:0:0:
227,114,252656,1,8,0:0:0:0:
250,27,252764,1,8,0:0:0:0:
206,84,252868,1,0,0:0:0:0:
206,84,252972,1,0,0:0:0:0:
211,27,253077,1,8,0:0:0:0:
206,84,253181,1,0,0:0:0:0:
234,143,253391,1,12,0:0:0:0:
291,206,253611,1,0,0:0:0:0:
291,206,253758,1,8,0:0:0:0:
291,206,253832,1,0,0:0:0:0:
386,134,253979,1,0,0:0:0:0:
336,119,254052,1,8,0:0:0:0:
225,151,254277,1,0,0:0:0:0:
259,227,254503,1,8,0:0:0:0:
259,227,254578,1,0,0:0:0:0:
259,227,254653,1,0,0:0:0:0:
210,173,254729,1,8,0:0:0:0:
208,183,254952,1,8,0:0:0:0:
218,54,255175,1,8,0:0:0:0:
384,163,255249,1,0,0:0:0:0:
384,163,255323,1,0,0:0:0:0:
208,183,255398,1,8,0:0:0:0:
208,183,255614,1,0,0:0:0:0:
208,183,255831,1,0,0:0:0:0:
196,164,256048,1,8,0:0:0:0:
196,164,256269,1,8,0:0:0:0:
196,164,256491,1,0,0:0:0:0:
196,164,256713,1,8,0:0:0:0:
196,164,256935,1,8,0:0:0:0:
196,164,257157,1,0,0:0:0:0:
196,164,257380,1,8,0:0:0:0:
188,124,257598,1,0,0:0:0:0:
188,124,257817,1,0,0:0:0:0:
190,109,258036,1,8,0:0:0:0:
297,129,258259,1,8,0:0:0:0:
181,127,258483,1,0,0:0:0:0:
181,127,258707,1,8,0:0:0:0:
181,127,258919,1,8,0:0:0:0:
181,127,259132,1,0,0:0:0:0:
181,127,259369,1,8,0:0:0:0:
181,127,259581,1,0,0:0:0:0:
215,134,259794,1,0,0:0:0:0:
218,153,260034,1,8,0:0:0:0:
178,89,260240,1,0,0:0:0:0:
178,89,260447,1,0,0:0:0:0:
143,116,260686,1,8,0:0:0:0:
178,89,260900,1,0,0:0:0:0:
165,129,261114,1,0,0:0:0:0:
143,116,261345,1,8,0:0:0:0:
165,129,261557,1,0,0:0:0:0:
165,129,261770,1,0,0:0:0:0:
143,116,261997,1,8,0:0:0:0:
165,129,262212,1,0,0:0:0:0:
165,129,262428,1,0,0:0:0:0:
143,116,262666,1,8,0:0:0:0:
165,129,262881,1,0,0:0:0:0:
165,129,263097,1,0,0:0:0:0:
143,116,263314,1,8,0:0:0:0:
165,124,263528,1,8,0:0:0:0:
165,129,263742,1,0,0:0:0:0:
232,184,263969,1,0,0:0:0:0:
232,189,264112,1,8,0:0:0:0:
232,189,264291,1,0,0:0:0:0:
232,189,264398,1,8,0:0:0:0:
132,127,264753,1,8,0:0:0:0:
132,127,264954,1,0,0:0:0:0:
132,127,265033,1,8,0:0:0:0:
194,217,265387,1,8,0:0:0:0:
187,217,265592,1,0,0:0:0:0:
187,217,265673,1,8,0:0:0:0:
187,217,265888,1,8,0:0:0:0:
187,217,266102,1,8,0:0:0:0:
187,217,266316,1,0,0:0:0:0:
227,191,266675,1,8,0:0:0:0:
227,191,266857,1,0,0:0:0:0:
227,191,266966,1,8,0:0:0:0:
212,169,267076,1,8,0:0:0:0:
212,169,267325,1,8,0:0:0:0:
212,169,267501,1,0,0:0:0:0:
212,169,267606,1,8,0:0:0:0:
212,169,267712,1,8,0:0:0:0:
194,156,267958,1,8,0:0:0:0:
194,156,268135,1,0,0:0:0:0:
194,156,268242,1,8,0:0:0:0:
194,156,268348,1,0,0:0:0:0:
194,156,268455,1,8,0:0:0:0:
192,158,268670,1,8,0:0:0:0:
194,156,268885,1,0,0:0:0:0:
217,148,269101,1,0,0:0:0:0:
217,148,269242,1,8,0:0:0:0:
217,148,269419,1,0,0:0:0:0:
217,148,269525,1,8,0:0:0:0:
217,148,269631,1,0,0:0:0:0:
217,148,269738,1,0,0:0:0:0:
217,148,269883,1,8,0:0:0:0:
229,178,270064,1,0,0:0:0:0:
229,178,270173,1,8,0:0:0:0:
229,178,270391,1,0,0:0:0:0:
229,178,270495,1,8,0:0:0:0:
229,178,270599,1,0,0:0:0:0:
229,178,270703,1,0,0:0:0:0:
229,178,270807,1,8,0:0:0:0:
229,178,271016,1,8,0:0:0:0:
229,178,271237,1,8,0:0:0:0:
229,178,271459,1,0,0:0:0:0:
226,244,271681,1,0,0:0:0:0:
226,244,271790,1,8,0:0:0:0:
226,244,271899,1,0,0:0:0:0:
226,244,272009,1,0,0:0:0:0:
226,244,272118,1,8,0:0:0:0:
226,244,272228,1,0,0:0:0:0:
226,244,272444,1,8,0:0:0:0:
226,244,272551,1,0,0:0:0:0:
226,244,272658,1,0,0:0:0:0:
226,244,272765,1,8,0:0:0:0:
226,244,272979,1,0,0:0:0:0:
226,244,273083,1,8,0:0:0:0:
149,204,273188,1,8,0:0:0:0:
149,204,273293,1,0,0:0:0:0:
149,204,273397,1,8,0:0:0:0:
149,204,273607,1,8,0:0:0:0:
144,211,273824,1,8,0:0:0:0:
142,213,274042,1,0,0:0:0:0:
252,217,274260,1,0,0:0:0:0:
239,219,274367,1,8,0:0:0:0:
227,222,274474,1,0,0:0:0:0:
227,222,274581,1,0,0:0:0:0:
227,222,274688,1,8,0:0:0:0:
227,222,274902,1,8,0:0:0:0:
227,222,275011,1,8,0:0:0:0:
227,222,275120,1,0,0:0:0:0:
227,222,275230,1,0,0:0:0:0:
227,222,275339,1,8,0:0:0:0:
227,222,275558,1,8,0:0:0:0:
227,222,275664,1,8,0:0:0:0:
227,222,275771,1,8,0:0:0:0:
227,222,275878,1,0,0:0:0:0:
227,222,275984,1,8,0:0:0:0:
219,199,276198,1,8,0:0:0:0:
282,136,276271,1,0,0:0:0:0:
219,199,276344,1,0,0:0:0:0:
282,136,276417,1,8,0:0:0:0:
282,136,276636,1,0,0:0:0:0:
212,189,276856,1,0,0:0:0:0:
212,189,276962,1,8,0:0:0:0:
212,189,277068,1,0,0:0:0:0:
212,189,277174,1,0,0:0:0:0:
212,189,277280,1,8,0:0:0:0:
212,189,277492,1,8,0:0:0:0:
212,189,277598,1,8,0:0:0:0:
212,189,277704,1,0,0:0:0:0:
212,189,277811,1,0,0:0:0:0:
212,189,277917,1,8,0:0:0:0:
212,194,278130,1,8,0:0:0:0:
212,194,278239,1,8,0:0:0:0:
212,194,278349,1,8,0:0:0:0:
212,194,278459,1,0,0:0:0:0:
216,198,278569,1,8,0:0:0:0:
212,189,278789,1,8,0:0:0:0:
209,186,279010,1,8,0:0:0:0:
209,186,279232,1,0,0:0:0:0:
209,186,279454,1,0,0:0:0:0:
209,186,279557,1,0,0:0:0:0:
212,189,279661,1,8,0:0:0:0:
242,188,279765,1,0,0:0:0:0:
242,188,279869,1,0,0:0:0:0:
242,188,279972,1,8,0:0:0:0:
234,184,280077,1,0,0:0:0:0:
234,184,280181,1,0,0:0:0:0:
234,184,280286,1,0,0:0:0:0:
234,184,280391,1,0,0:0:0:0:
234,184,280495,1,8,0:0:0:0:
231,184,280600,1,0,0:0:0:0:
286,184,280705,1,8,0:0:0:0:
286,184,280776,1,8,0:0:0:0:
286,184,280848,1,8,0:0:0:0:
286,184,280919,1,0,0:0:0:0:
237,146,281027,1,0,0:0:0:0:
234,151,281134,1,8,0:0:0:0:
234,151,281241,1,0,0:0:0:0:
234,151,281349,1,8,0:0:0:0:
234,151,281457,1,8,0:0:0:0:
234,151,281566,1,0,0:0:0:0:
234,151,281675,1,8,0:0:0:0:
251,131,282843,1,8,0:0:0:0:
264,127,282949,1,0,0:0:0:0:
251,131,283056,1,8,0:0:0:0:
264,127,283163,1,0,0:0:0:0:
251,131,283269,1,8,0:0:0:0:
251,131,283376,1,8,0:0:0:0:
251,131,283483,1,0,0:0:0:0:
251,131,283585,1,0,0:0:0:0:
274,79,283688,1,0,0:0:0:0:
274,79,283791,1,0,0:0:0:0:
224,124,283894,1,8,0:0:0:0:
396,176,283996,1,0,0:0:0:0:
402,91,284100,1,8,0:0:0:0:
364,106,284172,1,8,0:0:0:0:
364,106,284244,1,8,0:0:0:0:
364,106,284317,1,0,0:0:0:0:
322,156,284425,1,0,0:0:0:0:
322,156,284534,1,8,0:0:0:0:
322,156,284642,1,0,0:0:0:0:
322,156,284751,1,8,0:0:0:0:
322,156,284855,1,8,0:0:0:0:
322,156,284960,1,0,0:0:0:0:
322,156,285065,1,8,0:0:0:0:
302,126,285302,1,8,0:0:0:0:
302,126,285420,1,8,0:0:0:0:
302,126,285630,1,0,0:0:0:0:
302,126,285736,1,8,0:0:0:0:
281,114,285947,1,8,0:0:0:0:
281,114,286053,1,0,0:0:0:0:
252,206,286312,1,0,0:0:0:0:
190,191,286419,1,0,0:0:0:0:
190,191,286527,1,8,0:0:0:0:
190,191,286635,1,0,0:0:0:0:
190,191,286743,1,8,0:0:0:0:
230,84,286955,1,8,0:0:0:0:
190,191,287062,1,8,0:0:0:0:
185,201,287274,1,0,0:0:0:0:
236,87,287381,1,8,0:0:0:0:
185,191,287598,1,0,0:0:0:0:
185,191,287707,1,0,0:0:0:0:
190,191,287925,1,0,0:0:0:0:
190,191,288035,1,8,0:0:0:0:
183,178,288248,1,8,0:0:0:0:
178,189,288355,1,8,0:0:0:0:
175,191,288568,1,8,0:0:0:0:
175,191,288675,1,0,0:0:0:0:
175,191,288896,1,8,0:0:0:0:
205,159,289117,1,0,0:0:0:0:
171,196,289339,1,0,0:0:0:0:
190,189,289532,1,8,0:0:0:0:
211,176,289770,1,0,0:0:0:0:
211,174,289874,1,0,0:0:0:0:
211,174,289979,1,8,0:0:0:0:
213,146,290083,1,0,0:0:0:0:
213,146,290188,1,0,0:0:0:0:
211,176,290292,1,8,0:0:0:0:
221,127,290397,1,0,0:0:0:0:
221,127,290498,1,0,0:0:0:0:
221,127,290600,1,0,0:0:0:0:
221,127,290701,1,0,0:0:0:0:
221,112,290803,1,8,0:0:0:0:
240,168,290904,1,0,0:0:0:0:
495,129,291007,1,8,0:0:0:0:
400,158,291078,1,8,0:0:0:0:
400,158,291150,1,8,0:0:0:0:
400,158,291222,1,0,0:0:0:0:
240,168,291330,1,0,0:0:0:0:
240,163,291438,1,8,0:0:0:0:
240,163,291545,1,0,0:0:0:0:
240,163,291654,1,8,0:0:0:0:
240,163,291760,1,8,0:0:0:0:
240,163,291866,1,0,0:0:0:0:
240,163,291989,1,8,0:0:0:0:
225,131,293181,1,0,0:0:0:0:
225,131,293282,1,8,0:0:0:0:
225,131,293383,1,8,0:0:0:0:
225,131,293483,1,0,0:0:0:0:
225,131,293584,1,8,0:0:0:0:
225,131,293685,1,8,0:0:0:0:
238,122,294876,1,0,0:0:0:0:
238,122,294981,1,8,0:0:0:0:
238,122,295087,1,8,0:0:0:0:
238,122,295192,1,0,0:0:0:0:
238,122,295298,1,8,0:0:0:0:
238,122,295404,1,0,0:0:0:0:
215,121,296812,1,8,0:0:0:0:
215,121,296916,1,0,0:0:0:0:
215,121,297021,1,8,0:0:0:0:
215,121,297127,1,8,0:0:0:0:
226,136,297349,1,8,0:0:0:0:
245,138,297461,1,8,0:0:0:0:
226,136,297684,1,0,0:0:0:0:
226,136,297796,1,8,0:0:0:0:
226,136,297992,1,0,0:0:0:0:
226,136,298091,1,0,0:0:0:0:
202,214,298548,1,0,0:0:0:0:
202,214,298652,1,0,0:0:0:0:
202,214,298756,1,8,0:0:0:0:
202,214,298861,1,8,0:0:0:0:
192,184,299079,1,8,0:0:0:0:
192,184,299188,1,8,0:0:0:0:
192,184,299406,1,0,0:0:0:0:
192,184,299515,1,8,0:0:0:0:
192,184,299720,1,0,0:0:0:0:
192,184,299823,1,8,0:0:0:0:
277,219,299935,1,0,0:0:0:0:
277,219,300048,1,0,0:0:0:0:
261,84,300151,1,0,0:0:0:0:
269,82,300255,1,8,0:0:0:0:
334,131,300367,5,8,0:0:0:0:
334,131,300480,1,0,0:0:0:0:
174,163,300691,1,0,0:0:0:0:
174,163,300797,1,8,0:0:0:0:
174,163,301008,1,0,0:0:0:0:
174,163,301114,1,8,0:0:0:0:
177,158,301344,1,0,0:0:0:0:
177,158,301460,1,0,0:0:0:0:
176,158,301690,1,0,0:0:0:0:
176,158,301777,1,0,0:0:0:0:
181,156,302029,1,0,0:0:0:0:
181,156,302101,1,8,0:0:0:0:
177,158,302318,1,8,0:0:0:0:
177,158,302426,1,0,0:0:0:0:
163,184,302647,1,8,0:0:0:0:
173,158,302869,1,0,0:0:0:0:
173,158,303091,1,0,0:0:0:0:
177,158,303326,1,0,0:0:0:0:
186,168,303534,1,0,0:0:0:0:
186,168,303641,1,0,0:0:0:0:
186,168,303748,1,8,0:0:0:0:
186,168,303856,1,0,0:0:0:0:
186,168,303963,1,8,0:0:0:0:
198,173,304190,1,0,0:0:0:0:
198,173,304303,1,8,0:0:0:0:
193,141,304531,1,8,0:0:0:0:
193,141,304612,1,0,0:0:0:0:
176,163,304837,1,0,0:0:0:0:
176,163,304950,1,0,0:0:0:0:
176,163,305175,1,0,0:0:0:0:
176,163,305288,1,0,0:0:0:0:
173,134,305517,1,0,0:0:0:0:
176,109,305631,1,8,0:0:0:0:
175,138,305815,1,0,0:0:0:0:
175,138,305907,1,0,0:0:0:0:
158,111,306134,1,8,0:0:0:0:
158,111,306362,1,0,0:0:0:0:
158,111,306590,1,0,0:0:0:0:
158,111,306806,1,0,0:0:0:0:
158,111,307022,1,0,0:0:0:0:
171,131,307130,1,0,0:0:0:0:
170,133,307238,1,8,0:0:0:0:
168,136,307346,1,0,0:0:0:0:
168,136,307459,1,8,0:0:0:0:
215,134,307665,1,8,0:0:0:0:
220,133,307768,1,8,0:0:0:0:
248,119,307974,1,0,0:0:0:0:
243,126,308077,1,8,0:0:0:0:
236,89,308295,1,0,0:0:0:0:
236,89,308404,1,0,0:0:0:0:
238,96,308623,1,0,0:0:0:0:
238,96,308733,1,0,0:0:0:0:
233,99,308945,1,0,0:0:0:0:
233,99,309051,1,8,0:0:0:0:
221,181,309263,1,8,0:0:0:0:
230,97,309370,1,0,0:0:0:0:
276,133,309586,1,8,0:0:0:0:
276,133,309803,1,8,0:0:0:0:
276,133,310021,1,0,0:0:0:0:
239,119,310238,1,8,0:0:0:0:
221,119,310464,1,0,0:0:0:0:
146,143,310566,1,0,0:0:0:0:
146,143,310669,1,8,0:0:0:0:
146,143,310772,1,0,0:0:0:0:
146,143,310875,1,8,0:0:0:0:
191,84,310978,1,8,0:0:0:0:
146,143,311082,1,0,0:0:0:0:
171,188,311188,1,0,0:0:0:0:
219,138,311295,1,0,0:0:0:0:
217,154,311402,1,0,0:0:0:0:
187,181,311509,1,8,0:0:0:0:
196,159,311615,1,0,0:0:0:0:
181,127,311722,1,8,0:0:0:0:
214,139,311790,1,8,0:0:0:0:
199,149,311858,1,8,0:0:0:0:
204,139,311927,1,0,0:0:0:0:
201,136,312029,1,0,0:0:0:0:
201,136,312132,1,8,0:0:0:0:
162,129,312234,1,0,0:0:0:0:
209,141,312337,1,8,0:0:0:0:
207,139,312442,1,8,0:0:0:0:
191,106,312547,1,0,0:0:0:0:
174,141,312653,1,8,0:0:0:0:
197,189,313852,1,0,0:0:0:0:
199,144,313957,1,8,0:0:0:0:
199,144,314063,1,8,0:0:0:0:
219,194,314173,1,0,0:0:0:0:
216,196,314283,1,8,0:0:0:0:
216,196,314393,1,8,0:0:0:0:
244,201,315594,1,0,0:0:0:0:
244,201,315702,1,8,0:0:0:0:
244,201,315810,1,8,0:0:0:0:
244,201,315911,1,0,0:0:0:0:
244,201,316013,1,8,0:0:0:0:
244,201,316115,1,0,0:0:0:0:
244,201,317497,1,8,0:0:0:0:
244,201,317597,1,0,0:0:0:0:
244,201,317697,1,8,0:0:0:0:
244,201,317799,1,8,0:0:0:0:
244,201,318028,1,0,0:0:0:0:
244,201,318143,1,8,0:0:0:0:
159,159,318372,1,8,0:0:0:0:
159,159,318487,1,0,0:0:0:0:
166,156,318671,1,0,0:0:0:0:
166,156,318764,1,8,0:0:0:0:
96,203,319226,1,0,0:0:0:0:
96,203,319333,1,0,0:0:0:0:
96,203,319441,1,8,0:0:0:0:
96,203,319550,1,8,0:0:0:0:
119,161,319774,1,0,0:0:0:0:
119,161,319887,1,8,0:0:0:0:
119,161,320112,1,8,0:0:0:0:
119,161,320224,1,0,0:0:0:0:
119,161,320417,1,0,0:0:0:0:
119,161,320519,1,8,0:0:0:0:
216,156,320622,1,0,0:0:0:0:
216,156,320725,1,8,0:0:0:0:
226,171,320796,1,8,0:0:0:0:
226,171,320867,1,8,0:0:0:0:
226,171,320939,1,8,0:0:0:0:
226,171,321010,1,8,0:0:0:0:
198,56,321081,1,0,0:0:0:0:
254,86,321179,1,8,0:0:0:0:
61,169,321298,1,8,0:0:0:0:
254,86,321417,1,0,0:0:0:0:
254,86,321523,1,8,0:0:0:0:
167,154,321613,1,0,0:0:0:0:
289,114,321721,1,8,0:0:0:0:
289,114,321829,1,8,0:0:0:0:
234,136,321937,1,8,0:0:0:0:
289,114,322037,1,0,0:0:0:0:
289,114,322138,1,8,0:0:0:0:
261,104,322239,1,0,0:0:0:0:
239,188,322335,1,0,0:0:0:0:
284,136,322424,1,8,0:0:0:0:
277,139,322492,1,8,0:0:0:0:
276,139,322561,1,8,0:0:0:0:
276,139,322630,1,0,0:0:0:0:
251,71,322699,1,8,0:0:0:0:
276,139,322769,1,0,0:0:0:0:
77,188,322870,1,8,0:0:0:0:
217,64,322971,1,8,0:0:0:0:
217,64,323073,1,0,0:0:0:0:
66,173,323174,1,8,0:0:0:0:
179,191,323275,1,0,0:0:0:0:
66,173,323377,1,8,0:0:0:0:
217,64,323477,1,8,0:0:0:0:
222,121,323685,1,8,0:0:0:0:
212,99,324133,1,8,0:0:0:0:
219,149,324240,1,0,0:0:0:0:
219,149,324455,1,8,0:0:0:0:
219,149,324670,1,0,0:0:0:0:
219,149,324778,1,8,0:0:0:0:
219,149,324885,1,0,0:0:0:0:
219,149,324992,1,8,0:0:0:0:
219,149,325100,1,8,0:0:0:0:
219,149,325207,1,0,0:0:0:0:
204,116,325423,1,0,0:0:0:0:
204,116,325531,1,0,0:0:0:0:
209,104,325749,1,8,0:0:0:0:
211,101,325967,1,0,0:0:0:0:
211,101,326076,1,0,0:0:0:0:
204,116,326180,1,8,0:0:0:0:
204,116,326284,1,8,0:0:0:0:
227,92,326389,1,0,0:0:0:0:
206,96,326493,1,0,0:0:0:0:
209,89,326703,1,8,0:0:0:0:
209,89,326806,1,0,0:0:0:0:
194,91,327014,1,8,0:0:0:0:
161,61,327221,1,0,0:0:0:0:
161,61,327326,1,0,0:0:0:0:
171,94,327428,1,8,0:0:0:0:
171,94,327530,1,8,0:0:0:0:
171,94,327632,1,8,0:0:0:0:
147,79,327734,1,0,0:0:0:0:
167,69,327952,1,8,0:0:0:0:
161,41,328056,1,0,0:0:0:0:
161,41,328161,1,0,0:0:0:0:
161,41,328266,1,8,0:0:0:0:
167,69,328371,1,8,0:0:0:0:
161,41,328475,1,0,0:0:0:0:
167,69,328581,1,8,0:0:0:0:
146,71,328690,1,0,0:0:0:0:
161,41,328800,1,0,0:0:0:0:
146,62,328909,1,8,0:0:0:0:
172,49,329019,1,8,0:0:0:0:
211,178,329238,1,8,0:0:0:0:
207,141,329342,1,0,0:0:0:0:
211,178,329552,1,8,0:0:0:0:
172,127,329761,1,0,0:0:0:0:
177,134,329866,1,0,0:0:0:0:
204,178,329966,1,8,0:0:0:0:
204,179,330066,1,8,0:0:0:0:
172,127,330166,1,0,0:0:0:0:
211,171,330266,1,8,0:0:0:0:
182,117,330468,1,0,0:0:0:0:
191,131,330574,1,0,0:0:0:0:
189,102,330788,1,8,0:0:0:0:
169,96,331001,1,8,0:0:0:0:
161,64,331108,1,0,0:0:0:0:
161,64,331208,1,0,0:0:0:0:
169,71,331308,1,8,0:0:0:0:
169,71,331408,1,8,0:0:0:0:
149,69,331508,1,0,0:0:0:0:
166,64,331722,1,8,0:0:0:0:
172,161,331826,1,0,0:0:0:0:
166,64,332035,1,8,0:0:0:0:
172,139,332244,1,0,0:0:0:0:
161,122,332349,1,0,0:0:0:0:
166,64,332450,1,8,0:0:0:0:
166,64,332551,1,8,0:0:0:0:
161,122,332653,1,8,0:0:0:0:
162,112,332754,1,0,0:0:0:0:
166,64,332864,1,0,0:0:0:0:
174,92,332975,1,0,0:0:0:0:
171,66,333081,1,8,0:0:0:0:
174,92,333187,1,0,0:0:0:0:
171,66,333294,1,8,0:0:0:0:
166,64,333400,1,8,0:0:0:0:
174,92,333506,1,0,0:0:0:0:
174,92,333613,1,0,0:0:0:0:
166,64,333720,1,8,0:0:0:0:
176,84,333828,1,0,0:0:0:0:
171,66,333935,1,8,0:0:0:0:
182,76,334043,1,8,0:0:0:0:
186,89,334259,1,8,0:0:0:0:
171,79,334365,1,8,0:0:0:0:
171,79,334579,1,8,0:0:0:0:
156,91,334792,1,0,0:0:0:0:
156,91,334899,1,0,0:0:0:0:
372,114,335003,1,8,0:0:0:0:
254,82,335072,1,0,0:0:0:0:
372,114,335211,1,8,0:0:0:0:
254,82,335280,1,0,0:0:0:0:
247,64,335524,1,8,0:0:0:0:
247,64,335626,1,0,0:0:0:0:
247,64,335832,1,0,0:0:0:0:
247,64,336037,1,0,0:0:0:0:
247,64,336140,1,8,0:0:0:0:
299,56,336246,1,0,0:0:0:0:
461,41,336317,1,8,0:0:0:0:
299,56,336459,1,0,0:0:0:0:
461,41,336529,1,8,0:0:0:0:
256,127,336779,1,8,0:0:0:0:
266,144,336884,1,8,0:0:0:0:
281,143,337129,1,8,0:0:0:0:
367,81,337304,1,0,0:0:0:0:
321,99,337409,1,0,0:0:0:0:
246,97,337514,1,8,0:0:0:0:
246,97,337620,1,8,0:0:0:0:
327,99,337726,1,8,0:0:0:0:
246,97,337796,1,0,0:0:0:0:
267,134,338043,1,0,0:0:0:0:
267,134,338147,1,8,0:0:0:0:
267,134,338252,1,8,0:0:0:0:
267,134,338357,1,0,0:0:0:0:
267,134,338462,1,0,0:0:0:0:
267,134,338567,1,8,0:0:0:0:
267,134,338672,1,0,0:0:0:0:
267,134,338775,1,0,0:0:0:0:
267,134,338878,1,8,0:0:0:0:
267,134,338982,1,8,0:0:0:0:
267,134,339085,1,0,0:0:0:0:
267,134,339196,1,8,0:0:0:0:
267,134,339308,1,8,0:0:0:0:
264,84,339414,1,8,0:0:0:0:
264,84,339663,1,8,0:0:0:0:
471,47,339841,1,0,0:0:0:0:
264,84,339948,1,8,0:0:0:0:
291,97,340056,1,0,0:0:0:0:
291,97,340138,1,8,0:0:0:0:
291,97,340273,1,8,0:0:0:0:
291,97,340355,1,0,0:0:0:0:
219,106,340599,1,8,0:0:0:0:
219,106,340702,1,0,0:0:0:0:
234,69,340909,1,0,0:0:0:0:
256,64,341116,1,0,0:0:0:0:
256,64,341219,1,8,0:0:0:0:
256,64,341319,1,8,0:0:0:0:
256,64,341420,1,0,0:0:0:0:
256,64,341521,1,8,0:0:0:0:
256,64,341622,1,0,0:0:0:0:
249,54,341844,1,8,0:0:0:0:
249,54,341944,1,8,0:0:0:0:
246,61,342145,1,8,0:0:0:0:
246,61,342346,1,0,0:0:0:0:
246,61,342448,1,8,0:0:0:0:
246,61,342553,1,8,0:0:0:0:
246,61,342658,1,8,0:0:0:0:
246,61,342764,1,0,0:0:0:0:
246,61,342869,1,8,0:0:0:0:
246,107,343080,1,0,0:0:0:0:
260,79,343193,1,8,0:0:0:0:
246,107,343307,1,8,0:0:0:0:
246,107,343421,1,0,0:0:0:0:
243,87,343535,1,8,0:0:0:0:
246,107,343649,1,8,0:0:0:0:
246,107,343762,1,0,0:0:0:0:
243,87,343874,1,8,0:0:0:0:
243,87,343987,1,8,0:0:0:0:
246,107,344100,1,0,0:0:0:0:
243,87,344213,1,8,0:0:0:0:
246,107,344326,1,8,0:0:0:0:
246,107,344438,1,0,0:0:0:0:
243,87,344554,1,8,0:0:0:0:
246,107,344670,1,8,0:0:0:0:
246,107,344787,1,0,0:0:0:0:
243,87,344903,1,8,0:0:0:0:
246,107,345019,1,8,0:0:0:0:
246,107,345136,1,0,0:0:0:0:
243,87,345246,1,8,0:0:0:0:
246,107,345357,1,8,0:0:0:0:
246,107,345468,1,0,0:0:0:0:
243,87,345579,1,8,0:0:0:0:
246,107,345690,1,8,0:0:0:0:
246,107,345801,1,0,0:0:0:0:
243,87,345912,1,8,0:0:0:0:
246,107,346024,1,8,0:0:0:0:
246,107,346135,1,0,0:0:0:0:
243,87,346247,1,8,0:0:0:0:
246,107,346358,1,8,0:0:0:0:
187,133,346470,1,0,0:0:0:0:
243,87,346585,1,8,0:0:0:0:
187,133,346700,1,8,0:0:0:0:
187,133,346816,1,0,0:0:0:0:
243,87,346931,1,8,0:0:0:0:
187,133,347047,1,8,0:0:0:0:
187,133,347162,1,0,0:0:0:0:
243,87,347273,1,8,0:0:0:0:
187,133,347384,1,8,0:0:0:0:
187,133,347495,1,0,0:0:0:0:
176,52,347606,1,0,0:0:0:0:
253,36,347718,1,8,0:0:0:0:
246,107,347829,1,8,0:0:0:0:
246,107,347954,1,8,0:0:0:0:
246,107,348079,1,0,0:0:0:0:
246,107,348199,1,8,0:0:0:0:
246,107,348319,1,8,0:0:0:0:
246,107,348439,1,8,0:0:0:0:
246,107,348581,1,4,0:0:0:0:
192,154,348995,1,0,0:0:0:0:
182,141,349412,1,8,0:0:0:0:
182,141,349604,1,0,0:0:0:0:
182,141,349796,1,0,0:0:0:0:
226,89,350053,1,8,0:0:0:0:
226,89,350182,1,0,0:0:0:0:
226,89,350302,1,8,0:0:0:0:
226,89,350423,1,8,0:0:0:0:
226,89,350544,1,8,0:0:0:0:
226,89,350660,1,0,0:0:0:0:
226,89,350777,1,0,0:0:0:0:
222,82,350948,1,8,0:0:0:0:
192,89,351347,1,8,0:0:0:0:
192,89,351747,1,0,0:0:0:0:
111,136,351866,1,0,0:0:0:0:
111,136,351985,1,0,0:0:0:0:
111,136,352104,1,0,0:0:0:0:
111,136,352223,1,0,0:0:0:0:
111,136,352342,1,0,0:0:0:0:
111,136,352504,1,12,0:0:0:0:
111,136,352910,1,8,0:0:0:0:
111,136,353033,1,0,0:0:0:0:
111,136,353157,1,0,0:0:0:0:
111,136,353282,1,0,0:0:0:0:
111,136,353413,1,0,0:0:0:0:
111,136,353545,1,0,0:0:0:0:
202,117,353676,1,12,0:0:0:0:
142,169,354071,1,8,0:0:0:0:
142,169,354203,1,8,0:0:0:0:
142,169,354335,1,0,0:0:0:0:
121,146,354467,1,0,0:0:0:0:
126,107,354599,1,0,0:0:0:0:
116,144,354732,1,0,0:0:0:0:
126,107,354864,1,12,0:0:0:0:
166,119,355280,1,0,0:0:0:0:
196,116,355664,1,0,0:0:0:0:
196,116,355861,1,8,0:0:0:0:
196,116,356059,1,0,0:0:0:0:
196,116,356243,1,0,0:0:0:0:
196,116,356427,1,8,0:0:0:0:
196,116,356619,1,0,0:0:0:0:
196,116,356811,1,0,0:0:0:0:
196,116,357003,1,0,0:0:0:0:
196,116,357195,1,8,0:0:0:0:
177,84,357589,1,0,0:0:0:0:
112,129,357985,1,0,0:0:0:0:
112,129,358099,1,0,0:0:0:0:
189,163,358214,1,0,0:0:0:0:
189,163,358329,1,0,0:0:0:0:
189,163,358444,1,0,0:0:0:0:
189,163,358559,1,0,0:0:0:0:
201,138,358733,1,12,0:0:0:0:
166,102,359130,1,8,0:0:0:0:
149,109,359255,1,0,0:0:0:0:
152,109,359380,1,0,0:0:0:0:
152,109,359505,1,0,0:0:0:0:
152,109,359630,1,0,0:0:0:0:
152,109,359755,1,0,0:0:0:0:
141,154,359913,1,12,0:0:0:0:
159,99,360304,1,8,0:0:0:0:
161,99,360432,1,8,0:0:0:0:
182,87,360560,1,0,0:0:0:0:
182,87,360688,1,0,0:0:0:0:
182,87,360816,1,0,0:0:0:0:
182,87,360945,1,0,0:0:0:0:
182,89,361113,1,12,0:0:0:0:
182,89,361519,1,0,0:0:0:0:
196,119,361926,1,0,0:0:0:0:
196,119,362108,1,8,0:0:0:0:
196,119,362291,1,0,0:0:0:0:
196,119,362474,1,0,0:0:0:0:
196,119,362679,1,8,0:0:0:0:
196,119,362872,1,0,0:0:0:0:
196,119,363066,1,0,0:0:0:0:
261,176,363259,1,0,0:0:0:0:
196,119,363462,1,8,0:0:0:0:
196,119,363859,1,8,0:0:0:0:
196,119,364257,1,4,0:0:0:0:
192,57,364470,1,8,0:0:0:0:
335,107,364523,1,8,0:0:0:0:
204,81,365110,1,8,0:0:0:0:
335,107,365169,1,8,0:0:0:0:
182,66,365582,1,4,0:0:0:0:
276,87,365854,1,8,0:0:0:0:
335,107,365921,1,8,0:0:0:0:
269,71,366469,1,8,0:0:0:0:
269,71,366885,1,0,0:0:0:0:
259,82,367098,1,8,0:0:0:0:
269,57,367311,1,8,0:0:0:0:
269,57,367524,1,0,0:0:0:0:
269,57,367738,1,8,0:0:0:0:
269,57,368523,1,0,0:0:0:0:
269,57,369357,1,8,0:0:0:0:
211,131,369792,1,8,0:0:0:0:
269,57,370228,1,0,0:0:0:0:
269,57,371103,1,8,0:0:0:0:
219,111,371543,1,0,0:0:0:0:
219,111,371763,1,0,0:0:0:0:
219,111,371983,1,8,0:0:0:0:
164,119,372277,1,8,0:0:0:0:
247,129,372868,1,8,0:0:0:0:
164,119,373287,1,0,0:0:0:0:
164,119,373497,1,8,0:0:0:0:
247,129,373707,1,8,0:0:0:0:
471,106,373775,1,8,0:0:0:0:
471,106,373911,1,0,0:0:0:0:
286,65,373979,1,0,0:0:0:0:
471,106,374115,1,0,0:0:0:0:
471,106,374183,1,0,0:0:0:0:
471,106,374319,1,0,0:0:0:0:
286,65,374370,1,0,0:0:0:0:
299,74,374524,1,8,0:0:0:0:
299,74,374597,1,8,0:0:0:0:
286,126,374743,1,0,0:0:0:0:
286,126,374962,1,8,0:0:0:0:
211,94,375035,1,0,0:0:0:0:
286,126,375400,1,8,0:0:0:0:
234,97,375457,1,8,0:0:0:0:
251,158,375856,1,0,0:0:0:0:
213,74,375913,1,0,0:0:0:0:
286,126,376084,1,0,0:0:0:0:
234,97,376273,1,8,0:0:0:0:
211,82,376327,1,8,0:0:0:0:
286,126,376492,1,8,0:0:0:0:
252,122,376712,1,0,0:0:0:0:
213,74,376767,1,0,0:0:0:0:
286,126,376931,1,8,0:0:0:0:
211,82,377152,1,8,0:0:0:0:
184,36,377206,1,8,0:0:0:0:
286,126,377591,1,0,0:0:0:0:
185,72,377646,1,0,0:0:0:0:
194,47,378030,1,8,0:0:0:0:
259,87,378090,1,8,0:0:0:0:
379,42,379735,1,8,0:0:0:0:
379,42,379803,1,8,0:0:0:0:
374,131,380039,1,0,0:0:0:0:
374,131,380118,1,0,0:0:0:0:
326,124,380329,1,8,0:0:0:0:
326,124,380434,1,0,0:0:0:0:
326,124,380645,1,0,0:0:0:0:
284,82,380727,1,0,0:0:0:0:
307,91,381086,1,0,0:0:0:0:
256,54,381527,1,4,0:0:0:0:
256,54,382396,1,8,0:0:0:0:
271,66,382600,1,0,0:0:0:0:
256,54,382804,1,0,0:0:0:0:
389,79,383077,1,8,0:0:0:0:
256,54,383214,1,8,0:0:0:0:
389,79,383344,1,8,0:0:0:0:
389,79,383475,1,8,0:0:0:0:
389,79,383606,1,0,0:0:0:0:
389,79,383736,1,0,0:0:0:0:
389,79,383867,1,0,0:0:0:0:
389,79,383998,1,8,0:0:0:0:
347,67,384404,1,0,0:0:0:0:
312,96,384811,1,8,0:0:0:0:
317,96,384937,1,8,0:0:0:0:
306,54,385064,1,0,0:0:0:0:
316,92,385190,1,8,0:0:0:0:
306,54,385317,1,0,0:0:0:0:
302,57,385443,1,0,0:0:0:0:
316,92,385600,1,8,0:0:0:0:
282,49,386019,1,8,0:0:0:0:
281,52,386150,1,8,0:0:0:0:
247,39,386282,1,0,0:0:0:0:
282,49,386413,1,8,0:0:0:0:
282,49,386545,1,8,0:0:0:0:
247,39,386676,1,0,0:0:0:0:
282,49,386821,1,8,0:0:0:0:
247,87,387272,1,8,0:0:0:0:
247,87,387395,1,8,0:0:0:0:
247,87,387518,1,8,0:0:0:0:
246,61,387642,1,0,0:0:0:0:
246,61,387765,1,0,0:0:0:0:
246,61,387889,1,0,0:0:0:0:
246,61,388028,1,12,0:0:0:0:
246,61,388434,1,0,0:0:0:0:
246,61,388841,1,0,0:0:0:0:
237,101,389039,1,8,0:0:0:0:
222,91,389238,1,0,0:0:0:0:
222,91,389437,1,0,0:0:0:0:
222,91,389636,1,8,0:0:0:0:
222,91,389828,1,0,0:0:0:0:
222,91,390020,1,0,0:0:0:0:
222,91,390212,1,0,0:0:0:0:
222,91,390405,1,8,0:0:0:0:
222,91,390804,1,0,0:0:0:0:
359,61,391217,1,4,0:0:0:0:
359,61,391431,1,8,0:0:0:0:
191,109,391484,1,8,0:0:0:0:
359,61,392074,1,8,0:0:0:0:
191,109,392130,1,8,0:0:0:0:
342,62,392528,1,4,0:0:0:0:
331,96,392812,1,8,0:0:0:0:
291,84,393396,1,8,0:0:0:0:
191,109,393448,1,8,0:0:0:0:
299,44,393863,1,0,0:0:0:0:
304,51,394023,1,8,0:0:0:0:
216,92,394076,1,8,0:0:0:0:
304,51,394236,1,8,0:0:0:0:
216,92,394290,1,8,0:0:0:0:
299,44,394450,1,0,0:0:0:0:
304,51,394664,1,8,0:0:0:0:
272,62,395084,1,4,0:0:0:0:
281,86,395505,1,0,0:0:0:0:
227,61,395702,1,8,0:0:0:0:
227,61,395899,1,0,0:0:0:0:
227,61,396097,1,0,0:0:0:0:
227,61,396294,1,8,0:0:0:0:
227,61,396496,1,0,0:0:0:0:
227,61,396699,1,0,0:0:0:0:
227,61,396902,1,0,0:0:0:0:
227,61,397107,1,8,0:0:0:0:
227,61,397523,1,0,0:0:0:0:
239,81,397957,1,4,0:0:0:0:
276,74,399441,1,12,0:0:0:0:
284,39,400895,1,12,0:0:0:0:
284,39,402319,1,4,0:0:0:0:
282,39,403748,1,12,0:0:0:0:
282,39,405111,1,12,0:0:0:0:
282,39,406374,1,4,0:0:0:0:
282,39,407490,1,12,0:0:0:0:
282,39,408490,1,12,0:0:0:0:
282,39,409382,1,4,0:0:0:0:
282,39,410155,1,12,0:0:0:0:
282,39,410842,1,12,0:0:0:0:
282,39,411476,1,4,0:0:0:0:
282,39,411995,1,12,0:0:0:0:
282,39,412432,1,12,0:0:0:0:
282,39,412831,1,4,0:0:0:0:
274,39,413187,1,12,0:0:0:0:
274,39,413498,1,12,0:0:0:0:
274,39,413797,1,4,0:0:0:0:
274,39,414056,1,12,0:0:0:0:
239,29,414340,1,12,0:0:0:0:
239,29,414594,1,4,0:0:0:0:
251,12,414830,1,12,0:0:0:0:
322,67,415048,1,12,0:0:0:0:
354,73,415267,1,0,0:0:0:0:
497,83,415488,1,8,0:0:0:0:
491,87,415698,1,8,0:0:0:0:
247,65,415872,1,0,0:0:0:0:
247,65,416050,1,8,0:0:0:0:
266,88,416187,1,8,0:0:0:0:
317,148,416352,1,0,0:0:0:0:
256,102,416420,1,0,0:0:0:0:
256,102,416488,1,8,0:0:0:0:
256,102,416556,1,8,0:0:0:0:
256,102,416625,1,0,0:0:0:0:
256,102,416685,1,0,0:0:0:0:
244,157,416746,1,0,0:0:0:0:
244,157,416806,1,0,0:0:0:0:
244,157,416867,1,8,0:0:0:0:
244,157,416942,1,0,0:0:0:0:
244,157,417017,1,8,0:0:0:0:
244,157,417093,1,0,0:0:0:0:
244,157,417188,1,8,0:0:0:0:
244,157,417263,1,8,0:0:0:0:
207,125,417338,1,0,0:0:0:0:
207,125,417414,1,0,0:0:0:0:
244,157,417489,1,8,0:0:0:0:
219,118,417569,1,8,0:0:0:0:
219,118,417650,1,8,0:0:0:0:
219,118,417731,1,0,0:0:0:0:
219,118,417811,1,8,0:0:0:0:
219,118,417890,1,8,0:0:0:0:
219,118,417969,1,0,0:0:0:0:
219,118,418048,1,0,0:0:0:0:
219,118,418127,1,8,0:0:0:0:
219,118,418209,1,0,0:0:0:0:
219,118,418292,1,8,0:0:0:0:
219,118,418375,1,8,0:0:0:0:
219,118,418458,1,8,0:0:0:0:
219,118,418528,1,8,0:0:0:0:
219,118,418599,1,0,0:0:0:0:
219,118,418670,1,8,0:0:0:0:
219,118,418742,1,0,0:0:0:0:
219,118,418816,1,8,0:0:0:0:
219,118,418890,1,0,0:0:0:0:
219,118,418964,1,8,0:0:0:0:
231,117,419038,1,0,0:0:0:0:
247,157,419115,1,0,0:0:0:0:
246,165,419192,1,8,0:0:0:0:
246,137,419270,1,0,0:0:0:0:
247,157,419348,1,8,0:0:0:0:
246,137,419422,1,0,0:0:0:0:
246,142,419497,1,8,0:0:0:0:
246,137,419572,1,0,0:0:0:0:
246,142,419647,1,8,0:0:0:0:
246,137,419724,1,0,0:0:0:0:
246,142,419802,1,8,0:0:0:0:
246,137,419879,1,0,0:0:0:0:
246,140,419957,1,8,0:0:0:0:
171,77,420032,1,8,0:0:0:0:
185,152,420108,1,0,0:0:0:0:
215,88,420184,1,0,0:0:0:0:
211,105,420261,1,8,0:0:0:0:
226,137,420330,1,8,0:0:0:0:
223,88,420399,1,8,0:0:0:0:
231,148,420469,1,0,0:0:0:0:
231,148,420538,1,8,0:0:0:0:
231,148,420610,1,0,0:0:0:0:
231,148,420682,1,8,0:0:0:0:
231,148,420754,1,8,0:0:0:0:
231,148,420828,1,0,0:0:0:0:
231,148,420905,1,8,0:0:0:0:
230,148,420982,1,0,0:0:0:0:
231,148,421059,1,8,0:0:0:0:
230,148,421136,1,0,0:0:0:0:
231,148,421208,1,8,0:0:0:0:
230,148,421280,1,0,0:0:0:0:
231,148,421352,1,8,0:0:0:0:
213,108,421425,1,8,0:0:0:0:
213,108,421495,1,0,0:0:0:0:
213,108,421565,1,8,0:0:0:0:
213,108,421635,1,0,0:0:0:0:
213,108,421706,1,8,0:0:0:0:
213,108,421777,1,0,0:0:0:0:
213,108,421849,1,8,0:0:0:0:
215,115,421920,1,8,0:0:0:0:
216,115,421992,1,8,0:0:0:0:
206,110,422072,1,0,0:0:0:0:
206,110,422153,1,8,0:0:0:0:
206,110,422233,1,8,0:0:0:0:
206,110,422314,1,8,0:0:0:0:
206,110,422388,1,8,0:0:0:0:
206,110,422463,1,0,0:0:0:0:
206,110,422538,1,0,0:0:0:0:
206,110,422613,1,8,0:0:0:0:
183,108,422689,1,0,0:0:0:0:
183,108,422765,1,8,0:0:0:0:
183,108,422842,1,8,0:0:0:0:
183,108,422919,1,8,0:0:0:0:
183,108,422994,1,8,0:0:0:0:
185,93,423070,1,0,0:0:0:0:
185,93,423146,1,0,0:0:0:0:
185,93,423223,1,8,0:0:0:0:
188,68,423298,1,0,0:0:0:0:
183,108,423373,1,8,0:0:0:0:
165,88,423448,1,8,0:0:0:0:
186,68,423523,1,0,0:0:0:0:
185,73,423609,1,0,0:0:0:0:
170,87,423695,1,0,0:0:0:0:
183,77,423781,1,0,0:0:0:0:
183,108,423867,1,8,0:0:0:0:
183,108,423949,1,8,0:0:0:0:
183,95,424031,1,8,0:0:0:0:
161,60,424114,1,0,0:0:0:0:
161,75,424197,1,8,0:0:0:0:
161,75,424276,1,0,0:0:0:0:
151,82,424355,1,8,0:0:0:0:
150,83,424434,1,0,0:0:0:0:
143,90,424514,1,8,0:0:0:0:
143,92,424593,1,0,0:0:0:0:
210,98,424672,1,8,0:0:0:0:
130,85,424751,1,0,0:0:0:0:
186,93,424831,1,8,0:0:0:0:
130,85,424917,1,8,0:0:0:0:
130,85,425004,1,0,0:0:0:0:
130,85,425091,1,8,0:0:0:0:
130,85,425178,1,0,0:0:0:0:
188,88,425257,1,8,0:0:0:0:
130,85,425337,1,0,0:0:0:0:
130,85,425416,1,8,0:0:0:0:
130,85,425496,1,0,0:0:0:0:
130,85,425570,1,8,0:0:0:0:
130,85,425645,1,0,0:0:0:0:
130,85,425720,1,8,0:0:0:0:
130,85,425796,1,8,0:0:0:0:
130,85,425874,1,8,0:0:0:0:
130,85,425953,1,0,0:0:0:0:
130,85,426032,1,0,0:0:0:0:
130,85,426111,1,8,0:0:0:0:
130,85,426186,1,0,0:0:0:0:
130,85,426261,1,8,0:0:0:0:
130,85,426336,1,8,0:0:0:0:
130,85,426412,1,0,0:0:0:0:
130,85,426489,1,8,0:0:0:0:
130,85,426567,1,0,0:0:0:0:
130,85,426644,1,8,0:0:0:0:
160,63,426722,1,8,0:0:0:0:
140,70,426802,1,8,0:0:0:0:
153,62,426882,1,0,0:0:0:0:
198,47,426962,1,0,0:0:0:0:
151,68,427042,1,8,0:0:0:0:
160,68,427117,1,0,0:0:0:0:
145,78,427192,1,8,0:0:0:0:
145,82,427268,1,8,0:0:0:0:
160,68,427344,1,0,0:0:0:0:
160,68,427421,1,0,0:0:0:0:
160,68,427498,1,8,0:0:0:0:
160,68,427576,1,8,0:0:0:0:
160,68,427654,1,0,0:0:0:0:
356,233,427740,1,0,0:0:0:0:
203,60,427826,1,0,0:0:0:0:
193,58,427912,1,0,0:0:0:0:
198,57,427998,1,8,0:0:0:0:
213,158,430101,1,8,0:0:0:0:
130,128,430421,1,0,0:0:0:0:
130,128,430602,1,0,0:0:0:0:
130,128,430784,1,0,0:0:0:0:
130,128,430966,1,0,0:0:0:0:
130,128,431148,1,0,0:0:0:0:
133,123,431330,1,0,0:0:0:0:
158,55,431534,1,8,0:0:0:0:
145,63,431618,1,8,0:0:0:0:
145,63,431702,1,0,0:0:0:0:
145,63,431787,1,0,0:0:0:0:
145,63,431872,1,8,0:0:0:0:
145,63,431956,1,0,0:0:0:0:
145,63,432040,1,8,0:0:0:0:
145,63,432125,1,8,0:0:0:0:
138,63,432209,1,8,0:0:0:0:
138,63,432293,1,8,0:0:0:0:
138,63,432377,1,0,0:0:0:0:
138,63,432461,1,0,0:0:0:0:
138,63,432545,1,8,0:0:0:0:
138,63,432629,1,0,0:0:0:0:
138,63,432713,1,8,0:0:0:0:
138,63,432798,1,8,0:0:0:0:
138,63,432882,1,8,0:0:0:0:
138,63,432966,1,8,0:0:0:0:
185,58,433050,1,0,0:0:0:0:
170,33,433134,1,0,0:0:0:0:
180,58,433218,1,8,0:0:0:0:
170,33,433302,1,8,0:0:0:0:
170,33,433386,1,0,0:0:0:0:
170,33,433470,1,0,0:0:0:0:
170,33,433554,1,8,0:0:0:0:
170,33,433638,1,8,0:0:0:0:
170,33,433722,1,0,0:0:0:0:
170,33,433807,1,0,0:0:0:0:
170,33,433892,1,8,0:0:0:0:
121,202,433976,1,8,0:0:0:0:
121,202,434060,1,8,0:0:0:0:
121,202,434144,1,0,0:0:0:0:
170,33,434229,1,8,0:0:0:0:
130,192,434316,1,8,0:0:0:0:
130,192,434403,1,0,0:0:0:0:
130,192,434490,1,0,0:0:0:0:
130,192,434577,1,0,0:0:0:0:
130,192,434664,1,8,0:0:0:0:
130,192,434751,1,8,0:0:0:0:
130,192,434838,1,8,0:0:0:0:
130,192,434925,1,0,0:0:0:0:
173,25,435012,1,8,0:0:0:0:
130,192,435099,1,8,0:0:0:0:
130,192,435186,1,0,0:0:0:0:
130,192,435273,1,0,0:0:0:0:
126,135,435360,1,0,0:0:0:0:
126,135,435447,1,0,0:0:0:0:
126,135,435534,1,0,0:0:0:0:
173,25,435622,1,8,0:0:0:0:
126,135,435712,1,8,0:0:0:0:
126,135,435803,1,0,0:0:0:0:
126,135,435893,1,0,0:0:0:0:
126,135,435984,1,8,0:0:0:0:
126,135,436074,1,8,0:0:0:0:
126,135,436165,1,8,0:0:0:0:
126,135,436255,1,0,0:0:0:0:
168,20,436346,1,8,0:0:0:0:
126,135,436434,1,8,0:0:0:0:
145,123,436522,1,0,0:0:0:0:
145,123,436610,1,0,0:0:0:0:
145,123,436698,1,0,0:0:0:0:
145,123,436794,1,0,0:0:0:0:
168,20,436890,1,8,0:0:0:0:
145,123,436986,1,8,0:0:0:0:
210,118,437083,1,0,0:0:0:0:
210,118,437166,1,0,0:0:0:0:
220,87,437250,1,0,0:0:0:0:
168,20,437334,1,8,0:0:0:0:
225,182,437418,1,8,0:0:0:0:
183,32,437501,1,8,0:0:0:0:
190,33,437585,1,0,0:0:0:0:
191,37,437669,1,0,0:0:0:0:
156,20,437755,1,8,0:0:0:0:
203,167,437848,1,8,0:0:0:0:
186,40,437941,1,0,0:0:0:0:
188,45,438034,1,0,0:0:0:0:
188,47,438128,1,0,0:0:0:0:
176,47,438205,1,0,0:0:0:0:
156,20,438283,1,8,0:0:0:0:
203,167,438361,1,8,0:0:0:0:
168,47,438440,1,0,0:0:0:0:
161,48,438517,1,0,0:0:0:0:
168,47,438595,1,0,0:0:0:0:
168,47,438673,1,0,0:0:0:0:
156,20,438752,1,8,0:0:0:0:
156,20,438830,1,8,0:0:0:0:
203,167,438909,1,8,0:0:0:0:
165,42,438988,1,0,0:0:0:0:
166,42,439067,1,0,0:0:0:0:
165,42,439146,1,0,0:0:0:0:
156,20,439226,1,8,0:0:0:0:
170,37,439305,1,0,0:0:0:0:
180,147,439385,1,8,0:0:0:0:
168,33,439465,1,0,0:0:0:0:
180,147,439545,1,8,0:0:0:0:
180,147,439625,1,8,0:0:0:0:
180,27,439706,1,8,0:0:0:0:
178,30,439788,1,8,0:0:0:0:
191,83,439870,1,0,0:0:0:0:
186,27,439952,1,8,0:0:0:0:
185,28,440034,1,0,0:0:0:0:
186,27,440116,1,0,0:0:0:0:
186,27,440198,1,8,0:0:0:0:
185,70,440280,1,8,0:0:0:0:
251,107,440362,1,0,0:0:0:0:
178,70,440444,1,8,0:0:0:0:
198,95,440526,1,0,0:0:0:0:
178,70,440608,1,8,0:0:0:0:
178,70,440691,1,8,0:0:0:0:
190,73,440773,1,8,0:0:0:0:
203,72,440855,1,0,0:0:0:0:
205,65,440937,1,8,0:0:0:0:
205,63,441019,1,8,0:0:0:0:
203,72,441101,1,0,0:0:0:0:
316,122,441183,1,8,0:0:0:0:
218,32,441265,1,8,0:0:0:0:
210,33,441347,1,0,0:0:0:0:
316,122,441429,1,8,0:0:0:0:
203,35,441511,1,0,0:0:0:0:
218,32,441593,1,8,0:0:0:0:
316,122,441675,1,8,0:0:0:0:
