osu file format v14

[General]
AudioFilename: audio.mp3
AudioLeadIn: 0
PreviewTime: -1
Countdown: 0
SampleSet: Soft
StackLeniency: 0.2
Mode: 2
LetterboxInBreaks: 0
WidescreenStoryboard: 1

[Editor]
Bookmarks: 78706,90830
DistanceSpacing: 1
BeatDivisor: 4
GridSize: 16
TimelineZoom: 3.599999

[Metadata]
Title:Da Da Da Da
TitleUnicode:Da Da Da Da
Artist:Kinetic Typography
ArtistUnicode:Kinetic Typography
Creator:Pizza Kun
Version:Da Da Da Da Rev
Source:Outbreak Company
Tags:
BeatmapID:1406886
BeatmapSetID:664772

[Difficulty]
HPDrainRate:7
CircleSize:4.2
OverallDifficulty:9.8
ApproachRate:9.8
SliderMultiplier:1.9
SliderTickRate:2

[Events]
//Background and Video events
0,0,"rcjWFuM.jpg",0,0
//Break Periods
//Storyboard Layer 0 (Background)
//Storyboard Layer 1 (Fail)
//Storyboard Layer 2 (Pass)
//Storyboard Layer 3 (Foreground)
//Storyboard Sound Samples

[TimingPoints]
639,406.779661016949,4,2,1,70,1,0
12028,-66.6666666666667,4,2,1,70,0,0
19358,408.163265306122,4,2,1,70,1,0
21398,-50,4,2,1,70,0,0
25896,405.405405405405,4,2,1,70,1,0
25896,-66.6666666666667,4,2,1,70,0,0
29747,-50,4,2,1,70,0,0
30152,-66.6666666666667,4,2,1,70,0,0
50220,-50,4,2,1,70,0,0
51841,-66.6666666666667,4,2,1,70,0,0
52247,-50,4,2,1,70,0,0
53463,-66.6666666666667,4,2,1,70,0,0
53868,-50,4,2,1,70,0,0
55085,-66.6666666666667,4,2,1,70,0,0
55490,-50,4,2,1,70,0,0
56706,-66.6666666666667,4,2,1,70,0,0
58733,-50,4,2,1,70,0,0
59950,-66.6666666666667,4,2,1,70,0,0
60355,-50,4,2,1,70,0,0
61571,-66.6666666666667,4,2,1,70,0,0
61977,-50,4,2,1,70,0,0
77797,303.030303030303,4,2,1,70,1,0
86281,284.36018957346,4,2,1,70,1,0

[HitObjects]
0,336,639,6,0,L|0:48,1,285
64,48,1249,2,0,L|64:160,1,95
128,144,1452,2,0,L|128:49,1,95
192,48,1655,2,0,L|192:144,1,95
256,144,1859,2,0,L|256:49,1,95
320,48,2062,2,0,L|320:144,1,95
384,144,2266,5,0,0:0:0:0:
448,192,2469,1,0,0:0:0:0:
352,192,2672,1,8,0:0:0:0:
512,336,2876,2,0,L|512:224,1,95
448,240,3079,2,0,L|448:335,1,95
384,336,3282,2,0,L|384:240,1,95
320,240,3486,2,0,L|320:335,1,95
256,336,3689,2,0,L|256:240,1,95
192,240,3893,5,0,0:0:0:0:
64,192,4096,1,0,0:0:0:0:
160,192,4299,1,8,0:0:0:0:
64,192,5520,6,0,L|256:192,1,190
224,224,5927,2,0,L|128:224,1,95
96,256,6130,2,0,L|288:256,1,190
256,288,6537,1,0,0:0:0:0:
384,288,6740,2,0,L|288:288,1,95
320,256,6944,1,0,0:0:0:0:
512,256,7147,5,0,0:0:0:0:
480,256,7147,1,0,0:0:0:0:
0,256,7554,2,0,L|96:256,1,95
128,256,7757,1,0,0:0:0:0:
432,192,8164,2,0,L|336:192,1,95
368,160,8367,1,0,0:0:0:0:
80,192,8571,2,0,L|176:192,1,95
144,160,8774,5,0,0:0:0:0:
144,96,9384,5,0,0:0:0:0:
224,96,9384,5,0,0:0:0:0:
224,96,9384,5,0,0:0:0:0:
144,96,9384,5,0,0:0:0:0:
224,96,10198,5,0,0:0:0:0:
144,96,10198,5,0,0:0:0:0:
144,96,10198,5,0,0:0:0:0:
224,96,10198,5,0,0:0:0:0:
184,96,10198,5,0,0:0:0:0:
184,96,10198,5,0,0:0:0:0:
184,96,10198,5,0,0:0:0:0:
184,96,10198,5,0,0:0:0:0:
184,96,10198,5,0,0:0:0:0:
184,96,10198,5,0,0:0:0:0:
184,96,10198,5,0,0:0:0:0:
184,96,10198,5,0,0:0:0:0:
144,96,10198,5,0,0:0:0:0:
224,96,10198,5,0,0:0:0:0:
224,96,10198,5,0,0:0:0:0:
144,96,10198,5,0,0:0:0:0:
128,192,12028,6,0,L|272:192,1,142.500005435944
320,160,12232,2,0,L|176:160,1,142.500005435944
128,192,12435,2,0,L|272:192,1,142.500005435944
320,160,12638,2,0,L|176:160,1,142.500005435944
128,192,12842,1,0,0:0:0:0:
512,192,13045,2,0,L|368:192,1,142.500005435944
336,192,13249,1,0,0:0:0:0:
336,224,13350,5,0,0:0:0:0:
304,224,13350,5,0,0:0:0:0:
272,256,13452,5,0,0:0:0:0:
304,256,13452,5,0,0:0:0:0:
272,288,13554,5,0,0:0:0:0:
240,288,13554,5,0,0:0:0:0:
240,320,13655,5,0,0:0:0:0:
208,320,13655,6,0,L|64:320,1,142.500005435944
32,320,13859,1,0,0:0:0:0:
336,192,14062,6,0,L|416:192,1,71.2500027179719
384,176,14164,1,0,0:0:0:0:
176,192,14266,2,0,L|96:192,1,71.2500027179719
128,176,14368,1,0,0:0:0:0:
336,192,14469,6,0,L|416:192,1,71.2500027179719
432,176,14571,1,0,0:0:0:0:
128,176,14672,1,0,0:0:0:0:
80,176,14672,1,0,0:0:0:0:
80,224,15283,6,0,L|224:224,1,142.500005435944
176,256,15486,2,0,L|32:256,1,142.500005435944
80,288,15689,1,0,0:0:0:0:
208,288,15893,1,0,0:0:0:0:
256,288,15893,1,0,0:0:0:0:
368,288,16096,2,0,L|512:288,1,142.500005435944
480,256,16300,1,0,0:0:0:0:
448,224,16401,5,0,0:0:0:0:
416,224,16401,1,0,0:0:0:0:
352,192,16503,1,0,0:0:0:0:
384,192,16503,1,0,0:0:0:0:
64,224,16605,1,0,0:0:0:0:
96,224,16605,1,0,0:0:0:0:
160,192,16706,6,0,L|448:192,1,285.000010871888
128,192,16707,1,0,0:0:0:0:
480,160,17113,2,0,L|400:160,1,71.2500027179719
368,128,17215,2,0,L|464:128,1,71.2500027179719
480,128,17316,1,0,0:0:0:0:
160,160,17418,2,0,L|240:160,1,71.2500027179719
208,160,17418,1,0,0:0:0:0:
272,128,17520,2,0,L|176:128,1,71.2500027179719
160,128,17621,1,0,0:0:0:0:
32,128,17723,5,0,0:0:0:0:
0,128,17723,1,0,0:0:0:0:
48,128,18028,5,0,0:0:0:0:
48,128,18028,5,0,0:0:0:0:
48,128,18028,5,0,0:0:0:0:
0,128,18028,5,0,0:0:0:0:
0,128,18028,5,0,0:0:0:0:
0,128,18028,5,0,0:0:0:0:
64,128,18333,5,0,0:0:0:0:
64,128,18333,5,0,0:0:0:0:
64,128,18333,5,0,0:0:0:0:
64,128,18333,5,0,0:0:0:0:
0,128,18333,5,0,0:0:0:0:
0,128,18333,5,0,0:0:0:0:
0,128,18333,5,0,0:0:0:0:
0,128,18333,5,0,0:0:0:0:
448,192,19358,6,0,L|256:192,1,190
224,224,19765,2,0,L|320:224,1,95
368,256,19968,2,0,L|176:256,1,190
223,288,20375,1,0,0:0:0:0:
384,288,20578,2,0,L|480:288,1,95
512,288,20782,1,0,0:0:0:0:
0,256,20985,5,0,0:0:0:0:
32,256,20985,1,0,0:0:0:0:
512,256,21398,2,0,L|320:256,1,190
288,256,21595,1,0,0:0:0:0:
0,256,22011,2,0,L|192:256,1,190
224,256,22208,1,0,0:0:0:0:
512,256,22419,2,0,L|320:256,1,190
368,256,22616,1,0,0:0:0:0:
368,96,23222,5,0,0:0:0:0:
288,96,23222,5,0,0:0:0:0:
288,96,23222,5,0,0:0:0:0:
368,96,23222,5,0,0:0:0:0:
328,96,24036,5,0,0:0:0:0:
328,96,24036,5,0,0:0:0:0:
328,96,24036,5,0,0:0:0:0:
328,96,24036,5,0,0:0:0:0:
288,96,24036,5,0,0:0:0:0:
368,96,24036,5,0,0:0:0:0:
368,96,24036,5,0,0:0:0:0:
288,96,24036,5,0,0:0:0:0:
368,96,24036,5,0,0:0:0:0:
288,96,24036,5,0,0:0:0:0:
288,96,24036,5,0,0:0:0:0:
368,96,24036,5,0,0:0:0:0:
328,96,24036,5,0,0:0:0:0:
328,96,24036,5,0,0:0:0:0:
328,96,24036,5,0,0:0:0:0:
328,96,24036,5,0,0:0:0:0:
368,48,25896,6,0,L|64:352,1,427.500016307831
208,256,26301,2,0,L|96:368,1,142.500005435944
400,256,26909,2,0,L|400:112,1,142.500005435944
336,112,27112,1,0,0:0:0:0:
144,48,27517,6,0,L|448:352,1,427.500016307831
304,256,27922,2,0,L|416:368,1,142.500005435944
112,256,28531,2,0,L|112:112,1,142.500005435944
176,112,28734,1,0,0:0:0:0:
368,48,29139,6,0,L|64:352,1,427.500016307831
112,256,29544,2,0,L|0:368,1,142.500005435944
65,350,29747,2,0,L|369:350,1,285
416,240,30152,2,0,L|416:96,1,142.500005435944
352,96,30355,1,0,0:0:0:0:
160,96,30760,6,0,L|160:240,1,142.500005435944
224,240,30963,2,0,L|224:96,1,142.500005435944
160,96,31166,2,0,L|160:240,1,142.500005435944
224,240,31369,2,0,L|224:96,1,142.500005435944
304,96,31571,2,0,B|304:368|304:368|0:368,1,570.000021743775
64,368,32382,6,0,L|368:64,1,427.500016307831
320,160,32787,2,0,L|432:48,1,142.500005435944
512,192,33395,2,0,L|368:192,1,142.500005435944
320,192,33598,1,0,0:0:0:0:
448,368,34004,6,0,L|144:64,1,427.500016307831
192,160,34409,2,0,L|80:48,1,142.500005435944
0,192,35017,2,0,L|144:192,1,142.500005435944
192,192,35220,1,0,0:0:0:0:
448,368,35625,6,0,L|144:64,1,427.500016307831
192,160,36030,2,0,L|80:48,1,142.500005435944
512,192,36639,2,0,L|368:192,1,142.500005435944
320,192,36842,1,0,0:0:0:0:
128,192,37247,6,0,L|128:48,1,142.500005435944
192,48,37450,2,0,L|336:48,1,142.500005435944
400,48,37652,2,0,L|400:192,1,142.500005435944
336,192,37855,2,0,L|256:192,1,71.2500027179719
224,224,37956,1,0,0:0:0:0:
400,224,38058,5,0,0:0:0:0:
432,224,38058,1,0,0:0:0:0:
32,272,38868,6,0,L|32:128,1,142.500005435944
96,128,39071,2,0,L|96:272,1,142.500005435944
160,272,39274,2,0,L|160:128,1,142.500005435944
224,128,39477,2,0,L|224:272,1,142.500005435944
288,272,39679,6,0,L|432:272,1,142.500005435944
480,240,39882,2,0,L|336:240,1,142.500005435944
288,240,40085,2,0,L|144:240,1,142.500005435944
96,240,40287,1,0,0:0:0:0:
480,112,40490,6,0,L|480:256,1,142.500005435944
416,256,40693,2,0,L|416:112,1,142.500005435944
352,112,40896,2,0,L|352:256,1,142.500005435944
288,256,41099,2,0,L|288:112,1,142.500005435944
224,112,41301,6,0,L|80:112,1,142.500005435944
32,144,41504,2,0,L|176:144,1,142.500005435944
224,176,41707,2,0,L|80:176,1,142.500005435944
32,192,41909,1,0,0:0:0:0:
480,272,42112,6,0,L|480:128,1,142.500005435944
416,128,42315,2,0,L|416:272,1,142.500005435944
352,272,42518,2,0,L|352:128,1,142.500005435944
288,128,42721,2,0,L|288:272,1,142.500005435944
224,272,42923,6,0,L|80:272,1,142.500005435944
32,240,43126,2,0,L|176:240,1,142.500005435944
224,240,43329,2,0,L|368:240,1,142.500005435944
416,240,43531,1,0,0:0:0:0:
0,336,43733,2,0,L|0:48,1,285.000010871888
64,48,44139,2,0,L|208:48,1,142.500005435944
272,48,44341,1,0,0:0:0:0:
480,272,45355,6,0,L|480:128,1,142.500005435944
416,128,45558,2,0,L|416:272,1,142.500005435944
352,272,45761,2,0,L|352:128,1,142.500005435944
288,128,45964,2,0,L|288:272,1,142.500005435944
224,272,46166,6,0,L|80:272,1,142.500005435944
32,240,46369,2,0,L|176:240,1,142.500005435944
224,240,46572,2,0,L|368:240,1,142.500005435944
416,240,46774,1,0,0:0:0:0:
32,112,46977,6,0,L|32:256,1,142.500005435944
96,256,47180,2,0,L|96:112,1,142.500005435944
160,112,47383,2,0,L|160:256,1,142.500005435944
224,256,47586,2,0,L|224:112,1,142.500005435944
288,112,47788,6,0,L|432:112,1,142.500005435944
480,144,47991,2,0,L|336:144,1,142.500005435944
288,176,48194,2,0,L|432:176,1,142.500005435944
480,192,48396,1,0,0:0:0:0:
32,272,48599,6,0,L|32:128,1,142.500005435944
96,128,48802,2,0,L|96:272,1,142.500005435944
160,272,49005,2,0,L|160:128,1,142.500005435944
224,128,49208,2,0,L|224:272,1,142.500005435944
288,272,49410,6,0,L|432:272,1,142.500005435944
480,240,49613,2,0,L|336:240,1,142.500005435944
288,240,49816,2,0,L|144:240,1,142.500005435944
96,240,50018,1,0,0:0:0:0:
512,192,50220,6,0,L|320:192,1,190
256,192,50423,1,0,0:0:0:0:
0,192,50625,6,0,L|192:192,1,190
256,192,50828,1,0,0:0:0:0:
448,192,51031,1,0,0:0:0:0:
512,192,51031,1,0,0:0:0:0:
32,336,51841,6,0,L|32:48,1,285.000010871888
96,48,52247,2,0,L|288:48,1,190
352,48,52450,1,0,0:0:0:0:
352,112,52855,2,0,L|160:112,1,190
96,112,53058,1,0,0:0:0:0:
480,48,53463,6,0,L|480:336,1,285.000010871888
416,336,53869,2,0,L|224:336,1,190
160,336,54072,1,0,0:0:0:0:
416,272,54477,2,0,L|224:272,1,190
160,272,54680,1,0,0:0:0:0:
480,336,55085,6,0,L|480:48,1,285.000010871888
416,48,55491,2,0,L|224:48,1,190
160,48,55694,1,0,0:0:0:0:
160,112,56099,2,0,L|352:112,1,190
416,112,56302,1,0,0:0:0:0:
512,112,56706,6,0,L|512:256,1,142.500005435944
432,256,56909,2,0,L|432:112,1,142.500005435944
352,112,57112,2,0,L|352:256,1,142.500005435944
272,256,57314,2,0,L|272:112,1,142.500005435944
192,112,57517,1,0,0:0:0:0:
480,336,58328,6,0,L|480:48,1,285.000010871888
416,48,58734,2,0,L|224:48,1,190
160,48,58937,1,0,0:0:0:0:
160,112,59342,2,0,L|352:112,1,190
416,112,59545,1,0,0:0:0:0:
32,48,59950,6,0,L|32:336,1,285.000010871888
96,336,60356,2,0,L|288:336,1,190
352,336,60559,1,0,0:0:0:0:
96,272,60964,2,0,L|288:272,1,190
352,272,61167,1,0,0:0:0:0:
32,336,61572,6,0,L|32:48,1,285.000010871888
96,48,61978,2,0,L|288:48,1,190
352,48,62181,1,0,0:0:0:0:
352,112,62586,2,0,L|160:112,1,190
96,112,62789,1,0,0:0:0:0:
256,192,63193,6,0,L|464:192,1,190
512,192,63395,1,0,0:0:0:0:
256,192,63598,2,0,L|48:192,1,190
0,192,63800,1,0,0:0:0:0:
288,160,64004,1,0,0:0:0:0:
224,160,64004,1,0,0:0:0:0:
224,160,64206,5,0,0:0:0:0:
288,160,64206,1,0,0:0:0:0:
256,160,64308,1,0,0:0:0:0:
288,160,64409,1,0,0:0:0:0:
224,160,64409,1,0,0:0:0:0:
256,160,64612,5,0,0:0:0:0:
224,160,64612,5,0,0:0:0:0:
288,160,64612,5,0,0:0:0:0:
480,96,64814,6,0,L|480:288,1,190
416,288,65017,1,0,0:0:0:0:
416,256,65118,1,0,0:0:0:0:
416,224,65220,1,0,0:0:0:0:
352,224,65220,2,0,L|160:224,1,190
96,224,65423,1,0,0:0:0:0:
256,192,65625,6,0,L|448:192,1,190
512,192,65828,1,0,0:0:0:0:
32,304,66031,2,0,L|32:112,1,190
96,112,66233,1,0,0:0:0:0:
352,112,66335,6,0,L|160:112,1,190
96,112,66639,2,0,L|96:224,1,95
144,208,66740,2,0,L|144:304,1,95
192,304,66841,2,0,L|384:304,1,190
432,272,67044,2,0,L|224:272,1,190
192,240,67247,6,0,L|384:240,1,190
448,240,67450,2,0,L|448:48,1,190
400,48,67652,2,0,L|400:144,1,95
352,144,67754,2,0,L|352:48,1,95
304,48,67855,2,0,L|112:48,1,190
48,48,68058,6,0,L|48:240,1,190
96,240,68260,2,0,L|192:240,1,95
240,240,68362,2,0,L|352:240,1,95
384,208,68463,2,0,L|192:208,1,190
240,176,68666,2,0,L|432:176,1,190
384,144,68868,6,0,L|192:144,1,190
144,144,69071,2,0,L|144:336,1,190
224,336,69274,2,0,L|224:240,1,95
304,240,69375,2,0,L|304:336,1,95
384,336,69477,1,0,0:0:0:0:
512,352,69679,6,0,L|512:-32,1,380
448,64,70085,2,0,L|448:256,1,190
384,256,70287,2,0,L|192:256,1,190
128,256,70490,1,0,0:0:0:0:
0,256,70693,2,0,L|0:224,7,23.75
32,256,70895,2,0,L|32:48,1,190
128,64,71301,6,0,L|128:256,1,190
192,256,71504,2,0,L|192:160,2,95
256,256,71706,2,0,L|256:64,1,190
320,64,71909,2,0,L|320:256,1,190
384,256,72112,2,0,L|384:160,2,95
448,256,72314,2,0,L|448:160,1,95
512,256,72517,2,0,L|512:64,1,190
448,64,72720,1,0,0:0:0:0:
32,192,72923,5,0,0:0:0:0:
80,192,72923,1,0,0:0:0:0:
128,192,73024,5,0,0:0:0:0:
176,192,73024,1,0,0:0:0:0:
224,192,73125,5,0,0:0:0:0:
272,192,73125,1,0,0:0:0:0:
320,192,73226,5,0,0:0:0:0:
368,192,73226,1,0,0:0:0:0:
416,192,73328,5,0,0:0:0:0:
464,192,73328,2,0,L|208:192,1,190
224,192,73531,1,0,0:0:0:0:
480,192,73733,5,0,0:0:0:0:
432,192,73733,1,0,0:0:0:0:
384,192,73834,5,0,0:0:0:0:
336,192,73834,1,0,0:0:0:0:
288,192,73935,5,0,0:0:0:0:
240,192,73935,1,0,0:0:0:0:
192,192,74036,5,0,0:0:0:0:
144,192,74036,1,0,0:0:0:0:
96,192,74138,5,0,0:0:0:0:
48,192,74138,2,0,L|304:192,1,190
288,192,74341,1,0,0:0:0:0:
0,256,74544,5,0,0:0:0:0:
32,256,74544,1,0,0:0:0:0:
96,256,74645,5,0,0:0:0:0:
128,256,74645,1,0,0:0:0:0:
192,256,74747,5,0,0:0:0:0:
224,256,74747,1,0,0:0:0:0:
96,304,74848,5,0,0:0:0:0:
128,304,74848,1,0,0:0:0:0:
192,304,74949,5,0,0:0:0:0:
224,304,74949,1,0,0:0:0:0:
288,304,75051,5,0,0:0:0:0:
320,304,75051,1,0,0:0:0:0:
192,352,75152,5,0,0:0:0:0:
224,352,75152,2,0,L|432:352,1,190
384,144,75355,1,0,0:0:0:0:
512,128,75456,5,0,0:0:0:0:
480,128,75456,1,0,0:0:0:0:
416,96,75558,5,0,0:0:0:0:
384,96,75558,1,0,0:0:0:0:
320,144,75659,5,0,0:0:0:0:
288,144,75659,1,0,0:0:0:0:
416,128,75760,5,0,0:0:0:0:
384,128,75760,1,0,0:0:0:0:
320,96,75862,5,0,0:0:0:0:
288,96,75862,1,0,0:0:0:0:
96,144,75963,5,0,0:0:0:0:
128,144,75963,1,0,0:0:0:0:
0,128,76064,5,0,0:0:0:0:
32,128,76064,1,0,0:0:0:0:
96,96,76166,5,0,0:0:0:0:
128,96,76166,2,0,L|0:288,1,190
80,256,76368,1,0,0:0:0:0:
384,96,76571,2,0,L|512:288,1,190
432,256,76773,1,0,0:0:0:0:
224,256,76977,5,0,0:0:0:0:
288,256,76977,1,0,0:0:0:0:
32,288,77797,6,0,L|32:160,1,95
64,192,77948,1,0,0:0:0:0:
128,192,78024,1,0,0:0:0:0:
160,192,78024,1,0,0:0:0:0:
224,192,78100,1,0,0:0:0:0:
256,192,78100,2,0,L|256:288,1,95
320,288,78251,6,0,L|416:288,1,95
448,288,78403,1,0,0:0:0:0:
352,192,78478,1,0,0:0:0:0:
320,192,78478,1,0,0:0:0:0:
256,112,78554,1,0,0:0:0:0:
224,112,78554,2,0,L|112:112,1,95
64,112,78706,6,0,L|64:224,1,95
144,208,78857,2,0,L|144:304,1,95
176,304,79009,5,0,0:0:0:0:
240,304,79084,1,0,0:0:0:0:
272,304,79084,1,0,0:0:0:0:
368,304,79160,1,0,0:0:0:0:
336,304,79160,1,0,0:0:0:0:
480,256,79236,1,0,0:0:0:0:
512,256,79236,1,0,0:0:0:0:
416,256,79311,1,0,0:0:0:0:
384,256,79311,1,0,0:0:0:0:
288,256,79387,6,0,L|160:256,1,95
320,256,79387,1,0,0:0:0:0:
128,256,79539,1,0,0:0:0:0:
352,208,79615,2,0,L|480:208,1,95
512,208,79767,1,0,0:0:0:0:
480,288,79918,6,0,L|480:160,1,95
448,192,80069,1,0,0:0:0:0:
384,192,80145,1,0,0:0:0:0:
352,192,80145,1,0,0:0:0:0:
256,192,80221,2,0,L|256:288,1,95
288,192,80221,1,0,0:0:0:0:
192,288,80372,6,0,L|96:288,1,95
64,288,80524,1,0,0:0:0:0:
160,192,80599,1,0,0:0:0:0:
192,192,80599,1,0,0:0:0:0:
288,112,80675,2,0,L|400:112,1,95
256,112,80675,1,0,0:0:0:0:
448,112,80827,6,0,L|448:224,1,95
368,208,80978,2,0,L|368:304,1,95
336,304,81130,5,0,0:0:0:0:
240,304,81205,1,0,0:0:0:0:
272,304,81205,1,0,0:0:0:0:
144,304,81281,1,0,0:0:0:0:
176,304,81281,1,0,0:0:0:0:
32,256,81357,1,0,0:0:0:0:
0,256,81357,1,0,0:0:0:0:
128,256,81432,1,0,0:0:0:0:
96,256,81432,1,0,0:0:0:0:
224,256,81508,6,0,L|352:256,1,95
192,256,81508,1,0,0:0:0:0:
384,256,81660,1,0,0:0:0:0:
160,208,81736,2,0,L|32:208,1,95
0,208,81888,1,0,0:0:0:0:
32,288,82039,6,0,L|32:160,1,95
64,192,82190,2,0,L|112:192,1,47.5
64,192,82190,1,0,0:0:0:0:
160,192,82266,2,0,L|208:192,1,47.5
160,192,82266,1,0,0:0:0:0:
128,192,82266,1,0,0:0:0:0:
224,192,82342,1,0,0:0:0:0:
256,192,82342,2,0,L|256:288,1,95
320,288,82493,6,0,L|416:288,1,95
448,288,82645,1,0,0:0:0:0:
416,256,82645,2,0,L|368:256,1,47.5
320,192,82720,1,0,0:0:0:0:
352,192,82720,1,0,0:0:0:0:
320,160,82721,2,0,L|272:160,1,47.5
256,112,82796,1,0,0:0:0:0:
224,112,82796,2,0,L|112:112,1,95
64,112,82948,6,0,L|64:224,1,95
144,208,83099,2,0,L|144:304,1,95
176,304,83251,5,0,0:0:0:0:
240,304,83326,1,0,0:0:0:0:
272,304,83326,1,0,0:0:0:0:
336,304,83402,1,0,0:0:0:0:
368,304,83402,1,0,0:0:0:0:
512,256,83478,1,0,0:0:0:0:
480,256,83478,1,0,0:0:0:0:
416,256,83553,1,0,0:0:0:0:
384,256,83553,1,0,0:0:0:0:
288,256,83629,6,0,L|160:256,1,95
320,256,83629,1,0,0:0:0:0:
128,256,83781,1,0,0:0:0:0:
352,208,83857,2,0,L|480:208,1,95
512,208,84009,1,0,0:0:0:0:
256,192,84084,12,0,86206,0:0:0:0:
480,288,84160,6,0,L|480:160,1,95
448,192,84311,2,0,L|400:192,1,47.5
448,192,84311,1,0,0:0:0:0:
384,192,84387,1,0,0:0:0:0:
352,192,84387,1,0,0:0:0:0:
352,192,84387,2,0,L|304:192,1,47.5
288,192,84463,1,0,0:0:0:0:
256,192,84463,2,0,L|256:288,1,95
192,288,84614,6,0,L|96:288,1,95
64,288,84766,1,0,0:0:0:0:
96,256,84766,2,0,L|143:256,1,47.5
160,192,84841,1,0,0:0:0:0:
192,192,84841,1,0,0:0:0:0:
192,160,84842,2,0,L|240:160,1,47.5
256,112,84917,1,0,0:0:0:0:
288,112,84917,2,0,L|400:112,1,95
448,112,85069,6,0,L|448:224,1,95
368,208,85220,2,0,L|368:304,1,95
336,304,85372,5,0,0:0:0:0:
272,304,85447,1,0,0:0:0:0:
240,304,85447,1,0,0:0:0:0:
144,304,85523,1,0,0:0:0:0:
176,304,85523,1,0,0:0:0:0:
0,256,85599,1,0,0:0:0:0:
32,256,85599,1,0,0:0:0:0:
128,256,85674,1,0,0:0:0:0:
96,256,85674,1,0,0:0:0:0:
224,256,85750,6,0,L|352:256,1,95
192,256,85750,1,0,0:0:0:0:
384,256,85902,1,0,0:0:0:0:
160,208,85978,2,0,L|32:208,1,95
0,208,86130,1,0,0:0:0:0:
512,192,86281,5,0,0:0:0:0:
448,192,86281,1,0,0:0:0:0:
480,192,86423,5,0,0:0:0:0:
416,192,86423,1,0,0:0:0:0:
448,192,86565,5,0,0:0:0:0:
384,192,86565,1,0,0:0:0:0:
416,192,86707,5,0,0:0:0:0:
352,192,86707,1,0,0:0:0:0:
96,192,86849,5,0,0:0:0:0:
160,192,86849,1,0,0:0:0:0:
64,192,86991,5,0,0:0:0:0:
128,192,86991,1,0,0:0:0:0:
352,144,87134,1,0,0:0:0:0:
384,144,87134,1,0,0:0:0:0:
128,144,87276,1,0,0:0:0:0:
160,144,87276,1,0,0:0:0:0:
384,144,87418,5,0,0:0:0:0:
352,144,87418,1,0,0:0:0:0:
256,144,87560,5,0,0:0:0:0:
288,144,87560,1,0,0:0:0:0:
384,144,87702,5,0,0:0:0:0:
352,144,87702,1,0,0:0:0:0:
128,144,87844,5,0,0:0:0:0:
160,144,87844,1,0,0:0:0:0:
224,144,87986,5,0,0:0:0:0:
256,144,87986,1,0,0:0:0:0:
160,144,88128,5,0,0:0:0:0:
128,144,88128,1,0,0:0:0:0:
480,144,88271,5,0,0:0:0:0:
448,144,88271,1,0,0:0:0:0:
64,144,88413,5,0,0:0:0:0:
32,144,88413,1,0,0:0:0:0:
480,288,88555,5,0,0:0:0:0:
448,288,88555,1,0,0:0:0:0:
416,288,88555,1,0,0:0:0:0:
448,272,88698,5,0,0:0:0:0:
384,272,88698,1,0,0:0:0:0:
416,272,88698,1,0,0:0:0:0:
416,256,88840,5,0,0:0:0:0:
384,256,88840,1,0,0:0:0:0:
352,256,88840,1,0,0:0:0:0:
384,240,88983,5,0,0:0:0:0:
352,240,88983,1,0,0:0:0:0:
320,240,88983,1,0,0:0:0:0:
32,240,89124,2,0,L|32:144,1,95
64,144,89266,1,0,0:0:0:0:
96,144,89266,1,0,0:0:0:0:
480,240,89408,6,0,L|480:144,1,95
416,144,89550,1,0,0:0:0:0:
448,144,89550,1,0,0:0:0:0:
192,256,89693,5,0,0:0:0:0:
160,256,89693,1,0,0:0:0:0:
128,256,89693,1,0,0:0:0:0:
64,192,89835,5,0,0:0:0:0:
0,192,89835,1,0,0:0:0:0:
32,192,89835,1,0,0:0:0:0:
192,128,89977,5,0,0:0:0:0:
128,128,89977,1,0,0:0:0:0:
160,128,89977,1,0,0:0:0:0:
320,256,90119,5,0,0:0:0:0:
384,256,90119,1,0,0:0:0:0:
352,256,90119,1,0,0:0:0:0:
448,192,90261,5,0,0:0:0:0:
512,192,90261,1,0,0:0:0:0:
480,192,90261,1,0,0:0:0:0:
320,128,90403,5,0,0:0:0:0:
352,128,90403,1,0,0:0:0:0:
384,128,90403,1,0,0:0:0:0:
192,128,90546,5,0,0:0:0:0:
160,128,90546,1,0,0:0:0:0:
128,128,90546,1,0,0:0:0:0:
320,128,90688,5,0,0:0:0:0:
352,128,90688,1,0,0:0:0:0:
384,128,90688,1,0,0:0:0:0:
192,128,90831,5,0,0:0:0:0:
128,128,90831,1,0,0:0:0:0:
160,128,90831,1,0,0:0:0:0:
