osu file format v14

[General]
AudioFilename: audio.mp3
AudioLeadIn: 0
PreviewTime: 61325
Countdown: 1
SampleSet: Normal
StackLeniency: 0.4
Mode: 0
LetterboxInBreaks: 0
WidescreenStoryboard: 0

[Editor]
DistanceSpacing: 2
BeatDivisor: 4
GridSize: 4
TimelineZoom: 1

[Metadata]
Title:Rend Ens
TitleUnicode:レンドエンズ
Artist:Kinema106
ArtistUnicode:キネマ106
Creator:Deydalus
Version:Licorice
Source:
Tags:Kancolle
BeatmapID:1702002
BeatmapSetID:811359

[Difficulty]
HPDrainRate:6
CircleSize:4.7
OverallDifficulty:8
ApproachRate:9.5
SliderMultiplier:1.7
SliderTickRate:1

[Events]
//Background and Video events
0,0,"Rend Ens.png",0,0
//Break Periods
2,140973,146869
//Storyboard Layer 0 (Background)
//Storyboard Layer 1 (Fail)
//Storyboard Layer 2 (Pass)
//Storyboard Layer 3 (Foreground)
//Storyboard Sound Samples

[TimingPoints]
1715,413.793103448276,4,1,0,60,1,0
8360,413.793103448276,4,1,0,60,1,0
21187,-76.9230769230769,4,1,0,60,0,0
21601,-100,4,1,0,60,0,0
27808,-166.666666666667,4,1,0,60,0,0
28222,-62.5,4,1,0,60,0,0
28635,-100,4,1,0,60,0,0
41463,-83.3333333333333,4,1,0,60,0,0
48497,-100,4,1,0,60,0,0
48911,-83.3333333333333,4,1,0,60,0,0
50566,-83.3333333333333,4,1,0,60,0,0
61325,-71.4285714285714,4,1,0,60,0,0
75394,-90.9090909090909,4,1,0,60,0,0
79946,-100,4,1,0,60,0,0
87808,-111.111111111111,4,1,0,45,0,0
89049,-55.5555555555556,4,1,0,45,0,0
90084,-71.4285714285714,4,1,0,45,0,0
90704,-83.3333333333333,4,1,0,45,0,0
92360,-66.6666666666667,4,1,0,45,0,0
96084,-90.9090909090909,4,1,0,45,0,0
96911,-66.6666666666667,4,1,0,45,0,0
97739,-55.5555555555556,4,1,0,45,0,0
98566,-83.3333333333333,4,1,0,60,0,0
107670,-71.4285714285714,4,1,0,60,0,0
121739,-90.9090909090909,4,1,0,60,0,0
127532,-100,4,1,0,60,0,0
147394,-71.4285714285714,4,1,0,45,0,0
154015,-71.4285714285714,4,1,0,60,0,0
161463,-90.9090909090909,4,1,0,60,0,0
173877,-100,4,1,0,60,0,0

[Colours]
Combo1 : 192,192,192
Combo2 : 255,255,255
Combo3 : 242,0,0

[HitObjects]
46,123,1715,5,0,0:0:0:0:
52,116,1921,1,0,0:0:0:0:
60,114,2128,1,0,0:0:0:0:
68,116,2335,1,0,0:0:0:0:
74,121,2542,1,0,0:0:0:0:
76,128,2749,1,0,0:0:0:0:
70,134,2956,1,0,0:0:0:0:
65,140,3163,1,0,0:0:0:0:
60,147,3370,1,0,0:0:0:0:
60,156,3577,1,0,0:0:0:0:
64,165,3783,1,0,0:0:0:0:
70,171,3990,1,0,0:0:0:0:
160,264,5025,5,0,0:0:0:0:
168,264,5232,1,0,0:0:0:0:
176,260,5439,1,0,0:0:0:0:
180,252,5646,1,0,0:0:0:0:
184,244,5852,1,0,0:0:0:0:
192,240,6059,1,0,0:0:0:0:
200,240,6266,1,0,0:0:0:0:
208,244,6473,1,0,0:0:0:0:
216,248,6680,1,0,0:0:0:0:
224,252,6887,1,0,0:0:0:0:
236,252,7094,1,0,0:0:0:0:
244,248,7301,1,0,0:0:0:0:
15,136,8360,5,0,0:0:0:0:
124,53,8566,1,0,0:0:0:0:
97,189,8773,1,0,0:0:0:0:
194,53,8980,1,0,0:0:0:0:
38,220,9187,1,0,0:0:0:0:
214,149,9394,1,0,0:0:0:0:
91,36,9601,1,0,0:0:0:0:
241,215,9808,1,0,0:0:0:0:
146,46,10015,1,0,0:0:0:0:
64,238,10222,1,0,0:0:0:0:
302,81,10428,1,0,0:0:0:0:
69,187,10635,1,0,0:0:0:0:
276,183,10842,2,0,B|245:184|245:184|222:197|222:197|187:197,2,85
425,302,11670,5,0,0:0:0:0:
357,171,11877,1,0,0:0:0:0:
292,320,12084,1,0,0:0:0:0:
431,164,12291,1,0,0:0:0:0:
344,340,12497,1,0,0:0:0:0:
232,148,12704,1,0,0:0:0:0:
248,344,12911,1,0,0:0:0:0:
348,120,13118,1,0,0:0:0:0:
140,212,13325,1,0,0:0:0:0:
388,236,13532,1,0,0:0:0:0:
136,332,13739,1,0,0:0:0:0:
278,103,13946,1,0,0:0:0:0:
278,103,14360,5,0,0:0:0:0:
278,103,14566,2,0,P|255:139|200:161,1,85
93,104,14980,5,0,0:0:0:0:
6,267,15187,1,0,0:0:0:0:
225,176,15394,1,0,0:0:0:0:
43,126,15601,1,0,0:0:0:0:
112,320,15808,1,0,0:0:0:0:
104,136,16015,1,0,0:0:0:0:
252,264,16222,1,0,0:0:0:0:
36,212,16428,1,0,0:0:0:0:
200,72,16635,1,0,0:0:0:0:
48,264,16842,1,0,0:0:0:0:
248,192,17049,1,0,0:0:0:0:
54,347,17256,1,0,0:0:0:0:
239,264,17463,2,0,B|216:280|216:280|193:312|193:312|171:323,2,85
366,114,18291,5,0,0:0:0:0:
180,96,18497,1,0,0:0:0:0:
312,212,18704,1,0,0:0:0:0:
264,42,18911,1,0,0:0:0:0:
456,144,19118,1,0,0:0:0:0:
240,100,19325,1,0,0:0:0:0:
452,32,19532,1,0,0:0:0:0:
360,232,19739,1,0,0:0:0:0:
512,56,19946,1,0,0:0:0:0:
295,195,20153,1,0,0:0:0:0:
498,200,20360,1,0,0:0:0:0:
374,26,20566,1,0,0:0:0:0:
374,26,20980,5,0,0:0:0:0:
374,26,21187,2,0,P|359:92|305:133,1,110.499994941712
275,44,21601,2,0,P|239:65|223:113,1,85
267,189,22015,1,0,0:0:0:0:
267,189,22222,5,0,0:0:0:0:
267,189,22325,1,0,0:0:0:0:
267,189,22428,2,0,P|256:138|265:104,1,85
383,0,22842,5,0,0:0:0:0:
465,156,23049,1,0,0:0:0:0:
301,230,23256,1,0,0:0:0:0:
410,68,23463,1,0,0:0:0:0:
436,274,23670,1,0,0:0:0:0:
270,132,23877,1,0,0:0:0:0:
435,145,24084,6,0,P|473:191|473:279,1,127.5
512,243,24497,2,0,B|491:218|491:218|448:214|404:204,1,85
406,205,24808,1,0,0:0:0:0:
375,211,24911,1,0,0:0:0:0:
195,285,25118,2,0,P|161:308|106:334,2,85
274,208,25739,2,0,P|236:160|205:143,1,85
83,101,26153,1,0,0:0:0:0:
83,101,26360,5,0,0:0:0:0:
83,101,26463,1,0,0:0:0:0:
83,101,26566,2,0,P|87:160|120:196,1,85
315,153,26980,1,0,0:0:0:0:
161,96,27187,1,0,0:0:0:0:
13,185,27394,2,0,B|-2:176|-2:176|19:147|49:131,1,85
198,40,27808,6,0,B|224:23|253:9|286:13,1,76.4999976654053
301,15,28222,2,0,B|353:11|397:35|397:35|369:44|334:66,1,136
167,122,28635,2,0,P|201:159|255:186,1,85
405,122,29049,2,0,B|451:146|471:178|446:223,1,85
247,217,29463,2,0,P|203:192|174:150,1,85
213,37,29877,1,0,0:0:0:0:
397,53,30084,1,0,0:0:0:0:
324,231,30291,1,0,0:0:0:0:
438,93,30497,1,0,0:0:0:0:
264,66,30704,2,0,B|216:86|216:86|179:166|246:202,1,170
379,263,31325,5,0,0:0:0:0:
225,314,31532,2,0,P|184:280|166:230,1,85
290,132,31946,1,0,0:0:0:0:
126,145,32153,1,0,0:0:0:0:
45,269,32360,2,0,P|70:296|118:318,1,85
283,279,32773,1,0,0:0:0:0:
392,165,32980,1,0,0:0:0:0:
280,39,33187,6,0,B|241:53|214:73|196:113,1,85
126,235,33601,1,0,0:0:0:0:
325,200,33808,1,0,0:0:0:0:
210,89,34015,2,0,P|164:108|115:172,1,127.5
43,152,34428,2,0,P|59:215|77:233,1,85
197,357,34842,5,0,0:0:0:0:
311,200,35049,1,0,0:0:0:0:
100,247,35256,1,0,0:0:0:0:
318,235,35463,1,0,0:0:0:0:
237,383,35670,1,0,0:0:0:0:
366,230,35877,1,0,0:0:0:0:
150,171,36084,1,0,0:0:0:0:
302,306,36291,1,0,0:0:0:0:
334,104,36497,1,0,0:0:0:0:
121,220,36704,1,0,0:0:0:0:
302,321,36911,1,0,0:0:0:0:
225,122,37118,1,0,0:0:0:0:
60,246,37325,2,0,B|38:266|38:266|26:290|26:290|-10:315,2,85
283,82,38153,5,0,0:0:0:0:
123,207,38360,1,0,0:0:0:0:
364,159,38566,1,0,0:0:0:0:
243,321,38773,1,0,0:0:0:0:
307,127,38980,1,0,0:0:0:0:
173,281,39187,1,0,0:0:0:0:
380,298,39394,1,0,0:0:0:0:
198,156,39601,1,0,0:0:0:0:
261,348,39808,1,0,0:0:0:0:
388,170,40015,1,0,0:0:0:0:
158,193,40222,1,0,0:0:0:0:
329,355,40428,1,0,0:0:0:0:
329,355,40842,5,0,0:0:0:0:
329,355,41049,2,0,P|283:330|240:289,1,85
152,104,41463,2,0,P|210:112|260:133,1,101.999996887207
407,267,41877,2,0,P|469:235|498:202,1,101.999996887207
338,89,42291,2,0,P|255:119|236:135,1,101.999996887207
161,260,42704,5,0,0:0:0:0:
0,196,42911,1,0,0:0:0:0:
171,129,43118,1,0,0:0:0:0:
303,247,43325,1,0,0:0:0:0:
119,183,43532,1,0,0:0:0:0:
54,35,43739,1,0,0:0:0:0:
181,150,43946,6,0,P|169:254|104:279,1,152.999995330811
86,151,44360,2,0,P|119:82|183:60,1,101.999996887207
331,45,44773,2,0,B|360:62|360:62|346:102|284:128,1,101.999996887207
143,166,45187,1,0,0:0:0:0:
324,187,45394,1,0,0:0:0:0:
444,107,45601,2,0,P|392:71|330:72,1,101.999996887207
162,92,46015,1,0,0:0:0:0:
302,140,46222,1,0,0:0:0:0:
78,83,46428,6,0,P|44:146|39:191,1,101.999996887207
131,309,46842,1,0,0:0:0:0:
301,337,47049,1,0,0:0:0:0:
465,284,47256,2,0,B|477:235|473:199|470:176|443:160,1,101.999996887207
359,35,47670,2,0,B|303:41|264:58|245:95,1,101.999996887207
72,175,48084,2,0,P|107:218|169:243,1,101.999996887207
350,190,48497,2,0,P|291:138|248:132,1,85
29,160,48911,2,0,P|77:212|122:225,1,101.999996887207
326,275,49325,2,0,B|352:282|373:253|373:253|374:209|357:180,1,101.999996887207
254,45,49739,5,0,0:0:0:0:
140,173,49946,1,0,0:0:0:0:
328,141,50153,1,0,0:0:0:0:
138,204,50360,1,0,0:0:0:0:
252,40,50566,2,0,P|310:45|411:152,1,203.999993774414
374,285,51187,5,0,0:0:0:0:
199,314,51394,2,0,B|127:293|127:293|106:266,1,101.999996887207
119,142,51808,1,0,0:0:0:0:
261,197,52015,1,0,0:0:0:0:
420,137,52222,2,0,B|362:135|362:135|320:109,1,101.999996887207
133,9,52635,2,0,P|93:50|67:103,1,101.999996887207
131,272,53049,2,0,P|171:220|190:160,1,101.999996887207
81,5,53463,2,0,P|44:59|25:118,1,101.999996887207
87,281,53877,1,0,0:0:0:0:
87,281,54291,1,0,0:0:0:0:
137,171,54704,5,0,0:0:0:0:
53,351,54911,1,0,0:0:0:0:
98,168,55118,5,0,0:0:0:0:
145,355,55325,1,0,0:0:0:0:
28,210,55739,5,0,0:0:0:0:
119,79,55946,2,0,P|145:147|123:210,1,101.999996887207
0,199,56360,2,0,P|40:262|105:282,1,101.999996887207
261,318,56773,1,0,0:0:0:0:
418,252,56980,1,0,0:0:0:0:
401,89,57187,1,0,0:0:0:0:
401,89,57601,1,0,0:0:0:0:
439,5,58015,5,0,0:0:0:0:
341,199,58222,1,0,0:0:0:0:
388,5,58428,1,0,0:0:0:0:
435,203,58635,1,0,0:0:0:0:
352,20,59049,5,0,0:0:0:0:
483,102,59256,2,0,P|424:146|379:165,1,101.999996887207
214,45,59670,2,0,B|191:76|191:76|198:106|198:106|168:142,1,101.999996887207
42,238,60084,1,0,0:0:0:0:
135,1,60291,1,0,0:0:0:0:
122,226,61325,6,0,B|157:305|240:327|240:327|224:284|250:251|263:218,1,237.999992736817
395,180,61946,1,0,0:0:0:0:
205,180,62153,1,0,0:0:0:0:
325,80,62360,1,0,0:0:0:0:
452,180,62566,2,0,B|468:253|411:284|411:284|351:248|296:257,1,237.999992736817
151,266,63187,5,0,0:0:0:0:
71,224,63394,1,0,0:0:0:0:
37,140,63601,1,0,0:0:0:0:
255,33,63808,5,0,0:0:0:0:
303,51,64015,1,0,0:0:0:0:
154,158,64222,5,0,0:0:0:0:
106,140,64429,1,0,0:0:0:0:
264,26,64635,6,0,B|341:51|377:13|433:29|433:29|426:66|400:97|371:117,1,237.999992736817
166,171,65256,1,0,0:0:0:0:
218,329,65463,1,0,0:0:0:0:
376,264,65670,1,0,0:0:0:0:
334,135,65877,2,0,B|271:88|221:93|221:93|195:145|116:145,1,237.999992736817
105,44,66497,5,0,0:0:0:0:
260,55,66704,1,0,0:0:0:0:
227,239,66911,1,0,0:0:0:0:
57,227,67118,1,0,0:0:0:0:
112,45,67325,5,0,0:0:0:0:
117,61,67428,1,0,0:0:0:0:
125,76,67532,2,0,B|143:110|160:133|159:133|159:133|208:160,1,118.999996368408
365,231,67946,2,0,B|389:194|444:180|479:124|479:124|455:114|420:93|368:136,1,237.999992736817
213,148,68566,1,0,0:0:0:0:
146,312,68773,1,0,0:0:0:0:
349,337,68980,1,0,0:0:0:0:
408,172,69187,2,0,B|418:138|452:108|452:108|379:119|329:145|300:210,1,237.999992736817
253,334,69808,5,0,0:0:0:0:
176,320,70015,1,0,0:0:0:0:
120,271,70222,1,0,0:0:0:0:
21,124,70428,5,0,0:0:0:0:
63,100,70635,1,0,0:0:0:0:
291,142,70842,5,0,0:0:0:0:
249,166,71049,1,0,0:0:0:0:
22,75,71256,6,0,B|91:23|162:15|162:15|194:62|257:68,1,237.999992736817
409,54,71877,1,0,0:0:0:0:
229,165,72084,1,0,0:0:0:0:
302,60,72291,1,0,0:0:0:0:
143,100,72497,2,0,B|87:137|77:198|77:198|178:209|203:251,1,237.999992736817
289,357,73118,5,0,0:0:0:0:
416,241,73325,1,0,0:0:0:0:
244,181,73532,1,0,0:0:0:0:
337,289,73739,1,0,0:0:0:0:
321,107,73946,5,0,0:0:0:0:
309,113,74049,1,0,0:0:0:0:
298,120,74153,2,0,P|236:180|212:224,1,118.999996368408,0|0,0:3|0:3,0:3:0:0:
291,274,74566,2,0,P|228:321|123:219,1,237.999992736817
244,47,75394,6,0,P|296:15|348:4,1,93.5000028533936
332,181,75808,2,0,P|280:213|228:224,1,93.5000028533936
52,110,76222,5,0,0:0:0:0:
280,161,76428,1,0,0:0:0:0:
84,152,76635,1,0,0:0:0:0:
258,77,76842,1,0,0:0:0:0:
256,56,77256,5,0,0:0:0:0:
146,98,77463,2,0,P|175:144|212:165,1,93.5000028533936
366,98,77877,2,0,P|337:144|300:165,1,93.5000028533936
146,162,78291,5,0,0:0:0:0:
58,58,78497,1,0,0:0:0:0:
181,59,78704,1,0,0:0:0:0:
71,59,78911,1,0,0:0:0:0:
151,172,79118,1,0,0:0:0:0:
189,59,79325,1,0,0:0:0:0:
324,59,79532,1,0,0:0:0:0:
320,51,79946,5,0,0:0:0:0:
313,42,80360,5,0,0:0:0:0:
156,253,81187,5,0,0:0:0:0:
305,161,81394,1,0,0:0:0:0:
112,184,81601,1,0,0:0:0:0:
293,265,81808,1,0,0:0:0:0:
89,309,82015,1,0,0:0:0:0:
298,217,82222,1,0,0:0:0:0:
67,197,82428,1,0,0:0:0:0:
235,334,82635,1,0,0:0:0:0:
326,189,82842,1,0,0:0:0:0:
129,146,83049,1,0,0:0:0:0:
310,250,83256,1,0,0:0:0:0:
377,107,83463,1,0,0:0:0:0:
179,185,83670,2,0,B|152:196|152:196|123:222|123:222|100:230,2,85
429,194,84497,5,0,0:0:0:0:
214,94,84704,1,0,0:0:0:0:
307,244,84911,1,0,0:0:0:0:
300,39,85118,1,0,0:0:0:0:
387,217,85325,1,0,0:0:0:0:
162,126,85532,1,0,0:0:0:0:
378,108,85739,1,0,0:0:0:0:
166,238,85946,1,0,0:0:0:0:
254,46,86153,1,0,0:0:0:0:
414,177,86360,1,0,0:0:0:0:
214,237,86566,1,0,0:0:0:0:
326,40,86773,1,0,0:0:0:0:
326,40,87187,5,0,0:0:0:0:
326,40,87394,2,0,B|320:80|320:80|297:96|297:96|293:138,1,85
50,210,87808,2,0,P|59:249|162:311,1,152.999995330811
255,282,88428,1,0,0:0:0:0:
307,176,88635,1,0,0:0:0:0:
245,83,88842,1,0,0:0:0:0:
61,100,89049,6,0,P|77:168|62:99,1,152.999995330811
50,32,89463,2,0,P|193:103|118:235,1,305.999990661621
106,121,90084,2,0,L|223:66,1,118.999996368408
360,129,90497,5,0,0:0:0:0:
368,146,90601,1,0,0:0:0:0:
371,167,90704,2,0,B|378:194|371:212|371:212|339:254|300:250,1,101.999996887207
217,134,91118,2,0,B|147:166|133:210|142:289|197:314,1,203.999993774414
231,224,91739,5,0,0:0:0:0:
125,171,91946,2,0,P|165:125|232:122,1,101.999996887207
136,264,92360,2,0,P|186:323|249:332,1,127.500004863739
85,145,92773,2,0,B|58:129|9:150|9:150|54:107|134:96|188:108|215:152,1,255.000009727478
138,172,93394,1,0,0:0:0:0:
8,99,93601,2,0,B|47:70|126:33|237:74|289:136,1,255.000009727478
362,234,94222,1,0,0:0:0:0:
474,120,94428,2,0,P|416:81|337:89,1,127.500004863739
54,133,94842,6,0,B|107:195|108:196|108:195|108:195|168:202,1,127.500004863739
318,70,95256,2,0,B|388:110|390:110|389:111|389:111|407:168,1,127.500004863739
319,344,95670,2,0,B|265:318|265:318|230:249,1,127.500004863739
360,139,96084,6,0,P|312:94|265:95,1,93.5000028533936
281,185,96497,1,0,0:0:0:0:
281,185,96704,1,0,0:0:0:0:
360,139,96911,6,0,P|292:91|218:115,1,127.500004863739
281,185,97325,1,0,0:0:0:0:
281,185,97532,1,0,0:0:0:0:
360,139,97739,6,0,P|284:89|197:147,1,152.999995330811
281,185,98153,1,0,0:0:0:0:
281,185,98360,1,0,0:0:0:0:
281,185,98566,2,0,B|316:237|316:237|379:270,1,101.999996887207
373,168,98980,1,0,0:0:0:0:
303,102,99187,1,0,0:0:0:0:
208,101,99394,2,0,B|164:101|164:101|127:147,1,101.999996887207
88,229,99808,1,0,0:0:0:0:
88,320,100015,1,0,0:0:0:0:
96,326,100222,5,0,0:0:0:0:
104,334,100635,1,0,0:0:0:0:
10,253,101049,5,0,0:0:0:0:
202,359,101256,1,0,0:0:0:0:
215,251,101463,5,0,0:0:0:0:
0,322,101670,1,0,0:0:0:0:
218,252,102084,5,0,0:0:0:0:
186,88,102291,2,0,P|118:115|90:152,1,101.999996887207
100,322,102704,2,0,B|121:346|121:346|144:359|195:351,1,101.999996887207
330,279,103118,1,0,0:0:0:0:
395,141,103325,1,0,0:0:0:0:
304,26,103532,1,0,0:0:0:0:
304,26,103946,1,0,0:0:0:0:
207,35,104360,5,0,0:0:0:0:
395,193,104566,1,0,0:0:0:0:
450,100,104773,5,0,0:0:0:0:
200,108,104980,1,0,0:0:0:0:
86,157,105394,5,0,0:0:0:0:
255,78,105601,2,0,B|273:112|273:112|304:136|304:136|315:162,1,101.999996887207
215,340,106015,2,0,P|282:377|317:364,1,101.999996887207
423,242,106428,1,0,0:0:0:0:
146,310,106635,1,0,0:0:0:0:
65,88,107670,6,0,B|104:46|151:36|211:45|211:45|218:76|242:111|287:109,1,237.999992736817
373,133,108291,1,0,0:0:0:0:
470,24,108497,1,0,0:0:0:0:
470,172,108704,1,0,0:0:0:0:
410,293,108911,2,0,B|403:325|474:373|474:373|405:341|359:320|298:344,1,237.999992736817
238,305,109532,5,0,0:0:0:0:
127,314,109739,1,0,0:0:0:0:
32,366,109946,1,0,0:0:0:0:
204,254,110153,5,0,0:0:0:0:
234,226,110360,1,0,0:0:0:0:
186,41,110566,5,0,0:0:0:0:
156,69,110773,1,0,0:0:0:0:
78,202,110980,6,0,B|80:285|105:347|137:336|137:336|167:314|189:296|225:300,1,237.999992736817
340,362,111601,1,0,0:0:0:0:
450,180,111808,1,0,0:0:0:0:
207,179,112015,1,0,0:0:0:0:
348,234,112222,2,0,B|385:256|468:269|468:269|419:313|419:313|358:305,1,237.999992736817
218,229,112842,5,0,0:0:0:0:
215,69,113049,1,0,0:0:0:0:
114,249,113256,1,0,0:0:0:0:
304,336,113463,1,0,0:0:0:0:
417,147,113670,5,0,0:0:0:0:
394,122,113773,1,0,0:0:0:0:
366,114,113877,2,0,B|336:103|285:98|239:131,1,118.999996368408
42,254,114291,6,0,B|-7:330|-7:330|37:323|96:309|117:289|114:247,1,237.999992736817
130,111,114911,1,0,0:0:0:0:
328,36,115118,1,0,0:0:0:0:
207,171,115325,1,0,0:0:0:0:
98,33,115532,2,0,B|35:29|5:73|5:73|66:101|13:152|80:188,1,237.999992736817
116,247,116153,5,0,0:0:0:0:
185,332,116360,1,0,0:0:0:0:
250,249,116566,1,0,0:0:0:0:
109,54,116773,5,0,0:0:0:0:
72,34,116980,1,0,0:0:0:0:
137,229,117187,5,0,0:0:0:0:
174,249,117394,1,0,0:0:0:0:
162,85,117601,6,0,B|103:14|103:14|176:40|235:38|222:78,1,237.999992736817
248,256,118222,1,0,0:0:0:0:
52,279,118428,1,0,0:0:0:0:
170,141,118635,1,0,0:0:0:0:
365,231,118842,2,0,B|420:274|480:295|480:295|421:344|350:325,1,237.999992736817
191,274,119463,5,0,0:0:0:0:
159,108,119670,1,0,0:0:0:0:
329,216,119877,1,0,0:0:0:0:
166,324,120084,1,0,0:0:0:0:
0,144,120291,5,0,0:3:0:0:
21,150,120394,1,0,0:3:0:0:
37,169,120497,2,0,B|74:200|120:204|120:204|128:184|148:159,1,118.999996368408,0|0,0:3|0:3,0:3:0:0:
35,59,120911,2,0,P|113:7|244:59,1,237.999992736817
155,260,121739,2,0,P|107:207|90:165,1,93.5000028533936
210,0,122153,2,0,P|257:52|274:94,1,93.5000028533936
264,268,122566,5,0,0:0:0:0:
73,325,122773,1,0,0:0:0:0:
412,204,122980,1,0,0:0:0:0:
207,222,123187,1,0,0:0:0:0:
194,239,123601,5,0,0:0:0:0:
111,152,123808,2,0,B|163:126|162:126|162:126|202:138,1,93.5000028533936
287,315,124222,2,0,B|235:341|236:341|236:341|196:329,1,93.5000028533936
332,220,124635,5,0,0:0:0:0:
425,119,124842,1,0,0:0:0:0:
272,93,125049,1,0,0:0:0:0:
432,122,125256,1,0,0:0:0:0:
329,227,125463,1,0,0:0:0:0:
266,88,125670,1,0,0:0:0:0:
103,15,125877,1,0,0:0:0:0:
94,26,126291,5,0,0:0:0:0:
86,36,126704,5,0,0:0:0:0:
324,144,127532,5,0,0:0:0:0:
181,258,127739,1,0,0:0:0:0:
379,159,127946,1,0,0:0:0:0:
145,112,128153,1,0,0:0:0:0:
392,214,128360,1,0,0:0:0:0:
192,309,128566,1,0,0:0:0:0:
388,146,128773,1,0,0:0:0:0:
164,154,128980,1,0,0:0:0:0:
326,296,129187,1,0,0:0:0:0:
464,139,129394,1,0,0:0:0:0:
220,49,129601,1,0,0:0:0:0:
357,255,129808,1,0,0:0:0:0:
140,142,130015,2,0,B|114:130|114:130|75:126|75:126|54:112,2,85
284,210,130842,5,0,0:0:0:0:
408,88,131049,1,0,0:0:0:0:
323,256,131256,1,0,0:0:0:0:
309,75,131463,1,0,0:0:0:0:
373,270,131670,1,0,0:0:0:0:
213,97,131877,1,0,0:0:0:0:
426,250,132084,1,0,0:0:0:0:
161,280,132291,1,0,0:0:0:0:
308,109,132497,1,0,0:0:0:0:
511,192,132704,1,0,0:0:0:0:
235,255,132911,1,0,0:0:0:0:
389,24,133118,1,0,0:0:0:0:
394,21,133532,5,0,0:0:0:0:
394,21,133739,2,0,P|351:86|315:103,1,85
166,50,134153,5,0,0:0:0:0:
46,184,134360,1,0,0:0:0:0:
297,148,134567,1,0,0:0:0:0:
113,121,134774,1,0,0:0:0:0:
222,306,134981,1,0,0:0:0:0:
157,113,135188,1,0,0:0:0:0:
331,233,135395,1,0,0:0:0:0:
93,162,135601,1,0,0:0:0:0:
305,94,135808,1,0,0:0:0:0:
78,204,136015,1,0,0:0:0:0:
325,191,136222,1,0,0:0:0:0:
125,348,136429,1,0,0:0:0:0:
214,130,136635,2,0,B|230:104|230:104|233:77|233:77|253:49,2,85
89,300,137463,5,0,0:0:0:0:
329,183,137670,1,0,0:0:0:0:
183,350,137877,1,0,0:0:0:0:
259,114,138084,1,0,0:0:0:0:
110,288,138291,1,0,0:0:0:0:
372,187,138498,1,0,0:0:0:0:
130,210,138705,1,0,0:0:0:0:
364,329,138912,1,0,0:0:0:0:
242,106,139119,1,0,0:0:0:0:
107,308,139326,1,0,0:0:0:0:
344,328,139532,1,0,0:0:0:0:
189,115,139739,1,0,0:0:0:0:
189,115,140153,5,0,0:0:0:0:
189,115,140360,2,0,B|221:139|221:139|223:167|223:167|258:191,2,85
256,192,147394,5,0,0:0:0:0:
210,119,147808,2,0,P|174:172|175:233,1,118.999996368408
256,192,148222,5,0,0:0:0:0:
177,227,148635,2,0,P|224:270|285:277,1,118.999996368408
256,192,149049,5,0,0:0:0:0:
274,276,149463,2,0,P|326:238|346:181,1,118.999996368408
256,192,149877,5,0,0:0:0:0:
256,192,150291,5,0,0:0:0:0:
256,192,150704,5,0,0:0:0:0:
259,105,151118,2,0,P|317:133|346:187,1,118.999996368408
256,192,151532,5,0,0:0:0:0:
341,181,151946,2,0,P|323:243|275:280,1,118.999996368408
256,192,152360,5,0,0:0:0:0:
282,274,152773,2,0,P|218:267|172:227,1,118.999996368408
256,192,153187,5,0,0:0:0:0:
256,192,153601,5,0,0:0:0:0:
256,192,153808,1,0,0:0:0:0:
110,158,154015,2,0,B|70:164|14:141|14:141|59:169|109:209|82:272,1,237.999992736817
0,348,154635,1,0,0:0:0:0:
153,220,154842,1,0,0:0:0:0:
355,280,155049,1,0,0:0:0:0:
496,146,155256,2,0,B|471:84|408:82|408:82|361:99|311:115|269:86,1,237.999992736817
186,49,155877,5,0,0:0:0:0:
118,42,156084,1,0,0:0:0:0:
62,79,156291,1,0,0:0:0:0:
203,235,156497,5,0,0:0:0:0:
242,252,156704,1,0,0:0:0:0:
449,157,156911,5,0,0:0:0:0:
410,140,157118,1,0,0:0:0:0:
192,184,157325,6,0,B|123:219|110:258|110:258|151:267|151:267|189:232|260:216,1,237.999992736817
444,203,157946,1,0,0:0:0:0:
277,324,158153,1,0,0:0:0:0:
341,201,158360,1,0,0:0:0:0:
133,238,158566,2,0,B|90:250|60:256|20:290|20:290|32:227|69:201|123:203,1,237.999992736817
290,163,159187,5,0,0:0:0:0:
97,20,159394,1,0,0:0:0:0:
239,124,159601,1,0,0:0:0:0:
56,245,159808,1,0,0:0:0:0:
149,58,160015,5,0,0:0:0:0:
154,69,160118,1,0,0:0:0:0:
159,80,160222,2,0,B|197:166|197:166|246:192,1,118.999996368408
369,88,160635,2,0,P|412:169|326:286,1,237.999992736817
180,99,161463,6,0,P|233:70|273:64,1,93.5000028533936
289,198,161877,6,0,P|236:227|196:233,1,93.5000028533936
9,85,162291,5,0,0:0:0:0:
189,204,162497,1,0,0:0:0:0:
34,0,162704,1,0,0:0:0:0:
85,168,162911,1,0,0:0:0:0:
76,184,163325,5,0,0:0:0:0:
0,190,163532,2,0,P|23:111|40:96,1,93.5000028533936
37,254,163946,2,0,P|118:255|138:244,1,93.5000028533936
184,133,164360,5,0,0:0:0:0:
274,20,164566,1,0,0:0:0:0:
353,141,164773,1,0,0:0:0:0:
271,14,164980,1,0,0:0:0:0:
178,137,165187,1,0,0:0:0:0:
358,144,165394,1,0,0:0:0:0:
512,147,165601,1,0,0:0:0:0:
503,155,166015,5,0,0:0:0:0:
494,163,166428,5,0,0:0:0:0:
321,271,167256,5,0,0:0:0:0:
101,177,167463,1,0,0:0:0:0:
256,296,167670,1,0,0:0:0:0:
150,110,167877,1,0,0:0:0:0:
184,326,168084,1,0,0:0:0:0:
309,107,168291,1,0,0:0:0:0:
81,243,168497,1,0,0:0:0:0:
318,328,168704,1,0,0:0:0:0:
219,132,168911,1,0,0:0:0:0:
46,288,169118,1,0,0:0:0:0:
329,359,169325,1,0,0:0:0:0:
142,142,169532,1,0,0:0:0:0:
38,295,169739,2,0,B|22:318|22:318|12:356|12:356|-4:374,2,85
245,110,170566,5,0,0:0:0:0:
415,52,170773,1,0,0:0:0:0:
219,199,170980,1,0,0:0:0:0:
369,149,171187,1,0,0:0:0:0:
160,52,171394,1,0,0:0:0:0:
310,235,171601,1,0,0:0:0:0:
123,131,171808,1,0,0:0:0:0:
247,346,172015,1,0,0:0:0:0:
316,154,172222,1,0,0:0:0:0:
104,233,172428,1,0,0:0:0:0:
381,289,172635,1,0,0:0:0:0:
256,55,172842,1,0,0:0:0:0:
259,50,173256,5,0,0:0:0:0:
262,48,173463,2,0,P|224:85|210:128,1,93.5000028533936
314,327,173877,5,0,0:0:0:0:
133,199,174084,1,0,0:0:0:0:
326,239,174291,1,0,0:0:0:0:
158,98,174497,1,0,0:0:0:0:
226,301,174704,1,0,0:0:0:0:
392,113,174911,1,0,0:0:0:0:
352,324,175118,1,0,0:0:0:0:
440,143,175325,1,0,0:0:0:0:
204,227,175532,1,0,0:0:0:0:
432,353,175739,1,0,0:0:0:0:
313,138,175946,1,0,0:0:0:0:
163,357,176153,1,0,0:0:0:0:
339,220,176360,2,0,B|365:204|365:204|392:203|392:203|421:184,2,85
132,295,177187,5,0,0:0:0:0:
272,188,177394,1,0,0:0:0:0:
166,346,177601,1,0,0:0:0:0:
174,163,177808,1,0,0:0:0:0:
214,366,178015,1,0,0:0:0:0:
75,173,178222,1,0,0:0:0:0:
270,353,178429,1,0,0:0:0:0:
0,350,178636,1,0,0:0:0:0:
169,197,178842,1,0,0:0:0:0:
363,305,179049,1,0,0:0:0:0:
77,334,179256,1,0,0:0:0:0:
261,121,179463,1,0,0:0:0:0:
262,116,179877,5,0,0:0:0:0:
262,116,180084,2,0,B|244:144|244:144|246:177|246:177|224:210,2,85
