osu file format v14

[General]
AudioFilename: audio.mp3
AudioLeadIn: 0
PreviewTime: 70263
Countdown: 0
SampleSet: Normal
StackLeniency: 0.7
Mode: 1
LetterboxInBreaks: 0
WidescreenStoryboard: 0

[Editor]
DistanceSpacing: 0.9
BeatDivisor: 6
GridSize: 32
TimelineZoom: 2.2

[Metadata]
Title:Daidai no Gensokyo Ondo
TitleUnicode:橙の幻想郷音頭
Artist:Kinema-Kan
ArtistUnicode:杵まーかん
Creator:Surono
Version:Muzukashii
Source:東方妖々夢 ~ Perfect Cherry Blossom.
Tags:Touhou Project Kinema kan chen shikigami HONK march dance PV 「遠野幻想物語」 The Fantastic Legend of Tohno ZUN
BeatmapID:1732470
BeatmapSetID:826716

[Difficulty]
HPDrainRate:7
CircleSize:2
OverallDifficulty:5
ApproachRate:10
SliderMultiplier:1.6
SliderTickRate:1

[Events]
//Background and Video events
0,0,"touhou___chen_is_sleeping.jpg",0,-130
//Break Periods
//Storyboard Layer 0 (Background)
//Storyboard Layer 1 (Fail)
//Storyboard Layer 2 (Pass)
//Storyboard Layer 3 (Foreground)
//Storyboard Sound Samples

[TimingPoints]
214,441.176470588235,4,1,1,80,1,0
21390,-100,4,1,1,80,0,1
35508,-100,4,1,1,80,0,0
45508,-100,4,1,0,90,0,0
45875,-100,4,1,1,80,0,0
63302,-100,4,1,0,90,0,0
63522,-100,4,1,1,80,0,0
70802,-100,4,1,1,80,0,1
84846,-100,4,1,1,90,0,1
91978,-100,4,1,1,90,0,0
93743,500,4,1,1,90,1,0
94243,530.973451327434,4,1,1,90,1,8
94243,-102.564102564103,4,1,1,90,0,0
94493,-108.108108108108,4,1,1,90,0,0
94773,576.923076923077,4,1,1,90,1,8
95243,-117.647058823529,4,1,1,45,0,0

[HitObjects]
256,192,1978,5,0,0:0:0:0:
256,192,2272,1,0,0:0:0:0:
256,192,2713,1,0,0:0:0:0:
256,192,2861,1,0,0:0:0:0:
256,192,3302,1,8,0:0:0:0:
256,192,3743,1,4,0:0:0:0:
256,192,4184,1,8,0:0:0:0:
256,192,4625,1,8,0:0:0:0:
256,192,4919,1,0,0:0:0:0:
256,192,5066,1,8,0:0:0:0:
256,192,5361,1,8,0:0:0:0:
256,192,5508,1,0,0:0:0:0:
256,192,5802,1,0,0:0:0:0:
256,192,6243,1,8,0:0:0:0:
256,192,6390,1,0,0:0:0:0:
256,192,7272,1,0,0:0:0:0:
256,192,7713,1,0,0:0:0:0:
256,192,8155,1,0,0:0:0:0:
256,192,8449,1,0,0:0:0:0:
256,192,8596,1,8,0:0:0:0:
256,192,8890,1,8,0:0:0:0:
256,192,9037,1,0,0:0:0:0:
256,192,9331,1,8,0:0:0:0:
256,192,9772,1,0,0:0:0:0:
256,192,9919,1,0,0:0:0:0:
256,192,10361,1,8,0:0:0:0:
256,192,10802,1,4,0:0:0:0:
256,192,11243,1,0,0:0:0:0:
256,192,11537,1,8,0:0:0:0:
256,192,11684,1,8,0:0:0:0:
256,192,11978,1,0,0:0:0:0:
256,192,12125,1,0,0:0:0:0:
256,192,12566,1,8,0:0:0:0:
256,192,13008,1,8,0:0:0:0:
256,192,13302,1,0,0:0:0:0:
256,192,13449,1,0,0:0:0:0:
256,192,13890,1,8,0:0:0:0:
256,192,14184,1,0,0:0:0:0:
256,192,14331,1,0,0:0:0:0:
256,192,14625,1,8,0:0:0:0:
256,192,15066,1,0,0:0:0:0:
256,192,15213,1,0,0:0:0:0:
256,192,15655,1,0,0:0:0:0:
256,192,15949,1,8,0:0:0:0:
256,192,16096,1,8,0:0:0:0:
256,192,16537,1,0,0:0:0:0:
256,192,16978,1,0,0:0:0:0:
256,192,17272,1,0,0:0:0:0:
256,192,17419,1,0,0:0:0:0:
256,192,17566,1,0,0:0:0:0:
256,192,17861,1,6,0:0:0:0:
256,192,18743,1,6,0:0:0:0:
256,192,19625,1,4,0:0:0:0:
256,192,20066,1,4,0:0:0:0:
256,192,20361,1,6,0:0:0:0:
256,192,20508,1,6,0:0:0:0:
256,192,21390,5,4,0:0:0:0:
256,192,21684,1,6,0:0:0:0:
256,192,22272,1,4,0:0:0:0:
256,192,22566,1,8,0:0:0:0:
256,192,22713,1,8,0:0:0:0:
256,192,23155,1,4,0:0:0:0:
256,192,23596,1,6,0:0:0:0:
256,192,24037,1,4,0:0:0:0:
256,192,24331,1,0,0:0:0:0:
256,192,24478,1,8,0:0:0:0:
256,192,24919,1,4,0:0:0:0:
256,192,25361,1,6,0:0:0:0:
256,192,25802,1,4,0:0:0:0:
256,192,26243,1,6,0:0:0:0:
256,192,26684,1,4,0:0:0:0:
256,192,27125,1,4,0:0:0:0:
256,192,27566,1,6,0:0:0:0:
256,192,28449,1,4,0:0:0:0:
256,192,28743,1,4,0:0:0:0:
256,192,29331,1,4,0:0:0:0:
256,192,29625,1,8,0:0:0:0:
256,192,29772,1,8,0:0:0:0:
256,192,30213,1,4,0:0:0:0:
256,192,30655,1,6,0:0:0:0:
256,192,31096,1,4,0:0:0:0:
256,192,31390,1,8,0:0:0:0:
256,192,31537,1,0,0:0:0:0:
256,192,31978,1,4,0:0:0:0:
256,192,32419,1,6,0:0:0:0:
256,192,32861,1,4,0:0:0:0:
256,192,33302,1,6,0:0:0:0:
256,192,33743,1,4,0:0:0:0:
256,192,34184,1,4,0:0:0:0:
256,192,34625,1,6,0:0:0:0:
256,192,34919,1,0,0:0:0:0:
256,192,35066,1,8,0:0:0:0:
256,192,35508,1,4,0:0:0:0:
256,192,35949,1,0,0:0:0:0:
256,192,36390,1,0,0:0:0:0:
256,192,36684,1,8,0:0:0:0:
256,192,36831,1,0,0:0:0:0:
256,192,37125,1,0,0:0:0:0:
256,192,37272,1,8,0:0:0:0:
256,192,37713,1,0,0:0:0:0:
256,192,38008,1,8,0:0:0:0:
256,192,38155,1,8,0:0:0:0:
256,192,38596,1,8,0:0:0:0:
256,192,39037,1,0,0:0:0:0:
256,192,39478,1,0,0:0:0:0:
256,192,39919,1,0,0:0:0:0:
256,192,40213,1,0,0:0:0:0:
256,192,40361,1,8,0:0:0:0:
256,192,40655,1,0,0:0:0:0:
256,192,40802,1,8,0:0:0:0:
256,192,41243,1,8,0:0:0:0:
256,192,41537,1,0,0:0:0:0:
256,192,41684,1,0,0:0:0:0:
256,192,42125,1,8,0:0:0:0:
256,192,42566,1,4,0:0:0:0:
256,192,43008,1,8,0:0:0:0:
256,192,43302,1,8,0:0:0:0:
256,192,43449,1,0,0:0:0:0:
256,192,44331,1,4,0:0:0:0:
256,192,44772,1,8,0:0:0:0:
256,192,45066,1,0,0:0:0:0:
256,192,45213,1,8,0:0:0:0:
256,192,45655,1,12,0:0:0:0:
256,192,46096,1,4,0:0:0:0:
256,192,46537,1,8,0:0:0:0:
256,192,46978,1,4,0:0:0:0:
256,192,47419,1,8,0:0:0:0:
256,192,47861,1,4,0:0:0:0:
256,192,48302,1,6,0:0:0:0:
256,192,48596,1,4,0:0:0:0:
256,192,48743,1,4,0:0:0:0:
256,192,49184,1,8,0:0:0:0:
256,192,49625,1,4,0:0:0:0:
256,192,50508,1,6,0:0:0:0:
256,192,51390,1,4,0:0:0:0:
256,192,51831,1,4,0:0:0:0:
256,192,52272,1,6,0:0:0:0:
256,192,52713,1,6,0:0:0:0:
256,192,53155,1,4,0:0:0:0:
256,192,53596,1,0,0:0:0:0:
256,192,54037,1,0,0:0:0:0:
256,192,54331,1,0,0:0:0:0:
256,192,54478,1,8,0:0:0:0:
256,192,54772,1,0,0:0:0:0:
256,192,54919,1,8,0:0:0:0:
256,192,55361,1,0,0:0:0:0:
256,192,55655,1,8,0:0:0:0:
256,192,55802,1,8,0:0:0:0:
256,192,56243,1,8,0:0:0:0:
256,192,56684,1,0,0:0:0:0:
256,192,57125,1,0,0:0:0:0:
256,192,57566,1,0,0:0:0:0:
256,192,57861,1,8,0:0:0:0:
256,192,58008,1,0,0:0:0:0:
256,192,58302,1,8,0:0:0:0:
256,192,58449,1,0,0:0:0:0:
256,192,58890,1,8,0:0:0:0:
256,192,59184,1,0,0:0:0:0:
256,192,59331,1,0,0:0:0:0:
256,192,59772,1,8,0:0:0:0:
256,192,60213,1,4,0:0:0:0:
256,192,60655,1,8,0:0:0:0:
256,192,60949,1,0,0:0:0:0:
256,192,61096,1,0,0:0:0:0:
256,192,61978,1,4,0:0:0:0:
256,192,62272,1,8,0:0:0:0:
256,192,62419,1,8,0:0:0:0:
256,192,62861,1,4,0:0:0:0:
256,192,63302,1,12,0:0:0:0:
256,192,63743,1,4,0:0:0:0:
256,192,64184,1,8,0:0:0:0:
256,192,64625,1,4,0:0:0:0:
256,192,65066,1,8,0:0:0:0:
256,192,65508,1,4,0:0:0:0:
256,192,65949,1,6,0:0:0:0:
256,192,66243,1,4,0:0:0:0:
256,192,66390,1,4,0:0:0:0:
256,192,66831,1,8,0:0:0:0:
256,192,67272,1,4,0:0:0:0:
256,192,68155,1,6,0:0:0:0:
256,192,69037,1,4,0:0:0:0:
256,192,69478,1,4,0:0:0:0:
256,192,69772,1,6,0:0:0:0:
256,192,69919,1,6,0:0:0:0:
256,192,70802,5,4,0:0:0:0:
256,192,71096,1,6,0:0:0:0:
256,192,71684,1,4,0:0:0:0:
256,192,71978,1,8,0:0:0:0:
256,192,72125,1,8,0:0:0:0:
256,192,72566,1,4,0:0:0:0:
256,192,73008,1,6,0:0:0:0:
256,192,73449,1,4,0:0:0:0:
256,192,73743,1,0,0:0:0:0:
256,192,73890,1,8,0:0:0:0:
256,192,74331,1,4,0:0:0:0:
256,192,74772,1,6,0:0:0:0:
256,192,75213,1,4,0:0:0:0:
256,192,75655,1,6,0:0:0:0:
256,192,76096,1,4,0:0:0:0:
256,192,76537,1,4,0:0:0:0:
256,192,76978,1,6,0:0:0:0:
256,192,77861,1,4,0:0:0:0:
256,192,78155,1,4,0:0:0:0:
256,192,78743,1,4,0:0:0:0:
256,192,79037,1,8,0:0:0:0:
256,192,79184,1,8,0:0:0:0:
256,192,79625,1,4,0:0:0:0:
256,192,80066,1,6,0:0:0:0:
256,192,80508,1,4,0:0:0:0:
256,192,80802,1,8,0:0:0:0:
256,192,80949,1,0,0:0:0:0:
256,192,81390,1,4,0:0:0:0:
256,192,81831,1,6,0:0:0:0:
256,192,82272,1,4,0:0:0:0:
256,192,82713,1,6,0:0:0:0:
256,192,83155,1,4,0:0:0:0:
256,192,83596,1,4,0:0:0:0:
256,192,84037,1,6,0:0:0:0:
256,192,84919,5,4,0:0:0:0:
256,192,85213,1,4,0:0:0:0:
256,192,85802,1,4,0:0:0:0:
256,192,86096,1,8,0:0:0:0:
256,192,86243,1,8,0:0:0:0:
256,192,86684,1,6,0:0:0:0:
256,192,87125,1,6,0:0:0:0:
256,192,87566,1,4,0:0:0:0:
256,192,87861,1,0,0:0:0:0:
256,192,88008,1,0,0:0:0:0:
256,192,88449,1,4,0:0:0:0:
256,192,88890,1,4,0:0:0:0:
256,192,89331,1,6,0:0:0:0:
256,192,89772,1,6,0:0:0:0:
256,192,90213,1,4,0:0:0:0:
256,192,90655,1,4,0:0:0:0:
256,192,91096,1,6,0:0:0:0:
256,192,91390,1,0,0:0:0:0:
256,192,91537,1,8,0:0:0:0:
256,192,91978,1,4,0:0:0:0:
256,192,92861,1,6,0:0:0:0:
256,192,93743,1,4,0:0:0:0:
256,192,94243,1,4,0:0:0:0:
256,192,94596,1,6,0:0:0:0:
256,192,94773,1,6,0:0:0:0:
256,192,95349,1,0,0:0:0:0:
