osu file format v14

[General]
AudioFilename: audio.mp3
AudioLeadIn: 0
PreviewTime: 13763
Countdown: 0
SampleSet: Normal
StackLeniency: 0.7
Mode: 2
LetterboxInBreaks: 0
WidescreenStoryboard: 0

[Editor]
DistanceSpacing: 1
BeatDivisor: 8
GridSize: 4
TimelineZoom: 1.8

[Metadata]
Title:Chouon Chuu Haikatsuryou Test
TitleUnicode:長音厨肺活量テスト
Artist:KimurawaiP
ArtistUnicode:木村わいP
Creator:Xinnoh
Version:Raaaaaaaaaaaaaaaaaaaaaaaaaaaaaaaaaaaaaaaaaaaaaaaaaaaaaaaaaaaaaaaaaaaaaain
Source:
Tags:hatsune miku 初音ミク sinnoh vocaloid novelty japanese long tone test aaaaaaaaaaaaaaaaaaaaaaaaaaaaaaaaaaaaaaaaaaaaaaaaaaaaaaaaaaa
BeatmapID:3915057
BeatmapSetID:1668029

[Difficulty]
HPDrainRate:6
CircleSize:3
OverallDifficulty:9
ApproachRate:9
SliderMultiplier:1.7
SliderTickRate:2

[Events]
//Background and Video events
0,0,"hqdefault.jpg",0,0
//Break Periods
//Storyboard Layer 0 (Background)
//Storyboard Layer 1 (Fail)
//Storyboard Layer 2 (Pass)
//Storyboard Layer 3 (Foreground)
//Storyboard Layer 4 (Overlay)
//Storyboard Sound Samples

[TimingPoints]
425,333.333333333333,4,1,0,40,1,0
425,-46.7032967032967,4,1,0,40,0,0
1758,-27.9237844940868,4,1,0,40,0,0
1924,-46.7032967032967,4,1,0,40,0,0
13758,-29.9295774647887,4,1,0,40,0,0
14091,-50,4,1,1,40,0,0
14258,-50,4,1,0,40,0,0
14424,-50,4,1,1,40,0,0
14591,-50,4,1,0,40,0,0
14758,-50,4,1,1,40,0,0
14925,-50,4,1,0,40,0,0
15091,-50,4,1,1,40,0,0
15258,-50,4,1,0,40,0,0
15424,-50,4,1,1,40,0,0
15591,-50,4,1,0,40,0,0
15757,-50,4,1,1,40,0,0
15924,-50,4,1,0,40,0,0
16091,-50,4,1,1,40,0,0
16258,-50,4,1,0,40,0,0
16424,-50,4,1,1,40,0,0
16591,-50,4,1,0,40,0,0
16758,-50,4,1,1,40,0,0
16925,-50,4,1,0,40,0,0
17091,-50,4,1,1,40,0,0
17258,-50,4,1,0,40,0,0
17425,-50,4,1,1,40,0,0
17592,-50,4,1,0,40,0,0
17758,-50,4,1,1,40,0,0
17925,-50,4,1,0,40,0,0
18091,-50,4,1,1,40,0,0
18258,-50,4,1,0,40,0,0
18424,-50,4,1,1,40,0,0
18591,-50,4,1,0,40,0,0
18758,-50,4,1,1,40,0,0
18925,-50,4,1,0,40,0,0
19091,-50,4,1,1,40,0,0
19258,-50,4,1,0,40,0,0
19424,-50,4,1,1,40,0,0
19591,-50,4,1,0,40,0,0
19757,-50,4,1,1,40,0,0
19924,-50,4,1,0,40,0,0
20091,-50,4,1,1,40,0,0
20258,-50,4,1,0,40,0,0
20424,-50,4,1,1,40,0,0
20591,-50,4,1,0,40,0,0
20758,-50,4,1,1,40,0,0
20925,-50,4,1,0,40,0,0
21091,-50,4,1,1,40,0,0
21258,-50,4,1,0,40,0,0
21425,-50,4,1,1,40,0,0
21592,-50,4,1,0,40,0,0
21758,-50,4,1,1,40,0,0
21925,-50,4,1,0,40,0,0
22091,-50,4,1,1,40,0,0
22258,-50,4,1,0,40,0,0
22424,-50,4,1,1,40,0,0
22591,-50,4,1,0,40,0,0
22758,-50,4,1,1,40,0,0
22925,-50,4,1,0,40,0,0
23091,-50,4,1,1,40,0,0
23258,-50,4,1,0,40,0,0
23424,-50,4,1,1,40,0,0
23591,-50,4,1,0,40,0,0
23757,-50,4,1,1,40,0,0
23924,-50,4,1,0,40,0,0
24091,-50,4,1,1,40,0,0
24258,-50,4,1,0,40,0,0
24424,-50,4,1,1,40,0,0
24591,-50,4,1,0,40,0,0
24758,-50,4,1,1,40,0,0
24925,-50,4,1,0,40,0,0
25091,-50,4,1,1,40,0,0
25258,-50,4,1,0,40,0,0
25425,-50,4,1,1,40,0,0
25592,-50,4,1,0,40,0,0
25758,-50,4,1,1,40,0,0
25925,-50,4,1,0,40,0,0
26091,-50,4,1,1,40,0,0
26258,-50,4,1,0,40,0,0
26424,-50,4,1,1,40,0,0
26591,-50,4,1,0,40,0,0
26758,-50,4,1,1,40,0,0
26925,-50,4,1,0,40,0,0
27091,-50,4,1,1,40,0,0
27258,-50,4,1,0,40,0,0
27424,-50,4,1,1,40,0,0
27591,-50,4,1,0,40,0,0
27757,-50,4,1,1,40,0,0
27924,-50,4,1,0,40,0,0
28091,-50,4,1,1,40,0,0
28258,-50,4,1,0,40,0,0
28424,-50,4,1,1,40,0,0
28591,-50,4,1,0,40,0,0
28758,-50,4,1,1,40,0,0
28925,-50,4,1,0,40,0,0
29091,-50,4,1,1,40,0,0
29258,-50,4,1,0,40,0,0
29425,-50,4,1,1,40,0,0
29592,-50,4,1,0,40,0,0
29758,-50,4,1,1,40,0,0
29925,-50,4,1,0,40,0,0
30091,-50,4,1,1,40,0,0
30258,-50,4,1,0,40,0,0
30424,-50,4,1,1,40,0,0
30591,-50,4,1,0,40,0,0
30758,-50,4,1,1,40,0,0
30925,-50,4,1,0,40,0,0
31091,-50,4,1,1,40,0,0
31258,-50,4,1,0,40,0,0
31424,-50,4,1,1,40,0,0
31591,-50,4,1,0,40,0,0
31757,-50,4,1,1,40,0,0
31924,-50,4,1,0,40,0,0
32091,-50,4,1,1,40,0,0
32258,-50,4,1,0,40,0,0
32424,-50,4,1,1,40,0,0
32591,-50,4,1,0,40,0,0
32758,-50,4,1,1,40,0,0
32925,-50,4,1,0,40,0,0
33091,-50,4,1,1,40,0,0
33258,-50,4,1,0,40,0,0
33425,-50,4,1,1,40,0,0
33592,-50,4,1,0,40,0,0
33758,-50,4,1,1,40,0,0
33925,-50,4,1,0,40,0,0
34091,-50,4,1,1,40,0,0
34258,-50,4,1,0,40,0,0
34424,-50,4,1,1,40,0,0
34591,-50,4,1,0,40,0,0
34758,-50,4,1,1,40,0,0
34925,-50,4,1,0,40,0,0
35091,-50,4,1,1,40,0,0
35258,-50,4,1,0,40,0,0
35424,-50,4,1,1,40,0,0
35591,-50,4,1,0,40,0,0
35757,-50,4,1,1,40,0,0
35924,-50,4,1,0,40,0,0
36091,-50,4,1,1,40,0,0
36258,-50,4,1,0,40,0,0
36424,-50,4,1,1,40,0,0
36591,-50,4,1,0,40,0,0
36758,-50,4,1,1,40,0,0
36925,-50,4,1,0,40,0,0
37091,-50,4,1,1,40,0,0
37258,-50,4,1,0,40,0,0
37425,-50,4,1,1,40,0,0
37592,-50,4,1,0,40,0,0
37758,-50,4,1,1,40,0,0
37925,-50,4,1,0,40,0,0
38091,-50,4,1,1,40,0,0
38258,-50,4,1,0,40,0,0
38424,-50,4,1,1,40,0,0
38591,-50,4,1,0,40,0,0
38758,-50,4,1,1,40,0,0
38925,-50,4,1,0,40,0,0
39091,-50,4,1,1,40,0,0
39258,-50,4,1,0,40,0,0
39424,-50,4,1,1,40,0,0
39591,-50,4,1,0,40,0,0
39757,-50,4,1,1,40,0,0
39924,-50,4,1,0,40,0,0
40091,-50,4,1,1,40,0,0
40258,-50,4,1,0,40,0,0
40424,-50,4,1,1,40,0,0
40591,-50,4,1,0,40,0,0
40758,-50,4,1,1,40,0,0
40925,-50,4,1,0,40,0,0
41091,-50,4,1,1,40,0,0
41258,-50,4,1,0,40,0,0
41425,-50,4,1,1,40,0,0
41592,-50,4,1,0,40,0,0
41758,-50,4,1,1,40,0,0
41925,-50,4,1,0,40,0,0
42091,-50,4,1,1,40,0,0
42258,-50,4,1,0,40,0,0
42424,-50,4,1,1,40,0,0
42591,-50,4,1,0,40,0,0
42758,-50,4,1,1,40,0,0
42925,-50,4,1,0,40,0,0
43091,-50,4,1,1,40,0,0
43258,-50,4,1,0,40,0,0
43424,-50,4,1,1,40,0,0
43591,-50,4,1,0,40,0,0
43757,-50,4,1,1,40,0,0
43924,-50,4,1,0,40,0,0
44091,-50,4,1,1,40,0,0
44258,-50,4,1,0,40,0,0
44424,-50,4,1,1,40,0,0
44591,-50,4,1,0,40,0,0
44925,-50,4,1,1,40,0,0
45091,-50,4,1,1,40,0,0
45258,-50,4,1,2,40,0,0
45758,-50,4,1,1,40,0,0
45925,-50,4,1,0,40,0,0
46091,-50,4,1,1,40,0,0
46258,-50,4,1,0,40,0,0
46591,-50,4,1,2,40,0,0
47091,-50,4,1,1,40,0,0
47258,-50,4,1,0,40,0,0
47424,-50,4,1,1,40,0,0
47591,-50,4,1,0,40,0,0
47924,-50,4,1,2,40,0,0
48424,-50,4,1,3,40,0,0
48591,-50,4,1,0,40,0,0
48758,-50,4,1,1,40,0,0
48925,-50,4,1,0,40,0,0
49091,-50,4,1,1,40,0,0
49258,-50,4,1,0,40,0,0
49425,-50,4,1,1,40,0,0
49592,-50,4,1,0,40,0,0
49758,-50,4,1,1,40,0,0
49925,-50,4,1,0,40,0,0
50091,-50,4,1,1,40,0,0
50258,-50,4,1,0,40,0,0
50424,-50,4,1,1,40,0,0
50591,-50,4,1,0,40,0,0
50758,-50,4,1,1,40,0,0
50925,-50,4,1,0,40,0,0
51091,-50,4,1,1,40,0,0
51258,-50,4,1,0,40,0,0
51425,-50,4,1,1,40,0,0
51592,-50,4,1,0,40,0,0
51758,-50,4,1,1,40,0,0
51925,-50,4,1,0,40,0,0
52092,-50,4,1,1,40,0,0
52259,-50,4,1,0,40,0,0
52425,-50,4,1,1,40,0,0
52592,-50,4,1,0,40,0,0
52758,-50,4,1,1,40,0,0
52925,-50,4,1,0,40,0,0
53091,-50,4,1,1,40,0,0
53258,-50,4,1,0,40,0,0
53425,-50,4,1,1,40,0,0
53592,-50,4,1,0,40,0,0
53758,-50,4,1,1,40,0,0
53925,-50,4,1,0,40,0,0
54091,-50,4,1,1,40,0,0
54258,-50,4,1,0,40,0,0
54424,-50,4,1,1,40,0,0
54591,-50,4,1,0,40,0,0
54758,-50,4,1,1,40,0,0
54925,-50,4,1,0,40,0,0
55091,-50,4,1,1,40,0,0
55258,-50,4,1,0,40,0,0
55425,-50,4,1,1,40,0,0
55592,-50,4,1,0,40,0,0
55758,-50,4,1,1,40,0,0
55925,-50,4,1,0,40,0,0
56092,-50,4,1,1,40,0,0
56259,-50,4,1,0,40,0,0
56424,-46.7032967032967,4,1,0,40,0,0
62758,-46.7032967032967,4,1,4,5,0,0

[Colours]
Combo1 : 106,181,255
Combo2 : 186,191,213

[HitObjects]
315,360,383,5,0,0:2:0:0:
350,347,425,1,2,0:2:0:0:
411,270,591,1,0,0:2:0:0:
413,172,758,1,0,0:2:0:0:
354,94,924,1,0,0:2:0:0:
185,96,1091,2,0,L|167:165|167:165|102:255|102:255,1,182,2|0,0:2|0:2,0:0:0:0:
259,69,1424,2,0,L|301:126|301:126|342:229|342:229,1,182,0|0,0:2|0:2,0:0:0:0:
452,173,1758,6,0,L|370:301|370:301|284:175|284:175|184:61|184:61|117:198|117:198|200:326|200:326|284:199|284:199|364:111|364:111|452:274|452:274,2,608.800018579103,2|2|2,0:0|0:0|0:0,0:0:0:0:
196,258,2758,1,2,0:2:0:0:
452,173,3091,6,0,L|455:244|455:244|441:354|441:354,1,182,2|0,0:2|0:0,0:0:0:0:
321,103,3424,2,0,L|326:174|326:174|306:283|306:283,1,182,2|2,0:2|0:2,0:0:0:0:
51,238,3758,2,0,B|40:328|40:328|45:237|45:237|62:168|62:168|114:70|114:70,1,364,2|2,0:2|0:2,0:0:0:0:
207,223,4258,1,0,0:0:0:0:
306,219,4424,6,0,L|317:289|317:289|315:178|315:178,1,182,2|2,0:2|0:2,0:0:0:0:
208,176,4758,2,0,L|199:247|199:247|199:358|199:358,1,182,2|2,0:2|0:2,0:0:0:0:
461,191,5091,2,0,B|462:282|462:282|413:359|413:359|364:307|364:307|331:201|331:201,1,364,2|0,0:2|0:0,0:0:0:0:
109,166,5758,5,2,0:2:0:0:
132,74,5924,1,2,0:2:0:0:
173,63,6007,1,2,0:2:0:0:
214,52,6090,1,2,0:2:0:0:
309,107,6258,1,2,0:2:0:0:
186,256,6424,2,0,L|129:327|129:327|105:239|105:239|133:152|133:152|186:78|186:78|161:11|161:11|105:107|105:107,3,182,2|0|2|0,0:2|0:0|0:2|0:0,0:0:0:0:
208,199,7091,6,0,L|227:268|227:268|216:378|216:378,1,182,2|0,0:2|0:0,0:0:0:0:
101,104,7424,2,0,L|92:175|92:175|112:284|112:284,1,182,2|0,0:2|0:0,0:0:0:0:
383,191,7758,2,0,B|402:280|402:280|389:370|389:370|381:299|381:299|318:208|318:208,1,364,2|0,0:2|0:0,0:0:0:0:
103,139,8424,5,2,0:2:0:0:
372,210,8758,2,0,L|371:281|371:281|362:171|362:171,1,182,2|0,0:2|0:0,0:0:0:0:
252,109,9091,2,0,L|220:173|220:173|169:271|169:271,1,182,2|0,0:2|0:0,0:0:0:0:
291,186,9424,2,0,L|309:255|309:255|372:346|372:346,1,182,2|0,0:2|0:0,0:0:0:0:
130,319,9758,5,2,0:2:0:0:
97,242,9924,1,2,0:2:0:0:
128,157,10091,1,2,0:2:0:0:
208,112,10257,1,2,0:2:0:0:
291,111,10424,2,0,L|302:182|302:182|282:291|282:291,1,182,2|2,0:2|0:2,0:0:0:0:
187,7,10757,1,2,0:2:0:0:
471,261,11091,5,2,0:2:0:0:
495,180,11257,1,2,0:2:0:0:
474,99,11424,1,0,0:0:0:0:
415,39,11590,1,0,0:0:0:0:
316,108,11758,2,0,L|301:178|301:178|232:264|232:264,1,182,2|2,0:2|0:2,0:0:0:0:
325,146,12091,2,0,L|373:199|373:199|409:303|409:303,1,182,2|2,0:2|0:2,0:0:0:0:
140,242,12424,6,0,L|160:311|160:311|223:220|223:220,1,182,2|2,0:2|0:2,0:0:0:0:
479,193,12757,1,2,0:2:0:0:
370,150,12924,1,2,0:2:0:0:
479,193,13091,1,2,0:2:0:0:
271,290,13424,1,2,0:0:0:0:
237,283,13466,1,0,0:0:0:0:
216,261,13507,1,0,0:0:0:0:
215,232,13549,1,0,0:0:0:0:
227,205,13590,1,0,0:0:0:0:
240,194,13633,1,0,0:0:0:0:
272,182,13674,1,0,0:0:0:0:
421,264,13758,6,0,B|401:123|401:123|375:263|375:263|308:138|308:138|218:28|218:28|202:169|202:169|264:297|264:297|331:172|331:172|421:62|421:62|334:174|334:174|277:304|277:304|215:176|215:176|224:34|224:34|292:159|292:159|376:274|376:274|418:138|418:138|429:280|429:280|374:149|374:149|284:39|284:39|216:163|216:163|133:278|133:278|194:150|194:150|241:16|241:16|214:155|214:155|139:276|139:276|56:161|56:161|7:28|7:28|46:164|46:164|109:291|109:291|203:184|203:184|252:51|252:51|278:191|278:191|250:330|250:330|307:200|307:200|370:73|370:73|359:215|359:215|331:354|331:354|296:216|296:216|237:87|237:87|144:194|144:194|81:321|81:321|29:189|29:189|39:47|39:47|82:182|82:182|181:284|181:284|143:147|143:147|121:7|121:7|141:148|141:148|208:273|208:273|287:155|287:155|361:34|361:34|395:172|395:172|356:309|356:309|402:175|402:175|458:45|458:45|434:185|434:185|384:318|384:318|322:190|322:190|259:63|259:63|269:205|269:205|337:330|337:330|420:215|420:215|443:75|443:75|401:211|401:211|318:327|318:327|271:193|271:193|191:76|191:76|145:210|145:210|63:326|63:326|115:194|115:194|190:73|190:73|260:197|260:197|318:327|318:327|249:203|249:203|191:73|191:73|119:196|119:196|63:327|63:327|133:204|133:204|190:74|190:74|242:206|242:206|317:326|317:326|257:197|257:197|251:55|251:55|298:189|298:189|383:303|383:303|305:184|305:184|252:52|252:52|275:192|275:192|318:327|318:327|260:198|260:198|252:56|252:56|290:193|290:193|384:300|384:300|306:182|306:182|254:50|254:50|268:191|268:191|320:323|320:323|415:218|415:218|468:86|468:86|481:227|481:227|448:365|448:365|349:263|349:263|300:130|300:130|283:271|283:271|320:134|320:134|244:14|244:14|174:138|174:138|165:280|165:280|195:141|195:141|282:29|282:29|342:158|342:158|356:299|356:299|320:162|320:162|264:32|264:32|185:150|185:150|120:276|120:276|49:153|49:153|76:14|76:14|68:156|68:156|66:298|66:298|89:158|89:158|139:25|139:25|223:140|223:140|301:259|301:259|358:129|358:129|332:269|332:269|339:127|339:127|310:266|310:266|318:124|318:124|281:261|281:261|286:119|286:119|333:253|333:253|426:360|426:360|365:232|365:232|277:121|277:121|199:2|199:2|130:126|130:126|165:264|165:264|160:122|160:122|109:255|109:255|20:366|20:366|86:240|86:240|171:126|171:126|239:1|239:1|318:119|318:119|229:230|229:230|166:357|166:357|135:218|135:218|134:76|134:76|222:188|222:188|286:315|286:315|308:175|308:175|318:33|318:33|218:134|218:134|166:266|166:266|132:128|132:128|134:270|134:270|218:384|218:384|287:260|287:260|334:126|334:126|322:267|322:267|378:137|378:137|370:279|370:279|318:147|318:147|233:33|233:33|182:165|182:165|185:307|185:307|223:170|223:170|321:67|321:67|358:204|358:204|370:345|370:345|316:214|316:214|234:98|234:98|295:226|295:226|361:352|361:352|428:227|428:227|488:99|488:99|427:227|427:227|373:358|373:358|315:228|315:228|257:99|257:99|219:236|219:236|146:358|146:358|81:232|81:232|35:98|35:98|8:237|8:237|56:371|56:371|127:248|127:248|204:129|204:129|232:268|232:268|183:135|183:135|116:10|116:10|35:127|35:127|98:254|98:254|167:378|167:378|246:260|246:260|329:145|329:145|334:3|334:3|275:132|275:132|227:266|227:266|131:371|131:371|81:238|81:238|31:105|31:105|35:247|35:247|99:374|99:374|159:245|159:245|176:104|176:104|143:242|143:242|76:367|76:367|171:262|171:262|229:132|229:132|283:1|283:1|280:143|280:143|367:255|367:255|380:114|380:114|366:255|366:255|301:381|301:381|260:245|260:245|241:104|241:104|290:237|290:237|369:355|369:355|445:235|445:235|464:94|464:94|461:236|461:236|409:368|409:368|326:252|326:252|258:127|258:127|217:263|217:263|216:121|216:121|306:11|306:11|331:151|331:151|273:281|273:281|209:154|209:154|112:50|112:50|67:185|67:185|62:327|62:327|70:185|70:185|139:61|139:61|192:193|192:193|143:326|143:326|77:200|77:200|138:72|138:72|175:209|175:209|212:346|212:346|275:219|275:219|227:85|227:85|177:218|177:218|111:344|111:344|77:206|77:206|166:95|166:95|245:213|245:213|345:314|345:314|415:190|415:190|348:65|348:65|247:165|247:165|173:286|173:286|78:181|78:181|70:39|70:39|104:177|104:177|149:312|149:312|248:210|248:210|341:102|341:102|410:226|410:226|473:353|473:353|487:212|487:212|504:71|504:71|460:206|460:206|395:332|395:332|315:214|315:214|213:115|213:115|153:244|153:244|83:367|83:367|76:225|76:225|175:123|175:123|232:253|232:253|260:114|260:114|269:256|269:256|370:356|370:356|425:225|425:225|463:88|463:88|460:230|460:230|390:353|390:353|304:240|304:240|264:104|264:104|269:246|269:246|364:352|364:352|425:224|425:224|465:88|465:88|461:230|461:230|385:350|385:350|339:216|339:216|361:76|361:76|458:180|458:180|406:312|406:312|324:196|324:196|245:78|245:78|190:209|190:209|128:337|128:337|66:209|66:209|117:76|117:76|184:201|184:201|247:328|247:328|318:205|318:205|368:72|368:72|452:186|452:186|372:303|372:303|312:174|312:174|284:35|284:35|279:177|279:177|366:290|366:290|377:148|377:148|363:7|363:7|267:112|267:112|191:232|191:232|156:370|156:370|198:234|198:234|253:103|253:103|335:219|335:219|364:358|364:358|322:222|322:222|267:91|267:91|355:202|355:202|425:326|425:326|456:188|456:188|462:46|462:46|381:162|381:162|305:282|305:282|253:150|253:150|266:9|266:9|163:107|163:107|109:238|109:238|70:374|70:374|73:232|73:232|151:114|151:114|229:232|229:232|264:370|264:370|268:228|268:228|370:129|370:129|425:260|425:260|461:123|461:123|461:265|461:265|383:384|383:384|304:266|304:266|257:132|257:132|266:274|266:274|194:152|194:152|109:38|109:38|60:171|60:171|73:312|73:312|157:198|157:198|230:76|230:76|255:216|255:216|265:358|265:358|200:232|200:232|185:91|185:91|207:231|207:231|300:338|300:338|373:216|373:216|416:81|416:81|393:221|393:221|299:327|299:327|208:218|208:218|183:78|183:78|201:219|201:219|300:321|300:321|394:214|394:214|462:89|462:89|385:208|385:208|294:317|294:317|290:175|290:175|281:33|281:33|294:174|294:174|269:314|269:314|242:175|242:175|248:33|248:33|282:171|282:171|354:293|354:293|291:166|291:166|221:42|221:42|296:163|296:163|349:295|349:295|259:185|259:185|202:55|202:55|257:186|257:186|348:295|348:295|353:153|353:153|361:11|361:11|260:111|260:111|203:241|203:241|162:377|162:377|159:235|159:235|194:97|194:97|277:212|277:212|372:318|372:318|428:187|428:187|336:79|336:79|277:208|277:208|347:332|347:332|427:215|427:215|359:90|359:90|276:205|276:205|280:347|280:347|270:205|270:205|343:83|343:83|413:207|413:207|424:349|424:349|428:207|428:207|376:75|376:75|302:196|302:196|218:310|218:310|145:188|145:188|241:83|241:83|305:210|305:210|218:322|218:322|146:200|146:200|238:91|238:91|303:217|303:217|327:357|327:357|334:215|334:215|288:81|288:81|225:208|225:208|202:348|202:348|212:206|212:206|268:75|268:75|353:189|353:189|418:315|418:315|444:175|444:175|389:44|389:44|328:172|328:172|279:305|279:305|209:182|209:182|130:64|130:64|90:200|90:200|162:322|162:322|243:205|243:205|257:64|257:64|256:206|256:206|218:343|218:343|212:201|212:201|253:65|253:65|351:168|351:168|410:297|410:297|435:157|435:157|403:19|403:19|306:122|306:122|237:246|237:246|182:377|182:377|166:236|166:236|169:94|169:94|217:228|217:228|235:369|235:369|164:246|164:246|101:119|101:119|196:13|196:13|248:145|248:145|258:287|258:287|232:147|232:147|145:34|145:34|110:171|110:171|129:312|129:312|168:175|168:175|238:51|238:51|285:185|285:185|349:312|349:312|399:179|399:179|323:59|323:59|250:181|250:181|231:322|231:322|251:181|251:181|165:68|165:68|141:208|141:208|129:349|129:349|191:221|191:221|279:109|279:109|336:239|336:239|347:381|347:381|340:239|340:239|431:130|431:130|470:267|470:267|477:125|477:125|441:262|441:262|379:134|379:134|309:11|309:11|232:130|232:130|180:262|180:262|257:382|257:382|313:251|313:251|362:118|362:118|440:236|440:236|356:350|356:350|308:217|308:217|245:90|245:90|181:217|181:217|256:338|256:338|314:208|314:208|372:79|372:79|444:201|444:201|432:343|432:343|410:203|410:203|363:69|363:69|262:169|262:169|188:290|188:290|108:173|108:173|47:45|47:45|66:186|66:186|137:309|137:309|189:177|189:177|159:70|159:70|94:230|94:230,1,72136
377,240,56424,6,0,L|369:311|369:311|371:200|371:200,1,182,2|2,0:2|0:2,0:0:0:0:
248,149,56758,2,0,L|234:219|234:219|252:328|252:328,1,182,2|2,0:2|0:2,0:0:0:0:
364,258,57091,1,2,0:2:0:0:
407,187,57257,1,2,0:2:0:0:
383,109,57424,1,2,0:2:0:0:
308,75,57590,1,2,0:2:0:0:
33,135,57758,6,0,L|61:222|61:222|117:294|117:294|66:344|66:344|33:238|33:238,2,182,2|0|2,0:2|0:2|0:2,0:0:0:0:
329,221,58258,2,0,B|343:311|343:311|333:221|333:221|306:155|306:155|262:54|262:54,1,364,2|0,0:2|0:2,0:0:0:0:
163,184,58758,2,0,L|163:255|163:255|154:365|154:365,1,182,2|0,0:2|0:2,0:0:0:0:
417,85,59091,6,0,L|376:166|376:166|334:246|334:246|360:312|360:312|417:217|417:217,2,182,2|0|0,0:2|0:2|0:2,0:0:0:0:
148,283,59591,2,0,B|125:371|125:371|120:280|120:280|135:210|135:210|189:113|189:113,1,364,2|0,0:2|0:2,0:0:0:0:
425,181,60091,5,6,0:2:0:0:
256,192,60258,12,0,62758,0:2:0:0:
