osu file format v14

[General]
AudioFilename: audio.mp3
AudioLeadIn: 0
PreviewTime: 13763
Countdown: 0
SampleSet: Normal
StackLeniency: 0.7
Mode: 2
LetterboxInBreaks: 0
WidescreenStoryboard: 0

[Editor]
Bookmarks: 13763
DistanceSpacing: 1
BeatDivisor: 6
GridSize: 4
TimelineZoom: 1.8

[Metadata]
Title:Chouon Chuu Haikatsuryou Test
TitleUnicode:長音厨肺活量テスト
Artist:KimurawaiP
ArtistUnicode:木村わいP
Creator:Xinnoh
Version:Overdoooooooooooooooooooooooooooooooooooooooooooooooooooooooooooooooooose
Source:
Tags:hatsune miku 初音ミク sinnoh vocaloid novelty japanese long tone test aaaaaaaaaaaaaaaaaaaaaaaaaaaaaaaaaaaaaaaaaaaaaaaaaaaaaaaaaaa
BeatmapID:3852338
BeatmapSetID:1668029

[Difficulty]
HPDrainRate:6
CircleSize:4
OverallDifficulty:9
ApproachRate:9
SliderMultiplier:2
SliderTickRate:1

[Events]
//Background and Video events
0,0,"hqdefault.jpg",0,0
//Break Periods
//Storyboard Layer 0 (Background)
//Storyboard Layer 1 (Fail)
//Storyboard Layer 2 (Pass)
//Storyboard Layer 3 (Foreground)
//Storyboard Layer 4 (Overlay)
//Storyboard Sound Samples

[TimingPoints]
425,333.333333333333,4,1,0,40,1,0
62758,-100,4,1,4,5,0,0

[Colours]
Combo1 : 106,181,255
Combo2 : 192,192,192

[HitObjects]
427,322,383,5,0,0:2:0:0:
465,299,425,1,2,0:2:0:0:
504,210,591,1,0,0:2:0:0:
463,122,758,1,0,0:2:0:0:
369,96,924,1,0,0:2:0:0:
126,256,1091,2,0,L|239:227,1,100,2|0,0:2|0:2,0:2:0:0:
359,104,1424,2,0,L|248:125,1,100,0|0,0:2|0:2,0:2:0:0:
26,158,1758,5,2,0:0:0:0:
438,89,2091,1,2,0:0:0:0:
26,158,2425,1,2,0:0:0:0:
167,162,2758,1,2,0:2:0:0:
411,292,3091,6,0,L|418:175,1,100,2|0,0:2|0:0,0:0:0:0:
308,131,3424,1,2,0:2:0:0:
417,119,3591,1,2,0:2:0:0:
190,330,3758,2,0,P|135:289|216:219,1,200,2|2,0:2|0:2,0:0:0:0:
299,184,4257,1,0,0:0:0:0:
195,153,4424,5,2,0:2:0:0:
306,131,4591,1,2,0:2:0:0:
316,77,4758,1,2,0:2:0:0:
61,123,4924,1,2,0:2:0:0:
169,87,5091,2,0,L|290:56,1,100,2|0,0:2|0:0,0:0:0:0:
151,157,5424,2,0,L|30:126,1,100
336,204,5757,5,2,0:2:0:0:
225,211,5924,1,2,0:2:0:0:
228,161,6007,1,2,0:2:0:0:
232,111,6091,1,2,0:2:0:0:
344,98,6257,1,2,0:2:0:0:
234,312,6424,1,2,0:2:0:0:
226,214,6590,1,0,0:0:0:0:
282,133,6757,1,2,0:2:0:0:
376,107,6923,1,0,0:0:0:0:
262,324,7091,5,2,0:2:0:0:
328,252,7257,1,0,0:0:0:0:
325,155,7424,1,2,0:2:0:0:
255,87,7590,1,0,0:0:0:0:
147,95,7758,2,0,L|267:64,1,100,2|0,0:2|0:0,0:0:0:0:
363,55,8091,2,0,L|220:34,1,100
27,340,8424,6,0,L|42:215,1,100,2|0,0:2|0:0,0:0:0:0:
141,216,8758,1,2,0:2:0:0:
148,148,8924,1,0,0:0:0:0:
270,122,9091,1,2,0:2:0:0:
158,86,9258,1,0,0:0:0:0:
264,81,9424,2,0,L|391:52,1,100,2|0,0:2|0:0,0:0:0:0:
237,345,9758,5,2,0:2:0:0:
145,318,9924,1,2,0:2:0:0:
128,225,10091,1,2,0:2:0:0:
204,168,10257,1,2,0:2:0:0:
321,179,10424,1,2,0:2:0:0:
201,108,10591,1,2,0:2:0:0:
320,108,10758,2,0,L|421:81,1,100,2|0,0:2|0:0,0:0:0:0:
139,239,11091,6,0,L|241:200,3,100,2|2|0|0,0:2|0:2|0:0|0:0,0:0:0:0:
118,154,11758,2,2,L|9:130,1,100,2|2,0:2|0:2,0:2:0:0:
132,79,12091,2,2,L|254:44,1,100,2|2,0:2|0:2,0:2:0:0:
469,180,12424,5,2,0:2:0:0:
469,180,12591,1,2,0:2:0:0:
337,141,12758,1,2,0:2:0:0:
471,130,12924,1,2,0:2:0:0:
217,282,13091,2,0,L|100:259,1,100,2|0,0:2|0:0,0:0:0:0:
425,233,13424,1,2,0:0:0:0:
442,215,13465,1,0,0:0:0:0:
450,191,13507,1,0,0:0:0:0:
446,167,13548,1,0,0:0:0:0:
432,147,13590,1,0,0:0:0:0:
410,135,13632,1,0,0:0:0:0:
385,134,13673,1,0,0:0:0:0:
193,308,13758,6,0,P|93:256|136:174,1,200,2|2,0:2|0:2,0:2:0:0:
217,141,14257,1,0,0:2:0:0:
345,118,14424,2,0,L|462:84,1,100,2|0,0:2|0:2,0:2:0:0:
326,251,14758,2,0,L|297:139,1,100,2|0,0:2|0:2,0:2:0:0:
200,145,15091,2,2,L|435:82,3,200,2|2|2|2,0:2|0:2|0:2|0:2,0:2:0:0:
113,285,16424,1,2,0:2:0:0:
65,198,16590,1,0,0:2:0:0:
94,105,16758,2,0,L|304:69,1,200,2|2,0:2|0:2,0:0:0:0:
325,165,17257,1,0,0:2:0:0:
290,257,17424,1,2,0:2:0:0:
75,254,17758,2,2,L|294:222,1,200,2|2,0:2|0:2,0:2:0:0:
371,210,18258,1,0,0:0:0:0:
474,179,18424,2,2,L|267:145,1,200,2|2,0:2|0:2,0:2:0:0:
72,123,19091,1,2,0:2:0:0:
184,75,19258,2,2,L|415:36,2,200,2|2|2,0:2|0:2|0:2,0:2:0:0:
105,175,20091,1,0,0:2:0:0:
212,253,20258,2,0,L|217:148,1,100,2|0,0:2|0:2,0:0:0:0:
340,140,20591,2,0,L|225:123,1,100,2|0,0:2|0:2,0:0:0:0:
125,69,20924,2,2,L|346:47,2,200,2|2|2,0:2|0:2|0:2,0:2:0:0:
264,315,21758,1,0,0:2:0:0:
354,303,21924,2,2,P|417:235|339:188,1,200,2|2,0:2|0:2,0:2:0:0:
141,241,22591,2,2,P|78:173|156:126,1,200,2|2,0:2|0:2,0:2:0:0:
250,177,23091,2,0,L|388:167,1,100,2|0,0:2|0:0,0:0:0:0:
253,189,23424,2,0,L|46:143,1,200,2|2,0:2|0:2,0:0:0:0:
195,103,23924,1,0,0:0:0:0:
61,62,24091,2,0,L|176:45,1,100,2|0,0:2|0:0,0:0:0:0:
219,293,24424,2,0,L|116:272,1,100,2|0,0:2|0:2,0:2:0:0:
244,193,24758,2,2,L|17:151,2,200,2|2|2,0:2|0:2|0:2,0:2:0:0:
371,225,25591,1,0,0:0:0:0:
252,271,25758,1,2,0:2:0:0:
221,178,25924,1,0,0:2:0:0:
268,93,26091,1,2,0:2:0:0:
456,239,26424,2,2,P|346:217|289:150,1,200,2|2,0:2|0:2,0:2:0:0:
272,33,26924,1,0,0:2:0:0:
389,247,27091,2,2,P|451:208|416:91,1,200,2|2,0:2|0:2,0:2:0:0:
337,68,27591,1,0,0:0:0:0:
210,280,27758,2,2,P|114:232|120:127,1,200,2|2,0:2|0:2,0:2:0:0:
203,104,28258,1,0,0:0:0:0:
307,117,28425,2,2,L|81:90,3,200,2|2|2|2,0:2|0:2|0:2|0:2,0:2:0:0:
301,260,29758,2,0,L|413:241,1,100,2|0,0:2|0:0,0:0:0:0:
259,228,30091,2,0,L|261:127,1,100,2|0,0:2|0:0,0:0:0:0:
386,277,30424,2,2,P|447:227|356:164,1,200,2|2,0:2|0:2,0:2:0:0:
283,30,30924,1,0,0:0:0:0:
177,66,31091,1,2,0:2:0:0:
286,160,31258,2,0,L|87:107,3,200
195,222,32424,2,0,L|327:200,1,100,2|0,0:2|0:0,0:0:0:0:
197,173,32757,1,2,0:2:0:0:
206,95,32924,1,0,0:2:0:0:
311,337,33091,2,2,P|217:318|158:230,1,200,2|2,0:2|0:2,0:2:0:0:
165,137,33591,1,0,0:2:0:0:
284,217,33758,2,0,L|297:110,1,100,2|0,0:2|0:2,0:2:0:0:
175,218,34091,2,0,L|159:77,1,100,2|0,0:2|0:2,0:2:0:0:
291,89,34424,2,2,L|361:70,1,50,2|2,0:2|0:2,0:2:0:0:
153,36,34591,2,2,L|64:28,1,50,2|2,0:2|0:2,0:2:0:0:
296,263,34758,1,2,0:0:0:0:
321,221,34841,1,0,0:2:0:0:
314,172,34924,1,0,0:2:0:0:
277,139,35008,1,0,0:2:0:0:
105,190,35091,2,0,P|87:123|190:52,1,200,6|0,0:2|0:2,0:2:0:0:
77,38,35591,1,0,0:2:0:0:
194,160,35758,2,0,L|329:136,1,100,2|0,0:2|0:2,0:2:0:0:
169,70,36091,1,2,0:2:0:0:
409,212,36424,2,2,P|362:132|230:107,3,200,2|2|2|2,0:2|0:2|0:2|0:2,0:2:0:0:
23,140,37758,2,0,L|146:113,1,100,2|0,0:2|0:2,0:2:0:0:
233,93,38091,1,2,0:2:0:0:
384,158,38424,2,0,L|261:131,1,100,2|0,0:2|0:2,0:2:0:0:
151,114,38757,1,2,0:2:0:0:
354,339,39091,2,2,P|439:286|375:203,1,200,2|2,0:2|0:2,0:2:0:0:
322,81,39590,1,0,0:2:0:0:
221,66,39758,2,2,P|149:162|201:243,1,200,2|2,0:2|0:2,0:2:0:0:
279,242,40257,1,0,0:2:0:0:
376,160,40424,1,2,0:2:0:0:
261,175,40592,2,0,L|162:190,1,100,2|0,0:2|0:2,0:2:0:0:
287,264,40924,2,2,L|83:225,2,200,2|2|2,0:2|0:2|0:2,0:2:0:0:
391,259,41758,1,0,0:0:0:0:
290,332,41924,2,0,L|273:227,1,100,2|0,0:2|0:0,0:0:0:0:
394,188,42258,2,2,P|412:121|304:50,1,200,2|2,0:2|0:2,0:2:0:0:
185,42,42758,1,0,0:2:0:0:
299,16,42924,1,2,0:2:0:0:
408,219,43091,1,0,0:2:0:0:
278,208,43258,2,2,L|76:182,1,200,2|2,0:2|0:2,0:2:0:0:
317,16,43924,1,0,0:2:0:0:
196,79,44091,1,2,0:2:0:0:
313,98,44257,1,0,0:2:0:0:
450,323,44424,2,0,L|439:5,1,300,2|2,0:2|0:2,0:2:0:0:
322,74,45091,1,2,0:2:0:0:
214,139,45258,2,2,L|342:113,2,100,2|2|2,0:3|0:3|0:3,0:3:0:0:
74,172,45758,1,2,0:2:0:0:
56,310,46091,1,2,0:2:0:0:
35,264,46174,1,0,0:2:0:0:
37,215,46257,1,0,0:2:0:0:
60,171,46341,1,0,0:2:0:0:
99,141,46424,1,0,0:2:0:0:
238,139,46591,1,2,0:3:0:0:
388,142,46757,1,2,0:3:0:0:
223,87,46924,1,2,0:3:0:0:
78,47,47091,1,2,0:3:0:0:
375,266,47424,1,2,0:2:0:0:
400,223,47507,1,0,0:2:0:0:
407,174,47590,1,0,0:2:0:0:
392,126,47674,1,0,0:2:0:0:
360,89,47757,1,0,0:2:0:0:
198,124,47924,1,2,0:3:0:0:
62,104,48091,1,2,0:3:0:0:
202,61,48258,1,2,0:3:0:0:
431,231,48424,2,0,P|452:165|355:78,1,200,6|0,0:2|0:0,0:0:0:0:
254,88,48924,1,0,0:2:0:0:
136,235,49091,2,0,L|34:215,1,100,2|0,0:2|0:2,0:2:0:0:
175,99,49424,1,2,0:2:0:0:
181,77,49590,1,0,0:2:0:0:
59,188,49758,2,2,P|47:126|161:56,1,200,2|2,0:2|0:2,0:2:0:0:
375,80,50424,1,2,0:2:0:0:
262,110,50590,1,0,0:2:0:0:
379,278,50757,2,0,L|385:134,1,100,2|0,0:2|0:2,0:2:0:0:
242,60,51091,1,2,0:2:0:0:
353,239,51258,2,2,P|433:205|449:60,2,200,2|2|2,0:2|0:2|0:2,0:2:0:0:
249,167,52091,1,2,0:2:0:0:
364,169,52258,1,2,0:2:0:0:
221,281,52424,1,0,0:0:0:0:
108,223,52591,2,2,L|338:179,3,200,2|2|2|2,0:2|0:2|0:2|0:2,0:2:0:0:
185,214,53758,1,2,0:2:0:0:
151,117,53924,1,0,0:2:0:0:
283,175,54091,2,2,P|314:122|214:42,1,200,2|2,0:2|0:2,0:2:0:0:
123,76,54590,1,0,0:2:0:0:
232,88,54757,2,0,L|337:64,1,100,2|0,0:2|0:2,0:2:0:0:
231,302,55091,1,2,0:2:0:0:
128,279,55258,1,0,0:2:0:0:
109,222,55424,1,2,0:2:0:0:
137,157,55590,1,0,0:2:0:0:
204,143,55758,2,0,P|211:77|87:28,1,200,2|2,0:2|0:2,0:0:0:0:
97,176,56424,5,2,0:2:0:0:
97,176,56591,1,2,0:2:0:0:
97,176,56758,1,2,0:2:0:0:
208,56,56924,1,2,0:2:0:0:
460,267,57091,1,2,0:2:0:0:
460,267,57258,1,2,0:2:0:0:
460,267,57425,1,2,0:2:0:0:
349,147,57591,1,2,0:2:0:0:
65,172,57758,6,0,L|162:105,2,100,2|0|2,0:2|0:2|0:2,0:2:0:0:
383,256,58258,2,0,P|408:190|299:130,1,200,2|0,0:2|0:2,0:2:0:0:
201,156,58758,2,0,L|189:44,1,100,2|0,0:2|0:2,0:2:0:0:
456,49,59091,6,0,L|361:-8,2,100,2|0|0,0:2|0:2|0:2,0:2:0:0:
147,261,59591,2,0,P|128:165|231:125,1,200,2|0,0:2|0:2,0:2:0:0:
439,150,60091,5,6,0:2:0:0:
256,192,60258,12,0,62758,0:2:0:0:
