osu file format v14

[General]
AudioFilename: audio.mp3
AudioLeadIn: 0
PreviewTime: 32124
Countdown: 0
SampleSet: Soft
StackLeniency: 0.7
Mode: 3
LetterboxInBreaks: 0
SpecialStyle: 0
WidescreenStoryboard: 0

[Editor]
DistanceSpacing: 1
BeatDivisor: 4
GridSize: 4
TimelineZoom: 1

[Metadata]
Title:Kouon Kuriya Oniki Test
TitleUnicode:高音厨音域テスト
Artist:Kimura Wai P
ArtistUnicode:木村わいp
Creator:Aste-
Version:Easy
Source:
Tags:Hatsune Miku 初音ミク
BeatmapID:1021940
BeatmapSetID:478480

[Difficulty]
HPDrainRate:7
CircleSize:9
OverallDifficulty:7
ApproachRate:5
SliderMultiplier:1.4
SliderTickRate:1

[Events]
//Background and Video events
0,0,"Hatsune.Miku.full.82752.jpg",0,0
Video,48,"aaa.mp4"
//Break Periods
//Storyboard Layer 0 (Background)
//Storyboard Layer 1 (Fail)
//Storyboard Layer 2 (Pass)
//Storyboard Layer 3 (Foreground)
//Storyboard Sound Samples

[TimingPoints]
458,333.333333333333,4,2,1,60,1,0
13791,-100,4,2,1,60,0,1
21791,-100,4,2,1,60,0,0
32457,-100,4,2,1,60,0,1
40457,-100,4,2,1,60,0,0
51124,-100,4,2,1,60,0,1
59124,-100,4,2,1,60,0,0
69791,-100,4,2,1,60,0,1
85791,-100,4,2,1,60,0,0

[HitObjects]
28,192,458,128,0,1124:0:0:0:0:
483,192,1124,128,0,1791:0:0:0:0:
85,192,1791,1,0,0:0:0:0:
426,192,2124,1,0,0:0:0:0:
85,192,2457,1,0,0:0:0:0:
369,192,2791,1,0,0:0:0:0:
199,192,3124,1,0,0:0:0:0:
426,192,3457,1,0,0:0:0:0:
199,192,3791,1,0,0:0:0:0:
426,192,4124,1,0,0:0:0:0:
142,192,4457,1,0,0:0:0:0:
312,192,4791,1,0,0:0:0:0:
142,192,5124,1,0,0:0:0:0:
312,192,5457,1,0,0:0:0:0:
28,192,5791,1,0,0:0:0:0:
483,192,6124,1,0,0:0:0:0:
256,192,6457,1,0,0:0:0:0:
28,192,6791,1,0,0:0:0:0:
142,192,7124,1,0,0:0:0:0:
256,192,7457,1,0,0:0:0:0:
142,192,7791,1,0,0:0:0:0:
256,192,8124,1,0,0:0:0:0:
85,192,8457,1,0,0:0:0:0:
312,192,8791,1,0,0:0:0:0:
85,192,9124,1,0,0:0:0:0:
312,192,9457,1,0,0:0:0:0:
426,192,9791,1,0,0:0:0:0:
199,192,10124,1,0,0:0:0:0:
483,192,10457,1,0,0:0:0:0:
312,192,10791,1,0,0:0:0:0:
85,192,11124,1,0,0:0:0:0:
483,192,11457,1,0,0:0:0:0:
369,192,11791,1,0,0:0:0:0:
256,192,12124,1,0,0:0:0:0:
85,192,12457,1,0,0:0:0:0:
199,192,12791,1,0,0:0:0:0:
426,192,13124,1,0,0:0:0:0:
256,192,13291,1,0,0:0:0:0:
85,192,13457,128,0,13791:0:0:0:0:
256,192,13791,1,0,0:0:0:0:
369,192,14124,1,0,0:0:0:0:
142,192,14457,1,0,0:0:0:0:
369,192,14791,1,0,0:0:0:0:
256,192,15124,1,0,0:0:0:0:
85,192,15457,1,0,0:0:0:0:
256,192,15791,1,0,0:0:0:0:
85,192,16124,1,0,0:0:0:0:
256,192,16457,1,0,0:0:0:0:
369,192,16791,1,0,0:0:0:0:
142,192,17124,1,0,0:0:0:0:
369,192,17457,1,0,0:0:0:0:
483,192,17791,1,0,0:0:0:0:
199,192,18124,1,0,0:0:0:0:
369,192,18457,1,0,0:0:0:0:
142,192,18791,1,0,0:0:0:0:
256,192,19124,1,0,0:0:0:0:
312,192,19457,1,0,0:0:0:0:
199,192,19791,1,0,0:0:0:0:
312,192,20124,1,0,0:0:0:0:
85,192,20457,1,0,0:0:0:0:
199,192,20624,1,0,0:0:0:0:
312,192,20791,1,0,0:0:0:0:
426,192,20957,1,0,0:0:0:0:
142,192,21291,1,0,0:0:0:0:
256,192,21457,1,0,0:0:0:0:
369,192,21624,1,0,0:0:0:0:
28,192,21791,1,0,0:0:0:0:
256,192,22124,1,0,0:0:0:0:
28,192,22457,1,0,0:0:0:0:
256,192,22791,1,0,0:0:0:0:
142,192,23124,1,0,0:0:0:0:
369,192,23457,1,0,0:0:0:0:
142,192,23791,1,0,0:0:0:0:
369,192,24124,1,0,0:0:0:0:
85,192,24457,1,0,0:0:0:0:
426,192,24791,1,0,0:0:0:0:
312,192,25124,1,0,0:0:0:0:
199,192,25457,1,0,0:0:0:0:
85,192,25791,1,0,0:0:0:0:
369,192,26124,1,0,0:0:0:0:
85,192,26457,1,0,0:0:0:0:
369,192,26791,1,0,0:0:0:0:
199,192,27124,1,0,0:0:0:0:
312,192,27457,1,0,0:0:0:0:
199,192,27791,1,0,0:0:0:0:
312,192,28124,1,0,0:0:0:0:
426,192,28457,1,0,0:0:0:0:
199,192,28791,1,0,0:0:0:0:
85,192,29124,1,0,0:0:0:0:
369,192,29457,1,0,0:0:0:0:
256,192,29791,1,0,0:0:0:0:
142,192,30124,1,0,0:0:0:0:
483,192,30457,1,0,0:0:0:0:
312,192,30791,1,0,0:0:0:0:
85,192,31124,1,0,0:0:0:0:
199,192,31457,1,0,0:0:0:0:
483,192,31791,1,0,0:0:0:0:
369,192,31957,1,0,0:0:0:0:
256,192,32124,128,0,32457:0:0:0:0:
28,192,32457,1,0,0:0:0:0:
312,192,32791,1,0,0:0:0:0:
28,192,33124,1,0,0:0:0:0:
312,192,33457,1,0,0:0:0:0:
142,192,33791,1,0,0:0:0:0:
369,192,34124,1,0,0:0:0:0:
142,192,34457,1,0,0:0:0:0:
369,192,34791,1,0,0:0:0:0:
199,192,35124,1,0,0:0:0:0:
426,192,35457,1,0,0:0:0:0:
85,192,35791,1,0,0:0:0:0:
426,192,36124,1,0,0:0:0:0:
85,192,36457,1,0,0:0:0:0:
312,192,36791,1,0,0:0:0:0:
28,192,37124,1,0,0:0:0:0:
312,192,37457,1,0,0:0:0:0:
142,192,37791,1,0,0:0:0:0:
369,192,38124,1,0,0:0:0:0:
142,192,38457,1,0,0:0:0:0:
369,192,38791,1,0,0:0:0:0:
85,192,39124,1,0,0:0:0:0:
199,192,39291,1,0,0:0:0:0:
312,192,39457,1,0,0:0:0:0:
426,192,39624,1,0,0:0:0:0:
426,192,39957,1,0,0:0:0:0:
312,192,40124,1,0,0:0:0:0:
199,192,40291,1,0,0:0:0:0:
85,192,40457,1,0,0:0:0:0:
369,192,40791,1,0,0:0:0:0:
85,192,41124,1,0,0:0:0:0:
369,192,41457,1,0,0:0:0:0:
28,192,41791,1,0,0:0:0:0:
312,192,42124,1,0,0:0:0:0:
28,192,42457,1,0,0:0:0:0:
312,192,42791,1,0,0:0:0:0:
85,192,43124,1,0,0:0:0:0:
426,192,43457,1,0,0:0:0:0:
312,192,43791,1,0,0:0:0:0:
199,192,44124,1,0,0:0:0:0:
85,192,44457,1,0,0:0:0:0:
312,192,44791,1,0,0:0:0:0:
85,192,45124,1,0,0:0:0:0:
312,192,45457,1,0,0:0:0:0:
28,192,45791,1,0,0:0:0:0:
256,192,46124,1,0,0:0:0:0:
28,192,46457,1,0,0:0:0:0:
256,192,46791,1,0,0:0:0:0:
85,192,47124,1,0,0:0:0:0:
426,192,47457,1,0,0:0:0:0:
312,192,47791,1,0,0:0:0:0:
199,192,48124,1,0,0:0:0:0:
85,192,48457,1,0,0:0:0:0:
483,192,48791,1,0,0:0:0:0:
369,192,49124,1,0,0:0:0:0:
256,192,49457,1,0,0:0:0:0:
85,192,49791,1,0,0:0:0:0:
199,192,50124,1,0,0:0:0:0:
483,192,50457,1,0,0:0:0:0:
369,192,50624,1,0,0:0:0:0:
256,192,50791,128,0,51124:0:0:0:0:
85,192,51124,1,0,0:0:0:0:
312,192,51457,1,0,0:0:0:0:
85,192,51791,1,0,0:0:0:0:
312,192,52124,1,0,0:0:0:0:
142,192,52457,1,0,0:0:0:0:
369,192,52791,1,0,0:0:0:0:
142,192,53124,1,0,0:0:0:0:
369,192,53457,1,0,0:0:0:0:
483,192,53791,1,0,0:0:0:0:
28,192,54124,1,0,0:0:0:0:
483,192,54457,1,0,0:0:0:0:
28,192,54791,1,0,0:0:0:0:
199,192,55124,1,0,0:0:0:0:
369,192,55457,1,0,0:0:0:0:
85,192,55791,1,0,0:0:0:0:
312,192,56124,1,0,0:0:0:0:
28,192,56457,1,0,0:0:0:0:
256,192,56791,1,0,0:0:0:0:
142,192,57124,1,0,0:0:0:0:
312,192,57457,1,0,0:0:0:0:
426,192,57791,1,0,0:0:0:0:
312,192,57957,1,0,0:0:0:0:
85,192,58124,1,0,0:0:0:0:
199,192,58291,1,0,0:0:0:0:
483,192,58624,1,0,0:0:0:0:
369,192,58791,1,0,0:0:0:0:
256,192,58957,1,0,0:0:0:0:
142,192,59124,1,0,0:0:0:0:
369,192,59457,1,0,0:0:0:0:
142,192,59791,1,0,0:0:0:0:
369,192,60124,1,0,0:0:0:0:
85,192,60457,1,0,0:0:0:0:
199,192,60791,1,0,0:0:0:0:
85,192,61124,1,0,0:0:0:0:
199,192,61457,1,0,0:0:0:0:
28,192,61791,1,0,0:0:0:0:
483,192,62124,1,0,0:0:0:0:
369,192,62457,1,0,0:0:0:0:
256,192,62791,1,0,0:0:0:0:
85,192,63124,1,0,0:0:0:0:
256,192,63457,1,0,0:0:0:0:
85,192,63791,1,0,0:0:0:0:
256,192,64124,1,0,0:0:0:0:
369,192,64457,1,0,0:0:0:0:
199,192,64791,1,0,0:0:0:0:
369,192,65124,1,0,0:0:0:0:
199,192,65457,1,0,0:0:0:0:
426,192,65791,1,0,0:0:0:0:
199,192,66124,1,0,0:0:0:0:
85,192,66457,1,0,0:0:0:0:
312,192,66791,1,0,0:0:0:0:
256,192,67124,1,0,0:0:0:0:
85,192,67457,1,0,0:0:0:0:
426,192,67791,1,0,0:0:0:0:
312,192,68124,1,0,0:0:0:0:
85,192,68457,1,0,0:0:0:0:
199,192,68791,1,0,0:0:0:0:
426,192,69124,1,0,0:0:0:0:
312,192,69291,1,0,0:0:0:0:
142,192,69457,128,0,69791:0:0:0:0:
483,192,69791,1,0,0:0:0:0:
85,192,70124,1,0,0:0:0:0:
483,192,70457,1,0,0:0:0:0:
85,192,70791,1,0,0:0:0:0:
256,192,71124,1,0,0:0:0:0:
426,192,71457,1,0,0:0:0:0:
256,192,71791,1,0,0:0:0:0:
426,192,72124,1,0,0:0:0:0:
85,192,72457,1,0,0:0:0:0:
369,192,72791,1,0,0:0:0:0:
28,192,73124,1,0,0:0:0:0:
369,192,73457,1,0,0:0:0:0:
142,192,73791,1,0,0:0:0:0:
312,192,74124,1,0,0:0:0:0:
85,192,74457,1,0,0:0:0:0:
256,192,74791,1,0,0:0:0:0:
426,192,75124,1,0,0:0:0:0:
199,192,75457,1,0,0:0:0:0:
426,192,75791,1,0,0:0:0:0:
199,192,76124,1,0,0:0:0:0:
28,192,76457,1,0,0:0:0:0:
142,192,76624,1,0,0:0:0:0:
256,192,76791,1,0,0:0:0:0:
369,192,76957,1,0,0:0:0:0:
85,192,77124,1,0,0:0:0:0:
199,192,77291,1,0,0:0:0:0:
312,192,77457,1,0,0:0:0:0:
426,192,77624,1,0,0:0:0:0:
85,192,77791,1,0,0:0:0:0:
256,192,78124,1,0,0:0:0:0:
85,192,78457,1,0,0:0:0:0:
256,192,78791,1,0,0:0:0:0:
426,192,79124,1,0,0:0:0:0:
256,192,79457,1,0,0:0:0:0:
426,192,79791,1,0,0:0:0:0:
256,192,80124,1,0,0:0:0:0:
142,192,80457,1,0,0:0:0:0:
369,192,80791,1,0,0:0:0:0:
85,192,81124,1,0,0:0:0:0:
369,192,81457,1,0,0:0:0:0:
426,192,81791,1,0,0:0:0:0:
199,192,82124,1,0,0:0:0:0:
369,192,82457,1,0,0:0:0:0:
199,192,82791,1,0,0:0:0:0:
85,192,83124,1,0,0:0:0:0:
199,192,83457,1,0,0:0:0:0:
426,192,83791,1,0,0:0:0:0:
312,192,84124,1,0,0:0:0:0:
85,192,84457,1,0,0:0:0:0:
199,192,84624,1,0,0:0:0:0:
312,192,84791,1,0,0:0:0:0:
426,192,84957,1,0,0:0:0:0:
199,192,85291,1,0,0:0:0:0:
312,192,85457,1,0,0:0:0:0:
426,192,85624,1,0,0:0:0:0:
28,192,85791,1,0,0:0:0:0:
142,192,85957,1,0,0:0:0:0:
369,192,86124,1,0,0:0:0:0:
483,192,86291,1,0,0:0:0:0:
483,192,86624,1,0,0:0:0:0:
312,192,86791,1,0,0:0:0:0:
85,192,86874,128,0,89291:0:0:0:0:
