osu file format v14

[General]
AudioFilename: Snow halation (REDSHiFT Remix) -Kimunyu Ver.- .mp3
AudioLeadIn: 0
PreviewTime: 130881
Countdown: 0
SampleSet: Soft
StackLeniency: 0.7
Mode: 0
LetterboxInBreaks: 0
WidescreenStoryboard: 0

[Editor]
Bookmarks: 39111,49898,93044,130797,163156,184729,195516,217089,238662,260235
DistanceSpacing: 0.9
BeatDivisor: 4
GridSize: 4
TimelineZoom: 1.2

[Metadata]
Title:Snow halation (REDSHiFT Remix)
TitleUnicode:Snow halation (REDSHiFT Remix)
Artist:Kimunyu
ArtistUnicode:きむにゅ
Creator:Gaia
Version:NicoRin Advanced
Source:ラブライブ! School idol project
Tags:Amamiya Yuko Skystar Kibbleru Chaoslitz Karen Momochikun Little Cloudsplash16 Meyrink μ’s u's Muse nico maki love live festival japanese anime harasho Снег Хорошо
BeatmapID:1865252
BeatmapSetID:429540

[Difficulty]
HPDrainRate:4
CircleSize:3.2
OverallDifficulty:4
ApproachRate:6
SliderMultiplier:1.2
SliderTickRate:1

[Events]
//Background and Video events
0,0,"snowharasho.jpg",0,0
//Break Periods
2,39311,48698
2,184929,194316
//Storyboard Layer 0 (Background)
//Storyboard Layer 1 (Fail)
//Storyboard Layer 2 (Pass)
//Storyboard Layer 3 (Foreground)
//Storyboard Layer 4 (Overlay)
//Storyboard Sound Samples

[TimingPoints]
1359,337.078651685393,4,2,1,60,1,0
39448,-100,4,2,2,30,0,0
49898,-100,4,2,1,40,0,0
50066,-100,4,2,2,40,0,0
50235,-100,4,2,1,40,0,0
52594,-100,4,2,2,40,0,0
52679,-100,4,2,1,40,0,0
53943,-100,4,2,2,40,0,0
54027,-100,4,2,1,40,0,0
54448,-100,4,2,2,40,0,0
54532,-100,4,2,1,40,0,0
54954,-100,4,2,2,40,0,0
55038,-100,4,2,1,40,0,0
55291,-100,4,2,2,40,0,0
55375,-100,4,2,1,40,0,0
57651,-100,4,2,2,40,0,0
57735,-100,4,2,1,40,0,0
57819,-100,4,2,2,40,0,0
57903,-100,4,2,1,40,0,0
57988,-100,4,2,2,40,0,0
58072,-100,4,2,1,40,0,0
70881,-100,4,2,1,30,0,0
71471,-100,4,2,1,60,0,0
93044,-100,4,2,1,30,0,0
93128,-100,4,2,2,30,0,0
102482,-100,4,2,2,40,0,0
103830,-100,4,2,1,50,0,0
129617,-100,4,2,1,30,0,0
130797,-100,4,2,1,60,0,0
195516,-100,4,2,1,40,0,0
195853,-100,4,2,1,30,0,0
197370,-100,4,2,2,40,0,0
197454,-100,4,2,1,30,0,0
197875,-100,4,2,2,40,0,0
197959,-100,4,2,1,30,0,0
198212,-100,4,2,2,40,0,0
198296,-100,4,2,1,30,0,0
198718,-100,4,2,2,30,0,0
198802,-100,4,2,1,30,0,0
199561,-100,4,2,2,40,0,0
199645,-100,4,2,1,30,0,0
200066,-100,4,2,2,40,0,0
200150,-100,4,2,1,30,0,0
200235,-100,4,2,2,40,0,0
200319,-100,4,2,1,30,0,0
200741,-100,4,2,2,40,0,0
200825,-100,4,2,1,30,0,0
200909,-100,4,2,2,45,0,0
200993,-100,4,2,1,35,0,0
201415,-100,4,2,2,45,0,0
201499,-100,4,2,1,35,0,0
202257,-100,4,2,2,45,0,0
202341,-100,4,2,1,35,0,0
202763,-100,4,2,2,45,0,0
202847,-100,4,2,1,35,0,0
203269,-100,4,2,2,45,0,0
203353,-100,4,2,1,35,0,0
203606,-100,4,2,2,50,0,0
203690,-100,4,2,1,40,0,0
204111,-100,4,2,2,50,0,0
204196,-100,4,2,1,40,0,0
204954,-100,4,2,2,50,0,0
205039,-100,4,2,1,40,0,0
205460,-100,4,2,2,50,0,0
205545,-100,4,2,1,40,0,0
205965,-100,4,2,2,50,0,0
206050,-100,4,2,1,40,0,0
206134,-100,4,2,2,50,0,0
206219,-100,4,2,1,40,0,0
206302,-100,4,2,3,50,0,0
206387,-100,4,2,1,50,0,0
216752,-100,4,2,2,50,0,0
217089,-100,4,2,1,60,0,0

[Colours]
Combo1 : 253,164,198
Combo2 : 252,173,86
Combo3 : 142,176,238
Combo4 : 116,216,188

[HitObjects]
40,250,1359,6,0,P|97:251|131:299,1,120,6|2,3:2|0:2,0:0:0:0:
104,344,1864,1,2,0:2:0:0:
104,344,2033,2,0,L|233:330,1,120,8|2,0:0|0:2,0:0:0:0:
272,352,2538,1,2,3:2:0:0:
372,312,2875,2,0,P|408:256|388:204,1,120,2|2,3:2|3:2,0:0:0:0:
376,160,3381,2,0,L|308:180,1,60,8|2,0:0|3:2,0:0:0:0:
292,132,3718,2,0,L|224:152,1,60,2|2,0:2|0:2,0:0:0:0:
192,116,4055,6,0,L|52:96,1,120,2|2,3:2|0:2,0:0:0:0:
20,104,4561,2,0,L|8:40,2,60,2|8|2,0:2|0:0|0:2,0:0:0:0:
12,212,5235,1,2,3:2:0:0:
12,212,5403,2,0,L|92:196,1,60,2|2,0:2|3:2,0:0:0:0:
108,240,5741,2,0,L|180:252,1,60,2|2,0:2|3:2,0:0:0:0:
212,220,6078,1,8,0:0:0:0:
212,220,6246,2,0,P|260:188|340:192,1,120,2|2,3:2|0:2,0:0:0:0:
364,156,6752,6,0,P|351:217|348:308,1,120,2|2,3:2|0:2,0:0:0:0:
424,348,7426,2,0,P|436:323|448:272,2,60,8|2|2,0:0|0:2|0:2,0:0:0:0:
384,384,7932,2,0,P|334:373|248:364,1,120,2|2,3:2|3:2,0:0:0:0:
220,340,8437,2,0,L|140:364,1,60,2|2,0:2|3:2,0:0:0:0:
112,376,8774,1,8,0:0:0:0:
112,376,8943,2,0,P|68:332|76:256,1,120,2|2,3:2|0:2,0:0:0:0:
84,228,9448,6,0,B|40:224|12:244|12:244|29:182|-12:140,2,180,2|2|2,3:2|0:2|0:2,0:0:0:0:
136,248,10628,2,0,P|148:212|148:124,1,120,2|2,3:2|3:2,0:0:0:0:
236,68,11302,1,2,3:2:0:0:
236,68,11471,2,0,P|236:45|256:-8,2,60,8|2|2,0:0|3:2|3:2,0:0:0:0:
276,104,11976,1,2,3:2:0:0:
276,104,12145,6,0,P|338:97|416:80,1,120,6|2,3:2|0:2,0:0:0:0:
496,52,12819,1,8,0:0:0:0:
496,52,12988,2,0,P|482:115|476:192,1,120,2|0,0:2|3:2,0:0:0:0:
372,196,13662,2,0,P|385:254|391:314,1,120,2|2,3:2|3:2,0:0:0:0:
424,356,14167,2,0,B|336:312|348:420|216:344,1,180,8|0,0:0|0:0,0:0:0:0:
212,324,14842,6,0,P|147:344|64:344,2,120,2|2|8,3:2|0:2|0:0,0:0:0:0:
260,228,15853,1,2,0:2:0:0:
260,228,16021,2,0,P|244:164|176:132,1,120,2|2,3:2|3:2,0:0:0:0:
108,84,16696,2,0,P|95:125|96:156,1,60,2|8,3:2|0:0,0:0:0:0:
60,180,17033,2,0,P|108:228|184:216,1,120,2|0,3:2|0:2,0:0:0:0:
192,188,17538,6,0,L|336:168,1,120,2|2,3:2|0:2,0:0:0:0:
336,68,18212,2,0,L|454:84,1,120,8|2,0:0|0:2,0:0:0:0:
492,124,18718,2,0,P|476:38|476:0,2,120,2|2|2,3:2|3:2|3:2,0:0:0:0:
504,176,19561,1,8,0:0:0:0:
504,176,19729,2,0,L|488:256,1,60,2|0,3:2|0:0,0:0:0:0:
512,284,20066,1,2,0:2:0:0:
512,284,20235,6,0,P|448:260|372:280,1,120,2|2,3:2|0:2,0:0:0:0:
320,340,20909,1,8,0:0:0:0:
320,340,21077,2,0,P|291:355|257:358,1,60,2|0,0:0|3:2,0:0:0:0:
211,374,21415,2,0,L|195:248,1,120,2|2,3:2|3:2,0:0:0:0:
156,154,22089,2,0,P|133:142|92:134,2,60,2|8|2,3:2|0:0|3:2,0:0:0:0:
207,169,22594,2,0,P|236:168|271:157,1,60,2|0,0:2|0:0,0:0:0:0:
313,185,22932,6,0,P|365:137|353:57,1,120,6|2,3:2|0:2,0:0:0:0:
448,18,23606,2,0,P|452:81|468:162,1,120,8|2,0:0|0:2,0:0:0:0:
508,140,24111,2,0,P|493:207|492:276,1,120,2|2,3:2|3:2,0:0:0:0:
508,364,24785,2,0,L|432:348,1,60,2|8,3:2|0:0,0:0:0:0:
400,328,25123,2,0,P|341:351|256:344,1,120,2|2,3:2|0:2,0:0:0:0:
248,312,25628,6,0,B|168:304|168:304|132:352,1,120,2|2,3:2|0:2,0:0:0:0:
40,360,26302,2,0,P|12:308|28:232,1,120,8|2,0:0|0:2,0:0:0:0:
68,224,26808,2,0,P|132:217|196:204,2,120,2|2|2,3:2|3:2|3:2,0:0:0:0:
20,200,27651,2,0,P|3:170|0:136,2,60,8|2|2,0:0|3:2|0:2,0:0:0:0:
100,128,28325,6,0,P|112:48|136:12,2,120,2|2|8,3:2|0:2|0:0,0:0:0:0:
208,112,29336,1,2,0:2:0:0:
208,112,29505,2,0,P|251:96|332:84,1,120,2|2,3:2|3:2,0:0:0:0:
432,68,30179,1,2,3:2:0:0:
432,68,30347,2,0,P|413:122|404:208,1,120,8|2,0:0|0:2,0:0:0:0:
352,276,31021,6,0,P|425:283|496:296,2,120,2|2|8,3:2|0:2|0:0,0:0:0:0:
268,340,32033,1,2,0:2:0:0:
268,340,32201,2,0,P|200:336|140:284,1,120,2|2,3:2|3:2,0:0:0:0:
76,236,32875,1,2,3:2:0:0:
76,236,33044,2,0,L|88:152,1,60,8|2,0:0|3:2,0:0:0:0:
132,156,33381,2,0,P|123:118|112:80,1,60,2|2,0:2|0:2,0:0:0:0:
108,44,33718,6,0,B|148:52|167:90|167:90|245:49|245:49|264:82|315:94,1,240,2|8,3:2|0:0,0:0:0:0:
403,54,34729,1,2,3:2:0:0:
403,54,34898,2,0,P|390:117|387:178,1,120,2|2,3:2|3:2,0:0:0:0:
471,239,35572,2,0,L|491:319,1,60,2|8,3:2|0:0,0:0:0:0:
479,350,35909,2,0,P|423:318|339:326,1,120,2|2,3:2|0:2,0:0:0:0:
321,342,36415,6,0,B|205:374|205:374|198:340|165:294,1,180,2|2,3:2|3:2,0:0:0:0:
180,265,37089,2,0,P|120:309|48:285,1,120,8|2,0:0|3:2,0:0:0:0:
8,220,37763,1,2,0:2:0:0:
8,220,37932,2,0,L|24:88,1,120,2|2,3:2|3:2,0:0:0:0:
16,47,38437,2,0,B|44:82|79:75|79:75|121:33|195:52|195:52|144:65|131:107,1,240,8|6,0:0|3:2,0:0:0:0:
256,192,49898,5,4,3:2:0:0:
304,108,50235,1,2,3:2:0:0:
256,24,50572,1,2,3:2:0:0:
208,108,50909,1,2,3:2:0:0:
256,192,51246,5,0,3:2:0:0:
304,276,51583,1,2,3:2:0:0:
256,360,51920,1,2,3:2:0:0:
208,276,52257,1,2,3:2:0:0:
256,192,52594,5,4,3:1:0:0:
340,144,52931,1,0,3:2:0:0:
424,192,53268,1,0,3:2:0:0:
340,240,53605,1,2,3:2:0:0:
256,192,53943,5,8,3:2:0:0:
172,144,54280,1,0,3:2:0:0:
88,192,54617,1,0,3:3:0:0:
172,240,54954,1,2,3:1:0:0:
256,192,55291,5,4,3:2:0:0:
324,124,55628,1,2,3:2:0:0:
256,56,55965,1,2,3:2:0:0:
188,124,56302,1,2,3:2:0:0:
256,192,56639,5,0,3:2:0:0:
324,124,56976,1,0,3:2:0:0:
392,192,57313,1,0,3:3:0:0:
324,260,57650,1,4,3:2:0:0:
256,192,57988,5,4,3:3:0:0:
188,260,58325,1,0,3:2:0:0:
256,328,58662,1,2,3:2:0:0:
324,260,58999,1,0,3:2:0:0:
256,192,59336,5,2,3:2:0:0:
188,260,59673,1,2,3:2:0:0:
120,192,60010,1,0,3:2:0:0:
188,124,60347,1,0,3:2:0:0:
256,192,60684,6,0,P|311:211|368:192,1,120,4|2,3:2|3:2,0:0:0:0:
408,156,61190,1,2,0:2:0:0:
408,156,61358,2,0,L|418:96,1,60,2|0,3:2|0:0,0:0:0:0:
472,104,61696,2,0,L|461:163,1,60,2|0,3:2|0:0,0:0:0:0:
500,200,62033,6,0,P|519:255|500:311,1,120,2|2,3:2|3:2,0:0:0:0:
456,340,62538,1,2,0:0:0:0:
456,340,62707,1,0,3:2:0:0:
360,292,63044,2,0,L|349:351,1,60,8|8,0:0|0:0,0:0:0:0:
296,356,63381,6,0,L|317:237,1,120,0|2,3:2|3:2,0:0:0:0:
328,184,63887,1,2,0:2:0:0:
328,184,64055,1,2,3:2:0:0:
224,156,64392,2,0,L|213:215,1,60,2|2,3:2|0:0,0:0:0:0:
192,264,64729,6,0,P|136:283|80:263,1,120,0|0,3:2|3:2,0:0:0:0:
40,228,65235,1,2,0:0:0:0:
40,228,65403,1,0,3:2:0:0:
12,124,65741,2,0,L|22:64,1,60,8|2,0:0|3:2,0:0:0:0:
76,52,66078,6,0,L|194:30,1,120,2|2,3:2|3:2,0:0:0:0:
296,68,66752,1,2,3:2:0:0:
296,68,66920,2,0,P|315:124|295:180,1,120,0|2,3:2|3:2,0:0:0:0:
260,220,67426,6,0,P|241:276|261:332,1,120,2|2,3:2|3:2,0:0:0:0:
308,356,67932,2,0,P|337:360|366:352,1,60,2|0,3:2|3:2,0:0:0:0:
420,360,68269,2,0,P|438:336|446:307,1,60,2|0,3:2|3:2,0:0:0:0:
476,264,68606,1,2,3:2:0:0:
476,264,68774,6,0,B|439:176|332:180|332:180|220:156|204:20|384:-12|408:116|332:180|332:180|247:272|123:197|124:72,1,840,2|2,3:2|0:2,0:0:0:0:
16,72,71471,6,0,L|0:190,1,120,6|8,3:2|0:0,0:0:0:0:
52,180,71976,2,0,L|36:298,1,120,2|0,0:2|3:2,0:0:0:0:
64,344,72482,1,8,0:0:0:0:
64,344,72651,2,0,P|119:363|176:344,1,120,2|2,0:2|0:2,0:0:0:0:
272,296,73325,2,0,P|327:277|384:296,1,120,2|0,0:2|3:3,0:0:0:0:
432,320,73830,1,8,0:1:0:0:
432,320,74167,6,0,L|448:202,1,120,0|8,3:1|0:0,0:0:0:0:
496,224,74673,2,0,L|512:106,1,120,2|2,0:2|3:2,0:0:0:0:
484,60,75179,1,8,0:1:0:0:
388,111,75516,1,0,3:1:0:0:
388,111,75684,2,0,P|359:119|329:115,1,60,2|8,0:2|0:0,0:0:0:0:
280,96,76021,2,0,P|225:77|168:96,1,120,2|0,0:2|3:1,0:0:0:0:
124,128,76527,1,8,0:0:0:0:
80,228,76864,6,0,L|96:346,1,120,2|8,3:2|0:0,0:0:0:0:
148,356,77370,2,0,L|132:238,1,120,2|2,0:2|3:2,0:0:0:0:
182,246,77875,2,0,L|190:305,1,60,8|2,0:0|0:2,0:0:0:0:
228,344,78212,2,0,P|283:362|339:343,1,120,2|8,3:2|0:0,0:0:0:0:
372,300,78718,1,2,0:2:0:0:
372,300,78887,2,0,L|364:241,1,60,2|2,0:2|3:2,0:0:0:0:
316,216,79224,2,0,L|324:157,1,60,8|2,0:1|0:2,0:0:0:0:
360,116,79561,6,0,L|478:100,1,120,0|8,3:1|0:0,0:0:0:0:
500,52,80067,2,0,L|382:68,1,120,2|2,0:2|3:2,0:0:0:0:
328,76,80572,1,8,0:1:0:0:
228,32,80909,2,0,L|220:91,1,60,0|2,3:1|0:2,0:0:0:0:
184,132,81246,1,8,0:0:0:0:
184,132,81415,2,0,P|128:112|72:130,1,120,2|2,0:2|3:2,0:0:0:0:
36,172,81920,1,8,0:1:0:0:
68,276,82257,6,0,P|123:295|179:277,1,120,6|8,3:2|0:0,0:0:0:0:
228,252,82763,2,0,P|284:234|339:253,1,120,2|2,0:2|3:2,0:0:0:0:
380,288,83269,2,0,L|372:347,1,60,8|2,0:1|0:2,0:0:0:0:
420,372,83606,2,0,L|436:254,1,120,2|8,3:2|0:0,0:0:0:0:
388,156,84280,2,0,L|404:38,1,120,2|8,0:2|0:0,0:0:0:0:
304,76,84954,6,0,P|247:93|192:74,1,120,0|8,3:1|0:0,0:0:0:0:
148,44,85460,2,0,L|89:52,1,60,2|2,0:2|0:2,0:0:0:0:
48,152,85965,2,0,L|107:160,1,60,8|2,0:0|0:2,0:0:0:0:
160,176,86302,2,0,P|180:231|181:291,1,120,2|8,3:2|0:0,0:0:0:0:
232,312,86808,2,0,P|266:263|315:229,1,120,2|2,0:2|3:2,0:0:0:0:
368,212,87314,1,8,0:1:0:0:
424,120,87651,6,0,B|368:100|368:100|310:120,1,120,2|8,3:2|0:1,0:0:0:0:
260,140,88156,2,0,B|202:160|202:160|146:140,1,120,2|2,0:2|3:2,0:0:0:0:
96,120,88662,1,8,0:1:0:0:
96,120,88830,2,0,L|80:238,1,120,2|2,0:2|0:2,0:0:0:0:
104,288,89336,1,8,0:1:0:0:
188,356,89673,2,0,P|217:360|246:352,1,60,0|2,0:1|3:2,0:0:0:0:
300,360,90010,2,0,P|318:336|326:307,1,60,10|0,0:0|0:1,0:0:0:0:
328,252,90347,6,0,L|312:134,1,120,0|8,3:2|0:1,0:0:0:0:
304,80,90853,1,2,0:2:0:0:
304,80,91021,1,2,0:2:0:0:
204,124,91358,1,8,0:0:0:0:
204,124,91527,2,0,L|86:108,1,120,2|2,0:2|0:2,0:0:0:0:
36,132,92033,1,8,0:0:0:0:
68,236,92370,2,0,L|127:228,1,60,0|2,0:1|3:2,0:0:0:0:
180,220,92707,2,0,L|172:279,1,60,8|2,0:1|0:2,0:0:0:0:
168,332,93044,6,0,L|286:316,1,120,6|2,3:2|0:2,0:0:0:0:
324,356,93550,2,0,P|388:360|424:308,1,120,2|0,0:2|0:0,0:0:0:0:
432,268,94055,1,2,1:2:0:0:
392,168,94392,2,0,L|520:144,2,120,0|2|2,0:0|1:2|0:3,0:0:0:0:
300,108,95403,2,0,P|278:137|276:172,1,60,0|0,1:2|0:0,0:0:0:0:
276,216,95741,6,0,P|244:160|172:148,1,120,2|2,0:0|1:2,0:0:0:0:
140,160,96246,2,0,L|12:188,1,120,0|2,0:0|0:3,0:0:0:0:
4,236,96752,1,2,1:2:0:0:
72,320,97089,2,0,L|212:336,2,120,2|2|2,0:0|1:2|0:3,0:0:0:0:
31,288,97932,1,2,0:0:0:0:
31,288,98100,2,0,P|11:260|3:216,1,60,2|2,1:2|0:3,0:0:0:0:
22,185,98437,6,0,P|54:105|22:37,1,120,2|2,0:0|1:2,0:0:0:0:
44,20,98943,2,0,P|84:52|164:52,1,120,2|2,0:3|0:0,0:0:0:0:
200,32,99448,1,2,1:2:0:0:
188,140,99785,2,0,L|176:288,1,120,2|2,0:0|1:2,0:0:0:0:
176,312,100291,1,2,0:3:0:0:
276,352,100628,2,0,L|348:332,1,60,2|2,0:0|1:2,0:0:0:0:
384,316,100965,1,2,0:0:0:0:
384,316,101134,6,0,P|378:248|328:220,1,120,2|2,0:0|1:2,0:0:0:0:
300,184,101639,2,0,L|436:156,1,120,2|2,0:2|0:0,0:0:0:0:
460,128,102145,1,2,1:2:0:0:
376,60,102482,2,0,B|323:40|260:60|260:60|264:20|220:-12,2,180,2|2|2,0:0|0:0|1:2,0:0:0:0:
417,159,103830,6,0,P|392:224|392:288,1,120,6|8,3:2|0:2,0:0:0:0:
416,320,104336,2,0,P|368:288|296:296,1,120,2|2,0:2|3:2,0:0:0:0:
280,340,104842,1,8,0:2:0:0:
228,248,105179,1,2,3:2:0:0:
168,340,105516,2,0,L|40:356,1,120,8|2,0:2|0:2,0:0:0:0:
4,384,106021,1,2,3:2:0:0:
4,384,106190,1,8,0:2:0:0:
4,276,106527,6,0,L|-4:132,2,120,2|8|2,3:2|0:2|0:2,0:0:0:0:
60,272,107370,1,2,3:2:0:0:
60,272,107538,2,0,L|56:204,1,60,8|2,0:2|0:2,0:0:0:0:
52,160,107875,1,2,3:2:0:0:
128,84,108212,2,0,P|180:116|256:100,1,120,8|2,0:2|0:2,0:0:0:0:
288,96,108718,1,2,3:2:0:0:
288,96,108887,2,0,P|270:114|256:160,1,60,8|0,0:2|0:0,0:0:0:0:
268,200,109224,6,0,P|320:232|408:196,1,120,2|8,3:2|0:2,0:0:0:0:
408,180,109729,2,0,L|424:316,1,120,2|2,0:2|3:2,0:0:0:0:
428,352,110235,1,8,0:2:0:0:
328,316,110572,2,0,P|278:284|219:291,1,120,2|8,3:2|0:2,0:0:0:0:
180,328,111078,2,0,B|108:348|108:348|68:300,1,120,2|2,0:2|3:2,0:0:0:0:
52,268,111583,1,8,0:2:0:0:
136,200,111920,6,0,L|204:184,2,60,2|2|8,3:2|0:2|0:2,0:0:0:0:
96,164,112426,2,0,P|80:104|116:52,1,120,2|2,0:2|3:2,0:0:0:0:
160,48,112932,2,0,P|184:76|188:116,1,60,8|0,0:2|0:0,0:0:0:0:
204,152,113269,1,2,3:2:0:0:
300,104,113606,1,8,0:2:0:0:
392,164,113943,2,0,P|400:191|404:224,1,60,2|2,0:2|3:2,0:0:0:0:
448,252,114280,2,0,P|445:283|432:328,1,60,8|2,0:2|0:2,0:0:0:0:
412,356,114617,5,6,3:2:0:0:
320,300,114954,1,8,0:2:0:0:
224,348,115291,2,0,P|188:296|212:224,1,120,2|8,0:2|0:2,0:0:0:0:
220,196,115797,1,2,0:2:0:0:
220,196,115965,2,0,L|152:188,1,60,2|2,0:2|0:2,0:0:0:0:
136,140,116302,1,8,0:2:0:0:
136,140,116471,2,0,L|282:157,1,120,2|2,0:2|3:2,0:0:0:0:
296,116,116976,1,8,0:2:0:0:
216,44,117314,5,2,3:2:0:0:
120,88,117651,1,8,0:2:0:0:
24,136,117988,2,0,L|44:272,1,120,2|8,0:2|0:2,0:0:0:0:
16,300,118493,1,2,0:2:0:0:
16,300,118662,2,0,P|92:304|152:344,1,120,2|8,3:2|0:2,0:0:0:0:
164,364,119167,2,0,P|223:364|277:340,1,120,2|2,0:2|3:2,0:0:0:0:
300,292,119673,1,8,0:2:0:0:
236,204,120010,6,0,L|220:72,2,120,2|8|2,3:2|0:2|0:2,0:0:0:0:
268,248,120853,1,2,3:2:0:0:
268,248,121021,2,0,P|300:240|340:208,1,60,8|2,0:2|0:2,0:0:0:0:
356,184,121358,2,0,L|500:212,1,120,2|8,3:2|0:2,0:0:0:0:
508,248,121864,2,0,P|440:268|420:344,1,120,2|2,0:2|3:2,0:0:0:0:
408,360,122370,1,8,0:2:0:0:
324,292,122707,6,0,L|304:152,2,120,2|8|2,3:2|0:2|0:2,0:0:0:0:
296,340,123550,1,2,3:2:0:0:
296,340,123718,2,0,P|264:339|224:320,1,60,8|2,0:2|0:2,0:0:0:0:
192,304,124055,2,0,P|136:336|72:332,1,120,2|8,3:2|0:2,0:0:0:0:
48,292,124561,2,0,L|31:173,1,120,2|2,0:2|3:2,0:0:0:0:
24,120,125066,1,8,0:2:0:0:
132,100,125403,6,0,L|149:219,2,120,2|8|2,3:2|0:2|0:2,0:0:0:0:
212,24,126415,2,0,P|241:12|288:12,1,60,8|2,0:2|0:2,0:0:0:0:
320,28,126752,2,0,P|280:80|300:160,1,120,2|8,3:2|0:2,0:0:0:0:
256,180,127257,2,0,P|321:188|380:131,1,120,2|2,0:2|3:2,0:0:0:0:
420,164,127763,2,0,P|404:204|404:248,1,60,8|2,0:2|0:2,0:0:0:0:
428,268,128100,6,0,P|377:238|319:248,1,120,2|8,3:2|0:2,0:0:0:0:
244,324,128774,2,0,L|160:332,1,60,2|2,0:2|3:2,0:0:0:0:
132,332,129111,1,8,0:2:0:0:
36,280,129448,2,0,P|23:315|20:348,2,60,2|4|4,3:2|0:3|0:3,0:0:0:0:
76,244,129954,1,4,0:3:0:0:
76,244,130123,2,0,P|70:214|60:186,1,60,4|4,0:3|0:3,0:0:0:0:
20,148,130460,1,8,0:3:0:0:
112,92,130797,6,0,L|230:108,1,120,6|8,3:2|0:2,0:0:0:0:
284,116,131302,2,0,L|276:57,1,60,2|2,0:2|0:2,0:0:0:0:
177,101,131808,2,0,L|185:160,1,60,8|2,0:2|0:2,0:0:0:0:
230,193,132145,2,0,P|286:210|341:190,1,120,2|8,3:2|0:2,0:0:0:0:
384,156,132651,1,2,0:2:0:0:
384,156,132819,1,2,0:2:0:0:
452,240,133156,1,8,0:2:0:0:
372,312,133493,6,0,P|316:295|261:315,1,120,2|8,3:2|0:2,0:0:0:0:
220,352,133999,1,2,0:2:0:0:
112,336,134336,1,2,3:2:0:0:
112,336,134505,2,0,L|104:277,1,60,8|2,0:2|0:2,0:0:0:0:
128,228,134842,2,0,B|123:192|123:192|98:151|98:151|94:115,1,120,0|8,3:2|0:2,0:0:0:0:
136,80,135347,1,2,0:2:0:0:
136,80,135516,2,0,L|144:139,1,60,2|2,0:2|3:2,0:0:0:0:
196,156,135853,2,0,L|255:148,1,60,8|2,0:1|0:0,0:0:0:0:
308,164,136190,6,0,P|328:219|311:275,1,120,2|8,3:2|0:2,0:0:0:0:
268,308,136696,2,0,L|209:316,1,60,2|2,0:2|0:2,0:0:0:0:
100,332,137201,2,0,L|108:273,1,60,8|2,0:2|0:2,0:0:0:0:
144,232,137538,2,0,L|128:114,1,120,0|8,3:1|0:2,0:0:0:0:
172,80,138044,2,0,L|188:198,1,120,2|2,0:2|3:2,0:0:0:0:
196,252,138550,1,10,0:2:0:0:
272,328,138887,6,0,P|328:345|383:325,1,120,0|10,3:1|0:2,0:0:0:0:
420,288,139392,1,2,0:2:0:0:
420,288,139561,2,0,L|436:170,1,120,2|10,0:2|0:2,0:0:0:0:
416,120,140066,1,2,0:2:0:0:
416,120,140235,2,0,P|359:102|304:122,1,120,0|10,3:1|0:2,0:0:0:0:
256,144,140741,2,0,P|200:164|144:146,1,120,2|0,0:2|3:2,0:0:0:0:
96,124,141246,1,10,0:2:0:0:
96,124,141583,6,0,L|112:242,1,120,6|8,3:2|0:2,0:0:0:0:
120,296,142088,2,0,L|61:288,1,60,2|2,0:2|0:2,0:0:0:0:
105,189,142594,2,0,L|164:197,1,60,8|2,0:2|0:2,0:0:0:0:
220,204,142932,2,0,L|204:86,1,120,2|8,3:2|0:2,0:0:0:0:
196,32,143437,1,2,0:2:0:0:
196,32,143606,1,2,0:2:0:0:
300,60,143943,1,8,0:2:0:0:
404,88,144280,6,0,P|423:143|405:199,1,120,2|8,3:2|0:2,0:0:0:0:
368,240,144785,1,2,0:2:0:0:
264,268,145123,1,2,3:2:0:0:
264,268,145291,2,0,L|256:327,1,60,8|2,0:2|0:2,0:0:0:0:
220,368,145628,2,0,P|164:349|108:368,1,120,0|8,3:2|0:2,0:0:0:0:
56,356,146134,1,2,0:2:0:0:
56,356,146302,2,0,L|64:297,1,60,2|2,0:2|3:2,0:0:0:0:
104,260,146639,2,0,L|96:201,1,60,8|2,0:2|0:0,0:0:0:0:
84,148,146976,6,0,P|139:166|195:147,1,120,2|8,3:2|0:2,0:0:0:0:
236,112,147482,2,0,L|244:53,1,60,2|2,0:2|0:2,0:0:0:0:
332,116,147988,2,0,L|340:57,1,60,8|2,0:2|0:2,0:0:0:0:
388,32,148325,2,0,L|372:150,1,120,0|8,3:2|0:2,0:0:0:0:
364,204,148830,2,0,L|423:196,1,60,2|2,0:2|0:2,0:0:0:0:
476,292,149336,2,0,L|417:300,1,60,10|2,0:2|0:0,0:0:0:0:
364,308,149673,6,0,P|308:289|252:307,1,120,0|10,3:2|0:2,0:0:0:0:
208,340,150179,1,2,0:2:0:0:
208,340,150347,2,0,P|226:284|207:228,1,120,2|10,0:2|0:2,0:0:0:0:
176,184,150853,1,2,0:2:0:0:
176,184,151021,2,0,L|58:168,1,120,0|10,3:2|0:2,0:0:0:0:
4,156,151527,2,0,L|122:140,1,120,2|0,0:2|3:2,0:0:0:0:
176,132,152033,1,10,0:2:0:0:
260,196,152370,6,0,P|336:200|312:128,1,180,6|2,3:2|0:2,0:0:0:0:
276,92,153044,2,0,L|335:84,1,60,2|2,0:2|3:2,0:0:0:0:
388,76,153381,1,10,0:2:0:0:
438,171,153718,2,0,L|260:196,2,180,2|2|10,3:2|0:2|0:2,0:0:0:0:
492,264,155066,6,0,P|436:329|351:314,1,180,2|2,3:2|0:2,0:0:0:0:
304,288,155741,1,2,0:2:0:0:
196,300,156078,2,0,P|178:324|170:353,1,60,10|2,0:2|0:0,0:0:0:0:
120,372,156415,2,0,L|104:254,1,120,2|10,3:2|0:2,0:0:0:0:
96,200,156920,1,2,0:2:0:0:
96,200,157089,1,2,0:2:0:0:
148,104,157426,1,10,0:2:0:0:
244,152,157763,6,0,P|300:170|356:151,1,120,2|10,3:2|0:2,0:0:0:0:
412,152,158269,1,2,0:2:0:0:
412,152,158437,2,0,P|432:173|444:200,1,60,2|2,0:2|3:2,0:0:0:0:
488,232,158774,2,0,P|479:260|462:284,1,60,10|2,0:2|0:0,0:0:0:0:
420,320,159111,2,0,B|348:356|316:292|245:327,2,180,2|2|10,3:2|0:2|0:2,0:0:0:0:
488,232,160460,6,0,L|472:114,1,120,2|10,3:2|0:2,0:0:0:0:
464,60,160965,1,2,0:2:0:0:
464,60,161134,1,2,0:2:0:0:
368,108,161471,1,10,0:2:0:0:
276,52,161808,2,0,P|220:34|164:53,1,120,2|2,0:0|0:0,0:0:0:0:
136,100,162314,1,2,0:2:0:0:
136,100,162482,2,0,L|128:159,1,60,2|2,0:0|0:2,0:0:0:0:
168,196,162819,2,0,L|176:255,1,60,2|2,0:2|0:2,0:0:0:0:
156,304,163156,6,0,B|220:280|268:312|268:312|264:268|304:236,1,180,6|2,3:2|0:2,0:0:0:0:
324,216,163830,2,0,P|389:237|452:240,1,120,8|0,0:0|0:0,0:0:0:0:
488,216,164336,1,0,3:2:0:0:
488,216,164505,2,0,L|500:152,2,60,2|2|0,0:2|3:2|0:0,0:0:0:0:
496,324,165179,2,0,P|434:332|376:348,1,120,8|2,0:2|0:0,0:0:0:0:
332,372,165684,1,2,0:0:0:0:
332,372,165853,6,0,P|270:366|188:348,1,120,2|0,3:2|0:0,0:0:0:0:
108,368,166527,2,0,P|72:300|92:244,1,120,8|0,0:2|0:0,0:0:0:0:
116,220,167033,1,0,3:1:0:0:
116,220,167201,2,0,L|44:236,1,60,2|2,0:2|3:2,0:0:0:0:
44,180,167538,2,0,L|102:166,1,60,2|2,0:0|3:2,0:0:0:0:
136,124,167875,2,0,P|192:144|272:144,1,120,8|2,0:0|0:0,0:0:0:0:
352,192,168550,6,0,P|392:144|372:48,1,120,2|2,3:2|0:2,0:0:0:0:
448,76,169055,1,2,0:2:0:0:
448,76,169224,2,0,P|458:146|476:212,1,120,8|0,0:0|0:0,0:0:0:0:
504,236,169729,1,0,3:2:0:0:
504,236,169898,2,0,P|463:241|436:256,1,60,2|2,0:2|3:2,0:0:0:0:
424,300,170235,2,0,P|384:302|340:280,1,60,0|2,0:0|3:2,0:0:0:0:
320,268,170572,1,8,0:0:0:0:
320,268,170741,1,2,3:2:0:0:
268,288,170909,1,0,0:0:0:0:
164,264,171246,6,0,L|156:340,2,60,2|4|4,3:2|0:3|0:3,0:0:0:0:
140,216,171752,1,4,0:3:0:0:
140,216,171920,2,0,L|124:144,1,60,8|2,0:0|0:2,0:0:0:0:
88,120,172257,1,0,0:0:0:0:
88,120,172426,2,0,P|156:140|232:132,2,120,2|2|2,3:2|3:2|3:2,0:0:0:0:
36,116,173269,2,0,P|29:96|28:48,1,60,8|2,0:0|3:2,0:0:0:0:
60,16,173606,1,0,0:0:0:0:
168,36,173943,5,6,3:2:0:0:
168,36,174111,2,0,L|304:16,1,120,2|2,0:2|0:2,0:0:0:0:
340,12,174617,1,8,0:0:0:0:
436,60,174954,2,0,P|429:93|412:120,1,60,0|0,0:0|3:2,0:0:0:0:
372,144,175291,2,0,P|446:142|492:188,1,120,2|0,0:2|0:0,0:0:0:0:
508,216,175797,1,2,3:2:0:0:
508,216,175965,1,8,0:1:0:0:
448,304,176302,1,0,0:1:0:0:
352,260,176639,6,0,L|200:248,1,120,2|0,3:2|0:0,0:0:0:0:
140,304,177314,2,0,P|96:252|116:168,1,120,8|0,0:1|0:0,0:0:0:0:
104,148,177819,2,0,P|37:167|-32:172,2,120,0|0|2,3:1|3:1|3:2,0:0:0:0:
160,148,178662,2,0,P|176:120|180:84,1,60,8|2,0:1|3:2,0:0:0:0:
172,40,178999,1,0,0:0:0:0:
277,15,179336,6,0,P|269:84|326:136,1,120,2|2,3:2|0:2,0:0:0:0:
351,121,179842,2,0,P|365:93|369:60,1,60,0|8,0:0|0:2,0:0:0:0:
470,101,180347,2,0,P|456:129|452:162,1,60,0|0,0:0|3:2,0:0:0:0:
487,197,180684,1,2,0:2:0:0:
487,197,180853,1,2,3:2:0:0:
487,197,181021,2,0,P|499:230|499:273,1,60,0|2,0:0|3:2,0:0:0:0:
501,308,181358,2,0,P|463:317|433:336,2,60,8|2|0,0:0|3:2|0:0,0:0:0:0:
405,256,182033,6,0,P|348:253|269:236,1,120,2|4,3:2|0:3,0:0:0:0:
236,219,182538,1,4,0:3:0:0:
236,219,182707,2,0,P|188:283|196:343,1,120,8|0,0:0|0:0,0:0:0:0:
91,367,183381,2,0,P|86:314|71:235,1,120,2|0,0:0|0:0,0:0:0:0:
32,212,183887,1,2,3:2:0:0:
32,212,184055,2,0,B|0:136|56:64|56:64|88:116|160:100,1,240,8|6,0:0|3:2,0:0:0:0:
120,140,195516,6,0,P|175:160|231:142,1,120,4|2,0:1|0:3,0:0:0:0:
280,120,196021,1,2,0:0:0:0:
280,120,196190,2,0,P|336:102|391:122,1,120,2|2,0:0|0:3,0:0:0:0:
436,156,196696,1,2,0:0:0:0:
436,156,196864,1,2,0:0:0:0:
393,254,197201,1,2,0:3:0:0:
461,338,197538,1,2,0:0:0:0:
504,239,197875,1,4,0:2:0:0:
393,254,198212,6,0,L|275:270,1,120,8|2,0:1|0:3,0:0:0:0:
220,280,198718,1,8,0:1:0:0:
220,280,198887,1,2,0:0:0:0:
136,212,199224,1,2,0:3:0:0:
236,172,199561,2,0,P|256:116|238:60,1,120,8|2,0:0|0:3,0:0:0:0:
196,28,200066,1,8,1:2:0:0:
196,28,200235,1,4,1:3:0:0:
96,68,200572,1,2,0:3:0:0:
108,176,200909,6,0,L|122:295,1,120,4|2,0:2|0:3,0:0:0:0:
224,335,201583,2,0,P|270:300|279:242,1,120,2|2,0:2|0:3,0:0:0:0:
260,192,202089,1,2,0:2:0:0:
260,192,202257,2,0,L|379:177,1,120,2|2,0:1|0:3,0:0:0:0:
432,172,202763,2,0,P|450:148|458:119,1,60,4|2,0:2|0:2,0:0:0:0:
396,32,203269,2,0,P|366:28|337:35,1,60,2|2,0:1|0:2,0:0:0:0:
292,64,203606,6,0,P|235:81|180:61,1,120,8|2,0:1|0:3,0:0:0:0:
136,32,204111,1,8,0:1:0:0:
136,32,204279,2,0,L|121:151,1,120,2|2,0:2|0:3,0:0:0:0:
112,204,204785,1,2,0:2:0:0:
112,204,204954,2,0,P|55:220|21:267,1,120,8|2,0:2|0:3,0:0:0:0:
38,320,205460,2,0,P|93:340|149:322,1,120,8|2,0:2|0:2,0:0:0:0:
194,292,205965,1,4,0:2:0:0:
194,292,206302,6,0,B|198:256|198:256|223:215|223:215|228:179,1,120,12|0,3:2|0:0,0:0:0:0:
278,196,206808,2,0,B|273:232|273:232|248:273|248:273|244:309,1,120,2|0,3:2|0:0,0:0:0:0:
294,325,207314,2,0,B|298:289|298:289|323:248|323:248|328:212,1,120,2|0,3:2|0:0,0:0:0:0:
378,229,207819,2,0,B|373:265|373:265|348:306|348:306|344:342,1,120,2|0,3:2|0:0,0:0:0:0:
394,358,208325,5,2,3:2:0:0:
474,284,208662,1,8,0:2:0:0:
378,229,208999,6,0,B|383:193|383:193|408:152|408:152|412:116,1,120,4|0,3:1|0:0,0:0:0:0:
374,80,209505,2,0,B|338:84|338:84|297:109|297:109|261:114,1,120,2|0,3:2|0:0,0:0:0:0:
207,113,210010,2,0,B|171:108|171:108|130:83|130:83|94:79,1,120,2|0,3:2|0:0,0:0:0:0:
56,115,210516,2,0,B|60:151|60:151|85:192|85:192|90:228,1,120,2|0,3:2|0:0,0:0:0:0:
66,276,211021,5,2,3:2:0:0:
150,344,211358,1,8,0:2:0:0:
150,344,211527,1,8,0:2:0:0:
150,344,211696,6,0,P|205:324|261:342,1,120,6|8,3:2|0:2,0:0:0:0:
314,348,212201,1,2,0:2:0:0:
314,348,212369,2,0,L|322:289,1,60,2|2,3:2|0:2,0:0:0:0:
362,252,212707,2,0,L|370:193,1,60,8|2,0:2|0:0,0:0:0:0:
378,140,213044,2,0,L|259:154,1,120,2|8,3:2|0:2,0:0:0:0:
206,160,213550,2,0,P|182:141|167:115,1,60,2|2,0:0|3:2,0:0:0:0:
74,172,214055,2,0,P|65:200|48:224,1,60,8|8,0:2|0:2,0:0:0:0:
6,260,214392,6,0,L|125:274,1,120,0|0,3:2|3:2,0:0:0:0:
178,280,214898,1,0,3:2:0:0:
178,280,215066,2,0,P|195:303|203:332,1,60,0|0,3:2|3:2,0:0:0:0:
258,344,215403,2,0,P|273:318|296:299,1,60,0|0,3:2|3:2,0:0:0:0:
350,288,215741,2,0,P|428:164|282:171,1,360,0|8,3:2|3:3,0:0:0:0:
217,257,217089,6,0,L|98:243,1,120,6|8,3:2|0:0,0:0:0:0:
47,224,217594,2,0,P|23:168|79:105,1,120,2|2,0:0|3:2,0:0:0:0:
96,94,218100,1,8,0:1:0:0:
190,145,218437,2,0,L|205:79,2,60,2|2|8,3:2|0:0|0:1,0:0:0:0:
229,181,218943,1,2,0:0:0:0:
229,181,219111,2,0,L|259:51,1,120,4|8,0:3|0:1,0:0:0:0:
360,36,219785,6,0,L|427:21,1,60,0|2,3:1|0:2,0:0:0:0:
455,62,220123,1,8,0:1:0:0:
455,62,220291,2,0,P|385:59|340:114,1,120,0|2,0:0|3:2,0:0:0:0:
361,142,220797,1,8,0:1:0:0:
361,142,220965,1,0,0:0:0:0:
361,142,221134,2,0,P|431:145|476:90,2,120,2|8|4,3:2|0:2|0:3,0:0:0:0:
253,151,222145,1,8,0:2:0:0:
317,237,222482,6,0,P|348:289|334:381,1,120,2|8,3:2|0:2,0:0:0:0:
303,377,222988,1,4,0:3:0:0:
303,377,223156,2,0,P|271:370|242:345,1,60,2|2,0:2|3:2,0:0:0:0:
200,330,223493,1,8,0:1:0:0:
200,330,223662,2,0,P|146:362|51:364,1,120,2|2,0:2|0:2,0:0:0:0:
47,337,224167,1,8,0:2:0:0:
114,252,224505,2,0,L|129:184,2,60,2|2|8,0:0|3:2|0:1,0:0:0:0:
29,185,225179,6,0,P|24:156|15:123,1,60,2|4,3:2|0:3,0:0:0:0:
1,74,225516,1,10,0:0:0:0:
1,74,225684,2,0,P|62:109|142:82,1,120,4|2,0:3|3:2,0:0:0:0:
149,67,226190,1,8,0:1:0:0:
149,67,226358,1,2,0:0:0:0:
149,67,226527,2,0,P|210:32|290:59,1,120,2|8,3:2|0:0,0:0:0:0:
338,108,227201,2,0,P|342:76|362:34,2,60,2|2|8,0:2|3:2|0:1,0:0:0:0:
336,162,227707,1,2,0:0:0:0:
336,162,227875,6,0,P|276:161|218:114,1,120,6|8,3:2|0:0,0:0:0:0:
181,156,228381,2,0,P|217:208|206:289,1,120,2|2,0:0|3:2,0:0:0:0:
191,310,228887,1,8,0:1:0:0:
88,276,229224,2,0,L|17:268,2,60,2|2|8,3:2|0:0|0:1,0:0:0:0:
125,236,229729,1,2,0:0:0:0:
125,236,229898,2,0,L|3:220,1,120,4|8,0:3|0:1,0:0:0:0:
61,127,230572,6,0,P|77:102|81:46,1,60,0|2,3:1|0:2,0:0:0:0:
115,29,230909,1,8,0:1:0:0:
115,29,231078,2,0,P|155:84|152:159,1,120,2|2,0:2|3:2,0:0:0:0:
206,159,231583,2,0,P|237:156|275:145,1,60,8|2,0:1|0:2,0:0:0:0:
299,106,231920,2,0,L|431:128,1,120,2|8,3:2|0:2,0:0:0:0:
476,216,232594,2,0,P|462:247|457:282,1,60,4|2,0:3|3:2,0:0:0:0:
428,318,232932,2,0,P|414:286|409:252,1,60,8|2,0:2|0:2,0:0:0:0:
383,213,233269,6,0,P|333:263|261:254,1,120,2|8,3:2|0:2,0:0:0:0:
235,280,233774,2,0,P|183:264|95:259,1,120,4|2,0:3|3:2,0:0:0:0:
80,297,234280,1,8,0:1:0:0:
80,297,234448,2,0,P|86:239|42:171,1,120,2|2,0:2|0:2,0:0:0:0:
10,161,234954,1,8,0:2:0:0:
43,58,235291,2,0,P|72:39|113:28,2,60,2|2|8,0:0|3:2|0:1,0:0:0:0:
128,123,235965,6,0,P|166:131|201:142,1,60,2|4,3:2|0:3,0:0:0:0:
232,109,236302,1,10,0:0:0:0:
232,109,236471,2,0,P|284:90|376:91,1,120,4|2,0:3|3:2,0:0:0:0:
394,58,236976,2,0,L|378:130,1,60,8|2,0:1|0:0,0:0:0:0:
434,107,237314,2,0,L|457:247,1,120,0|8,3:1|0:0,0:0:0:0:
490,264,237819,2,0,B|406:244|409:348|287:302,1,180,2|12,0:2|0:2,0:0:0:0:
219,343,238662,6,0,P|165:321|106:332,1,120,4|8,3:1|0:0,0:0:0:0:
59,308,239167,2,0,P|85:292|101:267,1,60,2|2,0:2|0:2,0:0:0:0:
120,216,239505,1,0,3:1:0:0:
112,164,239674,1,8,0:0:0:0:
100,112,239842,2,0,B|140:132|140:132|216:120,1,120,2|2,0:2|0:2,0:0:0:0:
268,112,240347,1,8,0:0:0:0:
364,160,240684,2,0,L|375:218,1,60,2|0,0:2|3:3,0:0:0:0:
332,252,241021,2,0,L|320:310,1,60,8|2,0:1|0:2,0:0:0:0:
356,352,241358,5,0,3:1:0:0:
410,355,241527,1,2,0:2:0:0:
450,318,241696,1,8,0:0:0:0:
452,263,241864,1,2,0:2:0:0:
348,228,242201,2,0,L|289:239,1,60,2|8,3:2|0:1,0:0:0:0:
235,247,242538,2,0,P|184:220|125:228,1,120,2|2,0:2|0:2,0:0:0:0:
72,232,243044,2,0,L|83:173,1,60,8|2,0:0|0:2,0:0:0:0:
64,124,243381,2,0,P|122:131|174:104,1,120,2|8,0:2|0:0,0:0:0:0:
256,36,244055,5,2,3:2:0:0:
348,96,244392,1,8,0:0:0:0:
400,108,244561,1,2,0:2:0:0:
360,208,244898,1,2,3:2:0:0:
308,220,245067,1,8,0:0:0:0:
256,232,245235,2,0,B|220:224|220:224|180:236|180:236|139:228,1,120,2|2,0:2|0:2,0:0:0:0:
88,208,245741,1,8,0:0:0:0:
88,208,245909,2,0,P|68:152|92:99,1,120,2|2,0:2|3:2,0:0:0:0:
136,68,246415,1,8,0:1:0:0:
232,116,246752,5,0,3:1:0:0:
328,68,247089,1,8,0:0:0:0:
328,68,247257,1,2,0:2:0:0:
412,136,247594,1,2,3:2:0:0:
412,136,247762,1,8,0:1:0:0:
412,136,247932,2,0,P|384:188|392:246,1,120,2|2,0:2|0:2,0:0:0:0:
420,292,248437,2,0,L|389:343,1,60,8|2,0:0|0:2,0:0:0:0:
343,371,248774,2,0,P|285:360|225:363,1,120,2|8,0:2|0:1,0:0:0:0:
120,344,249448,6,0,B|104:300|104:300|118:228,1,120,6|8,3:2|0:0,0:0:0:0:
132,176,249954,2,0,P|126:146|111:120,1,60,2|2,0:2|0:2,0:0:0:0:
92,72,250291,1,2,3:2:0:0:
144,80,250460,1,8,0:1:0:0:
196,84,250628,2,0,L|315:68,1,120,2|2,0:2|0:2,0:0:0:0:
368,64,251134,1,8,0:0:0:0:
436,148,251471,2,0,P|428:176|410:201,1,60,2|0,0:2|3:3,0:0:0:0:
416,256,251808,2,0,P|387:263|357:260,1,60,8|2,0:0|0:2,0:0:0:0:
304,248,252145,5,0,3:1:0:0:
252,232,252314,1,2,0:2:0:0:
200,216,252482,1,8,0:0:0:0:
148,200,252651,1,2,0:2:0:0:
52,252,252988,2,0,L|40:310,1,60,0|8,3:1|0:0,0:0:0:0:
68,360,253325,2,0,P|122:380|178:361,1,120,2|2,0:2|0:2,0:0:0:0:
216,324,253830,2,0,L|228:266,1,60,8|2,0:0|0:2,0:0:0:0:
240,212,254167,1,2,0:2:0:0:
336,260,254505,1,8,0:1:0:0:
428,203,254842,6,0,P|443:147|423:91,1,120,2|10,3:2|0:2,0:0:0:0:
380,60,255347,1,2,0:2:0:0:
288,116,255684,1,2,3:2:0:0:
244,144,255853,1,8,0:1:0:0:
200,172,256021,2,0,L|76:156,1,120,2|2,0:2|0:2,0:0:0:0:
37,185,256527,1,8,0:1:0:0:
44,292,256864,2,0,P|67:309|96:317,1,60,0|2,0:1|3:2,0:0:0:0:
138,351,257201,2,0,P|165:339|187:318,1,60,8|0,0:1|0:1,0:0:0:0:
220,276,257538,5,0,3:2:0:0:
320,232,257875,1,8,0:1:0:0:
332,284,258044,1,2,0:2:0:0:
344,336,258212,1,2,0:2:0:0:
452,352,258549,1,8,0:0:0:0:
452,352,258718,2,0,L|468:234,1,120,2|2,0:2|0:2,0:0:0:0:
476,180,259224,1,8,0:0:0:0:
400,104,259561,2,0,L|341:112,1,60,0|2,0:1|3:2,0:0:0:0:
304,152,259898,2,0,L|245:144,1,60,8|2,0:1|0:2,0:0:0:0:
192,136,260235,5,6,3:2:0:0:
256,192,260319,12,0,261583,0:0:0:0:
