osu file format v14

[General]
AudioFilename: Snow halation (REDSHiFT Remix) -Kimunyu Ver.- .mp3
AudioLeadIn: 0
PreviewTime: 130881
Countdown: 0
SampleSet: Soft
StackLeniency: 0.7
Mode: 0
LetterboxInBreaks: 0
WidescreenStoryboard: 0

[Editor]
Bookmarks: 22932,39111,49898,71471,93044,163156,184729,217089,238662
DistanceSpacing: 0.1
BeatDivisor: 4
GridSize: 4
TimelineZoom: 2.1

[Metadata]
Title:Snow halation (REDSHiFT Remix)
TitleUnicode:Snow halation (REDSHiFT Remix)
Artist:Kimunyu
ArtistUnicode:きむにゅ
Creator:Gaia
Version:HonoNico Insane
Source:ラブライブ! School idol project
Tags:Amamiya Yuko Skystar Kibbleru Chaoslitz Karen Momochikun Little Cloudsplash16 Meyrink μ’s u's Muse nico maki love live festival japanese anime harasho Снег Хорошо
BeatmapID:1868633
BeatmapSetID:429540

[Difficulty]
HPDrainRate:6
CircleSize:4
OverallDifficulty:7
ApproachRate:9
SliderMultiplier:1.7
SliderTickRate:1

[Events]
//Background and Video events
0,0,"snowharasho.jpg",0,0
//Break Periods
2,39311,49298
2,184929,194916
//Storyboard Layer 0 (Background)
//Storyboard Layer 1 (Fail)
//Storyboard Layer 2 (Pass)
//Storyboard Layer 3 (Foreground)
//Storyboard Layer 4 (Overlay)
//Storyboard Sound Samples

[TimingPoints]
1359,337.078651685393,4,2,1,60,1,0
2201,-142.857142857143,4,2,1,60,0,0
2538,-90.9090909090909,4,2,1,60,0,0
3044,-100,4,2,1,60,0,0
6246,-83.3333333333333,4,2,1,60,0,0
6752,-125,4,2,1,60,0,0
7594,-100,4,2,1,60,0,0
7932,-83.3333333333333,4,2,1,60,0,0
8437,-111.111111111111,4,2,1,60,0,0
8943,-142.857142857143,4,2,1,60,0,0
9448,-200,4,2,1,60,0,0
10628,-133.333333333333,4,2,1,60,0,0
12145,-100,4,2,1,60,0,0
12988,-111.111111111111,4,2,1,60,0,0
13325,-90.9090909090909,4,2,1,60,0,0
14167,-142.857142857143,4,2,1,60,0,0
14842,-100,4,2,1,60,0,0
17875,-83.3333333333333,4,2,1,60,0,0
18381,-111.111111111111,4,2,1,60,0,0
21415,-100,4,2,1,60,0,0
22594,-71.4285714285714,4,2,1,60,0,0
22932,-111.111111111111,4,2,1,60,0,0
26302,-142.857142857143,4,2,1,60,0,0
26808,-142.857142857143,4,2,1,60,0,0
28325,-100,4,2,1,60,0,0
32201,-83.3333333333333,4,2,1,60,0,0
33718,-100,4,2,1,60,0,0
35235,-142.857142857143,4,2,1,60,0,0
35572,-100,4,2,1,60,0,0
36415,-142.857142857143,4,2,1,60,0,0
37426,-100,4,2,1,60,0,0
39448,-100,4,2,2,30,0,0
49898,-125,4,2,1,40,0,0
50066,-125,4,2,2,40,0,0
50235,-125,4,2,1,40,0,0
52594,-125,4,2,2,40,0,0
52679,-125,4,2,1,40,0,0
53100,-125,4,2,2,40,0,0
53184,-125,4,2,1,40,0,0
53943,-125,4,2,2,40,0,0
54027,-125,4,2,1,40,0,0
54448,-125,4,2,2,40,0,0
54532,-125,4,2,1,40,0,0
54954,-125,4,2,2,40,0,0
55038,-125,4,2,1,40,0,0
55291,-125,4,2,2,40,0,0
55375,-125,4,2,1,40,0,0
57651,-125,4,2,2,40,0,0
57735,-125,4,2,1,40,0,0
57819,-125,4,2,2,40,0,0
57903,-125,4,2,1,40,0,0
57988,-100,4,2,2,40,0,0
58072,-100,4,2,1,40,0,0
58662,-125,4,2,1,40,0,0
59336,-100,4,2,1,40,0,0
59842,-125,4,2,1,40,0,0
60347,-125,4,2,2,40,0,0
60684,-105.263157894737,4,2,3,40,0,0
60769,-105.263157894737,4,2,1,40,0,0
61021,-90.9090909090909,4,2,1,40,0,0
62033,-111.111111111111,4,2,1,40,0,0
66078,-125,4,2,1,40,0,0
67426,-111.111111111111,4,2,1,40,0,0
70881,-111.111111111111,4,2,1,30,0,0
71471,-99.9999999999999,4,2,1,60,0,0
93044,-142.857142857143,4,2,1,30,0,0
93128,-142.857142857143,4,2,2,30,0,0
102482,-142.857142857143,4,2,2,40,0,0
103830,-100,4,2,1,50,0,0
129448,-142.857142857143,4,2,1,50,0,0
129617,-142.857142857143,4,2,1,30,0,0
130797,-83.3333333333333,4,2,1,60,0,0
131808,-111.111111111111,4,2,1,60,0,0
132145,-83.3333333333333,4,2,1,60,0,0
133156,-111.111111111111,4,2,1,60,0,0
133493,-83.3333333333333,4,2,1,60,0,0
134505,-111.111111111111,4,2,1,60,0,0
134842,-83.3333333333333,4,2,1,60,0,0
137201,-111.111111111111,4,2,1,60,0,0
137538,-83.3333333333333,4,2,1,60,0,0
138550,-111.111111111111,4,2,1,60,0,0
138887,-83.3333333333333,4,2,1,60,0,0
141246,-111.111111111111,4,2,1,60,0,0
141583,-83.3333333333333,4,2,1,60,0,0
142594,-111.111111111111,4,2,1,60,0,0
142932,-83.3333333333333,4,2,1,60,0,0
143943,-111.111111111111,4,2,1,60,0,0
144280,-83.3333333333333,4,2,1,60,0,0
145291,-111.111111111111,4,2,1,60,0,0
145628,-83.3333333333333,4,2,1,60,0,0
147988,-111.111111111111,4,2,1,60,0,0
148325,-83.3333333333333,4,2,1,60,0,0
149336,-111.111111111111,4,2,1,60,0,0
149673,-83.3333333333333,4,2,1,60,0,0
150684,-111.111111111111,4,2,1,60,0,0
151021,-83.3333333333333,4,2,1,60,0,0
152033,-111.111111111111,4,2,1,60,0,0
152370,-83.3333333333333,4,2,1,60,0,0
153381,-111.111111111111,4,2,1,60,0,0
153718,-83.3333333333333,4,2,1,60,0,0
160123,-111.111111111111,4,2,1,60,0,0
160460,-83.3333333333333,4,2,1,60,0,0
162524,-83.3333333333333,4,2,1,5,0,0
162651,-83.3333333333333,4,2,1,60,0,0
162693,-83.3333333333333,4,2,1,5,0,0
162819,-83.3333333333333,4,2,1,60,0,0
162861,-83.3333333333333,4,2,1,5,0,0
162988,-83.3333333333333,4,2,1,60,0,0
163156,-142.857142857143,4,2,73,60,0,0
163325,-142.857142857143,4,2,1,60,0,0
163830,-100,4,2,1,60,0,0
164167,-100,4,2,73,60,0,0
165263,-100,4,2,1,60,0,0
165516,-100,4,2,74,60,0,0
165769,-100,4,2,1,60,0,0
165853,-142.857142857143,4,2,74,60,0,0
165937,-142.857142857143,4,2,1,60,0,0
166190,-142.857142857143,4,2,73,60,0,0
166274,-142.857142857143,4,2,1,60,0,0
166527,-71.4285714285714,4,2,74,60,0,0
166611,-71.4285714285714,4,2,1,60,0,0
166864,-71.4285714285714,4,2,74,60,0,0
167285,-71.4285714285714,4,2,1,60,0,0
167538,-71.4285714285714,4,2,74,60,0,0
167707,-71.4285714285714,4,2,73,90,0,0
167791,-71.4285714285714,4,2,1,60,0,0
167875,-71.4285714285714,4,2,74,60,0,0
167960,-71.4285714285714,4,2,1,60,0,0
168550,-111.111111111111,4,2,74,60,0,0
168634,-111.111111111111,4,2,1,60,0,0
168887,-111.111111111111,4,2,74,60,0,0
169224,-166.666666666667,4,2,74,60,0,0
169308,-166.666666666667,4,2,1,60,0,0
169561,-100,4,2,74,60,0,0
170235,-100,4,2,74,60,0,0
170488,-100,4,2,1,60,0,0
170909,-76.9230769230769,4,2,73,60,0,0
170993,-76.9230769230769,4,2,1,60,0,0
171246,-76.9230769230769,4,2,74,60,0,0
171920,-76.9230769230769,4,2,73,60,0,0
172342,-76.9230769230769,4,2,1,60,0,0
172763,-66.6666666666667,4,2,1,60,0,0
172932,-66.6666666666667,4,2,73,60,0,0
173016,-66.6666666666667,4,2,1,60,0,0
173269,-66.6666666666667,4,2,73,60,0,0
173606,-55.5555555555556,4,2,75,60,0,0
173690,-55.5555555555556,4,2,1,60,0,0
173943,-55.5555555555556,4,2,73,60,0,0
174027,-55.5555555555556,4,2,1,60,0,0
174111,-100,4,2,1,60,0,0
174153,-100,4,2,1,5,0,0
174280,-100,4,2,1,60,0,0
174954,-71.4285714285714,4,2,73,60,0,0
175291,-125,4,2,73,90,0,0
175797,-125,4,2,1,90,0,0
175965,-125,4,2,73,60,0,0
176050,-125,4,2,1,60,0,0
176302,-125,4,2,75,60,0,0
176387,-125,4,2,1,60,0,0
176639,-125,4,2,73,60,0,0
176724,-125,4,2,1,60,0,0
176976,-125,4,2,73,60,0,0
177061,-125,4,2,1,60,0,0
177314,-71.4285714285714,4,2,74,60,0,0
177398,-71.4285714285714,4,2,1,60,0,0
177651,-100,4,2,74,60,0,0
177988,-100,4,2,1,60,0,0
178156,-125,4,2,1,60,0,0
178662,-125,4,2,73,60,0,0
178746,-125,4,2,1,60,0,0
178999,-76.9230769230769,4,2,73,60,0,0
179083,-76.9230769230769,4,2,1,60,0,0
179336,-111.111111111111,4,2,74,60,0,0
179420,-111.111111111111,4,2,1,60,0,0
179673,-111.111111111111,4,2,74,60,0,0
180179,-111.111111111111,4,2,1,60,0,0
180347,-111.111111111111,4,2,74,60,0,0
180432,-111.111111111111,4,2,1,60,0,0
180684,-111.111111111111,4,2,74,60,0,0
180769,-111.111111111111,4,2,1,60,0,0
180853,-111.111111111111,4,2,74,60,0,0
181358,-111.111111111111,4,2,73,60,0,0
181864,-111.111111111111,4,2,1,60,0,0
182033,-111.111111111111,4,2,74,60,0,0
182960,-111.111111111111,4,2,1,60,0,0
183044,-111.111111111111,4,2,74,60,0,0
183381,-111.111111111111,4,2,1,60,0,0
183887,-142.857142857143,4,2,1,60,0,0
184055,-142.857142857143,4,2,75,60,0,0
184139,-142.857142857143,4,2,75,60,0,0
184729,-142.857142857143,4,2,1,60,0,0
195516,-142.857142857143,4,2,1,40,0,0
195853,-142.857142857143,4,2,1,30,0,0
197370,-142.857142857143,4,2,2,40,0,0
197454,-142.857142857143,4,2,1,30,0,0
197875,-142.857142857143,4,2,2,40,0,0
197959,-142.857142857143,4,2,1,30,0,0
198212,-142.857142857143,4,2,2,40,0,0
198296,-142.857142857143,4,2,1,30,0,0
198718,-142.857142857143,4,2,2,30,0,0
198802,-142.857142857143,4,2,1,30,0,0
199561,-142.857142857143,4,2,2,40,0,0
199645,-142.857142857143,4,2,1,30,0,0
200066,-142.857142857143,4,2,2,40,0,0
200150,-142.857142857143,4,2,1,30,0,0
200235,-142.857142857143,4,2,2,40,0,0
200319,-142.857142857143,4,2,1,30,0,0
200741,-142.857142857143,4,2,2,40,0,0
200825,-142.857142857143,4,2,1,30,0,0
200909,-142.857142857143,4,2,2,45,0,0
200993,-142.857142857143,4,2,1,35,0,0
201415,-142.857142857143,4,2,2,45,0,0
201499,-142.857142857143,4,2,1,35,0,0
202257,-142.857142857143,4,2,2,45,0,0
202341,-142.857142857143,4,2,1,35,0,0
202763,-142.857142857143,4,2,2,45,0,0
202847,-142.857142857143,4,2,1,35,0,0
203269,-142.857142857143,4,2,2,45,0,0
203353,-142.857142857143,4,2,1,35,0,0
203606,-142.857142857143,4,2,2,50,0,0
203690,-142.857142857143,4,2,1,40,0,0
204111,-142.857142857143,4,2,2,50,0,0
204196,-142.857142857143,4,2,1,40,0,0
204954,-142.857142857143,4,2,2,50,0,0
205039,-142.857142857143,4,2,1,40,0,0
205460,-142.857142857143,4,2,2,50,0,0
205545,-142.857142857143,4,2,1,40,0,0
205965,-142.857142857143,4,2,2,50,0,0
206050,-142.857142857143,4,2,1,40,0,0
206134,-142.857142857143,4,2,2,50,0,0
206219,-142.857142857143,4,2,1,40,0,0
206302,-111.111111111111,4,2,3,50,0,0
206387,-111.111111111111,4,2,1,50,0,0
208325,-142.857142857143,4,2,1,50,0,0
208662,-100,4,2,1,50,0,0
208999,-142.857142857143,4,2,1,50,0,0
211358,-100,4,2,1,50,0,0
214392,-125,4,2,1,50,0,0
215741,-100,4,2,1,50,0,0
216752,-100,4,2,2,50,0,0
217089,-133.333333333333,4,2,73,60,0,0
217258,-133.333333333333,4,2,1,60,0,0
217932,-83.3333333333333,4,2,1,60,0,0
218100,-83.3333333333333,4,2,73,60,0,0
218438,-83.3333333333333,4,2,73,90,0,0
218775,-83.3333333333333,4,2,73,60,0,0
218943,-83.3333333333333,4,2,74,60,0,0
219196,-83.3333333333333,4,2,1,60,0,0
219449,-83.3333333333333,4,2,73,60,0,0
219701,-83.3333333333333,4,2,1,60,0,0
219786,-83.3333333333333,4,2,74,60,0,0
220460,-83.3333333333333,4,2,73,60,0,0
220797,-83.3333333333333,4,2,74,60,0,0
221050,-83.3333333333333,4,2,1,60,0,0
221134,-83.3333333333333,4,2,74,60,0,0
221218,-83.3333333333333,4,2,1,60,0,0
221640,-83.3333333333333,4,2,73,90,0,0
221808,-71.4285714285714,4,2,74,60,0,0
221893,-71.4285714285714,4,2,1,60,0,0
222145,-133.333333333333,4,2,1,60,0,0
222482,-83.3333333333333,4,2,74,60,0,0
222567,-83.3333333333333,4,2,1,60,0,0
222820,-83.3333333333333,4,2,74,60,0,0
223325,-83.3333333333333,4,2,1,60,0,0
223494,-83.3333333333333,4,2,74,60,0,0
223830,-83.3333333333333,4,2,1,60,0,0
224167,-71.4285714285714,4,2,75,60,0,0
224421,-71.4285714285714,4,2,1,60,0,0
224505,-133.333333333333,4,2,1,60,0,0
224842,-133.333333333333,4,2,73,60,0,0
225179,-83.3333333333333,4,2,74,60,0,0
225432,-83.3333333333333,4,2,1,60,0,0
225516,-83.3333333333333,4,2,74,60,0,0
225769,-83.3333333333333,4,2,1,60,0,0
225853,-83.3333333333333,4,2,73,60,0,0
225937,-83.3333333333333,4,2,1,60,0,0
226021,-83.3333333333333,4,2,73,60,0,0
226106,-83.3333333333333,4,2,1,60,0,0
226190,-83.3333333333333,4,2,73,60,0,0
226275,-83.3333333333333,4,2,1,60,0,0
226865,-83.3333333333333,4,2,73,60,0,0
226949,-83.3333333333333,4,2,1,60,0,0
227202,-83.3333333333333,4,2,73,60,0,0
227538,-133.333333333333,4,2,75,60,0,0
227623,-133.333333333333,4,2,1,60,0,0
227875,-133.333333333333,4,2,1,60,0,0
227876,-133.333333333333,4,2,73,60,0,0
227960,-133.333333333333,4,2,1,60,0,0
228718,-83.3333333333333,4,2,1,60,0,0
228887,-83.3333333333333,4,2,73,60,0,0
229224,-83.3333333333333,4,2,73,90,0,0
229561,-83.3333333333333,4,2,73,60,0,0
229645,-83.3333333333333,4,2,1,60,0,0
229898,-83.3333333333333,4,2,73,60,0,0
229983,-83.3333333333333,4,2,1,60,0,0
230235,-83.3333333333333,4,2,73,60,0,0
230488,-83.3333333333333,4,2,1,60,0,0
230572,-83.3333333333333,4,2,74,60,0,0
231247,-83.3333333333333,4,2,74,60,0,0
231331,-83.3333333333333,4,2,1,60,0,0
231584,-83.3333333333333,4,2,74,60,0,0
231836,-83.3333333333333,4,2,1,60,0,0
232595,-83.3333333333333,4,2,73,60,0,0
232679,-83.3333333333333,4,2,1,60,0,0
232932,-133.333333333333,4,2,73,60,0,0
233016,-133.333333333333,4,2,1,60,0,0
233269,-83.3333333333333,4,2,74,60,0,0
233353,-83.3333333333333,4,2,1,60,0,0
233606,-83.3333333333333,4,2,74,60,0,0
233943,-83.3333333333333,4,2,1,60,0,0
234280,-83.3333333333333,4,2,74,60,0,0
234365,-83.3333333333333,4,2,1,60,0,0
234617,-133.333333333333,4,2,73,60,0,0
234954,-83.3333333333333,4,2,74,60,0,0
235123,-83.3333333333333,4,2,74,60,0,0
235375,-83.3333333333333,4,2,1,60,0,0
235966,-83.3333333333333,4,2,74,60,0,0
236218,-83.3333333333333,4,2,1,60,0,0
236302,-83.3333333333333,4,2,74,60,0,0
236555,-83.3333333333333,4,2,1,60,0,0
236639,-83.3333333333333,4,2,74,60,0,0
236724,-83.3333333333333,4,2,1,60,0,0
236808,-83.3333333333333,4,2,74,60,0,0
236893,-83.3333333333333,4,2,1,60,0,0
236977,-83.3333333333333,4,2,74,60,0,0
237229,-83.3333333333333,4,2,1,60,0,0
237314,-83.3333333333333,4,2,73,60,0,0
237398,-83.3333333333333,4,2,1,60,0,0
237819,-83.3333333333333,4,2,74,60,0,0
238325,-83.3333333333333,4,2,75,60,0,0
238662,-86.9565217391303,4,2,73,60,0,0
238831,-86.9565217391303,4,2,1,60,0,0
239167,-125,4,2,1,60,0,0
239673,-125,4,2,73,60,0,0
240010,-90.9090909090909,4,2,73,90,0,0
240348,-90.9090909090909,4,2,73,60,0,0
240432,-90.9090909090909,4,2,1,60,0,0
240685,-90.9090909090909,4,2,73,60,0,0
240769,-90.9090909090909,4,2,1,60,0,0
240853,-142.857142857143,4,2,1,60,0,0
241021,-83.3333333333334,4,2,73,60,0,0
241274,-83.3333333333334,4,2,1,60,0,0
241359,-83.3333333333334,4,2,74,60,0,0
242033,-83.3333333333334,4,2,74,60,0,0
242117,-83.3333333333334,4,2,1,60,0,0
242370,-83.3333333333334,4,2,74,60,0,0
242454,-83.3333333333334,4,2,1,60,0,0
242707,-83.3333333333334,4,2,74,60,0,0
242791,-83.3333333333334,4,2,1,60,0,0
243213,-83.3333333333334,4,2,73,90,0,0
243297,-83.3333333333334,4,2,1,60,0,0
243381,-71.4285714285714,4,2,73,60,0,0
243718,-60.6060606060605,4,2,75,60,0,0
244055,-125,4,2,1,60,0,0
244056,-125,4,2,74,60,0,0
244140,-125,4,2,1,60,0,0
244392,-83.3333333333333,4,2,74,60,0,0
245151,-83.3333333333333,4,2,1,60,0,0
245403,-125,4,2,1,60,0,0
245741,-125,4,2,74,60,0,0
245994,-125,4,2,1,60,0,0
246078,-133.333333333333,4,2,74,60,0,0
246415,-83.3333333333333,4,2,73,60,0,0
246499,-83.3333333333333,4,2,1,60,0,0
246752,-100,4,2,73,60,0,0
247005,-100,4,2,1,60,0,0
247089,-100,4,2,74,60,0,0
247173,-100,4,2,1,60,0,0
247257,-100,4,2,74,60,0,0
247342,-100,4,2,1,60,0,0
247426,-100,4,2,73,60,0,0
247510,-100,4,2,1,60,0,0
247594,-100,4,2,73,60,0,0
247848,-100,4,2,1,60,0,0
248100,-125,4,2,1,60,0,0
248438,-125,4,2,73,60,0,0
248522,-125,4,2,1,60,0,0
248775,-125,4,2,73,60,0,0
249111,-79.9999999999999,4,2,75,60,0,0
249196,-79.9999999999999,4,2,1,60,0,0
249448,-133.333333333333,4,2,1,60,0,0
249449,-133.333333333333,4,2,73,60,0,0
249533,-133.333333333333,4,2,1,60,0,0
250291,-125,4,2,1,60,0,0
250460,-125,4,2,73,60,0,0
250797,-125,4,2,73,90,0,0
251134,-125,4,2,73,60,0,0
251218,-125,4,2,1,60,0,0
251471,-125,4,2,75,60,0,0
251556,-125,4,2,1,60,0,0
251808,-125,4,2,75,60,0,0
251893,-125,4,2,1,60,0,0
252145,-125,4,2,74,60,0,0
252819,-100,4,2,1,60,0,0
252820,-100,4,2,74,60,0,0
252904,-100,4,2,1,60,0,0
253157,-100,4,2,74,60,0,0
253409,-100,4,2,1,60,0,0
254168,-100,4,2,73,60,0,0
254252,-100,4,2,1,60,0,0
254505,-133.333333333333,4,2,75,60,0,0
254589,-133.333333333333,4,2,1,60,0,0
254842,-83.3333333333333,4,2,74,60,0,0
254926,-83.3333333333333,4,2,1,60,0,0
255179,-83.3333333333333,4,2,74,60,0,0
255516,-83.3333333333333,4,2,1,60,0,0
255853,-83.3333333333333,4,2,74,60,0,0
255938,-83.3333333333333,4,2,1,60,0,0
256190,-133.333333333333,4,2,74,60,0,0
256443,-133.333333333333,4,2,1,60,0,0
256527,-83.3333333333333,4,2,74,60,0,0
256611,-83.3333333333333,4,2,1,60,0,0
256696,-83.3333333333333,4,2,75,60,0,0
256780,-83.3333333333333,4,2,1,60,0,0
257539,-83.3333333333333,4,2,74,60,0,0
257791,-83.3333333333333,4,2,1,60,0,0
257875,-83.3333333333333,4,2,74,60,0,0
258128,-83.3333333333333,4,2,1,60,0,0
258212,-83.3333333333333,4,2,74,60,0,0
258297,-83.3333333333333,4,2,1,60,0,0
258381,-83.3333333333333,4,2,74,60,0,0
258466,-83.3333333333333,4,2,1,60,0,0
258550,-83.3333333333333,4,2,74,60,0,0
258802,-83.3333333333333,4,2,1,60,0,0
258887,-83.3333333333333,4,2,73,60,0,0
258971,-83.3333333333333,4,2,1,60,0,0
259224,-125,4,2,1,60,0,0
259561,-125,4,2,75,60,0,0
259645,-125,4,2,1,60,0,0
259898,-125,4,2,75,60,0,0
259982,-125,4,2,1,60,0,0

[Colours]
Combo1 : 255,0,0
Combo2 : 149,234,255
Combo3 : 17,95,255
Combo4 : 96,244,170
Combo5 : 121,170,251

[HitObjects]
208,53,1359,6,0,L|223:207,1,127.5,6|0,3:2|0:0,0:0:0:0:
201,178,1696,2,0,L|147:173,2,42.5,2|2|2,0:2|0:2|0:2,0:0:0:0:
333,330,2033,2,0,L|281:340,1,42.5,8|0,0:0|0:0,0:0:0:0:
278,349,2201,2,0,P|254:300|280:258,1,89.2499972763062,2|0,0:2|0:0,0:0:0:0:
265,270,2538,6,0,B|346:243|353:348|462:295,1,187.000005706787,2|2,3:2|3:2,0:0:0:0:
419,169,3044,2,0,P|411:198|413:233,2,42.5,2|0|2,0:2|0:0|3:2,0:0:0:0:
440,63,3381,2,0,L|367:76,1,42.5,8|0,0:0|0:0,0:0:0:0:
318,116,3550,5,2,3:2:0:0:
318,116,3718,1,2,0:2:0:0:
318,116,3887,1,2,0:2:0:0:
318,116,4055,6,0,P|228:128|202:51,1,170,2|2,3:2|0:2,0:0:0:0:
85,173,4561,2,0,L|23:185,2,42.5,2|0|8,0:2|0:0|0:0,0:0:0:0:
185,226,4898,2,0,P|209:195|206:125,1,85,2|2,0:2|0:2,0:0:0:0:
43,98,5235,5,2,3:2:0:0:
78,259,5403,1,2,0:2:0:0:
78,259,5488,1,2,0:2:0:0:
78,259,5572,1,2,3:2:0:0:
134,163,5741,1,2,0:2:0:0:
34,92,5909,1,2,3:2:0:0:
49,267,6078,1,8,0:0:0:0:
134,163,6246,6,0,P|221:150|352:138,1,203.999993774414,2|2,3:2|0:2,0:0:0:0:
407,101,6667,1,2,0:2:0:0:
401,92,6752,6,0,P|357:159|389:219,1,136,2|2,3:2|0:2,0:0:0:0:
280,311,7257,2,0,P|259:344|225:366,1,68,2|8,0:2|0:0,0:0:0:0:
397,321,7594,2,0,P|418:307|448:303,2,42.5,2|2|2,0:2|0:2|0:2,0:0:0:0:
198,283,7932,6,0,P|148:249|157:125,1,152.999995330811,2|2,3:2|0:2,0:0:0:0:
133,162,8269,1,2,3:2:0:0:
85,70,8437,2,0,P|50:63|2:61,1,76.4999976654053,2|2,0:2|3:2,0:0:0:0:
224,138,8774,2,0,P|237:132|253:107,1,38.2499988327027,8|0,0:0|0:0,0:0:0:0:
249,100,8943,6,0,L|386:81,1,118.999996368408,2|2,3:2|0:2,0:0:0:0:
374,92,9364,1,2,0:2:0:0:
374,92,9448,6,0,L|359:231,1,127.5,2|2,3:2|0:2,0:0:0:0:
368,221,10460,1,2,0:2:0:0:
292,297,10628,6,0,P|248:307|200:310,1,63.7500024318696,2|0,3:2|0:0,0:0:0:0:
376,224,10965,2,0,P|407:228|438:236,1,63.7500024318696,2|0,3:2|0:0,0:0:0:0:
239,208,11302,5,2,3:2:0:0:
239,208,11387,1,2,0:2:0:0:
239,208,11471,1,8,0:0:0:0:
315,148,11639,1,2,3:2:0:0:
376,224,11808,1,2,3:2:0:0:
299,287,11976,1,2,3:2:0:0:
239,208,12145,6,0,P|218:144|228:52,1,127.5,6|0,3:2|0:0,0:0:0:0:
229,75,12482,2,0,L|278:64,2,42.5,2|2|2,0:2|0:2|0:2,0:0:0:0:
57,87,12819,2,0,P|47:115|48:144,1,42.5,8|0,0:0|0:0,0:0:0:0:
38,148,12988,2,0,P|103:143|148:186,1,114.749996498108,2|0,0:2|0:0,0:0:0:0:
239,208,13325,6,0,P|160:209|128:254,1,140.25000428009,0|2,3:2|0:2,0:0:0:0:
128,275,13662,2,0,L|137:332,2,46.7500014266968,2|0|2,3:2|0:0|0:2,0:0:0:0:
365,188,13999,2,0,L|357:234,1,46.7500014266968,2|2,3:2|0:2,0:0:0:0:
268,291,14167,6,0,B|272:242|239:209|239:209|266:194|285:165|285:165|279:125|252:106,1,208.249993644715,8|0,0:0|0:0,0:0:0:0:
167,33,14842,6,0,P|135:74|152:120,1,85,2|2,3:2|0:2,0:0:0:0:
251,101,15179,1,2,0:2:0:0:
251,101,15347,1,2,0:2:0:0:
64,191,15516,1,8,0:0:0:0:
197,214,15684,2,0,L|258:204,2,42.5,2|2|2,0:2|0:2|0:2,0:0:0:0:
95,286,16021,6,0,P|89:245|80:196,1,85,2|2,3:2|0:2,0:0:0:0:
249,33,16358,2,0,P|255:75|262:116,1,85,2|2,3:2|0:2,0:0:0:0:
358,232,16696,1,2,3:2:0:0:
369,234,16780,1,2,0:2:0:0:
382,237,16864,1,8,0:0:0:0:
388,131,17033,1,2,3:2:0:0:
478,318,17201,1,2,0:2:0:0:
294,316,17370,1,0,0:2:0:0:
294,316,17454,1,2,0:2:0:0:
294,316,17538,6,0,L|176:343,1,85,2|2,3:2|0:2,0:0:0:0:
64,191,17875,2,0,P|90:253|188:229,1,152.999995330811,2|0,0:2|0:0,0:0:0:0:
187,254,18212,2,0,P|184:226|174:198,1,50.9999984436036,8|0,0:0|0:0,0:0:0:0:
97,104,18381,2,0,L|33:92,2,38.2499988327027,2|2|2,0:2|0:2|0:2,0:0:0:0:
263,100,18718,6,0,P|221:111|169:118,1,76.4999976654053,2|2,3:2|0:2,0:0:0:0:
382,237,19055,2,0,P|424:225|476:219,1,76.4999976654053,2|2,3:2|0:2,0:0:0:0:
274,353,19392,1,2,3:2:0:0:
274,353,19476,1,0,0:0:0:0:
274,353,19561,1,8,0:0:0:0:
327,165,19729,1,2,3:2:0:0:
441,309,19898,1,0,0:0:0:0:
295,259,20066,2,0,L|226:251,1,38.2499988327027,2|2,0:2|0:2,0:0:0:0:
240,244,20235,6,0,P|175:276|160:357,1,152.999995330811,2|2,3:2|0:2,0:0:0:0:
3,231,20741,2,0,P|37:248|87:251,1,76.4999976654053,2|8,0:2|0:0,0:0:0:0:
163,108,21078,1,2,0:2:0:0:
163,108,21162,1,0,3:2:0:0:
163,108,21246,1,0,3:2:0:0:
142,189,21415,6,0,L|123:21,2,170,2|2|2,3:2|3:2|3:2,0:0:0:0:
288,236,22257,2,0,P|288:286|249:322,1,85,8|2,0:0|3:2,0:0:0:0:
154,270,22594,6,0,P|211:194|296:252,1,178.499994552612,2|0,0:2|0:0,0:0:0:0:
165,286,22932,6,0,L|80:269,1,76.4999976654053,6|2,3:2|0:2,0:0:0:0:
188,375,23269,2,0,L|103:358,1,76.4999976654053,2|2,0:2|0:2,0:0:0:0:
5,185,23606,1,8,0:0:0:0:
121,66,23774,1,2,0:2:0:0:
121,66,23858,1,2,0:2:0:0:
121,66,23943,1,2,0:2:0:0:
186,122,24111,6,0,P|192:156|196:214,1,76.4999976654053,2|2,3:2|0:2,0:0:0:0:
7,362,24448,2,0,P|9:323|16:286,1,76.4999976654053,2|2,3:2|0:2,0:0:0:0:
104,227,24785,1,2,3:2:0:0:
229,338,24954,1,8,0:0:0:0:
311,180,25123,1,2,3:2:0:0:
128,320,25291,1,2,0:2:0:0:
214,251,25460,1,2,0:2:0:0:
214,251,25544,1,2,0:2:0:0:
214,251,25628,6,0,P|210:173|177:97,1,152.999995330811,2|2,3:2|0:2,0:0:0:0:
374,103,26134,1,2,0:2:0:0:
320,271,26302,1,8,0:0:0:0:
297,158,26471,1,2,0:2:0:0:
297,158,26555,1,2,0:2:0:0:
297,158,26639,1,2,0:2:0:0:
389,203,26808,6,0,P|446:179|477:146,1,89.2499972763062,2|2,3:2|0:2,0:0:0:0:
481,169,27145,2,0,P|496:117|496:79,1,89.2499972763062,2|0,3:2|0:0,0:0:0:0:
424,18,27482,1,2,3:2:0:0:
286,68,27651,1,8,0:0:0:0:
376,205,27819,1,2,3:2:0:0:
382,188,27903,1,2,0:2:0:0:
380,170,27988,1,2,0:2:0:0:
249,325,28156,1,2,0:2:0:0:
162,170,28325,6,0,P|270:191|293:253,1,170,2|2,3:2|0:2,0:0:0:0:
343,359,28830,1,2,0:2:0:0:
512,235,28999,2,0,P|470:236|416:254,1,85,8|2,0:0|0:2,0:0:0:0:
420,257,29252,1,2,0:2:0:0:
413,268,29336,1,2,0:2:0:0:
360,165,29505,6,0,P|346:125|343:67,1,85,2|2,3:2|0:2,0:0:0:0:
201,252,29842,2,0,P|196:294|182:334,1,85,2|2,3:2|0:2,0:0:0:0:
131,187,30179,1,2,3:2:0:0:
289,305,30347,1,8,0:0:0:0:
423,227,30516,1,2,3:2:0:0:
423,227,30684,1,2,0:2:0:0:
270,179,30853,1,2,0:2:0:0:
270,179,30937,1,2,0:2:0:0:
270,179,31021,5,2,3:2:0:0:
92,281,31358,2,0,P|52:252|4:233,1,85,2|2,0:2|0:2,0:0:0:0:
3,102,31696,2,0,P|36:76|75:58,1,85,8|2,0:0|0:2,0:0:0:0:
87,62,31948,1,2,0:2:0:0:
98,67,32033,1,2,0:2:0:0:
181,239,32201,6,0,P|242:232|244:146,1,152.999995330811,2|2,3:2|0:2,0:0:0:0:
170,229,32538,2,0,P|109:236|107:322,1,152.999995330811,2|2,3:2|0:2,0:0:0:0:
209,384,32875,1,2,3:2:0:0:
219,372,32960,1,0,0:0:0:0:
230,361,33044,2,0,L|222:301,1,50.9999984436036,8|0,0:0|0:0,0:0:0:0:
354,376,33212,2,0,L|346:316,1,50.9999984436036,2|0,3:2|0:0,0:0:0:0:
458,384,33381,2,0,L|450:324,1,50.9999984436036,2|0,0:2|0:0,0:0:0:0:
487,189,33550,1,2,0:2:0:0:
483,205,33718,6,0,P|434:158|310:159,1,170,2|2,3:2|0:2,0:0:0:0:
280,215,34224,1,2,0:2:0:0:
171,150,34392,2,0,P|150:105|160:46,1,85,8|2,0:0|0:2,0:0:0:0:
160,62,34645,1,2,0:2:0:0:
170,54,34729,1,2,3:2:0:0:
17,209,34898,1,2,3:2:0:0:
26,222,35235,6,0,B|28:260|28:260|9:322,1,89.2499972763062,2|0,3:2|0:0,0:0:0:0:
22,320,35572,2,0,L|81:298,1,42.5,2|0,3:2|0:0,0:0:0:0:
145,369,35741,1,8,0:0:0:0:
319,274,35909,2,0,P|294:211|188:191,1,170,2|2,3:2|0:2,0:0:0:0:
122,243,36330,1,2,0:2:0:0:
136,253,36415,6,0,P|127:192|123:132,1,118.999996368408,2|2,3:2|0:2,0:0:0:0:
227,29,36920,1,2,3:2:0:0:
373,160,37089,1,8,0:0:0:0:
451,119,37257,1,2,0:2:0:0:
451,119,37342,1,2,0:2:0:0:
451,119,37426,6,0,L|442:50,1,42.5,2|0,3:2|0:0,0:0:0:0:
371,24,37594,1,2,0:2:0:0:
345,18,37679,1,2,0:2:0:0:
321,26,37763,1,2,0:2:0:0:
303,44,37847,1,0,0:0:0:0:
295,68,37932,2,0,P|285:133|282:202,1,127.5,2|0,3:2|0:0,0:0:0:0:
318,289,38269,1,2,3:2:0:0:
318,289,38437,1,8,0:0:0:0:
318,289,39111,5,6,3:2:0:0:
103,229,49898,5,4,3:2:0:0:
103,229,50235,2,0,P|96:189|80:140,1,68,2|0,3:2|0:0,0:0:0:0:
228,46,50572,2,0,P|192:111|200:191,1,136,2|2,3:2|3:2,0:0:0:0:
276,310,51078,1,2,0:0:0:0:
333,230,51246,6,0,P|304:219|252:214,1,68,0|0,3:2|0:0,0:0:0:0:
53,318,51583,2,0,P|115:321|194:279,2,136,2|2|2,3:2|3:2|3:2,0:0:0:0:
49,323,52594,6,0,P|46:252|6:177,1,136,4|0,3:1|3:2,0:0:0:0:
171,29,53100,2,0,P|136:88|141:158,1,136,4|0,3:1|0:0,0:0:0:0:
273,325,53606,2,0,P|278:289|264:258,1,68,2|0,3:2|0:0,0:0:0:0:
171,242,53943,5,8,3:2:0:0:
274,231,54111,2,0,L|360:251,1,68,2|0,0:2|3:2,0:0:0:0:
171,242,54448,1,4,0:2:0:0:
224,151,54617,2,0,L|313:131,1,68,0|0,3:3|0:0,0:0:0:0:
80,293,54954,2,0,L|13:277,1,68,2|0,3:1|0:0,0:0:0:0:
176,247,55291,5,4,3:2:0:0:
176,247,55628,2,0,P|183:279|183:338,1,68,2|0,3:2|0:0,0:0:0:0:
260,158,55965,2,0,P|263:94|280:12,1,136,2|2,3:2|3:2,0:0:0:0:
361,65,56471,6,0,P|401:75|457:81,1,68,2|0,0:0|3:2,0:0:0:0:
219,92,56808,2,0,P|179:99|140:118,2,68,2|0|0,0:2|3:2|0:0,0:0:0:0:
353,171,57314,2,0,P|371:208|369:263,1,68,0|0,3:3|0:0,0:0:0:0:
118,175,57651,2,0,P|119:143|142:89,1,68,4|8,3:2|0:2,0:0:0:0:
188,250,57988,6,0,P|126:202|23:225,1,170,4|0,3:3|3:2,0:0:0:0:
39,212,58493,1,2,0:0:0:0:
100,286,58662,2,0,P|105:320|110:354,1,68,2|0,3:2|0:0,0:0:0:0:
274,286,58999,2,0,P|240:290|177:305,1,68,0|2,3:2|0:0,0:0:0:0:
39,212,59336,6,0,P|101:260|204:237,1,170,2|2,3:2|3:2,0:0:0:0:
182,145,59842,2,0,L|164:58,1,68,2|0,0:0|3:2,0:0:0:0:
358,242,60179,2,0,L|371:308,2,68,2|4|2,0:2|3:2|3:1,0:0:0:0:
405,158,60684,6,0,P|365:129|280:138,1,121.124996765614,12|2,3:2|0:2,0:0:0:0:
295,140,61021,2,0,L|489:110,2,187.000005706787,2|2|2,3:2|3:2|3:2,0:0:0:0:
80,99,62033,6,0,P|150:98|176:1,1,152.999995330811,2|2,3:2|3:2,0:0:0:0:
208,199,62538,2,0,P|202:238|200:290,1,76.4999976654053,2|0,0:0|3:2,0:0:0:0:
205,280,63044,1,8,0:0:0:0:
314,257,63212,1,8,0:0:0:0:
205,280,63381,6,0,P|136:248|61:255,1,152.999995330811,0|2,3:2|3:2,0:0:0:0:
314,257,63887,2,0,P|355:252|397:226,1,76.4999976654053,2|2,0:2|3:2,0:0:0:0:
385,235,64392,1,2,3:2:0:0:
326,148,64561,1,2,0:0:0:0:
397,244,64729,5,0,3:2:0:0:
470,163,64898,1,2,0:0:0:0:
410,254,65066,1,0,3:2:0:0:
480,157,65235,1,2,0:0:0:0:
326,148,65403,2,0,P|246:156|169:173,1,152.999995330811,0|8,3:2|0:0,0:0:0:0:
36,250,65909,1,2,3:2:0:0:
47,254,65993,1,2,3:2:0:0:
60,259,66078,6,0,P|75:293|73:342,1,68,2|0,3:2|3:2,0:0:0:0:
163,168,66415,2,0,P|178:134|176:85,1,68,2|2,3:2|3:2,0:0:0:0:
220,293,66752,6,0,P|254:313|305:326,1,68,2|0,3:2|3:2,0:0:0:0:
326,148,67089,2,0,P|357:129|404:128,1,68,0|2,3:2|3:2,0:0:0:0:
393,116,67342,1,2,3:2:0:0:
400,107,67426,6,0,P|416:151|420:204,1,76.4999976654053,2|0,3:2|3:2,0:0:0:0:
291,342,67763,2,0,P|307:298|311:245,1,76.4999976654053,2|2,3:2|3:2,0:0:0:0:
214,150,68100,6,0,P|255:162|318:154,1,76.4999976654053,0|2,3:2|3:2,0:0:0:0:
75,290,68437,2,0,P|108:279|154:275,1,76.4999976654053,0|2,3:2|3:2,0:0:0:0:
159,281,68690,1,2,3:2:0:0:
170,292,68774,6,0,L|180:360,5,38.2499988327027,2|0|0|0|0|0,3:2|3:2|3:2|3:2|3:2|3:2,0:0:0:0:
274,307,69280,2,0,L|298:358,5,38.2499988327027,0|0|0|0|0|0,3:2|3:2|3:2|3:2|3:2|3:2,0:0:0:0:
377,292,69785,2,0,L|417:321,3,38.2499988327027,0|0|0|0,3:2|3:2|3:2|3:2,0:0:0:0:
461,228,70123,6,0,L|526:207,12,38.2499988327027,0|0|0|0|0|0|0|0|0|2|2|2|2,3:2|3:2|3:2|3:2|3:0|3:0|3:2|3:2|0:0|0:2|0:2|0:2|0:2,0:0:0:0:
506,203,71471,5,6,3:2:0:0:
366,145,71639,1,2,0:2:0:0:
302,259,71808,1,8,0:0:0:0:
353,334,71976,2,0,P|398:322|443:299,1,85,2|2,0:2|0:2,0:0:0:0:
424,222,72314,1,0,3:2:0:0:
262,338,72482,1,8,0:0:0:0:
160,202,72651,1,2,0:2:0:0:
259,104,72819,6,0,P|258:140|246:190,1,85,0|2,3:2|0:2,0:0:0:0:
175,365,73156,1,8,0:0:0:0:
111,281,73325,1,2,0:2:0:0:
96,271,73409,1,2,0:2:0:0:
79,266,73493,1,2,0:2:0:0:
62,263,73578,1,2,0:2:0:0:
45,268,73662,2,0,P|44:290|56:326,1,42.5,0|0,3:3|0:0,0:0:0:0:
134,371,73830,2,0,L|228:349,1,85,8|2,0:1|0:2,0:0:0:0:
494,328,74167,6,0,P|410:303|316:284,1,170,0|8,3:1|0:0,0:0:0:0:
266,156,74673,1,2,0:2:0:0:
266,156,74757,1,2,0:2:0:0:
266,156,74842,1,2,0:2:0:0:
351,65,75010,1,2,3:2:0:0:
423,226,75179,1,8,0:1:0:0:
486,145,75347,1,2,0:2:0:0:
470,137,75432,1,2,0:2:0:0:
453,133,75516,6,0,P|413:137|353:162,1,85,0|2,3:1|0:2,0:0:0:0:
263,253,75853,1,8,0:0:0:0:
136,233,76021,1,2,0:2:0:0:
136,233,76106,1,2,0:2:0:0:
136,233,76190,1,2,0:2:0:0:
136,233,76274,1,2,0:2:0:0:
136,233,76358,2,0,L|195:214,1,42.5,0|0,3:1|0:0,0:0:0:0:
280,156,76527,2,0,P|286:118|280:64,1,85,8|2,0:0|0:2,0:0:0:0:
22,19,76864,6,0,L|-1:149,1,127.5,2|2,3:2|0:2,0:0:0:0:
12,156,77201,2,0,P|49:163|110:136,1,85,8|2,0:0|0:2,0:0:0:0:
177,85,77454,1,2,0:2:0:0:
171,69,77538,1,2,0:2:0:0:
160,55,77623,1,2,0:2:0:0:
145,47,77707,2,0,L|94:64,1,42.5,2|0,3:2|0:0,0:0:0:0:
177,180,77875,2,0,P|183:224|174:286,1,85,8|2,0:0|0:2,0:0:0:0:
0,384,78212,6,0,B|-28:314|2:276|2:276|17:308|61:326,1,170,2|8,3:2|0:0,0:0:0:0:
235,348,78718,1,2,0:2:0:0:
251,347,78802,1,2,0:2:0:0:
266,340,78887,1,2,0:2:0:0:
279,330,78971,1,2,0:2:0:0:
290,317,79055,2,0,L|287:258,1,42.5,2|0,3:2|0:0,0:0:0:0:
289,192,79224,1,8,0:1:0:0:
141,352,79392,1,2,0:2:0:0:
19,167,79561,6,0,P|64:186|122:261,1,127.5,0|2,3:1|0:2,0:0:0:0:
115,261,79898,1,8,0:0:0:0:
163,104,80066,2,0,P|192:142|205:236,1,127.5,2|2,0:2|0:2,0:0:0:0:
203,235,80403,1,2,3:2:0:0:
266,354,80572,2,0,P|279:295|348:291,1,127.5,8|2,0:1|0:2,0:0:0:0:
350,297,80909,6,0,L|372:231,1,42.5,0|0,3:1|0:0,0:0:0:0:
324,165,81078,1,2,0:2:0:0:
512,171,81246,2,0,L|405:193,1,85,8|2,0:0|0:2,0:0:0:0:
416,175,81499,1,2,0:2:0:0:
408,159,81583,2,0,L|416:103,2,42.5,2|2|2,0:2|0:2|3:2,0:0:0:0:
402,367,81920,1,8,0:1:0:0:
512,277,82089,1,2,0:2:0:0:
512,277,82173,1,2,0:2:0:0:
512,277,82257,6,0,P|510:316|497:369,1,85,6|2,3:2|0:2,0:0:0:0:
333,236,82594,1,8,0:0:0:0:
257,368,82763,2,0,P|247:326|244:284,1,85,2|2,0:2|0:2,0:0:0:0:
332,112,83100,1,2,3:2:0:0:
321,125,83184,1,0,0:0:0:0:
305,131,83269,1,8,0:1:0:0:
199,41,83437,2,0,P|200:65|209:91,1,42.5,2|0,0:2|0:0,0:0:0:0:
217,94,83606,6,0,P|128:76|41:71,1,170,2|8,3:2|0:0,0:0:0:0:
65,268,84111,1,2,0:2:0:0:
78,257,84196,1,2,0:2:0:0:
88,242,84280,2,0,P|100:199|100:150,1,85,2|0,0:2|3:3,0:0:0:0:
0,197,84617,1,8,0:0:0:0:
36,371,84785,1,2,0:2:0:0:
36,371,84870,1,2,0:2:0:0:
36,371,84954,6,0,P|95:340|161:327,1,127.5,0|2,3:1|0:2,0:0:0:0:
170,333,85291,1,8,0:0:0:0:
311,349,85460,1,2,0:2:0:0:
305,364,85544,1,2,0:2:0:0:
299,379,85628,2,0,L|243:372,1,42.5,2|0,0:2|0:0,0:0:0:0:
282,259,85797,2,0,L|324:264,1,42.5,0|0,3:1|0:0,0:0:0:0:
512,330,85965,2,0,P|480:358|425:354,1,85,8|2,0:0|0:2,0:0:0:0:
414,274,86218,1,2,0:2:0:0:
423,259,86302,6,0,P|441:183|441:84,1,170,2|8,3:2|0:0,0:0:0:0:
316,6,86808,1,2,0:2:0:0:
299,5,86892,1,2,0:2:0:0:
283,12,86976,1,2,0:2:0:0:
298,169,87145,1,2,3:2:0:0:
409,5,87314,1,8,0:1:0:0:
475,141,87482,1,2,0:2:0:0:
233,91,87651,5,2,3:2:0:0:
386,147,87819,2,0,L|392:195,2,42.5,2|2|8,0:2|0:2|0:1,0:0:0:0:
232,304,88156,1,2,0:2:0:0:
446,297,88325,2,0,L|451:254,2,42.5,2|2|2,0:2|0:2|3:2,0:0:0:0:
371,354,88662,1,8,0:1:0:0:
299,238,88830,1,2,0:2:0:0:
286,226,88915,1,2,0:2:0:0:
270,220,88999,6,0,P|211:232|131:240,1,127.5,2|2,3:2|0:2,0:0:0:0:
131,227,89336,2,0,L|104:166,2,42.5,8|2|2,0:1|0:2|0:2,0:0:0:0:
130,358,89673,1,0,0:1:0:0:
195,148,89842,1,2,3:2:0:0:
48,283,90010,1,10,0:0:0:0:
224,358,90179,1,0,0:1:0:0:
240,352,90263,1,2,0:2:0:0:
255,344,90347,6,0,P|269:281|279:205,1,127.5,0|2,3:2|0:2,0:0:0:0:
266,205,90684,1,8,0:1:0:0:
113,87,90853,1,2,0:2:0:0:
174,13,91021,2,0,P|216:14|263:46,1,85,2|2,0:2|3:2,0:0:0:0:
166,206,91358,1,8,0:0:0:0:
331,126,91527,1,2,0:2:0:0:
341,112,91611,1,2,0:2:0:0:
345,95,91696,5,2,3:2:0:0:
512,157,91864,1,2,0:2:0:0:
512,157,91948,1,0,0:0:0:0:
512,157,92033,1,8,0:0:0:0:
506,40,92201,1,2,0:2:0:0:
412,187,92370,1,0,0:1:0:0:
343,0,92538,1,2,3:2:0:0:
417,87,92707,6,0,L|253:123,1,127.5,8|0,0:1|0:0,0:0:0:0:
212,164,93044,5,6,3:2:0:0:
212,164,93381,1,2,0:2:0:0:
332,208,93550,2,0,P|396:218|464:220,1,118.999996368408,2|0,0:2|0:0,0:0:0:0:
460,120,94055,2,0,P|433:120|396:140,1,59.4999981842042,2|2,1:2|0:2,0:0:0:0:
304,224,94392,6,0,P|302:164|284:92,2,118.999996368408,0|2|2,0:0|1:2|0:3,0:0:0:0:
100,352,95403,2,0,P|97:321|120:276,1,59.4999981842042,0|0,1:2|0:0,0:0:0:0:
192,216,95741,6,0,P|136:209|64:192,1,118.999996368408,2|2,0:0|1:2,0:0:0:0:
0,104,96246,2,0,P|57:90|116:83,1,118.999996368408,0|2,0:0|0:3,0:0:0:0:
216,60,96752,2,0,P|209:98|208:136,1,59.4999981842042,2|2,1:2|0:3,0:0:0:0:
304,224,97089,6,0,P|302:164|289:106,1,118.999996368408,2|2,0:0|1:2,0:0:0:0:
484,36,97763,2,0,L|468:76,4,29.7499990921021,2|2|2|2|2,0:3|0:3|0:0|0:0|1:2,0:0:0:0:
384,124,98269,1,2,0:3:0:0:
388,136,98353,1,2,0:3:0:0:
392,148,98437,6,0,P|452:152|516:168,1,118.999996368408,2|2,0:0|1:2,0:0:0:0:
508,320,98943,1,2,0:3:0:0:
486,322,99027,1,2,0:3:0:0:
464,316,99111,1,2,0:3:0:0:
447,303,99195,1,2,0:3:0:0:
436,284,99280,1,2,0:0:0:0:
324,252,99448,2,0,P|297:270|260:280,1,59.4999981842042,2|2,1:2|0:0,0:0:0:0:
252,280,99701,1,2,0:0:0:0:
252,280,99785,6,0,P|193:254|116:272,1,118.999996368408,2|2,0:0|1:2,0:0:0:0:
24,180,100291,5,2,0:3:0:0:
53,186,100375,1,2,0:3:0:0:
82,184,100459,1,2,0:2:0:0:
110,175,100543,1,2,0:2:0:0:
136,160,100628,1,2,0:0:0:0:
212,72,100797,2,0,P|216:104|236:136,1,59.4999981842042,2|2,1:2|0:0,0:0:0:0:
248,128,101050,1,2,0:0:0:0:
248,128,101134,6,0,P|272:80|248:-4,1,118.999996368408,2|2,0:0|1:2,0:0:0:0:
384,67,101639,1,2,0:2:0:0:
382,91,101723,1,2,0:2:0:0:
380,115,101807,1,2,0:2:0:0:
378,139,101891,1,2,0:2:0:0:
376,163,101976,1,2,0:0:0:0:
376,264,102145,2,0,P|405:257|452:252,1,59.4999981842042,2|2,1:2|0:0,0:0:0:0:
448,264,102398,1,2,0:0:0:0:
448,264,102482,6,0,P|459:295|464:340,1,59.4999981842042,2|2,0:0|0:0,0:0:0:0:
284,268,102819,2,0,P|289:238|299:210,1,59.4999981842042,2|2,1:2|0:0,0:0:0:0:
164,320,103156,2,0,P|116:352|40:332,1,118.999996368408,2|2,0:0|1:2,0:0:0:0:
44,356,103830,6,0,P|52:256|28:180,1,170,6|8,3:2|0:2,0:0:0:0:
48,24,104336,1,2,0:2:0:0:
40,44,104420,1,2,0:2:0:0:
48,64,104505,2,0,P|83:85|140:72,1,85,2|2,0:2|3:2,0:0:0:0:
284,152,104842,2,0,P|224:144|140:192,1,127.5,8|2,0:2|0:2,0:0:0:0:
152,184,105179,6,0,P|160:226|164:288,1,85,2|2,3:2|0:2,0:0:0:0:
328,360,105516,2,0,P|331:317|339:275,1,85,8|2,0:2|0:2,0:0:0:0:
356,272,105769,1,2,0:2:0:0:
372,268,105853,1,2,0:2:0:0:
464,336,106021,1,2,3:2:0:0:
504,172,106190,2,0,P|432:171|372:128,1,127.5,8|2,0:2|0:2,0:0:0:0:
368,148,106527,6,0,P|380:96|428:76,1,85,2|2,3:2|0:2,0:0:0:0:
229,180,106864,2,0,P|177:195|136:164,1,85,8|2,0:2|0:2,0:0:0:0:
339,275,107201,2,0,P|378:311|371:362,1,85,2|2,0:2|3:2,0:0:0:0:
132,196,107538,2,0,P|136:132|192:100,1,127.5,8|2,0:2|0:2,0:0:0:0:
185,100,107875,6,0,P|74:131|5:132,1,170,2|8,3:2|0:2,0:0:0:0:
4,328,108381,1,2,0:2:0:0:
0,308,108465,1,2,0:2:0:0:
12,288,108550,2,0,P|56:272|100:272,1,85,2|0,0:2|3:0,0:0:0:0:
304,312,108887,1,8,0:2:0:0:
192,368,109055,1,2,0:2:0:0:
304,312,109224,6,0,B|300:268|316:212|316:212|280:204|256:152,1,170,2|8,3:2|0:2,0:0:0:0:
324,12,109729,1,2,0:2:0:0:
336,20,109814,1,2,0:2:0:0:
344,36,109898,2,0,P|357:74|340:128,1,85,2|2,0:2|3:2,0:0:0:0:
420,328,110235,2,0,P|410:287|424:247,1,85,8|2,0:2|0:2,0:0:0:0:
229,180,110572,6,0,P|169:236|65:212,1,170,2|8,3:2|0:2,0:0:0:0:
28,52,111078,1,2,0:2:0:0:
24,68,111162,1,2,0:2:0:0:
20,80,111246,2,0,L|116:76,1,85,2|2,0:2|3:2,0:0:0:0:
349,172,111583,2,0,L|264:168,1,85,8|2,0:2|0:2,0:0:0:0:
86,228,111920,5,2,3:2:0:0:
120,100,112089,1,2,0:2:0:0:
228,180,112257,1,8,0:2:0:0:
104,204,112426,1,2,0:2:0:0:
104,204,112510,1,2,0:2:0:0:
104,204,112594,1,2,0:2:0:0:
208,92,112763,1,2,3:2:0:0:
156,292,112932,2,0,P|123:312|56:316,1,85,8|0,0:2|0:0,0:0:0:0:
280,252,113269,6,0,P|340:264|392:316,1,127.5,2|0,3:2|0:0,0:0:0:0:
387,307,113606,2,0,P|391:251|403:211,1,85,8|2,0:2|0:2,0:0:0:0:
440,36,113943,1,2,0:2:0:0:
464,188,114111,1,2,3:2:0:0:
352,128,114280,1,8,0:2:0:0:
492,104,114448,1,2,0:2:0:0:
328,132,114617,6,0,L|272:140,3,42.5,6|2|2|2,3:2|0:2|0:2|0:2,0:0:0:0:
352,128,114954,2,0,P|372:80|356:28,1,85,8|2,0:2|0:2,0:0:0:0:
192,64,115291,2,0,P|160:140|200:232,1,170,2|8,0:2|0:2,0:0:0:0:
308,328,115797,1,2,0:2:0:0:
380,248,115965,6,0,P|356:237|296:224,1,85,2|2,3:2|0:2,0:0:0:0:
56,272,116302,1,8,0:2:0:0:
139,351,116471,2,0,P|216:335|323:327,1,170,2|2,0:2|3:2,0:0:0:0:
392,180,116976,1,8,0:2:0:0:
480,276,117145,1,2,0:2:0:0:
484,284,117229,1,2,0:2:0:0:
488,292,117314,6,0,L|484:344,3,42.5,2|2|2|2,3:2|0:2|0:2|0:2,0:0:0:0:
484,360,117651,2,0,P|436:356|400:320,1,85,8|2,0:2|0:2,0:0:0:0:
215,239,117988,2,0,P|256:231|307:223,1,85,2|2,0:2|3:2,0:0:0:0:
440,68,118325,1,8,0:2:0:0:
460,176,118493,1,2,0:2:0:0:
460,176,118578,1,2,0:2:0:0:
460,176,118662,6,0,P|384:168|332:84,1,170,2|8,3:2|0:2,0:0:0:0:
176,56,119167,1,2,0:2:0:0:
192,52,119252,1,2,0:2:0:0:
208,48,119336,2,0,P|222:90|224:148,1,85,2|2,0:2|3:2,0:0:0:0:
104,204,119673,1,8,0:2:0:0:
224,360,119842,1,2,0:2:0:0:
208,356,119927,1,2,0:2:0:0:
192,352,120011,6,0,P|195:309|209:269,1,85,2|2,3:2|0:2,0:0:0:0:
208,48,120347,2,0,P|222:90|224:148,1,85,8|2,0:2|0:2,0:0:0:0:
23,230,120684,2,0,P|61:212|103:203,1,85,2|2,0:2|3:2,0:0:0:0:
392,144,121021,2,0,P|362:177|313:207,1,85,8|2,0:2|0:2,0:0:0:0:
52,96,121358,6,0,P|152:116|224:152,1,170,2|8,3:2|0:2,0:0:0:0:
312,304,121864,1,2,0:2:0:0:
312,304,121948,1,2,0:2:0:0:
312,304,122033,1,2,0:2:0:0:
192,252,122201,1,2,3:2:0:0:
308,176,122370,1,8,0:2:0:0:
224,360,122538,1,2,0:2:0:0:
208,356,122623,1,2,0:2:0:0:
192,352,122707,6,0,P|146:359|96:372,1,85,2|2,3:2|0:2,0:0:0:0:
328,292,123044,2,0,P|369:301|411:308,1,85,8|2,0:2|0:2,0:0:0:0:
164,232,123381,2,0,P|130:223|80:216,1,85,2|2,0:2|3:2,0:0:0:0:
316,152,123718,2,0,P|358:146|399:136,1,85,8|2,0:2|0:2,0:0:0:0:
228,44,124055,6,0,P|192:88|192:224,1,170,2|8,3:2|0:2,0:0:0:0:
312,304,124561,1,2,0:2:0:0:
312,304,124645,1,2,0:2:0:0:
312,304,124729,1,2,0:2:0:0:
308,176,124898,1,2,3:2:0:0:
164,232,125066,1,8,0:2:0:0:
316,152,125235,1,2,0:2:0:0:
220,312,125403,6,0,L|228:360,3,42.5,2|2|2|2,3:2|0:2|0:2|0:2,0:0:0:0:
232,372,125741,2,0,P|180:368|124:352,1,85,8|2,0:2|0:2,0:0:0:0:
312,240,126078,2,0,P|384:200|500:224,1,170,2|8,0:2|0:0,0:0:0:0:
328,116,126583,6,0,P|296:92|284:32,1,85,2|2,0:2|3:2,0:0:0:0:
408,288,126920,2,0,P|408:336|376:380,1,85,2|8,0:2|0:2,0:0:0:0:
136,300,127257,2,0,B|184:288|212:256|212:256|244:280|316:284,1,170,2|2,0:2|3:2,0:0:0:0:
112,196,127763,2,0,L|20:176,1,85,8|2,0:2|0:2,0:0:0:0:
208,64,128100,6,0,L|268:52,3,42.5,2|2|2|2,3:2|0:2|0:2|0:2,0:0:0:0:
281,50,128437,1,8,0:2:0:0:
240,176,128606,2,0,P|226:261|224:352,1,170,2|2,0:2|3:2,0:0:0:0:
328,244,129111,2,0,P|329:301|340:348,1,85,8|2,0:2|0:2,0:0:0:0:
132,236,129448,6,0,P|124:268|120:300,1,59.4999981842042,2|4,3:2|0:3,0:0:0:0:
221,284,129785,2,0,P|221:314|223:344,1,59.4999981842042,4|4,0:3|0:3,0:0:0:0:
322,270,130123,2,0,P|327:301|338:338,1,59.4999981842042,4|4,0:3|0:3,0:0:0:0:
407,199,130460,2,0,P|416:228|433:253,1,59.4999981842042,8|0,0:3|0:0,0:0:0:0:
510,26,130797,6,0,P|443:19|405:90,1,152.999995330811,6|2,3:2|0:0,0:0:0:0:
416,96,131134,2,0,L|361:83,1,50.9999984436036,8|0,0:2|0:0,0:0:0:0:
305,25,131302,1,2,0:2:0:0:
206,141,131471,1,2,0:2:0:0:
300,225,131639,2,0,P|303:194|299:169,1,50.9999984436036,2|0,3:2|0:0,0:0:0:0:
308,165,131808,2,0,P|356:161|403:218,1,114.749996498108,8|0,0:2|0:0,0:0:0:0:
401,206,132145,6,0,B|371:282|371:282|408:378,1,152.999995330811,2|2,3:2|0:0,0:0:0:0:
410,355,132482,1,8,0:2:0:0:
512,257,132651,1,2,0:2:0:0:
497,251,132735,1,2,0:2:0:0:
482,254,132819,1,2,0:2:0:0:
299,382,132988,2,0,L|227:365,1,50.9999984436036,2|0,3:2|0:0,0:0:0:0:
255,360,133156,2,0,P|234:306|171:298,1,114.749996498108,8|2,0:2|0:0,0:0:0:0:
184,295,133493,6,0,L|161:126,1,152.999995330811,2|2,3:2|0:0,0:0:0:0:
168,128,133830,1,8,0:2:0:0:
300,191,133999,1,2,0:2:0:0:
298,206,134083,1,2,0:2:0:0:
295,221,134167,1,2,0:2:0:0:
456,152,134336,2,0,L|400:149,1,50.9999984436036,2|0,3:2|0:0,0:0:0:0:
400,138,134505,2,0,P|398:88|461:59,1,114.749996498108,8|2,0:2|0:2,0:0:0:0:
449,58,134842,6,0,P|357:57|291:7,1,152.999995330811,0|2,3:2|0:0,0:0:0:0:
293,33,135179,1,8,0:2:0:0:
163,170,135347,1,2,0:2:0:0:
149,163,135432,1,2,0:2:0:0:
135,154,135516,2,0,P|125:126|123:91,1,50.9999984436036,2|0,0:2|0:0,0:0:0:0:
274,173,135684,2,0,P|283:145|286:110,1,50.9999984436036,2|0,3:2|0:0,0:0:0:0:
98,256,135853,2,0,P|88:283|86:319,1,50.9999984436036,8|0,0:1|0:0,0:0:0:0:
237,275,136021,2,0,P|246:302|249:338,1,50.9999984436036,2|0,0:0|0:0,0:0:0:0:
343,351,136190,6,0,P|389:302|473:338,1,152.999995330811,2|2,3:2|0:0,0:0:0:0:
469,338,136527,1,8,0:2:0:0:
345,235,136696,1,2,0:2:0:0:
340,220,136780,1,2,0:2:0:0:
343,205,136864,1,2,0:2:0:0:
512,165,137033,2,0,P|508:192|502:222,1,50.9999984436036,2|0,3:2|0:0,0:0:0:0:
492,219,137201,2,0,P|445:177|438:113,1,114.749996498108,8|0,0:2|0:0,0:0:0:0:
435,128,137538,6,0,P|427:207|412:296,1,152.999995330811,0|2,3:1|0:2,0:0:0:0:
407,293,137875,1,8,0:2:0:0:
313,182,138044,1,2,0:2:0:0:
300,172,138128,1,2,0:0:0:0:
285,166,138212,1,2,0:2:0:0:
242,371,138381,2,0,L|299:358,1,50.9999984436036,2|0,3:2|0:0,0:0:0:0:
302,372,138550,2,0,P|323:315|287:250,1,114.749996498108,10|0,0:2|0:0,0:0:0:0:
305,266,138887,6,0,B|252:253|252:253|209:279|209:279|140:268,1,152.999995330811,0|2,3:1|0:0,0:0:0:0:
151,259,139224,1,10,0:2:0:0:
37,339,139392,1,2,0:2:0:0:
27,351,139476,1,2,0:2:0:0:
13,357,139561,2,0,P|5:331|1:296,1,50.9999984436036,2|0,0:2|0:0,0:0:0:0:
45,204,139729,1,2,3:2:0:0:
144,371,139898,1,10,0:2:0:0:
159,369,139982,1,0,0:0:0:0:
174,366,140066,1,2,0:2:0:0:
189,364,140151,1,0,0:0:0:0:
204,361,140235,6,0,B|238:220|238:220|218:148,1,203.999993774414,0|10,3:1|0:2,0:0:0:0:
147,98,140741,1,2,0:2:0:0:
147,98,140825,1,2,0:2:0:0:
147,98,140909,1,2,0:2:0:0:
242,0,141078,2,0,L|233:68,1,50.9999984436036,0|0,3:2|0:0,0:0:0:0:
228,59,141246,2,0,P|267:96|334:92,1,114.749996498108,10|2,0:2|0:0,0:0:0:0:
325,96,141583,6,0,P|325:155|334:281,1,152.999995330811,6|2,3:2|0:0,0:0:0:0:
342,259,141920,1,8,0:2:0:0:
504,255,142089,1,2,0:2:0:0:
508,241,142173,1,2,0:2:0:0:
511,227,142257,1,2,0:2:0:0:
420,312,142426,2,0,L|414:380,1,50.9999984436036,2|0,3:2|0:0,0:0:0:0:
425,376,142594,2,0,P|374:344|313:351,1,114.749996498108,8|0,0:2|0:0,0:0:0:0:
321,347,142932,6,0,P|254:353|231:281,1,152.999995330811,2|2,3:2|0:0,0:0:0:0:
241,271,143269,1,8,0:2:0:0:
351,210,143437,1,2,0:2:0:0:
336,206,143521,1,2,0:2:0:0:
321,201,143606,1,2,0:2:0:0:
299,53,143774,2,0,L|248:69,1,50.9999984436036,2|0,3:2|0:0,0:0:0:0:
246,63,143943,2,0,L|235:188,1,114.749996498108,8|2,0:2|0:0,0:0:0:0:
235,177,144280,6,0,P|171:134|89:167,1,152.999995330811,2|2,3:2|0:0,0:0:0:0:
95,166,144617,1,8,0:2:0:0:
8,89,144785,1,2,0:2:0:0:
1,74,144870,1,2,0:2:0:0:
2,58,144954,1,2,0:2:0:0:
184,24,145123,2,0,P|152:18|125:2,1,50.9999984436036,2|0,3:2|0:0,0:0:0:0:
128,19,145291,2,0,P|117:75|111:155,1,114.749996498108,8|2,0:2|0:2,0:0:0:0:
112,133,145628,6,0,P|38:121|1:193,1,152.999995330811,0|2,3:2|0:0,0:0:0:0:
6,193,145965,1,8,0:2:0:0:
101,281,146134,1,2,0:2:0:0:
116,278,146218,1,2,0:2:0:0:
129,270,146302,2,0,P|136:245|141:200,1,50.9999984436036,2|0,0:2|0:0,0:0:0:0:
10,325,146471,2,0,P|3:300|-2:255,1,50.9999984436036,2|0,3:2|0:0,0:0:0:0:
251,250,146639,2,0,P|244:275|239:320,1,50.9999984436036,8|0,0:2|0:0,0:0:0:0:
370,195,146808,2,0,P|377:220|382:265,1,50.9999984436036,2|0,0:0|0:0,0:0:0:0:
512,384,146976,6,0,P|479:325|389:345,1,152.999995330811,2|2,3:2|0:0,0:0:0:0:
392,343,147314,1,8,0:2:0:0:
481,230,147482,1,2,0:2:0:0:
487,216,147566,1,2,0:2:0:0:
484,200,147651,1,2,0:2:0:0:
348,92,147819,2,0,L|413:109,1,50.9999984436036,2|0,3:2|0:0,0:0:0:0:
408,100,147988,2,0,P|400:146|387:221,1,114.749996498108,8|0,0:2|0:0,0:0:0:0:
388,213,148325,6,0,P|320:175|263:213,1,152.999995330811,0|2,3:2|0:2,0:0:0:0:
262,227,148662,1,8,0:2:0:0:
231,378,148830,1,2,0:2:0:0:
242,367,148915,1,2,0:0:0:0:
249,353,148999,1,2,0:2:0:0:
122,242,149167,2,0,P|140:261|174:278,1,50.9999984436036,2|0,3:2|0:0,0:0:0:0:
177,280,149336,2,0,P|181:217|196:150,1,114.749996498108,10|0,0:2|0:0,0:0:0:0:
191,166,149673,6,0,B|133:117|133:117|43:147,1,152.999995330811,0|2,3:2|0:0,0:0:0:0:
53,156,150010,1,10,0:2:0:0:
114,371,150179,1,2,0:2:0:0:
128,367,150263,1,2,0:2:0:0:
142,362,150347,1,2,0:2:0:0:
105,244,150516,2,0,L|173:255,1,50.9999984436036,2|0,3:2|0:0,0:0:0:0:
152,263,150684,2,0,L|10:289,1,114.749996498108,10|0,0:2|0:0,0:0:0:0:
39,283,151021,6,0,L|220:286,1,152.999995330811,0|2,3:2|0:0,0:0:0:0:
203,295,151358,1,10,0:2:0:0:
461,270,151527,1,2,0:2:0:0:
458,284,151611,1,2,0:2:0:0:
454,299,151696,1,2,0:2:0:0:
295,306,151864,2,0,P|289:277|291:240,1,50.9999984436036,0|0,3:2|0:0,0:0:0:0:
300,248,152033,2,0,P|264:205|188:215,1,114.749996498108,10|2,0:2|0:0,0:0:0:0:
208,202,152370,6,0,B|250:209|250:209|308:173|308:173|369:186,1,152.999995330811,6|2,3:2|0:0,0:0:0:0:
361,190,152707,1,10,0:2:0:0:
456,20,152875,1,2,0:2:0:0:
444,9,152960,1,2,0:0:0:0:
428,9,153044,1,2,0:2:0:0:
269,78,153212,2,0,L|323:69,1,50.9999984436036,2|0,3:2|0:0,0:0:0:0:
326,84,153381,2,0,P|370:109|459:99,1,114.749996498108,10|0,0:2|0:0,0:0:0:0:
432,109,153718,6,0,L|441:286,1,152.999995330811,2|2,3:2|0:0,0:0:0:0:
449,273,154055,1,10,0:2:0:0:
324,355,154224,1,2,0:2:0:0:
310,348,154308,1,2,0:2:0:0:
294,346,154392,1,2,0:2:0:0:
279,350,154476,1,0,0:0:0:0:
266,358,154561,2,0,P|257:329|262:289,1,50.9999984436036,2|0,3:2|0:0,0:0:0:0:
165,208,154729,2,0,P|194:214|226:239,1,50.9999984436036,10|0,0:2|0:0,0:0:0:0:
352,213,154898,2,0,P|323:222|293:250,1,50.9999984436036,2|2,0:2|0:0,0:0:0:0:
306,234,155066,6,0,P|282:166|332:81,1,152.999995330811,2|2,3:2|0:0,0:0:0:0:
327,100,155403,1,10,0:2:0:0:
194,26,155572,1,2,0:2:0:0:
194,26,155656,1,2,0:0:0:0:
194,26,155741,2,0,P|163:16|133:13,1,50.9999984436036,2|2,0:2|0:0,0:0:0:0:
133,207,155909,2,0,P|158:202|182:194,1,50.9999984436036,2|0,3:2|0:0,0:0:0:0:
211,115,156078,1,10,0:2:0:0:
38,178,156246,1,2,0:0:0:0:
178,317,156415,6,0,P|116:310|53:287,1,101.999996887207,2|2,3:2|0:0,0:0:0:0:
69,285,156667,1,2,0:0:0:0:
62,271,156752,1,10,0:2:0:0:
117,119,156920,1,2,0:2:0:0:
117,119,157005,1,2,0:2:0:0:
117,119,157089,2,0,P|125:146|130:178,1,50.9999984436036,2|0,0:2|0:0,0:0:0:0:
287,193,157257,2,0,P|291:167|298:143,1,50.9999984436036,2|0,3:2|0:0,0:0:0:0:
219,75,157426,1,10,0:2:0:0:
228,322,157594,1,2,0:2:0:0:
325,295,157763,6,0,B|253:224|253:224|111:267,1,203.999993774414,2|10,3:2|0:2,0:0:0:0:
76,371,158269,1,2,0:2:0:0:
76,371,158353,1,2,0:0:0:0:
76,371,158437,2,0,L|64:309,1,50.9999984436036,2|2,0:2|0:0,0:0:0:0:
13,215,158606,2,0,L|25:153,1,50.9999984436036,2|0,3:2|0:0,0:0:0:0:
89,70,158774,1,10,0:2:0:0:
237,204,158943,1,2,0:0:0:0:
297,116,159111,6,0,P|242:112|183:98,1,101.999996887207,2|2,3:2|0:0,0:0:0:0:
188,89,159364,1,2,0:0:0:0:
186,73,159448,1,10,0:2:0:0:
112,202,159617,1,2,0:2:0:0:
112,202,159701,1,2,0:2:0:0:
112,202,159785,1,2,0:2:0:0:
191,311,159954,2,0,L|254:301,1,50.9999984436036,2|0,3:2|0:0,0:0:0:0:
246,317,160123,2,0,L|369:294,1,114.749996498108,10|2,0:2|0:0,0:0:0:0:
358,295,160460,6,0,L|379:174,1,101.999996887207,2|2,3:2|0:0,0:0:0:0:
377,179,160712,1,2,0:0:0:0:
380,163,160797,1,10,0:2:0:0:
426,60,160965,1,2,0:2:0:0:
442,62,161050,1,2,0:0:0:0:
453,73,161134,2,0,L|469:142,1,50.9999984436036,2|2,0:2|0:0,0:0:0:0:
286,116,161302,2,0,L|283:186,1,50.9999984436036,2|0,3:2|0:0,0:0:0:0:
485,303,161471,2,0,L|487:232,1,50.9999984436036,10|0,0:2|0:0,0:0:0:0:
318,346,161639,2,0,L|302:277,1,50.9999984436036,2|0,0:0|0:0,0:0:0:0:
406,186,161808,5,2,0:0:0:0:
396,264,161976,1,2,0:0:0:0:
398,167,162145,1,2,0:0:0:0:
388,284,162314,1,2,0:2:0:0:
217,257,162482,6,0,L|215:215,1,25.4999992218018,2|0,0:0|0:0,0:0:0:0:
134,159,162651,2,0,L|132:117,1,25.4999992218018,2|0,0:2|0:0,0:0:0:0:
34,255,162819,2,0,L|32:213,1,25.4999992218018,2|0,0:2|0:0,0:0:0:0:
129,29,162988,1,2,0:2:0:0:
129,29,163072,1,2,0:0:0:0:
129,29,163156,6,0,B|221:9|191:121|301:81,1,178.499994552612,6|2,3:2|0:2,0:0:0:0:
411,20,163830,2,0,P|397:36|420:121,1,85,8|2,0:0|0:2,0:0:0:0:
496,190,164167,2,0,L|443:183,1,42.5,2|0,0:3|0:0,0:0:0:0:
256,240,164336,2,0,L|298:245,1,42.5,2|0,3:3|0:0,0:0:0:0:
368,188,164505,5,4,0:3:0:0:
368,188,164589,1,4,0:3:0:0:
368,188,164673,1,4,3:3:0:0:
400,276,164842,2,0,L|408:336,1,42.5,8|0,0:1|0:0,0:0:0:0:
252,212,165010,2,0,L|246:169,1,42.5,8|0,3:1|0:0,0:0:0:0:
144,304,165179,2,0,P|107:319|40:332,1,85,4|2,1:1|3:2,0:0:0:0:
272,356,165516,1,2,0:2:0:0:
93,185,165684,1,2,0:2:0:0:
93,185,165769,1,2,0:2:0:0:
93,185,165853,6,0,P|89:214|75:240,1,59.4999981842042,2|2,3:0|0:2,0:0:0:0:
341,129,166190,2,0,P|344:99|358:73,1,59.4999981842042,2|0,0:1|0:0,0:0:0:0:
374,240,166527,6,0,P|272:230|251:141,1,178.499994552612,8|2,1:3|0:2,0:0:0:0:
260,153,166864,2,0,L|320:145,1,59.4999981842042,2|0,0:2|0:0,0:0:0:0:
134,232,167033,2,0,L|75:239,1,59.4999981842042,2|0,3:2|0:0,0:0:0:0:
0,173,167201,5,8,2:2:0:0:
120,322,167370,1,2,3:2:0:0:
122,331,167454,1,0,0:0:0:0:
123,341,167538,1,8,0:0:0:0:
188,86,167707,1,4,2:3:0:0:
186,77,167791,1,2,0:0:0:0:
185,67,167875,1,8,1:2:0:0:
288,62,168044,5,2,3:2:0:0:
90,99,168212,1,2,0:0:0:0:
288,62,168381,1,2,0:0:0:0:
288,62,168465,1,2,0:2:0:0:
288,62,168550,2,0,L|370:45,1,76.4999976654053,4|2,3:1|0:2,0:0:0:0:
512,184,168887,5,2,0:1:0:0:
456,191,168971,1,2,0:1:0:0:
409,159,169055,1,2,0:1:0:0:
359,133,169139,1,2,0:1:0:0:
304,147,169224,2,0,P|284:180|291:232,1,76.4999976654053,4|2,1:1|0:2,0:0:0:0:
384,320,169561,6,0,P|394:296|392:268,1,42.5,2|0,0:2|0:0,0:0:0:0:
202,222,169729,2,0,P|203:243|212:262,1,42.5,2|0,3:2|0:0,0:0:0:0:
297,301,169898,6,0,L|194:284,1,85,4|0,0:2|3:0,0:0:0:0:
13,154,170235,1,8,3:2:0:0:
96,140,170403,1,8,3:2:0:0:
131,48,170572,2,0,L|121:0,1,42.5,8|0,0:0|0:0,0:0:0:0:
19,182,170741,2,0,L|27:223,1,42.5,2|0,3:2|0:0,0:0:0:0:
222,139,170909,6,0,P|287:164|357:82,1,165.749992412568,4|2,0:1|0:2,0:0:0:0:
351,87,171246,5,8,3:2:0:0:
335,182,171415,1,8,0:2:0:0:
411,246,171583,1,8,0:2:0:0:
503,222,171752,1,8,0:2:0:0:
336,298,171920,6,0,P|303:308|255:313,1,55.2499974708558,0|0,1:0|0:0,0:0:0:0:
84,244,172089,1,8,0:3:0:0:
86,229,172173,1,8,0:3:0:0:
96,222,172257,2,0,P|123:227|149:236,1,55.2499974708558,8|0,0:3|0:0,0:0:0:0:
204,347,172426,6,0,B|182:234|182:234|241:177,1,165.749992412568,2|2,3:2|0:2,0:0:0:0:
347,25,172763,2,0,B|327:158|327:158|278:121,1,191.250007295609,2|0,3:2|0:0,0:0:0:0:
281,123,173100,1,2,3:2:0:0:
126,94,173269,6,0,B|147:77|147:77|191:88,1,63.7500024318696,8|0,1:2|0:0,0:0:0:0:
384,254,173437,2,0,B|363:271|363:271|319:260,1,63.7500024318696,8|0,3:2|0:0,0:0:0:0:
119,247,173606,2,0,B|162:233|180:186|180:186|243:270|357:216,1,229.499992996216,8|2,0:2|0:2,0:0:0:0:
302,234,173943,5,4,3:2:0:0:
327,157,174111,2,0,L|321:118,1,21.25,2|0,0:2|0:0,0:0:0:0:
490,272,174280,1,2,0:2:0:0:
502,184,174448,1,2,0:2:0:0:
280,326,174617,5,8,0:0:0:0:
426,199,174785,1,2,0:2:0:0:
426,199,174870,1,2,0:2:0:0:
426,199,174954,2,0,L|491:187,1,59.4999981842042,2|0,0:3|0:0,0:0:0:0:
242,137,175123,2,0,L|183:147,1,59.4999981842042,2|0,3:3|0:0,0:0:0:0:
165,128,175291,6,0,L|172:87,2,34,4|4|4,0:3|0:3|3:3,0:0:0:0:
318,232,175628,1,0,0:0:0:0:
62,317,175797,1,2,3:2:0:0:
234,227,175965,2,0,P|266:247|322:250,1,68,4|2,1:1|3:2,0:0:0:0:
165,128,176302,2,0,P|111:137|63:178,1,102,2|2,3:3|0:2,0:0:0:0:
47,162,176639,6,0,L|54:247,1,68,2|2,3:3|0:2,0:0:0:0:
396,328,176976,2,0,L|390:260,1,68,2|2,0:3|0:2,0:0:0:0:
285,183,177314,2,0,B|346:177|392:226|392:226|426:193|494:199,1,178.499994552612,8|2,1:3|0:2,0:0:0:0:
466,171,177651,6,0,L|398:183,1,42.5,2|0,0:2|0:0,0:0:0:0:
300,277,177819,2,0,L|232:289,1,42.5,2|0,3:2|0:0,0:0:0:0:
151,232,177988,1,2,0:2:0:0:
298,96,178156,2,0,P|286:134|281:186,1,68,0|2,3:1|0:0,0:0:0:0:
77,360,178493,5,2,3:2:0:0:
90,362,178578,1,2,0:0:0:0:
104,365,178662,2,0,P|98:331|87:299,1,68,4|2,1:1|3:2,0:0:0:0:
19,177,178999,2,0,B|108:152|86:251|201:202,1,165.749992412568,2|2,0:1|0:2,0:0:0:0:
300,277,179336,6,0,P|254:282|210:299,1,76.4999976654053,4|2,3:1|0:2,0:0:0:0:
453,253,179673,1,2,0:0:0:0:
380,168,179842,2,0,P|356:158|289:151,1,76.4999976654053,2|2,0:1|1:1,0:0:0:0:
37,56,180179,1,2,0:2:0:0:
37,56,180263,1,2,0:2:0:0:
37,56,180347,2,0,L|46:142,1,76.4999976654053,8|0,0:3|3:1,0:0:0:0:
22,230,180684,5,8,0:2:0:0:
117,259,180853,1,8,3:2:0:0:
201,213,181021,1,8,0:2:0:0:
209,118,181190,1,8,3:2:0:0:
277,255,181358,6,0,P|243:253|192:217,1,76.4999976654053,8|0,1:1|3:0,0:0:0:0:
437,95,181696,2,0,P|469:76|507:74,1,76.4999976654053,2|0,0:3|0:2,0:0:0:0:
507,74,181948,1,2,0:2:0:0:
507,74,182033,5,8,3:1:0:0:
501,166,182201,1,8,0:1:0:0:
299,363,182370,5,8,0:1:0:0:
283,273,182538,1,8,0:1:0:0:
410,300,182707,5,8,1:2:0:0:
117,239,182875,2,0,L|59:249,2,38.2499988327027,8|2|8,0:2|0:2|0:2,0:0:0:0:
404,99,183212,1,8,3:2:0:0:
261,168,183381,6,0,P|245:140|242:81,1,76.4999976654053,2|2,0:2|3:2,0:0:0:0:
145,46,183718,1,0,0:0:0:0:
386,86,183887,2,0,P|352:91|317:106,1,59.4999981842042,2|0,3:2|1:3,0:0:0:0:
117,239,184224,6,0,B|197:211|191:308|288:270,1,178.499994552612,2|6,0:3|3:2,0:0:0:0:
148,118,195516,5,4,0:1:0:0:
148,118,195853,2,0,P|135:154|135:192,1,59.4999981842042,2|2,0:3|0:0,0:0:0:0:
263,256,196190,2,0,P|232:223|245:146,1,118.999996368408,2|2,0:0|0:3,0:0:0:0:
156,256,196696,1,2,0:0:0:0:
156,256,196780,1,2,0:0:0:0:
156,256,196864,6,0,P|110:289|39:277,1,118.999996368408,2|2,0:0|0:3,0:0:0:0:
312,189,197370,2,0,P|369:183|417:216,1,118.999996368408,2|2,0:1|0:0,0:0:0:0:
179,94,197875,2,0,P|166:50|183:19,1,59.4999981842042,4|2,0:2|0:0,0:0:0:0:
238,153,198212,6,0,L|230:298,1,118.999996368408,8|2,0:1|0:3,0:0:0:0:
85,207,198718,2,0,L|77:62,1,118.999996368408,8|2,0:1|0:0,0:0:0:0:
253,20,199224,2,0,P|266:64|249:95,1,59.4999981842042,2|2,0:3|0:0,0:0:0:0:
164,202,199561,5,8,0:0:0:0:
179,94,199729,1,2,0:2:0:0:
262,161,199898,2,0,L|309:169,2,29.7499990921021,2|2|8,0:3|0:3|1:2,0:0:0:0:
83,140,200235,1,4,1:3:0:0:
179,94,200403,1,2,0:0:0:0:
179,94,200488,1,2,0:2:0:0:
179,94,200572,1,2,0:3:0:0:
164,202,200741,1,4,1:3:0:0:
172,61,200909,5,4,0:2:0:0:
172,61,201246,2,0,L|91:72,1,59.4999981842042,2|4,0:3|0:2,0:0:0:0:
262,161,201583,2,0,P|314:132|394:148,1,118.999996368408,2|2,0:2|0:3,0:0:0:0:
447,256,202089,1,2,0:2:0:0:
447,256,202173,1,2,0:2:0:0:
447,256,202257,6,0,P|388:260|337:231,1,118.999996368408,2|2,0:1|0:3,0:0:0:0:
260,312,202763,2,0,P|202:300|148:322,1,118.999996368408,4|2,0:2|0:2,0:0:0:0:
5,239,203269,2,0,P|33:252|62:253,1,59.4999981842042,2|2,0:1|0:2,0:0:0:0:
148,173,203606,6,0,P|149:126|82:74,1,118.999996368408,8|2,0:1|0:3,0:0:0:0:
57,162,204111,1,8,0:1:0:0:
253,144,204280,2,0,P|245:177|244:219,1,59.4999981842042,2|2,0:2|0:2,0:0:0:0:
357,151,204617,2,0,P|354:121|347:92,1,59.4999981842042,2|2,0:3|0:2,0:0:0:0:
444,253,204954,6,0,P|384:234|317:250,1,118.999996368408,8|2,0:2|0:3,0:0:0:0:
230,229,205460,2,0,P|238:264|241:304,1,59.4999981842042,8|2,0:2|0:2,0:0:0:0:
128,208,205797,2,0,P|136:272|141:341,1,118.999996368408,2|2,0:2|0:1,0:0:0:0:
60,116,206302,6,0,P|124:168|198:141,1,152.999995330811,12|0,3:2|0:0,0:0:0:0:
347,92,206808,2,0,B|312:64|255:85|255:85|284:116|281:155,1,152.999995330811,2|0,3:2|0:0,0:0:0:0:
350,304,207314,6,0,B|365:214|365:214|291:248,1,152.999995330811,2|0,3:2|0:0,0:0:0:0:
205,303,207819,2,0,L|185:142,1,152.999995330811,2|0,3:2|0:0,0:0:0:0:
104,43,208325,2,0,P|68:68|71:122,1,89.2499972763062,2|2,3:2|0:2,0:0:0:0:
66,127,208662,6,0,L|9:116,1,42.5,8|0,0:2|0:0,0:0:0:0:
174,130,208830,1,2,0:2:0:0:
116,226,208999,6,0,P|56:242|-23:245,1,118.999996368408,4|0,3:1|0:0,0:0:0:0:
103,330,209505,2,0,P|162:334|219:350,1,118.999996368408,2|0,3:2|0:0,0:0:0:0:
315,270,210010,6,0,P|255:260|234:202,1,118.999996368408,2|0,3:2|0:0,0:0:0:0:
390,179,210516,2,0,P|407:226|419:306,1,118.999996368408,2|0,3:2|0:0,0:0:0:0:
309,120,211021,2,0,P|348:87|395:78,1,89.2499972763062,2|2,3:2|0:2,0:0:0:0:
398,81,211358,6,0,L|383:25,1,42.5,8|0,0:2|0:0,0:0:0:0:
486,40,211527,1,8,0:2:0:0:
486,40,211611,1,8,0:2:0:0:
486,40,211696,5,6,3:2:0:0:
98,76,212033,1,8,0:2:0:0:
406,131,212370,5,2,3:2:0:0:
180,152,212707,1,8,0:2:0:0:
405,262,213044,5,2,3:2:0:0:
166,279,213381,1,8,0:2:0:0:
506,349,213718,5,2,3:2:0:0:
46,316,214055,1,8,0:2:0:0:
12,207,214224,1,8,0:2:0:0:
30,204,214308,1,8,0:2:0:0:
48,202,214392,6,0,P|61:170|57:122,1,68,0|0,3:2|3:2,0:0:0:0:
166,279,214729,2,0,P|179:311|175:359,1,68,0|0,3:2|3:2,0:0:0:0:
218,165,215066,6,0,P|188:178|132:180,1,68,0|0,3:2|3:2,0:0:0:0:
321,313,215403,2,0,P|291:300|235:298,1,68,0|0,3:2|3:2,0:0:0:0:
329,161,215741,6,0,P|353:157|378:147,3,42.5,0|0|0|0,3:2|3:2|3:2|3:2,0:0:0:0:
386,248,216078,2,0,P|415:253|437:264,3,42.5,0|0|0|0,3:2|3:2|3:2|3:2,0:0:0:0:
472,160,216415,5,0,3:2:0:0:
504,133,216499,1,0,3:2:0:0:
512,92,216583,1,0,3:2:0:0:
500,53,216667,1,0,3:2:0:0:
465,30,216752,1,8,3:3:0:0:
310,135,217089,6,0,P|278:171|285:117,1,127.500004863739,6|8,3:2|0:0,0:0:0:0:
360,224,217594,1,2,0:0:0:0:
348,239,217679,1,2,0:0:0:0:
331,247,217763,1,2,0:0:0:0:
173,148,217932,2,0,P|176:175|190:204,1,50.9999984436036,2|0,3:2|0:0,0:0:0:0:
107,235,218100,2,0,P|123:256|149:274,1,50.9999984436036,2|0,1:3|0:0,0:0:0:0:
97,343,218269,2,0,P|121:353|153:356,1,50.9999984436036,2|0,3:3|0:0,0:0:0:0:
223,308,218437,5,4,3:3:0:0:
382,351,218606,1,4,0:3:0:0:
382,351,218690,1,4,0:3:0:0:
382,351,218774,1,0,1:1:0:0:
466,325,218943,1,8,0:2:0:0:
334,264,219111,1,8,0:2:0:0:
512,242,219280,1,2,3:2:0:0:
392,103,219448,2,0,L|403:157,1,50.9999984436036,8|0,1:1|0:0,0:0:0:0:
427,244,219617,1,8,0:1:0:0:
427,244,219701,1,2,0:2:0:0:
427,244,219785,5,2,3:1:0:0:
355,283,219954,1,2,0:1:0:0:
278,254,220123,1,2,1:1:0:0:
245,179,220291,1,2,0:1:0:0:
63,186,220460,2,0,L|72:252,1,50.9999984436036,8|0,0:3|0:0,0:0:0:0:
149,144,220628,2,0,L|158:210,1,50.9999984436036,8|0,3:3|0:0,0:0:0:0:
133,327,220797,2,0,L|142:261,1,50.9999984436036,2|0,1:2|0:0,0:0:0:0:
219,369,220965,2,0,L|228:303,1,50.9999984436036,2|2,0:2|0:2,0:0:0:0:
275,246,221134,6,0,P|319:231|381:268,1,101.999996887207,4|2,3:3|0:2,0:0:0:0:
363,362,221387,1,2,0:2:0:0:
386,371,221471,2,0,L|455:364,1,50.9999984436036,8|0,0:2|0:0,0:0:0:0:
510,270,221639,1,4,2:3:0:0:
510,270,221724,1,4,0:3:0:0:
510,270,221808,2,0,P|497:211|488:108,1,118.999996368408,4|2,0:2|3:2,0:0:0:0:
495,54,222061,1,0,0:0:0:0:
503,40,222145,6,0,P|428:24|391:38,1,95.6250036478044,8|0,0:2|0:0,0:0:0:0:
403,44,222482,6,0,P|406:126|398:263,1,203.999993774414,4|2,3:1|1:1,0:0:0:0:
324,305,222903,1,2,0:1:0:0:
309,310,222988,1,2,0:1:0:0:
293,312,223072,1,2,0:1:0:0:
278,308,223156,2,0,P|268:264|268:200,1,101.999996887207,4|2,0:1|3:2,0:0:0:0:
305,31,223493,2,0,L|237:20,1,50.9999984436036,2|0,1:2|0:0,0:0:0:0:
265,113,223662,2,0,L|192:131,1,50.9999984436036,2|0,0:2|0:0,0:0:0:0:
153,66,223830,6,0,B|97:35|55:43|55:43|5:74,1,152.999995330811,2|2,3:2|0:2,0:0:0:0:
13,144,224167,6,0,P|67:210|19:332,1,178.499994552612,2|2,1:3|0:2,0:0:0:0:
41,307,224505,6,0,L|-26:283,1,63.7500024318696,2|2,0:0|3:2,0:0:0:0:
146,255,224842,1,8,1:1:0:0:
272,356,225010,1,8,0:1:0:0:
348,259,225179,6,0,L|460:246,1,101.999996887207,0|8,3:2|0:2,0:0:0:0:
508,175,225432,1,2,0:0:0:0:
510,149,225516,2,0,P|508:122|493:85,1,50.9999984436036,8|0,1:2|0:0,0:0:0:0:
448,31,225684,2,0,P|424:17|385:9,1,50.9999984436036,8|2,0:2|0:2,0:0:0:0:
318,44,225853,1,0,0:0:0:0:
418,148,226021,1,8,3:3:0:0:
418,148,226106,1,2,0:0:0:0:
418,148,226190,2,0,L|428:218,1,50.9999984436036,8|0,1:3|0:0,0:0:0:0:
341,258,226358,1,2,0:0:0:0:
341,258,226443,1,2,0:2:0:0:
341,258,226527,6,0,P|289:231|219:244,1,101.999996887207,2|2,3:2|0:2,0:0:0:0:
154,266,226780,1,2,0:2:0:0:
144,278,226864,2,0,L|156:337,3,50.9999984436036,0|0|2|2,1:1|0:0|0:2|0:2,0:0:0:0:
174,353,227201,1,8,0:2:0:0:
275,313,227370,1,8,3:2:0:0:
377,370,227538,6,0,P|426:359|484:353,1,95.6250036478044,8|2,1:2|0:0,0:0:0:0:
477,332,227875,6,0,P|509:296|502:350,1,127.500004863739,6|8,3:2|0:0,0:0:0:0:
386,263,228381,1,2,0:0:0:0:
383,247,228465,1,2,0:0:0:0:
380,231,228550,1,2,0:0:0:0:
430,94,228718,2,0,P|430:117|422:159,1,50.9999984436036,2|0,3:2|0:0,0:0:0:0:
290,147,228887,2,0,P|290:170|298:212,1,50.9999984436036,2|0,1:3|0:0,0:0:0:0:
512,186,229055,2,0,P|497:204|465:232,1,50.9999984436036,2|0,0:3|0:0,0:0:0:0:
380,231,229224,5,4,3:3:0:0:
484,345,229392,1,4,0:3:0:0:
484,345,229476,1,4,0:3:0:0:
484,345,229561,2,0,P|423:340|377:323,1,101.999996887207,4|2,1:1|0:0,0:0:0:0:
205,210,229898,1,0,0:1:0:0:
294,374,230066,1,2,3:2:0:0:
304,284,230234,2,0,L|242:298,1,50.9999984436036,2|0,1:3|0:0,0:0:0:0:
194,355,230403,1,2,0:3:0:0:
194,355,230487,1,2,0:2:0:0:
194,355,230571,5,2,3:1:0:0:
112,362,230740,1,2,0:1:0:0:
41,320,230909,1,2,1:1:0:0:
38,238,231077,1,2,0:1:0:0:
129,115,231246,2,0,L|118:284,1,152.999995330811,8|0,0:3|0:0,0:0:0:0:
129,279,231583,2,0,L|188:269,1,50.9999984436036,2|0,1:2|0:0,0:0:0:0:
206,181,231752,2,0,L|265:171,1,50.9999984436036,2|2,0:2|0:2,0:0:0:0:
334,247,231920,6,0,P|377:265|443:244,1,101.999996887207,2|2,3:2|0:2,0:0:0:0:
438,110,232173,1,2,0:2:0:0:
419,92,232257,2,0,P|389:86|353:90,1,50.9999984436036,8|0,0:2|0:0,0:0:0:0:
394,178,232425,1,2,0:2:0:0:
394,178,232510,1,2,0:2:0:0:
394,178,232594,2,0,L|530:161,1,101.999996887207,4|2,0:1|3:2,0:0:0:0:
478,37,232847,1,0,0:0:0:0:
459,20,232932,6,0,P|420:7|349:7,1,95.6250036478044,2|0,1:3|0:0,0:0:0:0:
346,18,233269,6,0,B|291:66|239:55|239:55|208:17|132:26,1,203.999993774414,4|2,3:1|1:1,0:0:0:0:
176,111,233689,1,2,0:1:0:0:
184,123,233774,1,2,0:1:0:0:
187,137,233858,1,2,0:1:0:0:
188,152,233943,2,0,P|189:198|181:262,1,101.999996887207,2|2,0:2|3:2,0:0:0:0:
48,361,234280,2,0,P|106:335|201:381,1,152.999995330811,8|0,1:3|0:0,0:0:0:0:
199,380,234617,6,0,L|299:358,1,95.6250036478044,2|0,3:1|0:0,0:0:0:0:
306,344,234954,5,8,1:2:0:0:
268,220,235123,2,0,L|253:283,1,50.9999984436036,2|0,3:2|0:0,0:0:0:0:
400,347,235291,2,0,L|388:297,1,50.9999984436036,2|2,0:2|0:2,0:0:0:0:
366,202,235460,1,2,3:2:0:0:
306,344,235628,1,8,0:1:0:0:
474,303,235796,1,2,0:0:0:0:
357,179,235965,6,0,L|215:157,1,101.999996887207,4|0,3:1|0:1,0:0:0:0:
120,208,236218,1,2,0:0:0:0:
111,226,236302,2,0,L|119:276,1,50.9999984436036,8|0,1:1|0:0,0:0:0:0:
221,272,236471,2,0,L|213:322,1,50.9999984436036,8|2,0:1|0:2,0:0:0:0:
134,383,236639,1,8,0:2:0:0:
20,315,236807,1,8,3:2:0:0:
20,315,236892,1,2,0:0:0:0:
20,315,236976,2,0,L|12:264,1,50.9999984436036,8|0,1:2|0:0,0:0:0:0:
58,148,237144,1,8,0:2:0:0:
58,148,237229,1,2,0:2:0:0:
58,148,237314,6,0,B|79:97|71:51|71:51|30:4,1,152.999995330811,4|2,3:1|0:2,0:0:0:0:
18,22,237651,1,8,0:0:0:0:
153,93,237819,1,8,0:2:0:0:
246,18,237988,1,8,0:2:0:0:
343,83,238156,2,0,L|339:136,1,50.9999984436036,0|0,3:2|0:0,0:0:0:0:
291,221,238325,1,0,1:3:0:0:
272,229,238409,1,0,0:0:0:0:
251,228,238493,1,0,0:0:0:0:
231,221,238578,1,0,0:0:0:0:
213,210,238662,6,0,P|151:209|118:341,1,195.500003728867,6|8,3:2|0:0,0:0:0:0:
58,148,239167,2,0,P|75:176|81:211,1,68,2|2,0:2|0:2,0:0:0:0:
356,376,239505,1,0,3:1:0:0:
274,322,239673,2,0,P|244:315|195:313,1,68,2|2,1:3|0:3,0:0:0:0:
466,122,240010,6,0,P|490:112|520:100,2,46.7500014266968,4|4|4,3:3|0:3|0:3,0:0:0:0:
350,191,240347,2,0,P|364:229|369:293,1,93.5000028533936,2|2,1:1|0:2,0:0:0:0:
365,287,240600,1,2,0:2:0:0:
358,293,240684,1,0,0:1:0:0:
247,58,240853,1,0,3:1:0:0:
141,248,241021,2,0,L|196:233,1,50.9999984436036,8|0,1:1|0:0,0:0:0:0:
247,156,241190,1,8,0:1:0:0:
247,156,241274,1,2,0:2:0:0:
247,156,241358,5,2,3:1:0:0:
213,241,241527,1,2,0:1:0:0:
286,315,241696,1,2,1:1:0:0:
381,304,241864,1,2,0:1:0:0:
425,202,242033,6,0,L|362:192,1,50.9999984436036,2|0,0:2|0:0,0:0:0:0:
195,113,242201,2,0,L|258:103,1,50.9999984436036,2|0,3:2|0:0,0:0:0:0:
320,28,242370,1,2,1:2:0:0:
306,183,242538,1,2,0:2:0:0:
306,183,242623,1,2,0:2:0:0:
306,183,242707,2,0,L|295:293,1,101.999996887207,4|2,3:3|0:2,0:0:0:0:
59,156,243044,5,8,0:0:0:0:
56,137,243128,1,0,0:0:0:0:
54,118,243212,1,4,2:3:0:0:
51,99,243296,1,2,0:2:0:0:
50,81,243381,2,0,P|79:67|116:67,1,59.4999981842042,2|0,1:3|0:2,0:0:0:0:
195,113,243550,2,0,P|221:126|250:128,1,59.4999981842042,0|0,3:3|0:0,0:0:0:0:
350,62,243718,6,0,B|404:0|489:33|489:33|452:57|449:131,1,210.375002006292,2|2,1:3|0:2,0:0:0:0:
511,133,244055,6,0,P|456:125|416:174,1,102,4|2,3:1|0:2,0:0:0:0:
405,171,244392,2,0,L|418:238,1,50.9999984436036,2|2,1:1|0:1,0:0:0:0:
295,284,244561,2,0,L|308:351,1,50.9999984436036,2|2,0:1|0:1,0:0:0:0:
386,367,244729,5,8,0:2:0:0:
198,298,244898,1,8,3:2:0:0:
442,238,245066,1,8,1:2:0:0:
442,238,245235,1,2,0:2:0:0:
299,96,245403,6,0,P|306:133|311:189,1,68,2|2,3:2|0:2,0:0:0:0:
81,311,245741,2,0,P|85:277|91:243,1,68,8|0,1:1|3:1,0:0:0:0:
105,239,245993,1,2,0:2:0:0:
105,238,246078,2,0,L|173:226,1,63.7500024318696,8|0,0:1|3:0,0:0:0:0:
456,355,246415,2,0,P|409:305|309:336,1,152.999995330811,4|2,1:1|0:2,0:0:0:0:
304,334,246752,6,0,B|276:313|276:313|285:262,1,85,0|0,3:3|0:2,0:0:0:0:
110,82,247089,1,0,1:2:0:0:
185,25,247257,2,0,B|213:46|213:46|204:97,1,85,0|0,0:2|0:0,0:0:0:0:
382,270,247594,1,8,0:3:0:0:
382,270,247679,1,0,0:0:0:0:
382,270,247763,1,8,1:3:0:0:
118,206,247932,1,2,0:2:0:0:
344,162,248100,6,0,P|376:174|417:178,1,68,0|2,3:1|0:2,0:0:0:0:
118,206,248437,2,0,P|84:210|52:222,1,68,2|2,1:1|0:2,0:0:0:0:
49,230,248690,1,2,0:2:0:0:
48,238,248774,1,8,0:2:0:0:
362,304,248943,1,8,3:2:0:0:
255,258,249111,6,0,P|216:200|235:96,1,159.375,8|2,1:2|0:2,0:0:0:0:
183,23,249448,6,0,P|234:41|220:128,1,127.500004863739,6|8,3:2|0:0,0:0:0:0:
119,128,249954,1,2,0:2:0:0:
109,125,250038,1,2,0:2:0:0:
98,123,250123,1,2,0:2:0:0:
336,233,250291,2,0,L|428:219,1,68,2|2,3:2|1:3,0:0:0:0:
441,124,250628,1,2,3:3:0:0:
392,319,250797,6,0,L|399:370,2,34,4|4|4,0:3|0:3|0:3,0:0:0:0:
123,265,251134,1,0,1:2:0:0:
272,310,251302,1,2,0:2:0:0:
272,310,251387,1,2,0:2:0:0:
272,310,251471,2,0,P|289:278|280:218,1,68,2|0,0:1|3:3,0:0:0:0:
207,22,251808,2,0,P|190:54|199:114,1,68,2|2,1:1|0:2,0:0:0:0:
188,85,252061,1,2,0:2:0:0:
188,85,252145,5,8,3:2:0:0:
242,164,252314,1,8,0:2:0:0:
341,178,252482,1,8,1:2:0:0:
418,116,252651,1,8,0:2:0:0:
217,182,252819,6,0,L|121:192,1,85,8|0,0:3|3:1,0:0:0:0:
21,323,253156,2,0,L|16:266,1,42.5,2|0,1:2|0:0,0:0:0:0:
111,122,253325,2,0,L|114:164,1,42.5,2|2,0:2|0:2,0:0:0:0:
233,304,253493,6,0,P|289:324|379:244,1,170,2|8,3:2|0:0,0:0:0:0:
449,53,253999,1,2,0:2:0:0:
436,44,254083,1,2,0:2:0:0:
424,44,254167,2,0,L|366:55,1,42.5,0|0,0:1|0:0,0:0:0:0:
216,121,254336,2,0,L|274:132,1,42.5,2|2,3:2|0:2,0:0:0:0:
361,138,254505,6,0,P|379:184|372:251,1,95.6250036478044,2|2,1:3|0:2,0:0:0:0:
208,322,254842,6,0,P|209:268|257:233,1,101.999996887207,4|2,3:1|0:2,0:0:0:0:
253,234,255094,1,2,0:2:0:0:
262,232,255179,1,2,1:1:0:0:
64,98,255347,1,2,0:1:0:0:
160,79,255516,2,0,P|166:55|170:29,2,50.9999984436036,2|2|2,0:2|0:2|3:2,0:0:0:0:
452,76,255853,1,0,1:3:0:0:
361,138,256021,6,0,P|305:131|242:106,1,101.999996887207,2|0,0:2|3:2,0:0:0:0:
61,333,256358,1,8,0:2:0:0:
134,241,256527,5,8,1:2:0:0:
157,231,256611,1,2,0:2:0:0:
182,224,256695,1,0,0:1:0:0:
207,220,256779,1,2,0:2:0:0:
232,219,256864,6,0,P|241:242|251:285,1,50.9999984436036,0|0,0:1|0:0,0:0:0:0:
348,343,257033,2,0,P|357:319|367:277,1,50.9999984436036,2|0,3:2|0:0,0:0:0:0:
435,188,257201,2,0,L|362:169,1,50.9999984436036,8|0,0:1|0:0,0:0:0:0:
267,78,257370,2,0,L|316:65,1,50.9999984436036,0|2,0:1|0:2,0:0:0:0:
401,2,257538,5,8,3:1:0:0:
263,101,257707,1,8,0:1:0:0:
453,207,257875,1,8,1:1:0:0:
429,104,258044,1,8,0:1:0:0:
429,104,258128,1,2,0:2:0:0:
429,104,258212,5,8,0:2:0:0:
176,27,258381,1,8,3:2:0:0:
205,274,258550,1,8,1:2:0:0:
303,190,258718,2,0,L|309:135,2,50.9999984436036,8|2|0,0:2|0:2|3:1,0:0:0:0:
91,332,259055,1,2,0:2:0:0:
91,332,259139,1,0,0:0:0:0:
91,332,259224,6,0,P|80:298|82:257,1,68,8|2,0:0|0:2,0:0:0:0:
359,334,259561,1,2,0:2:0:0:
431,249,259729,1,2,3:2:0:0:
303,190,259898,1,0,1:3:0:0:
269,184,259982,1,2,0:2:0:0:
236,178,260066,1,2,0:2:0:0:
202,172,260150,1,2,0:2:0:0:
169,166,260235,5,6,3:2:0:0:
256,192,260319,12,0,261583,0:0:0:0:
