osu file format v14

[General]
AudioFilename: Snow halation (REDSHiFT Remix) -Kimunyu Ver.- .mp3
AudioLeadIn: 0
PreviewTime: 130881
Countdown: 0
SampleSet: Soft
StackLeniency: 0.7
Mode: 0
LetterboxInBreaks: 0
WidescreenStoryboard: 0

[Editor]
Bookmarks: 22932,39111,71471,93044,114617,130797,163156,184729,217089,238662
DistanceSpacing: 1.2
BeatDivisor: 4
GridSize: 4
TimelineZoom: 2.7

[Metadata]
Title:Snow halation (REDSHiFT Remix)
TitleUnicode:Snow halation (REDSHiFT Remix)
Artist:Kimunyu
ArtistUnicode:きむにゅ
Creator:Gaia
Version:BiBi Extra
Source:ラブライブ! School idol project
Tags:Amamiya Yuko Skystar Kibbleru Chaoslitz Karen Momochikun Little Cloudsplash16 Meyrink μ’s u's Muse nico maki love live festival japanese anime harasho Снег Хорошо
BeatmapID:1865251
BeatmapSetID:429540

[Difficulty]
HPDrainRate:7
CircleSize:4.2
OverallDifficulty:8
ApproachRate:9.3
SliderMultiplier:1.8
SliderTickRate:1

[Events]
//Background and Video events
0,0,"snowharasho.jpg",0,0
//Break Periods
2,184929,193613
//Storyboard Layer 0 (Background)
//Storyboard Layer 1 (Fail)
//Storyboard Layer 2 (Pass)
//Storyboard Layer 3 (Foreground)
//Storyboard Layer 4 (Overlay)
//Storyboard Sound Samples

[TimingPoints]
1359,337.078651685393,4,2,1,60,1,0
3381,-83.3333333333333,4,2,1,60,0,0
4055,-66.6666666666667,4,2,1,60,0,0
4729,-100,4,2,1,60,0,0
6078,-166.666666666667,4,2,1,60,0,0
6752,-100,4,2,1,60,0,0
9448,-166.666666666667,4,2,1,60,0,0
10628,-83.3333333333334,4,2,1,60,0,0
12145,-100,4,2,1,60,0,0
17201,-83.3333333333333,4,2,1,60,0,0
17538,-100,4,2,1,60,0,0
20235,-125,4,2,1,60,0,0
20909,-100,4,2,1,60,0,0
21415,-83.3333333333333,4,2,1,60,0,0
22089,-100,4,2,1,60,0,0
22932,-125,4,2,1,60,0,0
23606,-100,4,2,1,60,0,0
24111,-83.3333333333333,4,2,1,60,0,0
25123,-66.6666666666667,4,2,1,60,0,0
25628,-100,4,2,1,60,0,0
26302,-71.4285714285714,4,2,1,60,0,0
26471,-83.3333333333333,4,2,1,60,0,0
26808,-100,4,2,1,60,0,0
27482,-142.857142857143,4,2,1,60,0,0
27819,-90.9090909090909,4,2,1,60,0,0
29167,-76.9230769230769,4,2,1,60,0,0
31021,-90.9090909090909,4,2,1,60,0,0
31358,-142.857142857143,4,2,1,60,0,0
31696,-66.6666666666667,4,2,1,60,0,0
32201,-100,4,2,1,60,0,0
32538,-71.4285714285714,4,2,1,60,0,0
33212,-111.111111111111,4,2,1,60,0,0
33718,-142.857142857143,4,2,1,60,0,0
34392,-83.3333333333334,4,2,1,60,0,0
34898,-71.4285714285714,4,2,1,60,0,0
35909,-142.857142857143,4,2,1,60,0,0
36415,-83.3333333333333,4,2,1,60,0,0
37089,-71.4285714285714,4,2,1,60,0,0
37763,-100,4,2,1,60,0,0
37932,-76.9230769230769,4,2,1,60,0,0
38269,-100,4,2,1,60,0,0
38437,-166.666666666667,4,2,1,60,0,0
39448,-250.000000000001,4,2,2,30,0,0
49898,-142.857142857143,4,2,1,40,0,0
50066,-142.857142857143,4,2,2,40,0,0
50235,-142.857142857143,4,2,1,40,0,0
52594,-142.857142857143,4,2,2,40,0,0
52679,-142.857142857143,4,2,1,40,0,0
53100,-142.857142857143,4,2,2,40,0,0
53184,-142.857142857143,4,2,1,40,0,0
53943,-142.857142857143,4,2,2,40,0,0
54027,-142.857142857143,4,2,1,40,0,0
54448,-142.857142857143,4,2,2,40,0,0
54532,-142.857142857143,4,2,1,40,0,0
54954,-142.857142857143,4,2,2,40,0,0
55038,-142.857142857143,4,2,1,40,0,0
55291,-142.857142857143,4,2,2,40,0,0
55375,-142.857142857143,4,2,1,40,0,0
57651,-142.857142857143,4,2,2,40,0,0
57735,-142.857142857143,4,2,1,40,0,0
57819,-142.857142857143,4,2,2,40,0,0
57903,-142.857142857143,4,2,1,40,0,0
57988,-142.857142857143,4,2,2,40,0,0
58072,-142.857142857143,4,2,1,40,0,0
60347,-142.857142857143,4,2,2,40,0,0
60684,-111.111111111111,4,2,3,40,0,0
60769,-111.111111111111,4,2,1,40,0,0
70123,-76.9230769230769,4,2,1,40,0,0
70881,-76.9230769230769,4,2,1,35,0,0
71050,-76.9230769230769,4,2,1,30,0,0
71218,-76.9230769230769,4,2,1,30,0,0
71387,-76.9230769230769,4,2,1,25,0,0
71471,-125,4,2,1,60,0,0
71808,-90.9090909090909,4,2,1,60,0,0
72482,-166.666666666667,4,2,1,60,0,0
72819,-66.6666666666667,4,2,1,60,0,0
73325,-90.9090909090909,4,2,1,60,0,0
74167,-76.9230769230769,4,2,1,60,0,0
74505,-111.111111111111,4,2,1,60,0,0
74842,-90.9090909090909,4,2,1,60,0,0
75516,-71.4285714285714,4,2,1,60,0,0
76864,-66.6666666666667,4,2,1,60,0,0
77201,-90.9090909090909,4,2,1,60,0,0
77538,-100,4,2,1,60,0,0
78212,-83.3333333333333,4,2,1,60,0,0
78887,-76.9230769230769,4,2,1,60,0,0
79224,-66.6666666666667,4,2,1,60,0,0
79561,-62.5,4,2,1,60,0,0
79898,-83.3333333333333,4,2,1,60,0,0
80066,-62.5,4,2,1,60,0,0
80403,-83.3333333333333,4,2,1,60,0,0
80572,-166.666666666667,4,2,1,60,0,0
80909,-100,4,2,1,60,0,0
81415,-62.5,4,2,1,60,0,0
81752,-76.9230769230769,4,2,1,60,0,0
82257,-111.111111111111,4,2,1,60,0,0
83606,-99.9999999999999,4,2,1,60,0,0
83943,-76.9230769230769,4,2,1,60,0,0
84954,-90.9090909090909,4,2,1,60,0,0
85797,-100,4,2,1,60,0,0
86808,-76.9230769230769,4,2,1,60,0,0
87988,-111.111111111111,4,2,1,60,0,0
88662,-76.9230769230769,4,2,1,60,0,0
90010,-66.6666666666667,4,2,1,60,0,0
90347,-100,4,2,1,60,0,0
90853,-76.9230769230769,4,2,1,60,0,0
91021,-111.111111111111,4,2,1,60,0,0
91527,-76.9230769230769,4,2,1,60,0,0
92033,-166.666666666667,4,2,1,60,0,0
92370,-117.647058823529,4,2,1,60,0,0
92707,-142.857142857143,4,2,1,60,0,0
93044,-142.857142857143,4,2,1,30,0,0
93128,-142.857142857143,4,2,2,30,0,0
95741,-125,4,2,2,30,0,0
98437,-111.111111111111,4,2,2,30,0,0
102482,-111.111111111111,4,2,2,40,0,0
103830,-111.111111111111,4,2,1,50,0,0
129617,-111.111111111111,4,2,1,30,0,0
129785,-100,4,2,1,30,0,0
130123,-90.9090909090909,4,2,1,30,0,0
130460,-111.111111111111,4,2,1,30,0,0
130797,-83.3333333333333,4,2,1,60,0,0
161808,-142.857142857143,4,2,1,60,0,0
162482,-50,4,2,1,60,0,0
162524,-50,4,2,1,5,0,0
162651,-50,4,2,1,60,0,0
162693,-50,4,2,1,5,0,0
162819,-50,4,2,1,60,0,0
162861,-50,4,2,1,5,0,0
162988,-50,4,2,1,60,0,0
163156,-83.3333333333333,4,2,73,60,0,0
163325,-83.3333333333333,4,2,1,60,0,0
163493,-100,4,2,1,60,0,0
163830,-83.3333333333333,4,2,1,60,0,0
164167,-83.3333333333333,4,2,73,60,0,0
164505,-66.6666666666667,4,2,73,90,0,0
164842,-66.6666666666667,4,2,73,60,0,0
164926,-66.6666666666667,4,2,1,60,0,0
165179,-66.6666666666667,4,2,73,60,0,0
165263,-66.6666666666667,4,2,1,60,0,0
165516,-100,4,2,73,60,0,0
165769,-100,4,2,1,60,0,0
165853,-66.6666666666667,4,2,74,60,0,0
165937,-66.6666666666667,4,2,1,60,0,0
166190,-66.6666666666667,4,2,73,60,0,0
166274,-66.6666666666667,4,2,1,60,0,0
166527,-83.3333333333333,4,2,74,60,0,0
166611,-83.3333333333333,4,2,1,60,0,0
166864,-83.3333333333333,4,2,74,60,0,0
166948,-83.3333333333333,4,2,1,60,0,0
167201,-66.6666666666667,4,2,74,60,0,0
167285,-66.6666666666667,4,2,1,60,0,0
167370,-100,4,2,1,60,0,0
167538,-66.6666666666667,4,2,1,60,0,0
167707,-66.6666666666667,4,2,73,90,0,0
167791,-66.6666666666667,4,2,1,60,0,0
167875,-66.6666666666667,4,2,74,60,0,0
167960,-66.6666666666667,4,2,1,60,0,0
168550,-100,4,2,74,60,0,0
168634,-100,4,2,1,60,0,0
168887,-100,4,2,74,60,0,0
169308,-100,4,2,1,60,0,0
169561,-66.6666666666667,4,2,74,60,0,0
169645,-66.6666666666667,4,2,1,60,0,0
170108,-66.6666666666667,4,2,1,5,0,0
170235,-66.6666666666667,4,2,74,60,0,0
170277,-66.6666666666667,4,2,74,5,0,0
170403,-66.6666666666667,4,2,74,60,0,0
170446,-100,4,2,1,5,0,0
170572,-66.6666666666667,4,2,1,60,0,0
170909,-66.6666666666667,4,2,73,60,0,0
170993,-66.6666666666667,4,2,1,60,0,0
171246,-55.5555555555556,4,2,74,60,0,0
171920,-100,4,2,73,60,0,0
172300,-100,4,2,73,5,0,0
172426,-66.6666666666667,4,2,1,60,0,0
172932,-66.6666666666667,4,2,73,60,0,0
173016,-66.6666666666667,4,2,1,60,0,0
173269,-100,4,2,73,60,0,0
173606,-66.6666666666667,4,2,75,60,0,0
173690,-66.6666666666667,4,2,1,60,0,0
173943,-66.6666666666667,4,2,73,60,0,0
174111,-100,4,2,1,60,0,0
174153,-100,4,2,1,5,0,0
174280,-100,4,2,1,60,0,0
174954,-83.3333333333333,4,2,73,60,0,0
175291,-66.6666666666667,4,2,73,90,0,0
175544,-66.6666666666667,4,2,1,60,0,0
175965,-66.6666666666667,4,2,73,60,0,0
176050,-66.6666666666667,4,2,1,60,0,0
176302,-100,4,2,73,60,0,0
176387,-100,4,2,1,60,0,0
176639,-100,4,2,74,60,0,0
176724,-100,4,2,1,60,0,0
176976,-100,4,2,73,60,0,0
177061,-100,4,2,1,60,0,0
177314,-100,4,2,74,60,0,0
177398,-100,4,2,1,60,0,0
177651,-66.6666666666667,4,2,74,60,0,0
177735,-66.6666666666667,4,2,1,60,0,0
178662,-66.6666666666667,4,2,73,60,0,0
178746,-66.6666666666667,4,2,1,60,0,0
178999,-66.6666666666667,4,2,73,60,0,0
179083,-66.6666666666667,4,2,1,60,0,0
179336,-66.6666666666667,4,2,74,60,0,0
179420,-66.6666666666667,4,2,1,60,0,0
179673,-66.6666666666667,4,2,74,60,0,0
180010,-66.6666666666667,4,2,1,60,0,0
180347,-66.6666666666667,4,2,74,60,0,0
180432,-66.6666666666667,4,2,1,60,0,0
180684,-100,4,2,74,60,0,0
180726,-100,4,2,74,5,0,0
180853,-100,4,2,74,60,0,0
180895,-100,4,2,74,5,0,0
181021,-100,4,2,74,60,0,0
181063,-100,4,2,74,5,0,0
181190,-100,4,2,75,60,0,0
181358,-66.6666666666667,4,2,1,60,0,0
181696,-76.9230769230769,4,2,1,60,0,0
182033,-76.9230769230769,4,2,74,60,0,0
182370,-100,4,2,74,60,0,0
182960,-100,4,2,1,60,0,0
183044,-100,4,2,74,60,0,0
183381,-76.9230769230769,4,2,1,60,0,0
184224,-90.9090909090909,4,2,75,60,0,0
184308,-90.9090909090909,4,2,1,60,0,0
195516,-90.9090909090909,4,2,1,40,0,0
195853,-133.333333333333,4,2,1,30,0,0
197370,-133.333333333333,4,2,2,40,0,0
197454,-133.333333333333,4,2,1,30,0,0
197875,-133.333333333333,4,2,2,40,0,0
197959,-133.333333333333,4,2,1,30,0,0
198212,-133.333333333333,4,2,2,40,0,0
198296,-133.333333333333,4,2,1,30,0,0
198718,-133.333333333333,4,2,2,30,0,0
198802,-133.333333333333,4,2,1,30,0,0
199561,-133.333333333333,4,2,2,40,0,0
199645,-133.333333333333,4,2,1,30,0,0
200066,-133.333333333333,4,2,2,40,0,0
200150,-133.333333333333,4,2,1,30,0,0
200235,-133.333333333333,4,2,2,40,0,0
200319,-133.333333333333,4,2,1,30,0,0
200741,-133.333333333333,4,2,2,40,0,0
200825,-133.333333333333,4,2,1,30,0,0
200909,-133.333333333333,4,2,2,45,0,0
200993,-133.333333333333,4,2,1,35,0,0
201415,-133.333333333333,4,2,2,45,0,0
201499,-133.333333333333,4,2,1,35,0,0
202257,-133.333333333333,4,2,2,45,0,0
202341,-133.333333333333,4,2,1,35,0,0
202763,-133.333333333333,4,2,2,45,0,0
202847,-133.333333333333,4,2,1,35,0,0
203269,-133.333333333333,4,2,2,45,0,0
203353,-133.333333333333,4,2,1,35,0,0
203606,-105.263157894737,4,2,2,50,0,0
203690,-133.333333333333,4,2,1,40,0,0
204111,-133.333333333333,4,2,2,50,0,0
204196,-133.333333333333,4,2,1,40,0,0
204954,-133.333333333333,4,2,2,50,0,0
205039,-133.333333333333,4,2,1,40,0,0
205460,-133.333333333333,4,2,2,50,0,0
205545,-133.333333333333,4,2,1,40,0,0
205965,-133.333333333333,4,2,2,50,0,0
206302,-133.333333333333,4,2,3,50,0,0
206387,-133.333333333333,4,2,1,50,0,0
206808,-117.647058823529,4,2,1,50,0,0
207314,-105.263157894737,4,2,1,50,0,0
207819,-95.2380952380952,4,2,1,50,0,0
208325,-83.3333333333333,4,2,1,50,0,0
208662,-62.5,4,2,1,50,0,0
208999,-133.333333333333,4,2,1,50,0,0
209505,-117.647058823529,4,2,1,50,0,0
210010,-105.263157894737,4,2,1,50,0,0
210516,-95.2380952380952,4,2,1,50,0,0
211021,-83.3333333333333,4,2,1,50,0,0
211358,-62.5,4,2,1,50,0,0
211696,-111.111111111111,4,2,1,50,0,0
216415,-83.3333333333333,4,2,1,50,0,0
216752,-55.5555555555556,4,2,2,50,0,0
216794,-55.5555555555556,4,2,2,5,0,0
217089,-83.3333333333333,4,2,73,60,0,0
217258,-83.3333333333333,4,2,1,60,0,0
217594,-100,4,2,1,60,0,0
218100,-71.4285714285714,4,2,73,60,0,0
218437,-66.6666666666667,4,2,73,90,0,0
218774,-66.6666666666667,4,2,73,60,0,0
218858,-66.6666666666667,4,2,1,60,0,0
219111,-66.6666666666667,4,2,73,60,0,0
219195,-66.6666666666667,4,2,1,60,0,0
219448,-66.6666666666667,4,2,73,60,0,0
219532,-66.6666666666667,4,2,1,60,0,0
219785,-100,4,2,74,60,0,0
220375,-100,4,2,1,60,0,0
220459,-100,4,2,74,60,0,0
220544,-83.3333333333333,4,2,74,60,0,0
220797,-83.3333333333333,4,2,74,60,0,0
220881,-83.3333333333333,4,2,1,60,0,0
221134,-83.3333333333333,4,2,74,60,0,0
221218,-83.3333333333333,4,2,1,60,0,0
221639,-83.3333333333333,4,2,73,90,0,0
221807,-66.6666666666667,4,2,74,60,0,0
221892,-66.6666666666667,4,2,1,60,0,0
222144,-76.9230769230769,4,2,1,60,0,0
222482,-100,4,2,74,60,0,0
222566,-100,4,2,1,60,0,0
222819,-83.3333333333333,4,2,74,60,0,0
223156,-100,4,2,74,60,0,0
223240,-100,4,2,1,60,0,0
223493,-100,4,2,74,60,0,0
223577,-100,4,2,1,60,0,0
223829,-66.6666666666667,4,2,1,60,0,0
224167,-66.6666666666667,4,2,74,60,0,0
224420,-66.6666666666667,4,2,1,60,0,0
224841,-66.6666666666667,4,2,73,60,0,0
224925,-66.6666666666667,4,2,1,60,0,0
225178,-83.3333333333333,4,2,74,60,0,0
225431,-83.3333333333333,4,2,1,60,0,0
225515,-83.3333333333333,4,2,74,60,0,0
225768,-83.3333333333333,4,2,1,60,0,0
225852,-83.3333333333333,4,2,73,60,0,0
225936,-83.3333333333333,4,2,1,60,0,0
226020,-71.4285714285714,4,2,73,60,0,0
226105,-71.4285714285714,4,2,1,60,0,0
226189,-71.4285714285714,4,2,73,60,0,0
226274,-71.4285714285714,4,2,1,60,0,0
226357,-83.3333333333333,4,2,1,60,0,0
226864,-83.3333333333333,4,2,73,60,0,0
226948,-83.3333333333333,4,2,1,60,0,0
227201,-83.3333333333333,4,2,73,60,0,0
227538,-71.4285714285714,4,2,75,60,0,0
227622,-71.4285714285714,4,2,1,60,0,0
227875,-83.3333333333333,4,2,73,60,0,0
227959,-83.3333333333333,4,2,1,60,0,0
228379,-100,4,2,1,60,0,0
228886,-71.4285714285714,4,2,73,60,0,0
229223,-66.6666666666667,4,2,73,90,0,0
229560,-66.6666666666667,4,2,73,60,0,0
229644,-66.6666666666667,4,2,1,60,0,0
229897,-66.6666666666667,4,2,73,60,0,0
229982,-66.6666666666667,4,2,1,60,0,0
230234,-66.6666666666667,4,2,73,60,0,0
230319,-66.6666666666667,4,2,1,60,0,0
230571,-100,4,2,74,60,0,0
231330,-83.3333333333333,4,2,74,60,0,0
231415,-83.3333333333333,4,2,1,60,0,0
231583,-83.3333333333333,4,2,74,60,0,0
231667,-83.3333333333333,4,2,1,60,0,0
232594,-66.6666666666667,4,2,73,60,0,0
232678,-66.6666666666667,4,2,1,60,0,0
232931,-76.9230769230769,4,2,73,60,0,0
233015,-76.9230769230769,4,2,1,60,0,0
233268,-100,4,2,74,60,0,0
233352,-100,4,2,1,60,0,0
233605,-83.3333333333333,4,2,74,60,0,0
233941,-100,4,2,1,60,0,0
234279,-100,4,2,74,60,0,0
234364,-100,4,2,1,60,0,0
234616,-66.6666666666667,4,2,74,60,0,0
235122,-66.6666666666667,4,2,75,60,0,0
235206,-66.6666666666667,4,2,1,60,0,0
235965,-83.3333333333333,4,2,74,60,0,0
236217,-83.3333333333333,4,2,1,60,0,0
236301,-83.3333333333333,4,2,74,60,0,0
236554,-83.3333333333333,4,2,1,60,0,0
236638,-83.3333333333333,4,2,74,60,0,0
236723,-83.3333333333333,4,2,1,60,0,0
236807,-71.4285714285714,4,2,74,60,0,0
236892,-71.4285714285714,4,2,1,60,0,0
236976,-71.4285714285714,4,2,74,60,0,0
237228,-71.4285714285714,4,2,1,60,0,0
237313,-71.4285714285714,4,2,73,60,0,0
237397,-71.4285714285714,4,2,1,60,0,0
237818,-100,4,2,1,60,0,0
237987,-100,4,2,74,60,0,0
238324,-53.475935828877,4,2,75,60,0,0
238661,-66.6666666666667,4,2,73,60,0,0
238830,-66.6666666666667,4,2,1,60,0,0
239166,-57.1428571428571,4,2,1,60,0,0
239672,-66.6666666666667,4,2,73,60,0,0
240010,-66.6666666666667,4,2,73,90,0,0
240347,-66.6666666666667,4,2,74,60,0,0
240768,-66.6666666666667,4,2,1,60,0,0
241021,-66.6666666666667,4,2,73,60,0,0
241358,-66.6666666666667,4,2,74,60,0,0
241779,-66.6666666666667,4,2,1,60,0,0
242032,-66.6666666666667,4,2,74,60,0,0
242116,-66.6666666666667,4,2,1,60,0,0
242201,-66.6666666666667,4,2,74,60,0,0
242453,-66.6666666666667,4,2,1,60,0,0
242706,-66.6666666666667,4,2,74,60,0,0
242790,-66.6666666666667,4,2,1,60,0,0
243212,-66.6666666666667,4,2,73,90,0,0
243297,-66.6666666666667,4,2,1,90,0,0
243380,-66.6666666666667,4,2,74,60,0,0
243465,-66.6666666666667,4,2,1,60,0,0
244055,-66.6666666666667,4,2,74,60,0,0
244139,-66.6666666666667,4,2,1,60,0,0
244392,-66.6666666666667,4,2,74,60,0,0
244560,-57.1428571428571,4,2,74,60,0,0
244898,-57.1428571428571,4,2,1,60,0,0
245066,-66.6666666666667,4,2,74,60,0,0
245403,-66.6666666666667,4,2,74,60,0,0
245740,-66.6666666666667,4,2,74,60,0,0
245993,-66.6666666666667,4,2,1,60,0,0
246246,-66.6666666666667,4,2,74,60,0,0
246667,-66.6666666666667,4,2,1,60,0,0
246751,-66.6666666666667,4,2,74,60,0,0
247004,-66.6666666666667,4,2,1,60,0,0
247088,-66.6666666666667,4,2,74,60,0,0
247172,-66.6666666666667,4,2,1,60,0,0
247256,-66.6666666666667,4,2,74,60,0,0
247341,-66.6666666666667,4,2,1,60,0,0
247425,-66.6666666666667,4,2,74,60,0,0
247509,-66.6666666666667,4,2,1,60,0,0
247593,-66.6666666666667,4,2,73,60,0,0
247847,-66.6666666666667,4,2,1,60,0,0
248437,-66.6666666666667,4,2,73,60,0,0
248521,-66.6666666666667,4,2,1,60,0,0
248774,-66.6666666666667,4,2,73,60,0,0
249111,-66.6666666666667,4,2,75,60,0,0
249195,-66.6666666666667,4,2,1,60,0,0
249448,-66.6666666666667,4,2,73,60,0,0
249532,-66.6666666666667,4,2,1,60,0,0
249953,-57.1428571428571,4,2,1,60,0,0
250459,-66.6666666666667,4,2,73,60,0,0
250796,-66.6666666666667,4,2,73,90,0,0
251133,-66.6666666666667,4,2,74,60,0,0
251555,-66.6666666666667,4,2,1,60,0,0
251807,-66.6666666666667,4,2,73,60,0,0
252144,-66.6666666666667,4,2,74,60,0,0
252481,-66.6666666666667,4,2,73,60,0,0
252566,-66.6666666666667,4,2,1,60,0,0
252819,-66.6666666666667,4,2,74,60,0,0
252903,-66.6666666666667,4,2,1,60,0,0
252988,-66.6666666666667,4,2,74,60,0,0
253240,-66.6666666666667,4,2,1,60,0,0
254167,-66.6666666666667,4,2,73,60,0,0
254251,-66.6666666666667,4,2,1,60,0,0
254504,-66.6666666666667,4,2,73,60,0,0
254588,-66.6666666666667,4,2,1,60,0,0
254841,-66.6666666666667,4,2,74,60,0,0
254925,-66.6666666666667,4,2,1,60,0,0
255178,-66.6666666666667,4,2,74,60,0,0
255347,-57.1428571428571,4,2,74,60,0,0
255684,-57.1428571428571,4,2,1,60,0,0
255852,-66.6666666666667,4,2,73,60,0,0
256106,-66.6666666666667,4,2,1,60,0,0
256189,-66.6666666666667,4,2,74,60,0,0
256442,-66.6666666666667,4,2,1,60,0,0
256526,-66.6666666666667,4,2,74,60,0,0
256610,-66.6666666666667,4,2,1,60,0,0
256695,-66.6666666666667,4,2,74,60,0,0
256864,-66.6666666666667,4,2,74,60,0,0
257538,-66.6666666666667,4,2,74,60,0,0
257790,-66.6666666666667,4,2,1,60,0,0
257874,-66.6666666666667,4,2,74,60,0,0
258127,-66.6666666666667,4,2,1,60,0,0
258211,-66.6666666666667,4,2,74,60,0,0
258296,-66.6666666666667,4,2,1,60,0,0
258380,-66.6666666666667,4,2,74,60,0,0
258465,-66.6666666666667,4,2,1,60,0,0
258549,-66.6666666666667,4,2,74,60,0,0
258801,-66.6666666666667,4,2,1,60,0,0
258886,-66.6666666666667,4,2,73,60,0,0
258970,-66.6666666666667,4,2,1,60,0,0
259391,-80,4,2,74,60,0,0
259729,-100,4,2,74,60,0,0
259981,-100,4,2,1,60,0,0
260065,-133.333333333333,4,2,1,60,0,0
260234,-200,4,2,1,60,0,0

[Colours]
Combo1 : 253,164,198
Combo2 : 252,173,86
Combo3 : 142,176,238
Combo4 : 116,216,188

[HitObjects]
121,100,1359,6,0,B|192:110|165:148|238:160,1,135,6|0,3:2|0:0,0:0:0:0:
321,145,1696,1,2,0:2:0:0:
323,162,1780,1,2,0:2:0:0:
325,179,1864,1,2,0:2:0:0:
237,258,2033,1,8,0:0:0:0:
418,151,2201,2,0,L|431:87,2,45,2|2|2,0:2|0:2|0:2,0:0:0:0:
237,258,2538,6,0,B|314:225|314:225|377:282,1,135,2|2,3:2|0:2,0:0:0:0:
334,358,2875,2,0,P|319:340|297:324,1,45,2|0,3:2|0:0,0:0:0:0:
152,217,3044,2,0,P|166:199|188:183,1,45,2|0,0:2|0:0,0:0:0:0:
265,51,3212,5,2,3:2:0:0:
268,68,3297,1,2,0:2:0:0:
271,85,3381,2,0,L|284:155,1,53.9999983520508,8|0,0:0|0:0,0:0:0:0:
465,133,3550,2,0,L|478:203,1,53.9999983520508,2|0,3:2|0:0,0:0:0:0:
292,157,3718,6,0,L|301:103,1,53.9999983520508,2|0,0:2|0:0,0:0:0:0:
486,140,3887,2,0,L|495:86,1,53.9999983520508,2|2,0:2|0:2,0:0:0:0:
512,338,4055,6,0,B|509:282|452:251|403:275|403:275|428:275|453:291,1,202.500007724762,2|0,3:2|0:0,0:0:0:0:
452,291,4392,1,2,0:2:0:0:
376,362,4561,1,2,0:2:0:0:
299,238,4729,1,8,0:0:0:0:
203,325,4898,2,0,L|247:316,2,45,2|2|2,0:2|0:2|0:2,0:0:0:0:
361,88,5235,6,0,P|376:129|378:177,2,90,2|2|2,3:2|0:2|3:2,0:0:0:0:
274,32,5741,1,2,0:2:0:0:
465,113,5909,1,2,3:2:0:0:
289,164,6078,6,0,L|285:190,1,26.9999991760254,8|0,0:0|0:0,0:0:0:0:
181,89,6246,6,0,L|184:62,1,26.9999991760254,2|0,3:2|0:0,0:0:0:0:
75,159,6415,6,0,L|71:185,1,26.9999991760254,2|0,0:2|0:0,0:0:0:0:
6,79,6583,5,2,0:2:0:0:
6,79,6667,1,2,0:2:0:0:
6,79,6752,2,0,B|57:89|57:89|89:118|89:118|121:106|121:106|170:116,1,180,2|2,3:2|0:2,0:0:0:0:
379,49,7257,2,0,P|334:46|294:66,1,90,2|8,0:2|0:0,0:0:0:0:
152,211,7594,1,2,0:2:0:0:
169,215,7679,1,2,0:2:0:0:
183,225,7763,1,2,0:2:0:0:
339,274,7932,6,0,L|347:171,1,90,2|2,3:2|0:2,0:0:0:0:
347,166,8184,1,2,0:2:0:0:
349,147,8269,1,2,3:2:0:0:
245,312,8437,1,2,0:2:0:0:
441,252,8606,2,0,L|457:312,2,45,2|0|8,3:2|0:0|0:0,0:0:0:0:
303,50,8943,5,2,3:2:0:0:
439,130,9111,1,2,0:2:0:0:
253,168,9280,1,2,0:2:0:0:
253,168,9364,1,2,0:2:0:0:
252,167,9448,2,0,P|172:172|118:233,1,161.999995056153,2|2,3:2|0:2,0:0:0:0:
119,229,10460,1,2,0:2:0:0:
240,294,10628,6,0,L|253:357,1,53.9999983520508,2|0,3:2|0:0,0:0:0:0:
263,300,10965,6,0,L|276:363,1,53.9999983520508,2|0,3:2|0:0,0:0:0:0:
286,306,11302,5,2,3:2:0:0:
308,314,11387,1,2,0:2:0:0:
330,322,11471,1,8,0:0:0:0:
320,128,11639,1,2,3:2:0:0:
386,207,11808,2,0,L|333:219,1,53.9999983520508,2|0,3:2|0:0,0:0:0:0:
178,170,11976,2,0,L|230:157,1,53.9999983520508,2|0,3:2|0:0,0:0:0:0:
320,128,12145,6,0,L|309:262,1,135,6|0,3:2|0:0,0:0:0:0:
205,294,12482,1,2,0:2:0:0:
207,276,12566,1,2,0:2:0:0:
210,258,12651,1,2,0:2:0:0:
370,350,12819,1,8,0:0:0:0:
109,260,12988,2,0,L|98:198,2,45,2|2|2,0:2|0:2|0:2,0:0:0:0:
63,99,13325,6,0,B|133:107|105:142|184:152,1,135,0|2,3:2|0:2,0:0:0:0:
292,191,13662,2,0,P|284:171|277:148,1,45,2|0,3:2|0:0,0:0:0:0:
325,49,13830,2,0,P|345:43|366:32,1,45,2|0,0:2|0:0,0:0:0:0:
385,206,13999,5,2,3:2:0:0:
385,206,14083,1,2,0:2:0:0:
385,206,14167,2,0,P|345:74|476:144,1,360,8|2,0:0|3:2,0:0:0:0:
316,278,15010,5,2,0:2:0:0:
468,232,15179,2,0,P|429:212|384:205,1,90,2|2,0:2|0:2,0:0:0:0:
498,323,15516,1,8,0:0:0:0:
452,125,15684,2,0,L|463:63,2,45,2|2|2,0:2|0:2|0:2,0:0:0:0:
263,343,16021,6,0,B|281:259|281:259|245:217,1,135,2|2,3:2|0:2,0:0:0:0:
233,228,16358,2,0,L|218:131,1,90,2|2,3:2|0:2,0:0:0:0:
339,116,16696,5,2,3:2:0:0:
336,133,16780,1,2,0:2:0:0:
334,150,16864,1,8,0:0:0:0:
131,263,17033,1,2,3:2:0:0:
384,260,17201,6,0,L|315:247,1,53.9999983520508,2|0,0:2|0:0,0:0:0:0:
83,161,17370,2,0,L|136:170,1,53.9999983520508,0|2,0:2|0:2,0:0:0:0:
374,27,17538,6,0,P|287:33|235:104,1,180,2|2,3:2|0:2,0:0:0:0:
235,104,18044,2,0,P|246:147|251:192,1,90,2|8,0:2|0:0,0:0:0:0:
205,279,18381,1,2,0:2:0:0:
205,279,18465,1,2,0:2:0:0:
205,279,18550,1,2,0:2:0:0:
349,161,18718,6,0,L|472:175,1,90,2|2,3:2|0:2,0:0:0:0:
141,182,19055,2,0,L|51:171,1,90,2|2,3:2|0:2,0:0:0:0:
196,99,19392,5,2,3:2:0:0:
326,254,19561,1,8,0:0:0:0:
205,283,19729,2,0,L|191:344,1,45,2|0,3:2|0:0,0:0:0:0:
283,170,19898,2,0,L|293:126,1,45,0|0,0:0|0:0,0:0:0:0:
449,308,20066,1,2,0:2:0:0:
449,308,20151,1,2,0:2:0:0:
449,308,20235,6,0,P|409:268|310:257,1,144,2|2,3:2|0:2,0:0:0:0:
325,253,20741,1,2,0:2:0:0:
61,135,20909,2,0,P|102:104|152:96,1,90,8|2,0:0|0:2,0:0:0:0:
157,96,21162,1,0,3:2:0:0:
174,100,21246,1,0,3:2:0:0:
141,196,21415,6,0,L|148:249,1,53.9999983520508,2|0,3:2|0:0,0:0:0:0:
171,276,21752,6,0,L|163:222,1,53.9999983520508,2|0,3:2|0:0,0:0:0:0:
0,258,22089,6,0,L|68:245,1,45,2|0,3:2|0:0,0:0:0:0:
260,207,22257,6,0,B|278:243|278:243|266:291,1,90,8|2,0:0|3:2,0:0:0:0:
52,232,22594,2,0,B|24:188|24:188|48:108,1,135,2|0,0:2|0:0,0:0:0:0:
40,97,22932,6,0,B|111:85|95:161|181:143,1,144,6|2,3:2|0:2,0:0:0:0:
410,92,23437,1,2,0:2:0:0:
351,28,23606,2,0,P|301:32|261:61,1,90,8|2,0:0|0:2,0:0:0:0:
264,62,23858,1,2,0:2:0:0:
267,72,23943,1,2,0:2:0:0:
260,207,24111,6,0,L|251:267,1,53.9999983520508,2|0,3:2|0:0,0:0:0:0:
285,322,24448,6,0,L|293:268,1,53.9999983520508,2|0,3:2|0:0,0:0:0:0:
226,145,24785,6,0,L|217:205,1,53.9999983520508,2|2,3:2|0:2,0:0:0:0:
317,383,24954,2,0,L|325:329,1,53.9999983520508,8|0,0:0|0:0,0:0:0:0:
474,140,25123,6,0,L|450:297,1,135.000005149842,2|2,3:2|0:2,0:0:0:0:
467,272,25375,1,2,0:2:0:0:
480,271,25460,1,2,0:2:0:0:
338,172,25628,5,2,3:2:0:0:
285,322,25797,1,2,0:2:0:0:
381,266,25965,1,2,0:2:0:0:
381,266,26050,1,2,0:2:0:0:
381,266,26134,1,2,0:2:0:0:
201,253,26302,6,0,B|169:258|169:258|138:283,1,62.9999980773926,8|0,0:0|0:0,0:0:0:0:
106,375,26471,2,0,B|122:273|122:273|75:220,1,161.999995056153,2|0,0:2|0:0,0:0:0:0:
29,112,26808,6,0,P|89:156|160:138,1,135,2|2,3:2|0:2,0:0:0:0:
265,103,27145,2,0,P|199:96|148:138,1,135,2|0,3:2|0:0,0:0:0:0:
145,147,27482,6,0,L|154:205,1,31.4999990386963,2|0,3:2|0:0,0:0:0:0:
283,254,27651,6,0,L|278:222,1,31.4999990386963,8|0,0:0|0:0,0:0:0:0:
356,55,27819,6,0,L|365:113,1,49.5000015106202,2|2,3:2|0:2,0:0:0:0:
503,256,27988,2,0,L|495:207,1,49.5000015106202,2|0,0:2|0:0,0:0:0:0:
436,146,28156,1,2,0:2:0:0:
436,146,28241,1,2,0:2:0:0:
436,146,28325,6,0,L|305:125,1,99.0000030212403,2|2,3:2|0:2,0:0:0:0:
22,211,28662,2,0,P|76:205|127:174,1,99.0000030212403,2|2,0:2|0:2,0:0:0:0:
175,137,28915,1,2,0:2:0:0:
165,131,28999,2,0,P|151:166|147:198,1,49.5000015106202,8|0,0:0|0:0,0:0:0:0:
220,313,29167,6,0,B|209:302|255:324|255:324|318:249|240:185,1,175.499991966248,2|0,0:2|0:0,0:0:0:0:
277,222,29505,5,2,3:2:0:0:
277,222,29842,5,2,3:2:0:0:
277,222,30179,6,0,P|308:237|338:242,1,58.4999973220826,2|0,3:2|0:0,0:0:0:0:
148,177,30347,2,0,P|87:184|21:226,1,116.999994644165,8|2,0:0|3:2,0:0:0:0:
33,222,30600,1,0,0:0:0:0:
29,234,30684,1,2,0:2:0:0:
243,125,30853,2,0,P|258:99|258:49,1,58.4999973220826,2|2,0:2|0:2,0:0:0:0:
218,46,31021,6,0,L|233:164,1,99.0000030212403,2|2,3:2|0:2,0:0:0:0:
133,328,31358,1,2,0:2:0:0:
133,328,31443,2,0,B|116:301|116:301|125:252,1,62.9999980773926,2|0,0:2|0:0,0:0:0:0:
216,292,31696,6,0,L|293:304,1,67.5000025749208,8|0,0:0|0:0,0:0:0:0:
367,326,31864,2,0,B|320:360|320:360|296:193,1,202.500007724762,2|0,0:2|0:0,0:0:0:0:
384,159,32201,6,0,L|395:228,1,45,2|0,3:2|0:0,0:0:0:0:
411,228,32538,6,0,L|400:163,1,62.9999980773926,2|0,3:2|0:0,0:0:0:0:
370,73,32707,1,2,0:2:0:0:
384,70,32791,1,2,0:2:0:0:
397,68,32875,1,2,3:2:0:0:
222,8,33044,6,0,P|184:49|192:130,1,125.999996154785,8|2,0:0|3:2,0:0:0:0:
248,165,33297,1,0,0:0:0:0:
256,159,33381,2,0,L|202:148,1,40.4999987640381,2|0,0:2|0:0,0:0:0:0:
81,262,33550,2,0,L|120:270,1,40.4999987640381,2|2,0:2|0:2,0:0:0:0:
256,264,33718,6,0,P|205:177|121:203,1,188.999994232178,2|2,3:2|0:2,0:0:0:0:
131,192,34392,6,0,L|191:183,1,53.9999983520508,8|0,0:0|0:0,0:0:0:0:
397,68,34561,1,2,0:2:0:0:
384,70,34645,1,2,0:2:0:0:
370,73,34729,2,0,L|316:64,1,53.9999983520508,2|0,3:2|0:0,0:0:0:0:
216,55,34898,6,0,B|268:19|268:19|291:171,1,188.999994232178,2|2,3:2|0:2,0:0:0:0:
356,244,35235,2,0,P|322:197|199:192,1,188.999994232178,2|0,3:2|0:0,0:0:0:0:
0,273,35572,6,0,P|22:297|53:302,1,62.9999980773926,2|0,3:2|0:0,0:0:0:0:
138,373,35741,2,0,B|163:353|163:353|178:309,1,62.9999980773926,8|0,0:0|0:0,0:0:0:0:
263,260,35909,6,0,P|326:268|405:293,1,125.999996154785,2|2,3:2|0:2,0:0:0:0:
469,346,36330,1,2,0:2:0:0:
460,356,36415,6,0,B|397:311|427:204|427:204|472:210|508:183|508:183|500:239|447:231,1,323.999990112305,2|2,3:2|3:2,0:0:0:0:
420,40,37089,2,0,P|438:74|443:120,1,62.9999980773926,8|0,0:0|0:0,0:0:0:0:
297,154,37257,2,0,P|279:120|274:74,1,62.9999980773926,2|2,0:2|0:2,0:0:0:0:
358,96,37426,6,0,P|244:112|187:165,1,188.999994232178,2|2,3:2|0:2,0:0:0:0:
150,343,37763,6,0,P|160:325|161:283,1,45,2|0,0:2|0:0,0:0:0:0:
100,227,37932,2,0,B|144:248|169:275|169:275|205:255|270:246,1,175.499991966248,2|0,3:2|0:0,0:0:0:0:
366,253,38269,6,0,P|356:235|355:193,1,45,2|0,3:2|0:0,0:0:0:0:
431,113,38437,2,0,B|380:137|342:171|342:171|310:145|235:134,1,215.999993408203,8|6,0:0|3:2,0:0:0:0:
239,134,39448,5,2,0:0:0:0:
53,194,39785,1,2,0:0:0:0:
146,164,40123,1,2,0:0:0:0:
146,164,40291,2,0,L|160:286,1,108,2|2,0:0|0:0,0:0:0:0:
396,329,41134,2,0,P|407:295|410:259,1,72,2|2,0:0|0:0,0:0:0:0:
368,142,41808,5,4,0:2:0:0:
62,283,42145,1,0,0:0:0:0:
62,283,42314,2,0,L|218:302,1,144,4|0,0:2|0:0,0:0:0:0:
297,249,43156,1,8,0:2:0:0:
297,249,43493,1,2,0:0:0:0:
114,72,43830,1,4,0:3:0:0:
114,72,44167,1,0,0:0:0:0:
169,151,44336,1,4,0:3:0:0:
215,59,44505,1,4,0:2:0:0:
63,225,44842,5,2,0:0:0:0:
149,378,45179,1,2,0:0:0:0:
108,305,45516,1,2,0:0:0:0:
108,305,45684,2,0,L|263:278,1,144,2|0,0:0|0:0,0:0:0:0:
455,147,46864,1,2,0:1:0:0:
407,74,47033,1,4,0:2:0:0:
363,152,47201,6,0,P|320:155|237:104,1,144,4|4,0:1|0:2,0:0:0:0:
27,146,48381,1,4,0:2:0:0:
27,146,48550,2,0,L|16:227,1,72,8|2,0:1|0:0,0:0:0:0:
109,259,49055,2,0,L|98:340,1,72,2|2,0:0|0:0,0:0:0:0:
347,263,49898,5,4,3:2:0:0:
347,263,50235,2,0,L|478:285,2,125.999996154785,2|2|2,3:2|3:2|3:2,0:0:0:0:
249,239,51078,2,0,L|255:301,1,62.9999980773926,2|0,0:0|3:2,0:0:0:0:
152,91,51583,2,0,P|100:94|22:39,2,125.999996154785,2|2|2,3:2|3:2|3:2,0:0:0:0:
256,48,52594,6,0,P|281:92|285:184,1,125.999996154785,4|0,3:1|3:2,0:0:0:0:
199,213,53100,1,4,3:1:0:0:
199,213,53269,2,0,L|214:287,1,62.9999980773926,0|0,3:2|0:0,0:0:0:0:
231,363,53606,1,2,3:2:0:0:
482,118,53943,2,0,P|453:131|422:137,1,62.9999980773926,8|2,3:2|0:2,0:0:0:0:
262,46,54280,1,0,3:2:0:0:
262,46,54448,2,0,P|287:64|307:88,1,62.9999980773926,4|0,0:2|3:3,0:0:0:0:
314,264,54785,1,0,0:0:0:0:
314,264,54954,2,0,P|317:232|327:203,1,62.9999980773926,2|0,3:1|0:0,0:0:0:0:
327,86,55291,5,4,3:2:0:0:
410,147,55460,1,0,0:0:0:0:
312,188,55628,2,0,L|173:206,2,125.999996154785,2|2|2,3:2|3:2|3:2,0:0:0:0:
407,245,56471,2,0,L|432:322,1,62.9999980773926,2|0,0:0|3:2,0:0:0:0:
239,340,56808,1,2,0:2:0:0:
328,377,56976,2,0,L|333:292,1,62.9999980773926,0|0,3:2|0:0,0:0:0:0:
232,123,57314,2,0,P|260:179|263:242,1,125.999996154785,0|4,3:3|3:2,0:0:0:0:
193,302,57819,1,8,0:2:0:0:
58,239,57988,6,0,P|120:235|172:202,1,125.999996154785,4|0,3:3|3:2,0:0:0:0:
331,80,58493,1,2,0:0:0:0:
251,118,58662,2,0,P|313:121|365:154,1,125.999996154785,2|0,3:2|3:2,0:0:0:0:
432,244,59167,1,2,0:0:0:0:
432,244,59336,6,0,P|409:298|401:346,1,94.499997116089,2|0,3:2|0:0,0:0:0:0:
407,345,59673,1,2,3:2:0:0:
310,275,59842,2,0,L|229:294,1,62.9999980773926,2|0,0:0|3:2,0:0:0:0:
341,151,60179,2,0,L|296:103,1,62.9999980773926,2|4,0:2|3:2,0:0:0:0:
203,76,60516,1,2,3:1:0:0:
245,190,60684,6,0,P|185:192|133:229,1,121.499996292114,12|2,3:2|0:2,0:0:0:0:
128,239,61021,2,0,L|48:223,1,80.9999975280763,2|2,3:2|0:2,0:0:0:0:
338,301,61358,2,0,L|417:285,1,80.9999975280763,2|0,3:2|0:0,0:0:0:0:
131,364,61696,2,0,L|51:348,1,80.9999975280763,2|0,3:2|0:0,0:0:0:0:
231,298,62033,6,0,P|241:242|239:129,1,161.999995056153,2|2,3:2|3:2,0:0:0:0:
171,66,62538,1,2,0:0:0:0:
371,29,62707,1,0,3:2:0:0:
370,29,62791,2,0,P|353:65|349:105,1,80.9999975280763,2|0,0:2|0:0,0:0:0:0:
361,125,63044,2,0,L|414:134,1,40.4999987640381,8|0,0:0|0:0,0:0:0:0:
505,211,63212,2,0,L|465:204,1,40.4999987640381,8|0,0:0|0:0,0:0:0:0:
427,127,63381,6,0,L|441:251,1,121.499996292114,0|2,3:2|0:2,0:0:0:0:
431,262,63718,2,0,P|416:311|416:354,1,80.9999975280763,2|2,3:2|0:2,0:0:0:0:
191,183,64055,1,2,3:2:0:0:
191,183,64392,2,0,P|187:142|174:104,1,80.9999975280763,2|2,3:2|0:0,0:0:0:0:
133,266,64729,5,0,3:2:0:0:
281,130,64898,1,2,0:0:0:0:
99,157,65066,5,0,3:2:0:0:
247,268,65235,1,2,0:0:0:0:
301,109,65403,1,0,3:2:0:0:
301,109,65488,2,0,L|416:95,1,80.9999975280763,2|0,0:2|0:0,0:0:0:0:
407,87,65741,2,0,L|416:154,1,40.4999987640381,8|0,0:0|0:0,0:0:0:0:
455,304,65909,1,2,3:2:0:0:
455,304,65993,1,2,3:2:0:0:
455,304,66078,5,2,3:2:0:0:
301,109,66246,1,0,3:2:0:0:
298,267,66415,5,2,3:2:0:0:
404,153,66583,1,2,3:2:0:0:
301,109,66752,1,2,3:2:0:0:
197,372,66920,5,0,3:2:0:0:
327,185,67089,1,0,3:2:0:0:
455,304,67257,1,2,3:2:0:0:
455,304,67342,1,2,3:2:0:0:
455,304,67426,5,2,3:2:0:0:
171,177,67594,1,0,3:2:0:0:
378,71,67763,1,2,3:2:0:0:
354,265,67932,5,2,3:2:0:0:
261,137,68100,1,0,3:2:0:0:
411,186,68269,1,2,3:2:0:0:
261,234,68437,1,0,3:2:0:0:
354,107,68606,1,2,3:2:0:0:
354,107,68690,1,2,3:2:0:0:
354,107,68774,5,2,3:2:0:0:
341,69,68858,1,0,3:2:0:0:
310,43,68942,1,0,3:2:0:0:
271,37,69026,1,0,3:2:0:0:
234,53,69111,1,0,3:2:0:0:
211,86,69195,1,0,3:2:0:0:
209,126,69279,1,0,3:2:0:0:
229,161,69364,1,0,3:2:0:0:
263,181,69448,5,0,3:2:0:0:
297,200,69533,1,0,3:2:0:0:
317,235,69617,1,0,3:2:0:0:
315,275,69701,1,0,3:2:0:0:
292,308,69785,1,0,3:2:0:0:
255,324,69870,1,0,3:2:0:0:
216,318,69954,1,0,3:2:0:0:
185,293,70038,1,0,3:2:0:0:
172,255,70123,6,0,L|96:267,1,58.4999973220826,0|0,3:2|3:2,0:0:0:0:
379,149,70291,2,0,L|455:161,1,58.4999973220826,0|0,3:2|3:2,0:0:0:0:
107,98,70460,2,0,L|31:110,1,58.4999973220826,0|0,3:2|3:0,0:0:0:0:
258,26,70628,1,0,3:2:0:0:
258,26,70712,1,0,3:2:0:0:
258,26,70797,6,0,L|255:70,14,29.2499986610413,2|0|2|0|2|0|2|0|2|0|0|0|0|0|0,3:2|0:0|0:2|0:0|0:2|0:0|0:2|0:0|0:2|0:0|0:0|0:0|0:0|0:0|0:0,0:0:0:0:
274,67,71471,5,6,3:2:0:0:
272,183,71639,1,2,0:2:0:0:
272,183,71724,1,0,0:0:0:0:
272,183,71808,2,0,P|223:175|168:167,1,99.0000030212403,8|2,0:0|0:2,0:0:0:0:
164,151,72061,1,2,0:2:0:0:
156,135,72145,2,0,P|137:174|132:199,1,49.5000015106202,2|0,0:2|0:0,0:0:0:0:
18,193,72314,2,0,P|24:225|38:253,1,49.5000015106202,0|0,3:2|0:0,0:0:0:0:
171,301,72482,6,0,P|131:333|79:325,1,80.9999975280763,8|0,0:0|0:0,0:0:0:0:
86,329,72819,6,0,B|130:316|130:316|233:358|233:358|283:343,1,202.500007724762,0|2,3:2|0:2,0:0:0:0:
356,307,73156,2,0,P|371:281|372:238,1,67.5000025749208,8|0,0:0|0:0,0:0:0:0:
344,120,73325,1,2,0:2:0:0:
341,134,73409,1,2,0:2:0:0:
343,148,73493,6,0,P|390:159|453:163,2,99.0000030212403,2|0|8,0:2|3:3|0:1,0:0:0:0:
24,152,73999,2,0,P|51:147|84:126,1,49.5000015106202,2|2,0:2|0:2,0:0:0:0:
86,150,74167,6,0,P|24:195|54:287,1,175.499991966248,0|2,3:1|0:2,0:0:0:0:
135,292,74505,2,0,P|171:252|147:169,1,121.499996292114,8|2,0:0|0:2,0:0:0:0:
90,173,74842,6,0,L|100:243,1,49.5000015106202,2|0,0:2|0:0,0:0:0:0:
262,334,75010,2,0,L|254:284,1,49.5000015106202,2|0,3:2|0:0,0:0:0:0:
335,98,75179,2,0,L|345:168,1,49.5000015106202,8|0,0:1|0:0,0:0:0:0:
448,209,75347,1,2,0:2:0:0:
456,199,75432,1,2,0:2:0:0:
457,186,75516,5,0,3:1:0:0:
245,143,75684,1,2,0:2:0:0:
323,8,75853,1,8,0:0:0:0:
348,164,76021,5,2,0:2:0:0:
348,164,76106,1,2,0:2:0:0:
348,164,76190,1,2,0:2:0:0:
136,123,76358,1,0,3:1:0:0:
136,123,76443,1,0,0:0:0:0:
136,123,76527,2,0,P|117:152|114:190,1,62.9999980773926,8|0,0:0|0:0,0:0:0:0:
12,240,76696,2,0,P|20:270|40:294,1,62.9999980773926,2|2,0:2|0:2,0:0:0:0:
229,261,76864,6,0,B|139:230|140:367|29:304,1,202.500007724762,2|2,3:2|0:2,0:0:0:0:
47,313,77201,1,8,0:0:0:0:
293,156,77370,1,2,0:2:0:0:
293,156,77454,1,2,0:2:0:0:
293,156,77538,2,0,P|327:174|404:171,1,90,2|2,0:2|3:2,0:0:0:0:
136,123,77875,1,8,0:0:0:0:
266,4,78044,2,0,P|261:28|249:48,1,45,2|2,0:2|0:2,0:0:0:0:
243,59,78212,6,0,P|327:55|388:1,1,161.999995056153,2|2,3:2|0:2,0:0:0:0:
136,123,78550,2,0,P|93:101|13:118,1,107.999996704102,8|2,0:0|0:2,0:0:0:0:
29,116,78802,1,2,0:2:0:0:
23,129,78887,2,0,B|14:167|14:167|28:200,1,58.4999973220826,2|2,0:2|0:2,0:0:0:0:
132,350,79055,2,0,B|141:312|141:312|127:279,1,58.4999973220826,2|0,3:2|0:0,0:0:0:0:
77,240,79224,6,0,B|181:215|145:346|279:287,1,202.500007724762,8|2,0:1|0:2,0:0:0:0:
365,311,79561,6,0,B|312:335|312:335|232:284|271:178,1,216,0|2,3:1|0:2,0:0:0:0:
269,199,79898,2,0,P|294:201|334:218,1,53.9999983520508,8|0,0:0|0:0,0:0:0:0:
175,44,80066,2,0,B|204:128|124:179|124:179|75:151,1,216,2|2,0:2|0:2,0:0:0:0:
72,145,80403,2,0,P|42:147|19:153,1,53.9999983520508,2|0,3:2|0:0,0:0:0:0:
278,76,80572,6,0,P|320:69|373:52,1,80.9999975280763,8|2,0:1|0:2,0:0:0:0:
417,19,80909,6,0,P|403:45|397:79,1,45,0|0,3:1|0:0,0:0:0:0:
442,290,81078,1,2,0:2:0:0:
451,288,81162,1,2,0:2:0:0:
459,279,81246,2,0,P|452:257|441:237,1,45,8|0,0:0|0:0,0:0:0:0:
321,181,81415,6,0,B|270:159|203:197|203:197|180:167|180:167|151:193|96:186,1,216,2|2,0:2|0:2,0:0:0:0:
86,54,81752,2,0,P|111:78|119:123,1,58.4999973220826,2|0,3:2|0:0,0:0:0:0:
148,332,81920,2,0,P|138:306|153:252,1,58.4999973220826,8|0,0:1|0:0,0:0:0:0:
266,41,82089,2,0,P|256:73|231:99,1,58.4999973220826,2|2,0:2|0:2,0:0:0:0:
18,212,82257,6,0,P|84:201|159:277,1,161.999995056153,6|8,3:2|0:0,0:0:0:0:
318,339,82763,1,2,0:2:0:0:
313,333,82847,1,2,0:2:0:0:
312,325,82932,1,2,0:2:0:0:
381,195,83100,1,2,3:2:0:0:
504,266,83269,2,0,P|470:270|396:289,1,80.9999975280763,8|2,0:1|0:2,0:0:0:0:
366,66,83606,6,0,P|374:117|378:180,1,90,2|2,3:2|0:2,0:0:0:0:
171,354,83943,2,0,P|171:309|189:211,1,116.999994644165,8|2,0:0|0:2,0:0:0:0:
245,190,84196,1,2,0:2:0:0:
252,200,84280,2,0,P|217:212|187:213,1,58.4999973220826,2|2,0:2|0:2,0:0:0:0:
64,69,84448,2,0,P|95:81|124:121,1,58.4999973220826,0|0,3:3|0:0,0:0:0:0:
66,299,84617,2,0,P|67:271|85:234,1,58.4999973220826,8|0,0:0|0:0,0:0:0:0:
127,182,84785,1,2,0:2:0:0:
127,182,84870,1,2,0:2:0:0:
127,182,84954,6,0,L|348:219,1,198.000006042481,0|8,3:1|0:0,0:0:0:0:
453,266,85460,1,2,0:2:0:0:
455,275,85544,1,2,0:2:0:0:
457,286,85628,1,2,0:2:0:0:
365,334,85797,2,0,L|348:219,1,90,0|8,3:1|0:0,0:0:0:0:
297,117,86134,1,2,0:2:0:0:
306,119,86218,1,2,0:2:0:0:
317,121,86302,5,2,3:2:0:0:
410,199,86471,2,0,L|313:216,1,90,2|8,0:2|0:0,0:0:0:0:
33,294,86808,2,0,B|58:347|58:347|200:322,1,175.499991966248,2|0,0:2|0:0,0:0:0:0:
194,342,87145,2,0,P|205:315|206:286,1,58.4999973220826,2|2,3:2|0:2,0:0:0:0:
292,233,87314,2,0,P|285:206|267:183,1,58.4999973220826,8|0,0:1|0:0,0:0:0:0:
299,88,87482,2,0,P|275:71|227:68,1,58.4999973220826,2|0,0:2|0:0,0:0:0:0:
66,139,87651,5,2,3:2:0:0:
152,199,87819,1,2,0:2:0:0:
152,199,87903,1,2,0:2:0:0:
152,199,87988,2,0,L|233:187,1,80.9999975280763,8|2,0:1|0:2,0:0:0:0:
482,172,88325,5,2,0:2:0:0:
508,217,88409,1,2,0:2:0:0:
500,268,88493,1,2,3:2:0:0:
464,306,88577,1,0,0:0:0:0:
419,310,88662,2,0,L|344:298,1,58.4999973220826,8|0,0:1|0:0,0:0:0:0:
186,172,88830,2,0,L|243:162,1,58.4999973220826,2|2,0:2|0:2,0:0:0:0:
368,111,88999,6,0,P|333:170|344:239,1,116.999994644165,2|2,3:2|0:2,0:0:0:0:
233,342,89252,1,2,0:2:0:0:
249,346,89336,2,0,P|247:310|228:279,1,58.4999973220826,8|2,0:1|0:2,0:0:0:0:
36,197,89505,2,0,P|38:233|57:264,1,58.4999973220826,2|2,0:2|0:2,0:0:0:0:
146,288,89673,6,0,L|203:278,1,58.4999973220826,0|0,0:1|0:0,0:0:0:0:
392,226,89842,2,0,L|335:216,1,58.4999973220826,2|0,3:2|0:0,0:0:0:0:
81,122,90010,2,0,L|147:110,1,67.5000025749208,10|0,0:0|0:0,0:0:0:0:
431,75,90179,2,0,L|364:63,1,67.5000025749208,0|2,0:1|0:2,0:0:0:0:
271,0,90347,6,0,P|256:50|257:104,1,90,0|2,3:2|0:2,0:0:0:0:
260,97,90600,1,2,0:2:0:0:
265,105,90684,1,8,0:1:0:0:
464,306,90853,2,0,B|477:277|477:277|470:227,1,58.4999973220826,2|2,0:2|0:2,0:0:0:0:
392,226,91021,2,0,L|297:210,1,80.9999975280763,2|2,0:2|3:2,0:0:0:0:
84,279,91358,1,8,0:0:0:0:
86,289,91443,1,0,0:0:0:0:
88,300,91527,2,0,L|150:287,1,58.4999973220826,2|2,0:2|0:2,0:0:0:0:
232,302,91696,6,0,B|185:326|185:326|163:187,1,175.499991966248,2|0,3:2|0:0,0:0:0:0:
92,58,92033,6,0,B|84:84|76:98|76:98|91:110|105:137,1,80.9999975280763,8|2,0:0|0:2,0:0:0:0:
112,135,92370,6,0,L|197:118,1,76.5000014591217,0|2,0:1|3:2,0:0:0:0:
268,211,92707,2,0,L|353:194,1,62.9999980773926,8|2,0:1|0:2,0:0:0:0:
353,192,93044,6,0,P|373:249|374:330,1,125.999996154785,6|2,3:2|0:2,0:0:0:0:
235,129,93550,2,0,P|215:72|214:-9,1,125.999996154785,2|0,0:2|0:0,0:0:0:0:
170,210,94055,1,2,1:2:0:0:
67,225,94224,6,0,B|170:212|142:284|242:279,1,188.999994232178,2|2,0:2|1:2,0:0:0:0:
321,231,94898,1,0,0:0:0:0:
391,298,95066,2,0,L|382:351,2,31.4999990386963,2|2|2,0:3|0:3|0:3,0:0:0:0:
220,186,95403,2,0,P|215:154|208:124,1,62.9999980773926,0|0,1:2|0:0,0:0:0:0:
154,54,95656,1,2,0:3:0:0:
144,71,95741,6,0,L|310:99,1,144,2|2,0:0|1:2,0:0:0:0:
451,202,96246,1,0,0:0:0:0:
451,202,96330,1,2,0:3:0:0:
451,202,96415,2,0,L|460:267,2,36,2|2|2,0:3|0:3|0:3,0:0:0:0:
275,196,96752,1,2,1:2:0:0:
380,47,96920,1,2,0:3:0:0:
380,47,97005,1,2,0:3:0:0:
380,47,97089,6,0,L|370:145,1,72,2|2,0:0|0:0,0:0:0:0:
268,262,97426,2,0,L|267:182,1,72,2|2,1:2|0:3,0:0:0:0:
275,196,97679,1,2,0:3:0:0:
275,196,97763,2,0,L|176:207,1,72,2|2,0:3|0:0,0:0:0:0:
128,30,98100,1,2,1:2:0:0:
64,104,98269,1,2,0:3:0:0:
64,104,98353,1,2,0:3:0:0:
64,104,98437,6,0,B|124:92|124:92|145:66|145:66|211:54,1,161.999995056153,2|2,0:0|1:2,0:0:0:0:
382,60,98943,1,2,0:3:0:0:
385,71,99027,1,2,0:3:0:0:
388,82,99111,1,2,0:3:0:0:
391,93,99196,1,2,0:3:0:0:
394,104,99280,1,2,0:0:0:0:
199,150,99448,1,2,1:2:0:0:
295,205,99617,1,2,0:0:0:0:
295,205,99701,1,2,0:0:0:0:
295,205,99785,6,0,L|303:112,1,80.9999975280763,2|2,0:0|0:0,0:0:0:0:
372,269,100123,1,2,1:2:0:0:
99,135,100291,1,2,0:3:0:0:
99,135,100375,1,2,0:3:0:0:
99,135,100460,2,0,L|107:192,2,40.4999987640381,2|2|2,0:2|0:2|0:0,0:0:0:0:
145,48,100797,1,2,1:2:0:0:
41,319,100965,5,2,0:0:0:0:
41,319,101050,1,2,0:0:0:0:
41,319,101134,1,2,0:0:0:0:
117,195,101302,1,2,0:0:0:0:
10,141,101471,1,2,1:2:0:0:
177,295,101639,5,2,0:2:0:0:
193,297,101724,1,2,0:2:0:0:
208,300,101808,1,2,0:2:0:0:
223,303,101892,1,2,0:2:0:0:
238,306,101976,2,0,L|252:391,1,80.9999975280763,2|2,0:0|1:2,0:0:0:0:
421,98,102314,5,2,0:0:0:0:
421,98,102398,1,2,0:0:0:0:
421,98,102482,1,2,0:0:0:0:
315,229,102651,1,2,0:0:0:0:
406,288,102819,1,2,1:2:0:0:
304,123,102988,1,2,0:0:0:0:
288,120,103072,1,2,0:0:0:0:
272,117,103156,2,0,L|172:98,1,80.9999975280763,2|2,0:0|0:0,0:0:0:0:
191,284,103493,2,0,L|59:312,1,121.499996292114,2|2,1:2|0:0,0:0:0:0:
66,327,103830,6,0,P|15:267|23:189,1,161.999995056153,6|8,3:2|0:2,0:0:0:0:
123,23,104336,1,2,0:2:0:0:
123,23,104420,1,2,0:2:0:0:
123,23,104505,2,0,P|135:68|126:124,1,80.9999975280763,2|2,0:2|3:2,0:0:0:0:
31,69,104842,1,8,0:2:0:0:
226,48,105010,1,2,0:2:0:0:
123,205,105179,6,0,L|212:219,1,80.9999975280763,2|2,3:2|0:2,0:0:0:0:
412,342,105516,2,0,B|383:303|383:303|403:227,1,121.499996292114,8|2,0:2|0:2,0:0:0:0:
407,231,105853,2,0,L|395:124,1,80.9999975280763,2|2,0:2|3:2,0:0:0:0:
191,235,106190,2,0,L|200:315,1,80.9999975280763,8|2,0:2|0:2,0:0:0:0:
298,228,106527,6,0,L|274:67,1,161.999995056153,2|8,3:2|0:2,0:0:0:0:
374,96,107033,1,2,0:2:0:0:
374,96,107117,1,2,0:2:0:0:
374,96,107201,1,2,0:2:0:0:
202,207,107370,1,2,3:2:0:0:
131,133,107538,1,8,0:2:0:0:
50,193,107707,6,0,L|1:204,2,40.4999987640381,2|0|2,0:2|0:0|3:2,0:0:0:0:
229,101,108044,1,2,0:2:0:0:
102,281,108212,1,8,0:2:0:0:
117,53,108381,2,0,L|133:146,1,80.9999975280763,2|2,0:2|0:2,0:0:0:0:
231,306,108718,2,0,L|217:226,1,80.9999975280763,2|8,3:2|0:2,0:0:0:0:
318,160,109055,1,2,0:2:0:0:
318,160,109139,1,2,0:2:0:0:
318,160,109224,6,0,B|400:175|363:216|453:243,1,161.999995056153,2|8,3:2|0:2,0:0:0:0:
493,74,109729,1,2,0:2:0:0:
493,74,109814,1,2,0:2:0:0:
492,74,109898,2,0,P|455:91|417:104,1,80.9999975280763,2|2,0:2|3:2,0:0:0:0:
323,45,110235,1,8,0:2:0:0:
245,235,110403,1,2,0:2:0:0:
105,148,110572,6,0,L|210:138,1,80.9999975280763,2|2,3:2|0:2,0:0:0:0:
364,186,110909,1,8,0:2:0:0:
433,256,111078,2,0,L|442:295,2,40.4999987640381,2|0|2,0:2|0:0|0:2,0:0:0:0:
230,260,111415,2,0,L|204:344,1,80.9999975280763,2|8,3:2|0:2,0:0:0:0:
329,305,111752,1,2,0:2:0:0:
329,305,111836,1,2,0:2:0:0:
329,305,111920,5,2,3:2:0:0:
145,185,112089,1,2,0:2:0:0:
246,145,112257,1,8,0:2:0:0:
112,305,112426,6,0,L|48:319,2,40.4999987640381,2|0|2,0:2|0:0|0:2,0:0:0:0:
112,305,112763,1,2,3:2:0:0:
71,102,112932,5,8,0:2:0:0:
228,259,113100,1,2,0:2:0:0:
339,179,113269,2,0,L|459:203,1,121.499996292114,2|0,3:2|0:0,0:0:0:0:
467,195,113606,2,0,B|477:236|477:236|466:273,1,80.9999975280763,8|2,0:2|0:2,0:0:0:0:
382,360,113858,1,2,0:2:0:0:
382,360,113943,6,0,L|371:279,1,80.9999975280763,2|2,0:2|3:2,0:0:0:0:
201,114,114280,2,0,L|222:246,1,121.499996292114,8|2,0:2|0:2,0:0:0:0:
228,259,114617,5,6,3:2:0:0:
192,277,114701,1,2,0:2:0:0:
153,271,114785,1,2,0:2:0:0:
124,243,114869,1,2,0:2:0:0:
117,204,114954,1,8,0:2:0:0:
20,360,115123,1,2,0:2:0:0:
20,360,115207,1,2,0:2:0:0:
20,360,115291,2,0,P|62:349|108:344,1,80.9999975280763,2|2,0:2|3:2,0:0:0:0:
340,156,115628,2,0,P|297:166|252:172,1,80.9999975280763,8|2,0:2|0:2,0:0:0:0:
32,204,115965,5,2,3:2:0:0:
104,124,116134,2,0,L|92:80,2,40.4999987640381,2|2|8,0:2|0:2|0:2,0:0:0:0:
188,196,116471,2,0,B|276:196|244:264|344:252,1,161.999995056153,2|2,0:2|3:2,0:0:0:0:
504,160,116976,2,0,P|464:160|424:200,1,80.9999975280763,8|2,0:2|0:2,0:0:0:0:
408,268,117229,1,2,0:2:0:0:
416,276,117314,5,2,3:2:0:0:
421,236,117398,1,2,0:2:0:0:
406,199,117482,1,2,0:2:0:0:
375,173,117566,1,2,0:2:0:0:
335,166,117651,1,8,0:2:0:0:
256,304,117819,1,2,0:2:0:0:
256,304,117903,1,2,0:2:0:0:
256,304,117988,2,0,P|259:346|268:396,1,80.9999975280763,2|2,0:2|3:2,0:0:0:0:
140,336,118325,1,8,0:2:0:0:
181,235,118493,6,0,L|189:187,2,40.4999987640381,2|2|2,0:2|0:2|3:2,0:0:0:0:
40,372,118830,2,0,P|46:332|49:291,1,80.9999975280763,2|8,0:2|0:2,0:0:0:0:
32,64,119167,1,2,0:2:0:0:
32,64,119252,1,2,0:2:0:0:
32,64,119336,1,2,0:2:0:0:
116,136,119505,1,2,3:2:0:0:
204,72,119673,2,0,B|284:56|284:56|304:64|324:96,1,121.499996292114,8|2,0:2|0:2,0:0:0:0:
324,92,120010,6,0,P|340:56|336:8,1,80.9999975280763,2|2,3:2|0:2,0:0:0:0:
187,195,120347,2,0,P|171:231|175:279,1,80.9999975280763,8|2,0:2|0:2,0:0:0:0:
180,280,120600,1,2,0:2:0:0:
192,284,120684,1,2,0:2:0:0:
92,136,120853,1,2,3:2:0:0:
304,216,121021,2,0,L|428:200,1,121.499996292114,8|2,0:2|0:2,0:0:0:0:
420,220,121358,6,0,L|412:272,2,40.4999987640381,2|2|2,3:2|0:2|0:2,0:0:0:0:
215,95,121696,1,8,0:2:0:0:
303,26,121864,1,2,0:2:0:0:
303,26,121948,1,2,0:2:0:0:
303,26,122033,2,0,P|339:42|387:42,1,80.9999975280763,2|2,0:2|3:2,0:0:0:0:
115,150,122370,2,0,P|55:122|-4:120,1,121.499996292114,8|2,0:2|0:2,0:0:0:0:
0,124,122707,6,0,B|53:111|53:111|64:104|68:84,1,80.9999975280763,2|2,3:2|0:2,0:0:0:0:
368,144,123044,2,0,B|314:156|314:156|304:164|300:184,1,80.9999975280763,8|2,0:2|0:2,0:0:0:0:
304,188,123297,1,2,0:2:0:0:
308,200,123381,1,2,0:2:0:0:
144,372,123550,1,2,3:2:0:0:
208,284,123718,2,0,L|184:152,1,121.499996292114,8|2,0:2|0:2,0:0:0:0:
180,144,124055,6,0,L|188:80,2,40.4999987640381,2|2|2,3:2|0:2|0:2,0:0:0:0:
472,236,124392,1,8,0:2:0:0:
368,360,124561,1,2,0:2:0:0:
368,360,124645,1,2,0:2:0:0:
368,360,124729,1,2,0:2:0:0:
300,288,124898,1,2,3:2:0:0:
368,224,125066,2,0,P|415:219|464:212,1,80.9999975280763,8|2,0:2|0:2,0:0:0:0:
156,300,125403,6,0,L|148:356,2,40.4999987640381,2|2|2,3:2|0:2|0:2,0:0:0:0:
283,102,125741,2,0,L|267:212,1,80.9999975280763,8|2,0:2|0:2,0:0:0:0:
263,186,125993,1,2,0:2:0:0:
256,192,126078,1,2,0:2:0:0:
148,120,126246,1,2,3:2:0:0:
360,40,126415,1,8,0:2:0:0:
384,164,126583,6,0,L|440:176,2,40.4999987640381,2|2|2,0:2|0:2|3:2,0:0:0:0:
104,193,126920,1,2,0:2:0:0:
130,162,127004,1,2,0:2:0:0:
166,144,127088,1,8,0:2:0:0:
206,140,127172,1,2,0:2:0:0:
245,152,127257,2,0,P|251:172|255:200,1,40.4999987640381,2|2,0:2|0:2,0:0:0:0:
364,352,127426,2,0,P|366:330|372:304,1,40.4999987640381,2|0,0:2|0:0,0:0:0:0:
472,308,127594,1,2,3:2:0:0:
308,248,127763,2,0,P|248:236|168:236,1,121.499996292114,8|0,0:2|0:0,0:0:0:0:
168,252,128100,5,2,3:2:0:0:
147,217,128184,1,2,0:2:0:0:
136,178,128268,1,2,0:2:0:0:
136,138,128352,1,2,0:2:0:0:
146,99,128437,1,8,0:2:0:0:
320,32,128606,1,2,0:2:0:0:
328,48,128690,1,2,0:2:0:0:
328,64,128774,1,2,0:2:0:0:
256,192,128943,1,2,3:2:0:0:
160,92,129111,2,0,P|156:48|172:8,1,80.9999975280763,8|2,0:2|0:2,0:0:0:0:
168,252,129448,6,0,P|144:260|120:268,1,40.4999987640381,2|0,3:2|0:0,0:0:0:0:
344,252,129617,2,0,P|367:260|392:268,1,40.4999987640381,4|0,0:3|0:0,0:0:0:0:
116,192,129785,6,0,P|92:190|64:184,1,45,4|0,0:3|0:0,0:0:0:0:
396,192,129954,2,0,P|419:190|448:184,1,45,4|0,0:3|0:0,0:0:0:0:
104,116,130123,6,0,B|95:95|95:95|88:68,1,49.5000015106202,4|0,0:3|0:0,0:0:0:0:
408,116,130292,2,0,B|416:95|416:95|424:68,1,49.5000015106202,4|0,0:3|0:0,0:0:0:0:
198,64,130460,6,0,B|236:60|255:40|255:40|275:60|309:63,1,121.499996292114,8|0,0:3|0:0,0:0:0:0:
412,241,130797,6,0,L|358:251,1,53.9999983520508,6|2,3:2|0:0,0:0:0:0:
225,223,130965,2,0,L|278:212,1,53.9999983520508,2|2,0:0|0:0,0:0:0:0:
328,148,131134,2,0,L|307:328,1,161.999995056153,8|2,0:2|0:2,0:0:0:0:
338,377,131471,2,0,B|297:345|297:345|242:358,1,107.999996704102,2|2,0:2|3:2,0:0:0:0:
161,123,131808,1,8,0:2:0:0:
37,281,131976,1,2,0:2:0:0:
65,154,132145,5,2,3:2:0:0:
81,188,132229,1,2,0:0:0:0:
108,213,132314,1,2,0:0:0:0:
143,226,132397,1,2,0:0:0:0:
181,223,132482,2,0,L|193:275,1,53.9999983520508,8|0,0:2|0:0,0:0:0:0:
17,291,132651,2,0,L|5:352,1,53.9999983520508,2|2,0:2|0:2,0:0:0:0:
161,123,132819,2,0,B|209:128|209:128|269:101,1,107.999996704102,2|2,0:2|3:2,0:0:0:0:
113,337,133156,1,8,0:2:0:0:
467,259,133325,1,2,0:0:0:0:
467,259,133409,1,2,0:0:0:0:
467,259,133493,6,0,B|407:247|407:247|379:214|379:214|319:204,1,161.999995056153,2|2,3:2|0:0,0:0:0:0:
303,214,133830,1,8,0:2:0:0:
326,31,133999,2,0,P|344:50|358:81,1,53.9999983520508,2|2,0:2|0:2,0:0:0:0:
204,201,134167,2,0,P|200:229|189:252,1,53.9999983520508,2|0,0:2|0:0,0:0:0:0:
170,57,134336,1,2,3:2:0:0:
303,214,134505,1,8,0:2:0:0:
96,231,134673,1,2,0:2:0:0:
263,103,134842,5,0,3:2:0:0:
241,133,134927,1,2,0:0:0:0:
209,153,135011,1,2,0:2:0:0:
172,159,135095,1,2,0:0:0:0:
136,150,135179,1,8,0:2:0:0:
71,334,135347,2,0,L|150:323,1,53.9999983520508,2|2,0:2|0:2,0:0:0:0:
210,269,135516,2,0,B|230:301|230:301|214:369,1,107.999996704102,2|2,0:2|3:2,0:0:0:0:
263,103,135853,2,0,B|243:71|243:71|258:2,1,107.999996704102,8|2,0:1|0:0,0:0:0:0:
509,143,136190,6,0,L|446:133,1,53.9999983520508,2|2,3:2|0:0,0:0:0:0:
288,209,136358,2,0,L|341:217,1,53.9999983520508,2|2,0:0|0:0,0:0:0:0:
512,384,136527,2,0,P|456:319|377:310,1,161.999995056153,8|2,0:2|0:2,0:0:0:0:
382,313,136864,2,0,L|370:188,1,107.999996704102,2|2,0:2|3:2,0:0:0:0:
457,62,137117,1,0,0:0:0:0:
457,62,137201,2,0,L|462:115,1,53.9999983520508,8|0,0:2|0:0,0:0:0:0:
482,226,137370,1,2,0:2:0:0:
88,61,137538,6,0,B|148:76|148:76|169:112|169:112|225:125,1,161.999995056153,0|2,3:1|0:2,0:0:0:0:
247,130,137875,1,8,0:2:0:0:
45,191,138044,2,0,L|116:169,1,53.9999983520508,2|2,0:2|0:0,0:0:0:0:
227,29,138212,1,2,0:2:0:0:
183,221,138381,2,0,L|195:277,1,53.9999983520508,2|0,3:2|0:0,0:0:0:0:
86,82,138550,1,10,0:2:0:0:
291,212,138718,1,2,0:0:0:0:
144,377,138887,6,0,P|191:313|270:299,1,161.999995056153,0|2,3:1|0:0,0:0:0:0:
274,303,139224,2,0,L|326:317,1,53.9999983520508,10|0,0:2|0:0,0:0:0:0:
370,145,139392,1,2,0:2:0:0:
512,233,139561,1,2,0:2:0:0:
512,233,139645,2,0,P|485:227|455:219,1,53.9999983520508,0|2,0:0|3:2,0:0:0:0:
370,145,139898,2,0,L|382:269,1,107.999996704102,10|2,0:2|0:2,0:0:0:0:
205,369,140151,1,0,0:0:0:0:
205,369,140235,6,0,B|166:323|166:323|189:224,1,161.999995056153,0|2,3:1|0:0,0:0:0:0:
218,115,140572,1,10,0:2:0:0:
195,205,140741,2,0,L|141:213,2,53.9999983520508,2|2|2,0:2|0:2|0:2,0:0:0:0:
276,301,141078,1,0,3:2:0:0:
164,46,141246,2,0,B|248:52|209:102|305:113,1,161.999995056153,10|2,0:2|0:0,0:0:0:0:
498,86,141583,5,6,3:2:0:0:
465,88,141667,1,2,0:0:0:0:
440,109,141752,2,0,P|429:133|421:163,1,53.9999983520508,2|2,0:0|0:0,0:0:0:0:
512,249,141920,2,0,B|428:255|467:305|370:316,1,161.999995056153,8|2,0:2|0:2,0:0:0:0:
251,332,142257,2,0,P|244:305|233:281,1,53.9999983520508,2|0,0:2|0:0,0:0:0:0:
93,248,142426,1,2,3:2:0:0:
304,164,142594,1,8,0:2:0:0:
146,336,142763,1,2,0:2:0:0:
129,118,142932,5,2,3:2:0:0:
142,152,143016,1,2,0:0:0:0:
168,180,143100,1,2,0:0:0:0:
203,195,143184,1,2,0:0:0:0:
240,195,143269,2,0,L|312:184,1,53.9999983520508,8|0,0:2|0:0,0:0:0:0:
146,336,143437,2,0,L|139:276,1,53.9999983520508,2|2,0:2|0:2,0:0:0:0:
226,97,143606,1,2,0:2:0:0:
47,313,143774,1,2,3:2:0:0:
344,314,143943,2,0,B|293:288|293:288|240:298,1,107.999996704102,8|2,0:2|0:0,0:0:0:0:
73,144,144280,6,0,B|134:152|134:152|165:186|165:186|218:193,1,161.999995056153,2|2,3:2|0:0,0:0:0:0:
240,195,144617,1,8,0:2:0:0:
207,21,144785,2,0,P|203:47|195:73,2,53.9999983520508,2|2|2,0:2|0:2|0:2,0:0:0:0:
91,235,145123,1,2,3:2:0:0:
296,106,145291,2,0,L|419:86,1,107.999996704102,8|2,0:2|0:2,0:0:0:0:
440,351,145628,5,0,3:2:0:0:
418,319,145712,1,2,0:0:0:0:
388,297,145797,1,2,0:2:0:0:
352,287,145880,1,2,0:0:0:0:
314,289,145965,2,0,P|311:316|305:342,1,53.9999983520508,8|0,0:2|0:0,0:0:0:0:
286,159,146134,2,0,P|289:132|295:105,1,53.9999983520508,2|2,0:2|0:2,0:0:0:0:
218,259,146302,1,2,0:2:0:0:
388,174,146471,1,2,3:2:0:0:
218,259,146639,2,0,B|173:240|173:240|116:264,1,107.999996704102,8|2,0:2|0:0,0:0:0:0:
75,124,146976,6,0,P|97:138|122:148,1,53.9999983520508,2|2,3:2|0:0,0:0:0:0:
128,367,147145,2,0,P|150:352|175:342,1,53.9999983520508,2|2,0:0|0:0,0:0:0:0:
295,178,147314,2,0,B|382:187|346:229|437:248,1,161.999995056153,8|2,0:2|0:2,0:0:0:0:
482,62,147651,2,0,P|439:95|388:110,1,107.999996704102,2|2,0:2|3:2,0:0:0:0:
299,275,147988,2,0,P|310:299|316:325,2,53.9999983520508,8|0|2,0:2|0:0|0:2,0:0:0:0:
85,56,148325,5,0,3:2:0:0:
121,47,148409,1,0,0:0:0:0:
158,54,148493,1,2,0:2:0:0:
188,76,148578,1,2,0:2:0:0:
207,109,148662,2,0,L|215:162,1,53.9999983520508,8|0,0:2|0:0,0:0:0:0:
100,362,148830,2,0,B|82:320|82:320|97:260,1,107.999996704102,2|2,0:2|0:2,0:0:0:0:
117,154,149167,1,2,3:2:0:0:
186,314,149336,1,10,0:2:0:0:
0,221,149505,1,2,0:0:0:0:
186,314,149673,6,0,L|292:299,1,107.999996704102,0|2,3:2|0:0,0:0:0:0:
387,346,149926,1,2,0:0:0:0:
386,346,150010,2,0,P|389:319|394:292,1,53.9999983520508,10|0,0:2|0:0,0:0:0:0:
451,144,150179,1,2,0:2:0:0:
309,54,150348,1,2,0:2:0:0:
309,54,150432,2,0,P|305:80|300:107,1,53.9999983520508,0|2,0:0|3:2,0:0:0:0:
451,144,150684,2,0,B|393:156|393:156|368:192|368:192|310:205,1,161.999995056153,10|0,0:2|0:0,0:0:0:0:
0,68,151021,5,0,3:2:0:0:
37,64,151106,1,2,0:0:0:0:
73,75,151190,1,2,0:0:0:0:
101,99,151274,1,2,0:0:0:0:
118,132,151358,2,0,P|120:158|125:185,1,53.9999983520508,10|0,0:2|0:0,0:0:0:0:
96,323,151527,1,2,0:2:0:0:
96,323,151611,1,2,0:2:0:0:
96,323,151696,1,2,0:2:0:0:
200,84,151864,1,0,3:2:0:0:
18,246,152033,2,0,B|115:218|115:218|162:255,1,161.999995056153,10|2,0:2|0:0,0:0:0:0:
465,201,152370,6,0,L|411:193,1,53.9999983520508,6|2,3:2|0:0,0:0:0:0:
200,84,152538,2,0,L|253:91,1,53.9999983520508,2|2,0:0|0:0,0:0:0:0:
338,69,152707,2,0,L|334:65|308:231,1,161.999995056153,10|2,0:2|0:0,0:0:0:0:
312,229,153044,2,0,P|320:252|327:288,1,53.9999983520508,2|2,0:2|0:0,0:0:0:0:
425,107,153212,1,2,3:2:0:0:
228,290,153381,2,0,B|203:249|203:249|214:190,1,107.999996704102,10|2,0:2|0:0,0:0:0:0:
149,85,153718,5,2,3:2:0:0:
111,77,153802,1,2,0:0:0:0:
74,85,153887,1,2,0:0:0:0:
44,107,153970,1,2,0:0:0:0:
24,139,154055,2,0,L|13:214,1,53.9999983520508,10|0,0:2|0:0,0:0:0:0:
220,236,154224,2,0,L|227:289,2,53.9999983520508,2|2|2,0:2|0:2|0:2,0:0:0:0:
269,140,154561,1,2,3:2:0:0:
150,351,154729,2,0,B|203:316|203:316|295:349,1,161.999995056153,10|2,0:2|0:0,0:0:0:0:
458,317,155066,6,0,P|431:313|405:305,1,53.9999983520508,2|2,3:2|0:0,0:0:0:0:
269,140,155235,2,0,P|295:136|321:128,1,53.9999983520508,2|2,0:0|0:0,0:0:0:0:
391,64,155403,1,10,0:2:0:0:
319,253,155572,1,2,0:2:0:0:
510,186,155741,2,0,B|466:207|466:207|408:191,1,107.999996704102,2|2,0:2|3:2,0:0:0:0:
105,242,156078,2,0,B|149:221|149:221|206:236,1,107.999996704102,10|2,0:2|0:0,0:0:0:0:
312,330,156330,1,0,0:0:0:0:
312,330,156415,6,0,L|318:260,1,53.9999983520508,2|2,3:2|0:0,0:0:0:0:
273,86,156583,2,0,L|268:139,1,53.9999983520508,2|2,0:0|0:0,0:0:0:0:
165,321,156752,1,10,0:2:0:0:
380,189,156920,1,2,0:2:0:0:
380,189,157005,1,2,0:2:0:0:
380,189,157089,1,2,0:2:0:0:
161,77,157257,1,2,3:2:0:0:
369,288,157426,2,0,B|281:273|312:228|226:219,1,161.999995056153,10|2,0:2|0:0,0:0:0:0:
14,224,157763,5,2,3:2:0:0:
46,225,157847,1,2,0:0:0:0:
75,211,157932,2,0,P|92:190|105:166,1,53.9999983520508,2|2,0:0|0:0,0:0:0:0:
239,12,158100,2,0,B|267:51|267:51|254:109,1,107.999996704102,10|2,0:2|0:2,0:0:0:0:
439,209,158437,1,2,0:2:0:0:
384,384,158606,2,0,B|356:345|356:345|368:286,1,107.999996704102,2|10,3:2|0:2,0:0:0:0:
509,149,158943,1,2,0:0:0:0:
509,149,159027,1,0,0:0:0:0:
509,149,159111,6,0,L|351:185,1,161.999995056153,2|2,3:2|0:0,0:0:0:0:
233,127,159448,2,0,L|180:113,2,53.9999983520508,10|0|2,0:2|0:0|0:2,0:0:0:0:
237,148,159701,1,2,0:2:0:0:
241,169,159785,1,2,0:2:0:0:
302,66,159954,1,2,3:2:0:0:
146,313,160123,2,0,B|120:276|120:276|134:214,1,107.999996704102,10|2,0:2|0:2,0:0:0:0:
217,27,160460,6,0,B|260:68|260:68|236:193,1,161.999995056153,2|2,3:2|0:0,0:0:0:0:
222,255,160797,1,10,0:2:0:0:
96,58,160965,1,2,0:2:0:0:
101,79,161050,1,2,0:0:0:0:
105,98,161134,2,0,P|130:106|156:112,1,53.9999983520508,2|2,0:2|0:0,0:0:0:0:
235,269,161302,2,0,P|260:260|286:254,1,53.9999983520508,2|0,3:2|0:0,0:0:0:0:
446,145,161471,2,0,B|393:140|397:171|342:164,1,107.999996704102,10|2,0:2|0:0,0:0:0:0:
260,105,161724,1,0,0:0:0:0:
260,105,161808,6,0,L|253:165,1,31.4999990386963,2|2,0:0|0:0,0:0:0:0:
187,278,161976,2,0,L|183:246,1,31.4999990386963,2|2,0:0|0:0,0:0:0:0:
93,99,162145,2,0,L|86:159,1,31.4999990386963,2|0,0:0|0:0,0:0:0:0:
20,272,162313,2,0,L|16:240,1,31.4999990386963,2|0,0:2|0:0,0:0:0:0:
64,33,162482,6,0,L|73:77,1,45,2|0,0:0|0:0,0:0:0:0:
154,342,162651,2,0,L|163:297,1,45,2|0,0:2|0:0,0:0:0:0:
239,48,162819,2,0,L|248:92,1,45,2|0,0:2|0:0,0:0:0:0:
297,339,162988,1,2,0:2:0:0:
297,339,163072,1,2,0:0:0:0:
297,339,163156,6,0,B|280:233|280:233|333:251,1,161.999995056153,6|0,3:2|0:0,0:0:0:0:
412,289,163493,2,0,L|421:182,1,90,2|2,0:2|0:2,0:0:0:0:
167,67,163830,6,0,B|205:32|205:32|189:174,1,161.999995056153,8|2,0:0|0:2,0:0:0:0:
191,159,164167,2,0,L|258:148,1,53.9999983520508,2|0,0:3|0:0,0:0:0:0:
349,88,164336,2,0,L|416:99,1,53.9999983520508,2|0,3:3|0:0,0:0:0:0:
501,155,164505,6,0,P|506:123|500:53,1,67.5000025749208,4|4,0:3|0:3,0:0:0:0:
424,8,164673,1,4,3:3:0:0:
501,155,164842,6,0,P|505:107|435:114,1,135.000005149842,2|2,0:1|3:2,0:0:0:0:
434,193,165094,1,0,0:0:0:0:
430,219,165179,6,0,B|421:270|442:363|507:371|510:332|487:302|438:294,1,202.500007724762,4|0,1:1|0:0,0:0:0:0:
386,295,165516,6,0,P|363:299|315:317,1,45,8|0,0:1|0:0,0:0:0:0:
272,371,165684,2,0,P|249:367|201:349,1,45,8|2,0:1|0:2,0:0:0:0:
141,318,165853,6,0,B|175:286|203:217|203:217|263:294|263:294|304:228|304:228|329:293|410:298,1,405.000015449525,2|0,3:0|0:0,0:0:0:0:
414,39,166527,6,0,L|390:217,1,161.999995056153,8|2,1:3|0:2,0:0:0:0:
313,162,166864,6,0,P|285:159|222:181,1,53.9999983520508,2|0,0:2|0:0,0:0:0:0:
277,365,167033,2,0,P|305:368|368:346,1,53.9999983520508,0|0,3:1|0:0,0:0:0:0:
459,195,167201,6,0,L|373:200,1,67.5000025749208,4|2,2:3|0:2,0:0:0:0:
210,248,167370,1,2,3:2:0:0:
254,254,167454,1,0,0:0:0:0:
298,260,167538,6,0,L|463:278,1,135.000005149842,2|4,0:0|2:3,0:0:0:0:
461,280,167791,1,2,0:0:0:0:
506,208,167875,6,0,B|494:148|494:148|433:112|433:112|418:31,1,202.500007724762,4|0,1:2|0:0,0:0:0:0:
500,0,168212,2,0,B|513:69|513:69,1,67.5000025749208,2|2,0:0|0:2,0:0:0:0:
432,274,168381,2,0,B|432:277|419:207,1,67.5000025749208,2|2,0:0|0:2,0:0:0:0:
420,42,168550,6,0,L|319:38,1,90,4|2,3:1|0:2,0:0:0:0:
282,146,168887,1,2,0:1:0:0:
308,147,168971,1,2,0:1:0:0:
335,148,169055,1,2,0:1:0:0:
362,149,169139,1,2,0:1:0:0:
403,67,169224,6,0,L|302:63,1,90,4|2,1:1|0:2,0:0:0:0:
215,199,169561,2,0,P|242:220|328:209,1,67.5000025749208,2|0,0:2|0:0,0:0:0:0:
248,11,169729,2,0,P|215:19|189:39,1,67.5000025749208,0|0,3:2|0:0,0:0:0:0:
282,146,169898,1,2,0:2:0:0:
51,74,170066,6,0,L|89:88,1,33.7500012874604,2|0,3:2|0:0,0:0:0:0:
215,199,170235,2,0,L|177:213,1,33.7500012874604,8|0,0:1|0:0,0:0:0:0:
63,327,170403,2,0,L|101:341,1,33.7500012874604,8|0,3:1|0:0,0:0:0:0:
187,375,170572,6,0,P|185:340|164:278,1,67.5000025749208,8|0,0:0|0:0,0:0:0:0:
99,181,170741,2,0,P|97:212|118:274,1,67.5000025749208,2|0,3:2|0:0,0:0:0:0:
187,375,170909,6,0,B|228:348|228:348|277:367|277:367|323:347|323:347|394:386,1,202.500007724762,4|2,0:1|0:2,0:0:0:0:
446,295,171246,6,0,B|408:302|408:302|358:275,1,80.9999975280763,8|0,3:2|0:0,0:0:0:0:
148,226,171415,2,0,B|185:246|185:246|223:239,1,80.9999975280763,8|0,0:2|0:0,0:0:0:0:
466,137,171583,2,0,B|428:144|428:144|378:117,1,80.9999975280763,8|0,0:2|0:0,0:0:0:0:
168,68,171752,2,0,B|205:88|205:88|243:81,1,80.9999975280763,8|0,0:2|0:0,0:0:0:0:
470,214,171920,6,0,L|425:223,1,45,0|0,1:0|0:0,0:0:0:0:
303,191,172089,1,8,0:3:0:0:
303,191,172173,1,8,0:3:0:0:
303,191,172257,6,0,L|299:149,1,22.5,8|0,0:3|0:0,0:0:0:0:
243,81,172426,6,0,B|102:94|102:94|165:145,1,202.500007724762,2|2,3:2|0:2,0:0:0:0:
303,191,172763,2,0,B|444:178|444:178|381:127,1,202.500007724762,2|0,3:2|0:0,0:0:0:0:
375,125,173100,1,2,3:2:0:0:
356,344,173269,6,0,L|369:269,1,45,8|0,1:2|0:0,0:0:0:0:
375,125,173437,2,0,L|388:200,1,45,8|0,3:2|0:0,0:0:0:0:
471,257,173606,6,0,B|425:243|425:243|382:261|382:261|338:241|338:241|276:260,1,202.500007724762,8|2,0:2|0:2,0:0:0:0:
252,269,173943,5,6,3:2:0:0:
242,149,174111,2,0,L|238:171,1,22.5,2|0,0:2|0:0,0:0:0:0:
252,269,174280,6,0,B|187:259|187:259|92:294,1,135,2|0,0:2|0:0,0:0:0:0:
100,294,174617,1,8,0:0:0:0:
93,90,174785,1,2,0:2:0:0:
295,47,174954,6,0,L|381:40,1,53.9999983520508,2|0,0:3|0:0,0:0:0:0:
325,131,175123,2,0,L|271:135,1,53.9999983520508,2|0,3:3|0:0,0:0:0:0:
93,90,175291,6,0,P|88:67|117:32,1,67.5000025749208,4|4,0:3|0:3,0:0:0:0:
188,86,175460,1,4,3:3:0:0:
82,126,175628,6,0,P|64:74|137:2,1,135.000005149842,0|2,0:0|3:2,0:0:0:0:
187,46,175881,1,0,0:0:0:0:
188,86,175965,6,0,B|193:126|178:157|178:157|208:209|208:209|195:244|208:298,1,202.500007724762,4|0,1:1|0:0,0:0:0:0:
280,247,176302,6,0,L|337:256,1,45,2|0,3:3|0:0,0:0:0:0:
316,367,176471,2,0,L|271:374,1,45,2|2,0:3|0:2,0:0:0:0:
131,257,176639,6,0,B|155:185|243:186|272:243|272:243|291:248|291:248|295:236|295:236|312:245|312:245|323:237|323:237|348:253,1,270,2|2,3:3|0:2,0:0:0:0:
195,367,177314,2,0,L|207:251,1,90,8|2,1:3|0:2,0:0:0:0:
302,84,177651,6,0,L|314:200,1,67.5000025749208,2|0,0:2|0:0,0:0:0:0:
328,337,177819,1,0,3:1:0:0:
401,101,177988,5,2,0:2:0:0:
211,185,178156,1,0,3:1:0:0:
205,158,178241,1,0,0:0:0:0:
206,131,178325,1,2,0:0:0:0:
399,291,178493,1,2,3:2:0:0:
376,266,178577,1,2,0:0:0:0:
345,252,178661,1,0,1:0:0:0:
312,251,178745,1,0,0:0:0:0:
280,263,178830,1,2,3:2:0:0:
135,327,178999,2,0,L|68:315,1,67.5000025749208,2|2,0:3|0:2,0:0:0:0:
68,315,179336,6,0,B|95:266|95:266|69:158,1,135.000005149842,4|2,3:1|0:2,0:0:0:0:
47,106,179589,1,0,0:0:0:0:
47,106,179673,2,0,L|148:115,1,67.5000025749208,2|2,0:1|0:1,0:0:0:0:
169,210,179842,2,0,L|270:201,1,67.5000025749208,2|2,0:1|0:1,0:0:0:0:
350,120,180010,6,0,P|402:187|320:207,1,202.500007724762,8|2,0:0|0:2,0:0:0:0:
350,120,180347,2,0,L|451:129,1,67.5000025749208,8|0,0:3|0:0,0:0:0:0:
276,304,180516,1,0,3:1:0:0:
405,318,180684,6,0,L|401:283,1,22.5,8|0,0:2|0:0,0:0:0:0:
350,120,180853,2,0,L|346:155,1,22.5,8|0,3:2|0:0,0:0:0:0:
276,304,181021,2,0,L|272:269,1,22.5,8|0,0:2|0:0,0:0:0:0:
231,168,181190,6,0,L|164:176,1,45,2|0,3:1|0:0,0:0:0:0:
122,315,181358,2,0,P|111:281|130:207,1,67.5000025749208,8|0,0:0|0:0,0:0:0:0:
160,24,181527,2,0,P|160:57|149:89,1,67.5000025749208,2|0,3:2|0:0,0:0:0:0:
194,272,181696,5,0,0:0:0:0:
74,39,181864,1,2,0:2:0:0:
231,168,182033,6,0,B|269:155|300:114|300:114|305:160|357:205,1,175.499991966248,4|0,3:1|0:0,0:0:0:0:
340,188,182370,1,8,0:1:0:0:
215,78,182538,1,8,0:1:0:0:
399,67,182707,6,0,L|376:145,1,45,8|0,1:2|0:0,0:0:0:0:
301,307,182875,2,0,L|278:229,1,45,8|0,0:2|0:0,0:0:0:0:
231,168,183044,2,0,L|140:170,1,90,8|8,0:2|3:2,0:0:0:0:
216,34,183381,6,0,P|276:9|299:115,1,175.499991966248,2|0,0:2|0:0,0:0:0:0:
312,113,183718,1,0,0:0:0:0:
231,168,183887,6,0,B|199:167|172:150|172:150|136:174|136:174|103:160|64:170,1,175.499991966248,2|0,3:2|0:0,0:0:0:0:
89,248,184224,2,0,P|95:364|10:283,1,297.000009063721,2|6,0:3|3:2,0:0:0:0:
256,192,194167,12,0,195432,0:1:0:0:
113,58,195516,6,0,P|105:103|101:161,1,99.0000030212403,4|0,0:1|0:0,0:0:0:0:
179,192,195769,1,0,0:0:0:0:
179,192,195853,2,0,P|152:186|107:180,1,67.5000025749208,2|0,0:3|0:0,0:0:0:0:
221,323,196190,5,2,0:0:0:0:
221,323,196274,2,0,P|274:331|336:339,1,101.250003862381,2|2,0:2|0:3,0:0:0:0:
481,204,196696,1,2,0:0:0:0:
481,204,196780,1,2,0:0:0:0:
481,204,196864,6,0,P|481:242|467:276,1,67.5000025749208,2|0,0:0|0:0,0:0:0:0:
394,152,197201,1,2,0:3:0:0:
309,203,197370,2,0,P|272:153|276:71,1,135.000005149842,2|2,0:1|0:0,0:0:0:0:
364,36,197875,2,0,P|394:31|439:21,1,67.5000025749208,4|2,0:2|0:0,0:0:0:0:
249,127,198212,6,0,P|193:137|130:151,1,101.250003862381,8|2,0:1|0:0,0:0:0:0:
138,136,198550,1,0,0:0:0:0:
346,351,198718,1,8,0:1:0:0:
405,290,199224,5,2,0:3:0:0:
324,361,199392,1,2,0:0:0:0:
301,199,199561,5,8,0:0:0:0:
386,280,199729,1,2,0:2:0:0:
407,102,199898,1,2,0:3:0:0:
407,102,199982,1,2,0:3:0:0:
407,102,200066,1,0,0:0:0:0:
249,276,200235,5,4,1:3:0:0:
228,249,200319,1,0,0:0:0:0:
216,218,200403,1,2,0:0:0:0:
213,184,200487,1,2,0:2:0:0:
221,151,200572,1,2,0:3:0:0:
328,208,200741,6,0,L|391:224,2,33.7500012874604,4|0|4,1:3|0:0|0:2,0:0:0:0:
140,296,201078,1,0,0:0:0:0:
140,296,201162,1,0,0:0:0:0:
140,296,201246,2,0,P|127:262|130:214,1,67.5000025749208,2|4,0:3|0:2,0:0:0:0:
36,119,201583,2,0,P|75:87|160:94,1,135.000005149842,2|2,0:2|0:3,0:0:0:0:
429,292,202089,1,2,0:2:0:0:
487,231,202257,6,0,P|416:247|332:254,1,135.000005149842,2|2,0:1|0:3,0:0:0:0:
123,210,202763,1,4,0:2:0:0:
231,85,202932,1,2,0:2:0:0:
231,85,203016,2,0,P|223:119|221:166,1,67.5000025749208,2|0,0:2|0:0,0:0:0:0:
220,151,203269,5,2,0:1:0:0:
162,18,203437,1,2,0:2:0:0:
305,151,203606,2,0,P|260:129|125:119,1,170.999995433807,8|2,0:1|0:3,0:0:0:0:
43,325,204111,6,0,P|32:294|34:251,1,67.5000025749208,8|2,0:1|0:2,0:0:0:0:
123,210,204364,2,0,P|122:243|112:275,1,67.5000025749208,2|0,0:2|0:3,0:0:0:0:
120,285,204617,1,2,0:3:0:0:
334,323,204785,1,2,0:2:0:0:
253,373,204954,6,0,P|240:307|238:229,1,135.000005149842,8|2,0:2|0:3,0:0:0:0:
328,101,205460,1,8,0:2:0:0:
303,77,205544,1,0,0:0:0:0:
273,63,205628,1,2,0:2:0:0:
239,59,205712,1,0,0:0:0:0:
206,65,205797,1,2,0:2:0:0:
105,282,205965,5,4,0:2:0:0:
245,198,206134,1,2,0:1:0:0:
91,62,206302,6,0,P|37:95|86:155,1,135.000005149842,12|0,3:2|0:0,0:0:0:0:
95,51,206808,6,0,B|53:67|28:90|28:90|32:130|68:173,1,153.000002918243,2|0,3:2|0:0,0:0:0:0:
100,44,207314,6,0,B|70:53|47:63|47:63|31:92|26:125|26:125|34:153|62:178,1,170.999995433807,2|0,3:2|0:0,0:0:0:0:
103,37,207819,6,0,B|71:74|21:91|21:91|47:128|50:209,1,188.999994232178,2|0,3:2|0:0,0:0:0:0:
105,32,208325,6,0,B|69:73|69:73|6:98,1,107.999996704102,2|2,3:2|0:2,0:0:0:0:
63,263,208578,1,2,0:2:0:0:
51,271,208662,2,0,B|31:243|31:243|47:187,1,72,8|0,0:2|0:0,0:0:0:0:
165,292,208830,2,0,B|185:320|185:320|169:376,1,72,2|0,0:2|0:0,0:0:0:0:
318,365,208999,6,0,L|467:341,1,135.000005149842,4|0,3:1|0:0,0:0:0:0:
311,367,209505,6,0,B|379:339|382:378|483:333,1,153.000002918243,2|0,3:2|0:0,0:0:0:0:
304,372,210010,6,0,B|348:354|348:354|418:361|418:361|481:333,1,170.999995433807,2|0,3:2|0:0,0:0:0:0:
300,377,210516,6,0,B|329:369|349:350|349:350|386:349|421:365|421:365|460:357|489:313,1,188.999994232178,2|0,3:2|0:0,0:0:0:0:
291,383,211021,6,0,B|323:381|346:378|346:378|366:352|377:321,1,107.999996704102,2|2,3:2|0:2,0:0:0:0:
257,215,211274,5,2,0:2:0:0:
249,231,211358,2,0,L|171:247,1,72,8|0,0:2|0:0,0:0:0:0:
437,152,211527,2,0,L|507:166,1,72,8|8,0:2|0:2,0:0:0:0:
361,34,211696,6,0,L|351:130,1,80.9999975280763,6|0,3:2|0:0,0:0:0:0:
286,330,212033,1,8,0:2:0:0:
438,257,212201,1,2,0:2:0:0:
244,152,212370,5,2,3:2:0:0:
348,232,212538,1,2,0:2:0:0:
203,372,212707,2,0,L|190:282,1,80.9999975280763,8|2,0:2|0:0,0:0:0:0:
62,159,213044,6,0,L|13:168,2,40.4999987640381,2|2|2,3:2|0:0|0:0,0:0:0:0:
121,66,213381,1,8,0:2:0:0:
92,275,213550,2,0,P|60:298|1:287,1,80.9999975280763,2|2,0:0|3:2,0:0:0:0:
244,152,213887,2,0,P|276:129|335:140,1,80.9999975280763,2|8,0:0|0:2,0:0:0:0:
438,257,214224,1,8,0:2:0:0:
438,257,214308,1,8,0:2:0:0:
438,257,214392,5,0,3:2:0:0:
225,347,214561,1,0,3:2:0:0:
262,230,214729,5,0,3:2:0:0:
382,363,214898,1,0,3:2:0:0:
420,106,215066,1,0,3:2:0:0:
353,268,215235,5,0,3:2:0:0:
143,136,215403,1,0,3:2:0:0:
388,184,215572,1,0,3:2:0:0:
155,277,215741,5,0,3:2:0:0:
129,308,215825,1,0,3:2:0:0:
92,323,215909,1,0,3:2:0:0:
52,319,215993,1,0,3:2:0:0:
19,296,216078,1,0,3:2:0:0:
1,261,216162,1,0,3:2:0:0:
2,220,216246,1,0,3:2:0:0:
21,186,216330,1,0,3:2:0:0:
55,164,216415,6,0,P|67:203|74:236,1,53.9999983520508,0|0,3:2|3:2,0:0:0:0:
247,296,216583,2,0,P|234:257|228:224,1,53.9999983520508,0|0,3:2|3:2,0:0:0:0:
388,184,216752,6,0,L|461:170,1,40.4999987640381,8|0,3:3|0:0,0:0:0:0:
231,244,217089,6,0,B|293:256|293:256|318:291|318:291|374:302,1,161.999995056153,6|0,3:2|0:0,0:0:0:0:
395,289,217426,1,8,0:0:0:0:
375,99,217594,2,0,L|367:188,1,90,2|2,0:0|0:0,0:0:0:0:
235,384,217932,2,0,L|241:335,1,45,2|0,3:2|0:0,0:0:0:0:
240,139,218100,6,0,L|172:150,1,62.9999980773926,2|0,1:3|0:0,0:0:0:0:
0,230,218269,1,2,0:3:0:0:
24,234,218353,1,0,0:0:0:0:
50,238,218437,6,0,L|118:246,1,67.5000025749208,4|4,3:3|0:3,0:0:0:0:
230,244,218606,1,4,0:3:0:0:
106,139,218774,6,0,B|140:175|140:175|125:260,1,135.000005149842,2|2,1:1|0:0,0:0:0:0:
264,353,219027,1,2,0:0:0:0:
264,353,219111,2,0,B|205:379|205:379|230:239,1,202.500007724762,4|0,0:1|0:0,0:0:0:0:
233,221,219448,1,8,1:1:0:0:
112,349,219617,1,8,0:1:0:0:
82,249,219785,6,0,L|140:262,1,45,2|0,3:1|0:0,0:0:0:0:
267,372,219954,2,0,L|249:315,1,45,2|0,0:1|0:2,0:0:0:0:
290,155,220123,2,0,L|249:198,1,45,2|0,1:1|0:0,0:0:0:0:
82,248,220291,6,0,P|118:225|160:238,1,90,8|0,0:1|0:0,0:0:0:0:
253,329,220544,2,0,P|328:337|332:243,1,161.999995056153,8|2,0:3|1:2,0:0:0:0:
266,114,220965,5,0,0:0:0:0:
265,124,221050,1,2,0:2:0:0:
264,134,221134,2,0,L|259:187,1,53.9999983520508,4|0,3:3|0:0,0:0:0:0:
132,332,221302,5,2,0:2:0:0:
131,322,221387,1,2,0:2:0:0:
130,312,221471,2,0,L|125:258,1,53.9999983520508,8|0,0:2|0:0,0:0:0:0:
33,105,221639,5,4,2:3:0:0:
33,105,221724,1,4,0:3:0:0:
33,105,221808,2,0,P|47:30|104:88,1,135.000005149842,4|2,0:2|3:2,0:0:0:0:
114,129,222061,1,0,0:0:0:0:
114,129,222145,6,0,B|136:198|132:269|42:265|102:191,1,175.499991966248,8|0,0:2|0:0,0:0:0:0:
208,199,222482,6,0,B|359:221,1,135,4|2,3:1|0:2,0:0:0:0:
398,144,222819,2,0,L|344:136,1,53.9999983520508,2|2,1:1|0:1,0:0:0:0:
297,296,222988,2,0,L|351:304,1,53.9999983520508,2|2,0:1|0:1,0:0:0:0:
512,231,223156,6,0,B|464:217|464:217|429:237,1,90,4|2,0:1|3:2,0:0:0:0:
204,88,223493,2,0,L|273:81,1,45,2|0,1:2|0:0,0:0:0:0:
332,30,223662,1,2,0:2:0:0:
332,30,223746,1,0,0:0:0:0:
332,30,223830,6,0,B|355:78|355:78|332:118|332:118|352:157|352:157|335:213,1,202.500007724762,2|2,3:2|0:2,0:0:0:0:
245,353,224167,2,0,P|217:302|219:253,1,67.5000025749208,8|0,1:1|0:0,0:0:0:0:
321,203,224336,1,8,3:1:0:0:
245,353,224505,6,0,P|248:293|309:318,1,135.000005149842,2|2,0:0|3:2,0:0:0:0:
423,376,224757,1,0,0:0:0:0:
423,376,224842,2,0,B|454:411|534:379|513:303|448:260,1,202.500007724762,4|0,1:1|0:0,0:0:0:0:
440,253,225179,6,0,P|415:265|389:270,1,53.9999983520508,8|0,3:2|0:0,0:0:0:0:
173,152,225347,1,8,0:2:0:0:
181,165,225432,1,2,0:0:0:0:
193,175,225516,2,0,P|217:187|243:192,1,53.9999983520508,8|0,1:2|0:0,0:0:0:0:
318,209,225684,2,0,P|240:229|207:304,1,161.999995056153,8|2,0:2|0:2,0:0:0:0:
121,344,226021,5,8,3:3:0:0:
118,325,226106,1,2,0:0:0:0:
115,306,226190,2,0,L|107:237,1,62.9999980773926,8|0,1:3|0:0,0:0:0:0:
242,9,226358,2,0,B|268:50|268:50|251:107,1,107.999996704102,2|2,0:0|3:2,0:0:0:0:
85,67,226696,1,2,0:2:0:0:
18,230,226864,5,0,1:0:0:0:
29,194,226948,1,0,0:0:0:0:
55,167,227033,1,2,0:2:0:0:
90,154,227116,1,2,0:2:0:0:
128,158,227201,1,8,0:2:0:0:
214,266,227370,1,8,3:2:0:0:
287,299,227538,6,0,P|293:219|216:246,1,188.999994232178,8|2,1:2|0:0,0:0:0:0:
232,357,227875,6,0,B|320:365|291:300|380:311,1,161.999995056153,6|0,3:2|0:0,0:0:0:0:
396,321,228212,1,8,0:0:0:0:
308,126,228381,2,0,P|296:169|298:214,1,90,2|2,0:0|0:0,0:0:0:0:
480,357,228718,2,0,P|486:334|484:312,1,45,2|0,3:2|0:0,0:0:0:0:
444,160,228887,6,0,P|416:174|385:181,1,62.9999980773926,2|0,1:3|0:0,0:0:0:0:
291,320,229055,1,2,0:3:0:0:
273,302,229139,1,0,0:0:0:0:
248,290,229224,6,0,P|215:281|176:282,1,67.5000025749208,4|4,3:3|0:3,0:0:0:0:
119,209,229392,1,4,0:3:0:0:
127,379,229561,6,0,P|69:361|94:303,1,135.000005149842,4|2,1:1|0:0,0:0:0:0:
56,109,229814,1,2,0:0:0:0:
56,109,229898,2,0,B|87:71|132:75|177:120|115:215,1,202.500007724762,2|0,0:1|0:0,0:0:0:0:
105,221,230235,1,2,1:3:0:0:
235,136,230403,1,2,0:2:0:0:
56,109,230572,6,0,L|117:121,1,45,2|0,3:1|0:0,0:0:0:0:
300,216,230741,2,0,L|239:228,1,45,2|0,0:1|0:0,0:0:0:0:
34,307,230909,2,0,L|95:319,1,45,2|0,1:1|0:0,0:0:0:0:
179,365,231078,6,0,B|193:330|193:330|170:276,1,90,2|0,0:1|0:3,0:0:0:0:
149,192,231330,2,0,B|105:219|105:219|125:104,1,161.999995056153,8|2,0:3|1:2,0:0:0:0:
219,49,231752,5,2,0:2:0:0:
223,58,231836,1,2,0:2:0:0:
227,67,231920,2,0,B|234:90|234:90|227:124,1,53.9999983520508,2|0,3:2|0:0,0:0:0:0:
343,359,232089,5,2,0:2:0:0:
339,350,232173,1,2,0:2:0:0:
335,341,232257,2,0,B|328:318|328:318|335:284,1,53.9999983520508,8|0,0:2|0:0,0:0:0:0:
385,118,232426,5,2,0:2:0:0:
385,118,232510,1,2,0:2:0:0:
385,118,232594,2,0,B|373:84|373:84|423:54|423:54|453:82,1,135.000005149842,4|2,0:1|3:2,0:0:0:0:
459,218,232847,1,0,0:0:0:0:
459,218,232932,6,0,B|416:197|416:197|379:210|379:210|340:192|340:192|295:205,1,175.499991966248,2|0,1:1|0:0,0:0:0:0:
128,354,233269,6,0,P|184:322|215:260,1,135,4|2,3:1|0:2,0:0:0:0:
216,262,233606,2,0,P|205:237|198:211,1,53.9999983520508,2|2,1:1|0:1,0:0:0:0:
227,77,233774,2,0,P|236:102|240:128,1,53.9999983520508,2|2,0:1|0:1,0:0:0:0:
107,247,233943,6,0,L|-10:228,1,90,2|2,0:2|3:2,0:0:0:0:
263,134,234280,2,0,L|312:127,1,45,8|0,1:3|0:0,0:0:0:0:
151,18,234448,1,2,0:2:0:0:
151,18,234533,1,0,0:0:0:0:
151,18,234617,6,0,B|123:60|123:60|141:142,1,135.000005149842,2|8,3:2|0:2,0:0:0:0:
197,298,234870,1,0,0:0:0:0:
197,298,234954,2,0,P|207:266|207:232,1,67.5000025749208,8|0,1:2|0:0,0:0:0:0:
13,292,235123,6,0,B|-32:257|-10:194|67:174|110:253,1,202.500007724762,2|2,3:1|0:2,0:0:0:0:
193,361,235460,2,0,B|183:328|183:328|196:298,1,67.5000025749208,2|0,3:2|0:0,0:0:0:0:
275,58,235628,2,0,B|261:87|261:87|271:120,1,67.5000025749208,8|0,0:1|0:0,0:0:0:0:
338,358,235797,2,0,B|328:325|328:325|341:295,1,67.5000025749208,2|0,0:0|0:0,0:0:0:0:
424,149,235965,6,0,L|347:159,1,53.9999983520508,8|0,3:1|0:0,0:0:0:0:
194,199,236134,1,8,0:1:0:0:
209,201,236218,1,2,0:0:0:0:
224,203,236302,2,0,L|288:212,1,53.9999983520508,8|0,1:1|0:0,0:0:0:0:
422,257,236471,2,0,B|365:264|365:264|340:297|340:297|277:303,1,161.999995056153,8|2,0:1|0:2,0:0:0:0:
173,352,236808,6,0,B|161:321|161:321|168:292,1,62.9999980773926,8|2,3:2|0:0,0:0:0:0:
340,35,236976,2,0,B|375:79|375:79|362:147,1,125.999996154785,8|8,1:2|3:2,0:0:0:0:
411,230,237229,1,2,0:2:0:0:
411,230,237314,6,0,B|374:209|362:172|362:172|348:196|315:211|315:211|293:196|278:176|278:176|254:197|206:207,1,251.999992309571,4|8,3:1|0:0,0:0:0:0:
206,75,237819,6,0,B|219:93|219:93|215:123,1,45,2|2,0:2|0:2,0:0:0:0:
299,332,237988,2,0,B|312:314|312:314|308:284,1,45,8|0,0:2|0:0,0:0:0:0:
376,53,238156,2,0,B|389:71|389:71|385:101,1,45,8|0,3:2|0:0,0:0:0:0:
411,230,238325,6,0,B|374:209|362:172|362:172|348:196|315:211|315:211|293:196|278:176|278:176|254:197|206:207,1,251.999992309571,2|0,1:3|0:0,0:0:0:0:
24,204,238662,6,0,B|-8:237|-8:237|178:212,1,202.500007724762,6|0,3:2|0:0,0:0:0:0:
224,203,238999,1,8,0:0:0:0:
24,204,239167,6,0,B|4:168|4:168|109:200|109:200|108:220|108:220|204:244|204:244|225:202,1,315.000003004074,2|0,0:2|3:1,0:0:0:0:
432,21,239673,6,0,L|445:126,1,67.5000025749208,2|0,1:3|0:0,0:0:0:0:
450,166,239842,2,0,L|463:271,1,67.5000025749208,2|0,0:3|0:0,0:0:0:0:
351,360,240010,5,4,3:3:0:0:
469,338,240179,1,4,0:3:0:0:
469,338,240263,1,4,0:3:0:0:
469,338,240347,2,0,P|445:317|385:315,1,67.5000025749208,2|0,1:1|0:0,0:0:0:0:
170,235,240516,2,0,P|194:214|254:212,1,67.5000025749208,2|0,2:1|0:0,0:0:0:0:
300,238,240684,5,2,0:1:0:0:
285,110,240853,1,0,3:3:0:0:
93,300,241021,5,8,1:1:0:0:
67,82,241190,1,8,0:1:0:0:
80,191,241358,6,0,L|13:181,1,67.5000025749208,2|0,3:1|0:0,0:0:0:0:
80,191,241527,2,0,L|151:201,1,67.5000025749208,2|0,0:1|0:2,0:0:0:0:
280,217,241696,5,2,1:1:0:0:
475,379,241864,2,0,P|453:320|303:318,1,202.500007724762,2|0,0:2|0:0,0:0:0:0:
315,313,242201,6,0,P|310:271|321:204,1,67.5000025749208,2|0,3:2|0:0,0:0:0:0:
480,55,242370,2,0,P|485:97|474:164,1,67.5000025749208,2|0,1:2|0:0,0:0:0:0:
316,165,242538,6,0,B|355:125|412:142|412:142|428:205|504:195,1,202.500007724762,2|0,0:2|0:0,0:0:0:0:
483,122,242875,1,2,0:2:0:0:
290,57,243044,1,8,0:0:0:0:
177,224,243212,1,4,2:3:0:0:
220,212,243297,1,2,0:2:0:0:
238,172,243381,6,0,P|229:106|177:65,1,135.000005149842,4|0,0:2|3:1,0:0:0:0:
29,12,243718,2,0,P|49:91|104:29,1,202.500007724762,8|2,0:0|0:2,0:0:0:0:
178,66,244055,6,0,B|233:43|275:78|275:78|315:115|366:94,1,202.500007724762,4|2,3:1|0:2,0:0:0:0:
421,37,244392,1,2,1:1:0:0:
178,66,244561,6,0,B|231:41|285:71|311:120|311:120|320:58|370:27|423:38,1,315.000003004074,4|2,0:1|3:2,0:0:0:0:
501,262,245066,6,0,P|471:248|438:248,1,67.5000025749208,2|0,1:1|0:0,0:0:0:0:
488,339,245235,2,0,P|455:340|425:326,1,67.5000025749208,2|0,0:1|0:2,0:0:0:0:
374,196,245403,5,0,3:0:0:0:
347,362,245572,2,0,L|193:372,1,135.000005149842,8|0,0:1|1:0,0:0:0:0:
298,151,245909,2,0,P|272:211|304:299,1,135.000005149842,8|2,3:1|0:2,0:0:0:0:
358,89,246246,1,8,3:2:0:0:
436,210,246415,6,0,P|407:193|373:195,1,67.5000025749208,8|0,1:2|0:0,0:0:0:0:
233,89,246583,2,0,P|217:59|189:42,1,67.5000025749208,8|2,0:2|0:2,0:0:0:0:
58,33,246752,6,0,P|59:114|171:94,1,202.500007724762,4|2,3:1|0:2,0:0:0:0:
189,42,247089,1,8,1:2:0:0:
316,141,247257,1,8,0:2:0:0:
458,62,247426,1,8,0:2:0:0:
391,18,247594,6,0,P|377:60|402:118,1,67.5000025749208,8|0,3:3|0:0,0:0:0:0:
494,183,247763,2,0,P|508:225|483:283,1,67.5000025749208,8|0,1:3|0:0,0:0:0:0:
376,368,247931,2,0,P|336:305|191:301,1,202.500007724762,2|0,0:2|0:0,0:0:0:0:
164,339,248269,5,2,0:2:0:0:
0,279,248437,1,0,1:0:0:0:
32,287,248521,1,0,0:0:0:0:
64,280,248605,1,2,0:2:0:0:
90,259,248689,1,2,0:2:0:0:
103,228,248774,5,8,0:2:0:0:
7,26,248943,1,8,3:2:0:0:
297,57,249111,2,0,B|242:68|242:68|207:154|207:154|137:173,1,202.500007724762,8|2,1:2|0:2,0:0:0:0:
79,152,249448,6,0,B|86:92|140:40|140:40|108:68|73:63,1,202.500007724762,6|2,3:2|0:2,0:0:0:0:
7,26,249785,1,8,0:0:0:0:
155,168,249954,6,0,B|199:187|241:177|262:135|262:135|227:147|191:208|198:270|246:309,1,315.000003004074,2|2,0:2|3:2,0:0:0:0:
512,254,250460,6,0,L|444:246,1,67.5000025749208,2|0,1:3|0:0,0:0:0:0:
356,235,250628,2,0,L|289:228,1,67.5000025749208,2|0,0:3|0:0,0:0:0:0:
91,358,250797,5,4,3:3:0:0:
24,201,250965,1,4,0:3:0:0:
24,201,251050,1,4,0:3:0:0:
24,201,251134,2,0,P|48:184|111:192,1,67.5000025749208,2|0,1:1|0:0,0:0:0:0:
139,296,251302,2,0,P|168:294|216:335,1,67.5000025749208,2|0,0:1|0:0,0:0:0:0:
256,368,251471,5,2,0:1:0:0:
211,226,251639,1,0,3:3:0:0:
296,87,251808,1,8,1:1:0:0:
468,56,251976,1,8,0:1:0:0:
386,174,252145,2,0,L|379:242,1,67.5000025749208,2|0,3:1|0:0,0:0:0:0:
386,174,252314,2,0,L|393:106,1,67.5000025749208,2|0,0:1|0:0,0:0:0:0:
197,24,252482,5,2,1:3:0:0:
15,207,252651,2,0,P|50:129|183:119,1,202.500007724762,2|0,0:2|0:0,0:0:0:0:
175,113,252988,6,0,L|186:204,1,67.5000025749208,2|0,3:2|0:0,0:0:0:0:
207,362,253156,2,0,L|199:295,1,67.5000025749208,2|0,1:2|0:0,0:0:0:0:
433,185,253325,6,0,B|316:165|365:251|234:224,1,202.500007724762,2|0,0:2|0:0,0:0:0:0:
183,180,253662,1,2,0:2:0:0:
401,268,253830,1,8,0:0:0:0:
479,117,253999,1,2,0:2:0:0:
243,225,254167,6,0,P|231:175|265:88,1,135.000005149842,4|2,0:1|3:2,0:0:0:0:
405,9,254505,2,0,B|353:1|321:54|321:54|361:100|413:82,1,202.500007724762,2|2,1:1|0:2,0:0:0:0:
479,117,254842,6,0,B|461:157|414:162|414:162|419:235|495:253,1,202.500007724762,4|2,3:1|0:2,0:0:0:0:
500,255,255179,1,2,1:1:0:0:
410,82,255347,6,0,B|391:54|405:9|405:9|357:98|275:117|206:67,1,315.000003004074,4|2,0:1|3:2,0:0:0:0:
0,197,255853,6,0,P|23:176|75:176,1,67.5000025749208,8|0,1:3|0:0,0:0:0:0:
129,142,256021,2,0,P|159:136|203:165,1,67.5000025749208,8|2,0:3|0:2,0:0:0:0:
239,295,256190,6,0,L|380:286,1,135.000005149842,0|0,3:1|0:2,0:0:0:0:
422,226,256443,1,2,0:2:0:0:
404,215,256527,2,0,L|474:210,1,67.5000025749208,8|2,1:2|0:2,0:0:0:0:
358,368,256696,2,0,L|428:363,1,67.5000025749208,8|0,3:2|0:2,0:0:0:0:
277,70,256864,6,0,L|269:144,1,67.5000025749208,2|0,0:1|0:0,0:0:0:0:
239,295,257033,2,0,B|209:280|209:280|175:286,1,67.5000025749208,2|0,3:1|0:0,0:0:0:0:
0,139,257201,2,0,B|8:170|8:170|34:193,1,67.5000025749208,2|0,1:1|0:0,0:0:0:0:
71,357,257370,2,0,B|83:326|83:326|74:292,1,67.5000025749208,2|0,0:1|0:0,0:0:0:0:
29,47,257538,6,0,B|38:-12|38:-12|83:137,1,202.500007724762,4|2,3:1|0:2,0:0:0:0:
88,141,257875,1,8,1:1:0:0:
150,303,258044,1,2,0:1:0:0:
152,270,258128,1,2,0:2:0:0:
131,244,258212,1,8,0:2:0:0:
74,292,258381,5,8,3:2:0:0:
210,360,258550,1,8,1:2:0:0:
339,279,258718,1,8,3:2:0:0:
278,117,258887,6,0,B|262:70|306:10|368:18|368:18|355:73,1,202.500007724762,4|0,3:1|0:0,0:0:0:0:
357,73,259224,1,8,0:0:0:0:
512,167,259392,6,0,P|473:127|418:122,1,112.5,8|0,0:1|0:2,0:0:0:0:
347,149,259729,2,0,P|302:160|276:197,1,90,8|0,3:1|1:0,0:0:0:0:
76,128,260066,6,0,P|64:111|66:73,1,33.7500012874604,2|2,0:2|0:2,0:0:0:0:
63,26,260235,1,6,3:2:0:0:
256,192,260319,12,0,261583,0:0:0:0:
