osu file format v14

[General]
AudioFilename: audio.mp3
AudioLeadIn: 0
PreviewTime: 156752
Countdown: 0
SampleSet: Drum
StackLeniency: 0.4
Mode: 0
LetterboxInBreaks: 0
WidescreenStoryboard: 0

[Editor]
DistanceSpacing: 1
BeatDivisor: 4
GridSize: 4
TimelineZoom: 2.939998

[Metadata]
Title:Cameo Lover
TitleUnicode:Cameo Lover
Artist:Kimbra
ArtistUnicode:Kimbra
Creator:Krisom
Version:Cameo
Source:
Tags:Vows English Pop Alternative Rock
BeatmapID:3950221
BeatmapSetID:1914777

[Difficulty]
HPDrainRate:6
CircleSize:4
OverallDifficulty:8
ApproachRate:8.4
SliderMultiplier:2.7
SliderTickRate:2

[Events]
//Background and Video events
Video,-833,"Video.mp4"
0,0,"Cameo Lover.jpg",0,0
//Break Periods
2,70141,73012
2,156397,168208
//Storyboard Layer 0 (Background)
//Storyboard Layer 1 (Fail)
//Storyboard Layer 2 (Pass)
//Storyboard Layer 3 (Foreground)
//Storyboard Layer 4 (Overlay)
//Storyboard Sound Samples

[TimingPoints]
1910,472.44094488189,4,3,1,70,1,0
32145,-125,4,3,1,70,0,0
37815,-285.714285714284,4,3,1,50,0,0
38051,-285.714285714284,4,3,1,55,0,0
38287,-285.714285714284,4,3,1,60,0,0
38523,-285.714285714284,4,3,1,65,0,0
38760,-285.714285714284,4,3,1,70,0,0
38996,-285.714285714284,4,3,1,75,0,0
39232,-285.714285714284,4,3,1,80,0,0
39468,-285.714285714284,4,3,1,85,0,0
39705,-90.9090909090909,4,3,1,90,0,1
39823,-83.3333333333333,4,3,1,90,0,0
41949,-83.3333333333333,4,3,1,5,0,0
42067,-76.9230769230769,4,3,1,90,0,0
42185,-76.9230769230769,4,3,1,5,0,0
42303,-71.4285714285714,4,3,1,90,0,0
42421,-71.4285714285714,4,3,1,5,0,0
42539,-76.9230769230769,4,3,1,90,0,0
42657,-76.9230769230769,4,3,1,5,0,0
42775,-83.3333333333333,4,3,1,90,0,0
42894,-83.3333333333333,4,3,1,5,0,0
43012,-90.9090909090909,4,3,1,90,0,0
43130,-90.9090909090909,4,3,1,5,0,0
43248,-100,4,3,1,90,0,0
43366,-100,4,3,1,5,0,0
43484,-90.9090909090909,4,3,1,90,0,0
45610,-83.3333333333333,4,3,1,90,0,0
45728,-83.3333333333333,4,3,1,5,0,0
45846,-76.9230769230769,4,3,1,90,0,0
45964,-76.9230769230769,4,3,1,5,0,0
46082,-71.4285714285714,4,3,1,90,0,0
46201,-71.4285714285714,4,3,1,5,0,0
46319,-76.9230769230769,4,3,1,90,0,0
46437,-76.9230769230769,4,3,1,5,0,0
46555,-83.3333333333333,4,3,1,90,0,0
46673,-83.3333333333333,4,3,1,5,0,0
46791,-90.9090909090909,4,3,1,90,0,0
46909,-90.9090909090909,4,3,1,5,0,0
47027,-100,4,3,1,90,0,0
47145,-100,4,3,1,5,0,0
47264,-90.9090909090909,4,3,1,90,0,1
47382,-90.9090909090909,4,3,1,90,0,0
48208,-111.111111111111,4,3,1,90,0,0
48563,-111.111111111111,4,3,1,5,0,0
48681,-83.3333333333333,4,3,1,90,0,0
50098,-111.111111111111,4,3,1,90,0,0
50453,-111.111111111111,4,3,1,5,0,0
50571,-83.3333333333333,4,3,1,90,0,0
51043,-90.9090909090909,4,3,1,90,0,0
52933,-90.9090909090909,4,3,1,90,0,0
53287,-90.9090909090909,4,3,1,5,0,0
53405,-83.3333333333333,4,3,1,90,0,0
53760,-83.3333333333333,4,3,1,5,0,0
53878,-90.9090909090909,4,3,1,90,0,0
54823,-90.9090909090909,4,3,1,90,0,1
69941,-100,4,3,1,70,0,0
103957,-125,4,3,1,70,0,0
109626,-285.714285714286,4,3,1,50,0,0
109862,-285.714285714286,4,3,1,55,0,0
110098,-285.714285714286,4,3,1,60,0,0
110334,-285.714285714286,4,3,1,65,0,0
110571,-285.714285714286,4,3,1,70,0,0
110807,-285.714285714286,4,3,1,75,0,0
111043,-285.714285714286,4,3,1,80,0,0
111279,-285.714285714286,4,3,1,85,0,0
111516,-90.9090909090909,4,3,1,90,0,1
113642,-125,4,3,1,90,0,1
113760,-125,4,3,1,5,0,1
113878,-100,4,3,1,90,0,1
113996,-100,4,3,1,5,0,1
114114,-83.3333333333333,4,3,1,90,0,1
114232,-83.3333333333333,4,3,1,5,0,1
114350,-90.9090909090909,4,3,1,90,0,1
114468,-90.9090909090909,4,3,1,5,0,1
114586,-100,4,3,1,90,0,1
114705,-100,4,3,1,5,0,1
114823,-111.111111111111,4,3,1,90,0,1
114941,-111.111111111111,4,3,1,5,0,1
115059,-125,4,3,1,90,0,1
115177,-125,4,3,1,5,0,1
115295,-90.9090909090909,4,3,1,90,0,1
117421,-125,4,3,1,90,0,1
117539,-125,4,3,1,5,0,1
117657,-100,4,3,1,90,0,1
117775,-100,4,3,1,5,0,1
117894,-83.3333333333333,4,3,1,90,0,1
118012,-83.3333333333333,4,3,1,5,0,1
118130,-90.9090909090909,4,3,1,90,0,1
118248,-90.9090909090909,4,3,1,5,0,1
118366,-100,4,3,1,90,0,1
118484,-100,4,3,1,5,0,1
118602,-111.111111111111,4,3,1,90,0,1
118720,-111.111111111111,4,3,1,5,0,1
118838,-125,4,3,1,90,0,1
118957,-125,4,3,1,5,0,1
119075,-90.9090909090909,4,3,1,90,0,1
141634,-83.3333333333333,4,3,1,90,0,0
141752,-83.3333333333333,4,3,1,90,0,1
147421,-76.9230769230769,4,3,1,90,0,1
148366,-83.3333333333333,4,3,1,90,0,1
149075,-111.111111111111,4,3,1,90,0,1
149783,-83.3333333333333,4,3,1,90,0,1
150964,-100,4,3,1,90,0,1
154980,-111.111111111111,4,3,1,60,0,0
171988,-166.666666666666,4,3,1,60,0,0
173287,-166.666666666666,4,3,1,5,0,0
173405,-83.3333333333333,4,3,1,70,0,0
173760,-83.3333333333333,4,3,1,5,0,0
173878,-166.666666666667,4,3,1,60,0,0
175177,-166.666666666667,4,3,1,5,0,0
175295,-76.923076923077,4,3,1,70,0,0
175649,-76.923076923077,4,3,1,5,0,0
175768,-181.818181818182,4,3,1,60,0,0
177067,-181.818181818182,4,3,1,5,0,0
177185,-74.0740740740741,4,3,1,70,0,0
177539,-74.0740740740741,4,3,1,5,0,0
177657,-200,4,3,1,60,0,0
178957,-200,4,3,1,5,0,0
179075,-71.4285714285714,4,3,1,70,0,0
179429,-71.4285714285714,4,3,1,5,0,0
179547,-222.222222222222,4,3,1,60,0,0
180846,-222.222222222222,4,3,1,5,0,0
180964,-68.9655172413793,4,3,1,70,0,0
181319,-68.9655172413793,4,3,1,5,0,0
181437,-250,4,3,1,60,0,0
182736,-250,4,3,1,5,0,0
182854,-66.6666666666667,4,3,1,70,0,0
183208,-66.6666666666667,4,3,1,5,0,0
183327,-285.714285714286,4,3,1,60,0,0
184626,-285.714285714286,4,3,1,5,0,0
184744,-64.5161290322581,4,3,1,60,0,0
185098,-64.5161290322581,4,3,1,5,0,0
185216,-333.333333333333,4,3,1,60,0,0
186161,-100,4,3,1,60,0,0
187106,-90.9090909090909,4,3,1,90,0,1
189232,-125,4,3,1,90,0,1
189350,-125,4,3,1,5,0,1
189468,-100,4,3,1,90,0,1
189586,-100,4,3,1,5,0,1
189705,-83.3333333333333,4,3,1,90,0,1
189823,-83.3333333333333,4,3,1,5,0,1
189941,-83.3333333333333,4,3,1,90,0,1
190059,-83.3333333333333,4,3,1,5,0,1
190177,-100,4,3,1,90,0,1
190295,-100,4,3,1,5,0,1
190413,-125,4,3,1,90,0,1
190531,-125,4,3,1,5,0,1
190649,-100,4,3,1,90,0,1
190768,-100,4,3,1,5,0,1
190886,-90.9090909090909,4,3,1,90,0,1
193012,-125,4,3,1,90,0,1
193130,-125,4,3,1,5,0,1
193248,-100,4,3,1,90,0,1
193366,-100,4,3,1,5,0,1
193484,-83.3333333333333,4,3,1,90,0,1
193602,-83.3333333333333,4,3,1,5,0,1
193720,-83.3333333333333,4,3,1,90,0,1
193838,-83.3333333333333,4,3,1,5,0,1
193957,-100,4,3,1,90,0,1
194075,-100,4,3,1,5,0,1
194193,-125,4,3,1,90,0,1
194311,-125,4,3,1,5,0,1
194429,-100,4,3,1,90,0,1
194547,-100,4,3,1,5,0,1
194665,-90.9090909090909,4,3,1,90,0,1
197382,-90.9090909090909,4,3,1,5,0,1
197500,-142.857142857143,4,3,1,90,0,1
197854,-166.666666666667,4,3,1,5,0,1
197972,-90.9090909090909,4,3,1,90,0,1
201161,-90.9090909090909,4,3,1,5,0,1
201279,-142.857142857143,4,3,1,90,0,1
201634,-166.666666666667,4,3,1,5,0,1
201752,-90.9090909090909,4,3,1,90,0,1
204350,-125,4,3,1,90,0,1
204468,-125,4,3,1,5,0,1
204586,-100,4,3,1,90,0,1
204705,-100,4,3,1,5,0,1
204823,-83.3333333333333,4,3,1,90,0,1
204941,-83.3333333333333,4,3,1,5,0,1
205059,-83.3333333333333,4,3,1,90,0,1
205177,-83.3333333333333,4,3,1,5,0,1
205295,-100,4,3,1,90,0,1
205413,-100,4,3,1,5,0,1
205531,-125,4,3,1,90,0,1
205649,-125,4,3,1,5,0,1
205768,-100,4,3,1,90,0,1
205886,-100,4,3,1,5,0,1
206004,-90.9090909090909,4,3,1,90,0,1
208130,-125,4,3,1,90,0,1
208248,-125,4,3,1,5,0,1
208366,-100,4,3,1,90,0,1
208484,-100,4,3,1,5,0,1
208602,-83.3333333333333,4,3,1,90,0,1
208720,-83.3333333333333,4,3,1,5,0,1
208838,-83.3333333333333,4,3,1,90,0,1
208957,-83.3333333333333,4,3,1,5,0,1
209075,-100,4,3,1,90,0,1
209193,-100,4,3,1,5,0,1
209311,-125,4,3,1,90,0,1
209429,-125,4,3,1,5,0,1
209547,-100,4,3,1,90,0,1
209665,-100,4,3,1,5,0,1
209783,-90.9090909090909,4,3,1,50,0,1
209901,-90.9090909090909,4,3,1,60,0,1
210138,-90.9090909090909,4,3,1,70,0,1
210374,-90.9090909090909,4,3,1,80,0,1
210610,-90.9090909090909,4,3,1,90,0,1
212500,-90.9090909090909,4,3,1,5,0,1
212618,-142.857142857143,4,3,1,90,0,1
212972,-90.9090909090909,4,3,1,5,0,1
213090,-90.9090909090909,4,3,1,90,0,1
213445,-90.9090909090909,4,3,1,50,0,1
213681,-90.9090909090909,4,3,1,60,0,1
213917,-90.9090909090909,4,3,1,70,0,1
214153,-90.9090909090909,4,3,1,80,0,1
214390,-90.9090909090909,4,3,1,90,0,1
216279,-90.9090909090909,4,3,1,5,0,1
216397,-142.857142857143,4,3,1,90,0,1
216752,-166.666666666667,4,3,1,5,0,1
216870,-166.666666666667,4,3,1,90,0,1
217337,480,4,3,1,70,1,0
217337,-90.9090909090909,4,3,1,70,0,0
219257,474.308300395257,4,3,1,70,1,0
221154,466.926070038911,4,3,1,70,1,0
223021,470.588235294118,4,3,1,70,1,0
224903,474.308300395257,4,3,1,60,1,0
226800,480,4,3,1,60,1,0
228720,472.44094488189,4,3,1,50,1,0
230609,464.037122969838,4,3,1,50,1,0
231550,461.538461538462,4,3,1,50,1,0
232011,480,4,3,1,50,1,0
232491,472.44094488189,4,3,1,50,1,0
234345,-90.9090909090909,4,3,1,5,0,0

[Colours]
Combo1 : 255,47,140
Combo2 : 92,87,115
Combo3 : 165,149,107
Combo4 : 48,72,241
Combo5 : 255,192,0
Combo6 : 252,16,22
Combo7 : 0,242,91
Combo8 : 255,115,206

[HitObjects]
352,348,1910,6,0,B|296:312|256:348|216:384|160:348,1,202.5
148,188,2382,2,0,P|204:232|204:292,1,135,2|0,0:0|0:0,0:0:0:0:
88,360,2854,1,0,0:0:0:0:
24,244,3091,1,0,0:0:0:0:
148,188,3327,1,2,0:0:0:0:
104,60,3563,1,0,0:0:0:0:
184,252,3799,2,0,B|284:252|284:252|308:228|308:228|376:228,1,202.5
480,300,4271,2,0,L|344:300,1,135,2|0,0:0|0:0,0:0:0:0:
388,188,4744,1,2,0:2:0:0:
384,200,5098,1,2,0:2:0:0:
380,212,5453,1,2,0:2:0:0:
376,228,5689,6,0,P|296:208|292:96,1,202.5
408,96,6161,2,0,L|376:227,1,135,2|0,0:0|0:0,0:0:0:0:
324,352,6634,1,0,0:0:0:0:
188,352,6870,1,0,0:0:0:0:
396,308,7106,2,0,P|340:272|276:287,1,135,2|0,0:0|0:0,0:0:0:0:
112,176,7579,2,0,B|130:193|130:193|149:201|149:201|163:216|163:216|182:223|182:223|193:236|193:236|209:241|209:241|223:256|223:256|242:264|242:264|256:278|256:278|275:286,1,202.5
456,304,8051,2,0,P|393:339|329:319,1,135,2|0,0:0|0:0,0:0:0:0:
368,112,8523,1,0,0:0:0:0:
388,256,8760,1,0,0:0:0:0:
320,40,8996,2,0,B|376:4|416:40|456:76|512:40,1,202.5,2|0,1:2|0:0,0:0:0:0:
503,225,9468,102,0,P|408:201|368:112,1,202.5
200,32,9941,1,2,0:0:0:0:
332,48,10177,1,0,0:0:0:0:
160,88,10413,1,0,0:0:0:0:
292,104,10649,1,0,0:0:0:0:
128,156,10886,1,2,0:0:0:0:
128,156,11122,1,0,0:0:0:0:
48,264,11358,2,0,P|116:288|180:280,1,135
21,349,11713,1,0,0:0:0:0:
21,349,11831,2,0,P|109:361|177:281,1,202.5,2|0,0:0|0:0,0:0:0:0:
306,295,12303,2,0,P|244:272|175:281,1,135
109,124,12775,1,2,0:0:0:0:
80,255,13012,1,0,0:0:0:0:
232,357,13248,6,0,B|146:338|146:338|83:323|80:255,1,202.5
128,128,13720,2,0,L|160:268,1,135,2|0,0:0|0:0,0:0:0:0:
192,72,14193,1,2,0:2:0:0:
196,84,14547,1,2,0:2:0:0:
200,96,14902,1,2,0:2:0:0:
204,108,15138,2,0,B|219:172|219:172|248:184|248:184|272:291,1,202.5
364,372,15610,2,0,L|332:232,1,135,2|0,0:0|0:0,0:0:0:0:
452,80,16082,1,0,0:0:0:0:
352,172,16319,1,0,0:0:0:0:
240,84,16555,2,0,P|160:124|148:236,1,202.5,2|0,1:2|0:0,0:0:0:0:
292,292,17027,102,0,B|236:256|196:292|156:328|100:292,1,202.5,2|0,0:2|0:0,0:0:0:0:
244,356,17500,1,2,0:0:0:0:
144,228,17736,1,0,0:0:0:0:
248,360,17972,1,2,0:2:0:0:
248,360,18208,1,0,0:0:0:0:
144,228,18445,1,2,0:0:0:0:
200,105,18681,2,0,P|129:158|158:49,1,270
276,92,19390,1,2,0:0:0:0:
380,4,19626,1,2,0:2:0:0:
380,4,19980,2,0,B|383:28|383:28|393:46|393:46|395:66|395:66|406:84|406:84|406:101|406:101|416:114|416:114|418:135|418:135|428:153|428:153|430:173|430:173|440:191,1,202.5,2|2,0:2|0:0,0:0:0:0:
488,316,20571,1,0,0:0:0:0:
480,328,20689,1,0,0:0:0:0:
472,340,20807,6,0,B|384:340|384:340|356:316|356:316|276:316,1,202.5,2|0,0:2|0:0,0:0:0:0:
96,356,21279,2,0,P|160:372|212:324,1,135,2|0,0:0|0:0,0:0:0:0:
108,172,21752,1,2,0:2:0:0:
144,300,21988,1,0,0:0:0:0:
156,116,22224,2,0,P|92:100|40:148,1,135,2|0,0:0|0:0,0:0:0:0:
209,330,22697,2,0,B|273:337|267:261|296:249|346:306|385:254,1,202.5,2|0,0:2|0:0,0:0:0:0:
454,158,23169,2,0,P|390:202|390:270,1,135,2|0,0:0|0:0,0:0:0:0:
324,116,23642,1,2,0:2:0:0:
460,240,23878,1,0,0:0:0:0:
276,56,24114,1,2,1:2:0:0:
276,56,24350,102,0,P|208:116|232:8,1,270
88,20,25059,1,2,0:0:0:0:
28,140,25295,1,0,0:0:0:0:
32,156,25413,1,0,0:0:0:0:
36,172,25531,2,0,B|64:232|117:222|170:213|198:273,1,202.5,2|0,0:2|0:0,0:0:0:0:
112,136,26004,1,2,0:0:0:0:
314,63,26240,2,0,P|237:164|113:137,1,270
184,24,26949,1,2,0:0:0:0:
312,61,27185,1,0,0:0:0:0:
328,68,27303,1,0,0:0:0:0:
344,76,27421,2,0,B|396:100|396:100|348:164|408:200|456:232|408:296,1,270,2|2,0:2|0:0,0:0:0:0:
256,352,28130,5,4,0:0:0:0:
256,352,28602,1,4,0:0:0:0:
256,352,29075,1,2,0:2:0:0:
164,252,29311,1,0,0:0:0:0:
60,168,29547,2,0,P|108:132|192:136,1,135,2|2,0:2|0:0,0:0:0:0:
164,252,30020,1,0,0:0:0:0:
12,116,30256,2,0,P|88:64|204:64,1,202.5
164,252,30728,1,2,0:0:0:0:
12,116,30964,2,0,B|57:69|99:131|129:123|133:47|195:62,1,202.5
136,168,31437,1,0,0:0:0:0:
256,16,31673,1,2,1:2:0:0:
376,168,31909,1,0,0:0:0:0:
507,326,32145,102,0,P|431:350|355:326,1,162
216,287,32618,2,0,B|256:251|256:251|296:287,1,108,2|0,0:0|0:0,0:0:0:0:
158,325,33090,2,0,P|82:350|6:326,1,162
80,136,33563,1,2,0:0:0:0:
80,248,33799,1,0,0:0:0:0:
36,44,34035,2,0,P|84:23|131:47,1,108
476,44,34508,2,0,P|428:22|382:46,1,108,2|0,0:0|0:0,0:0:0:0:
432,248,34980,1,0,0:0:0:0:
432,192,35098,1,2,0:0:0:0:
432,136,35216,1,0,0:0:0:0:
332,92,35453,2,0,B|256:44|180:92,1,162,2|0,0:0|0:0,0:0:0:0:
332,84,35925,6,0,B|256:36|180:84,1,162
80,136,36397,1,2,0:0:0:0:
80,192,36515,1,0,0:0:0:0:
80,248,36633,1,0,0:0:0:0:
132,344,36870,2,0,P|168:300|164:240,1,108
380,344,37342,2,0,P|344:300|348:240,1,108,2|0,0:0|0:0,0:0:0:0:
256,356,37815,86,2,L|256:24,1,330.749989906311,4|0,0:0|0:0,0:2:0:0:
432,148,39705,5,4,0:0:0:0:
312,280,39941,1,0,0:0:0:0:
312,104,40177,1,0,0:0:0:0:
432,236,40413,1,4,0:0:0:0:
432,56,40649,1,4,0:0:0:0:
256,32,40886,1,0,0:0:0:0:
80,56,41122,1,2,1:2:0:0:
80,236,41358,1,0,0:0:0:0:
200,104,41594,5,4,0:0:0:0:
200,280,41831,2,0,P|236:296|282:295,1,80.9999975280763
360,196,42067,2,0,P|356:157|329:114,1,87.749995983124
180,116,42303,2,2,P|157:153|151:205,1,94.4999971160889,4|0,0:0|0:0,0:1:0:0:
277,296,42539,2,0,P|314:283|351:247,1,87.749995983124,4|0,0:0|0:0,0:0:0:0:
331,116,42775,2,2,P|298:93|252:86,1,80.9999975280763,0|0,0:0|0:0,0:0:0:0:
150,203,43012,2,0,P|161:240|192:273,1,74.2500022659302,2|0,1:2|0:0,0:0:0:0:
349,250,43248,2,0,P|365:214|365:172,1,67.5
257,86,43484,101,4,0:0:0:0:
257,298,43720,1,0,0:0:0:0:
172,128,43956,1,0,0:0:0:0:
340,256,44192,1,4,0:0:0:0:
172,256,44428,1,4,0:0:0:0:
340,128,44665,1,0,0:0:0:0:
172,56,44901,1,2,1:2:0:0:
340,56,45137,1,0,0:0:0:0:
172,128,45374,5,4,0:0:0:0:
76,280,45611,2,0,L|35:201,1,80.9999975280763
50,195,45846,2,0,L|91:277,1,87.749995983124
102,268,46082,2,2,L|59:181,1,94.4999971160889,4|0,0:0|0:0,0:0:0:0:
71,176,46319,2,0,L|112:258,1,87.749995983124,4|0,0:0|0:0,0:0:0:0:
118,241,46555,2,2,L|77:162,1,80.9999975280763,0|0,0:0|0:0,0:0:0:0:
90,165,46791,2,0,L|130:239,1,74.2500022659302,2|0,1:2|0:0,0:0:0:0:
132,220,47028,2,0,L|98:160,1,67.5
68,88,47264,102,0,P|144:92|196:48,1,148.50000453186,4|0,3:0|0:0,0:0:0:0:
36,16,47736,1,0,0:0:0:0:
20,180,47972,1,4,0:0:0:0:
144,104,48208,2,0,P|116:184|148:272,1,182.249994438172,4|0,0:0|0:0,0:0:0:0:
306,286,48681,86,0,B|262:278|262:278|194:286|194:286|142:270,1,161.999995056153,2|0,1:2|0:0,0:0:0:0:
256,368,49153,37,4,0:0:0:0:
356,236,49390,1,0,0:0:0:0:
284,88,49626,1,0,0:0:0:0:
432,24,49862,1,4,0:0:0:0:
508,176,50098,2,0,B|448:196|416:172|420:156|392:116|344:132,1,182.249994438172,4|0,0:0|0:0,0:0:0:0:
225,48,50571,86,0,B|269:124|269:124|345:132,1,161.999995056153,2|0,1:2|0:0,0:0:0:0:
461,244,51043,6,0,P|394:219|334:267,1,148.50000453186,4|0,0:0|0:0,0:0:0:0:
434,129,51516,1,0,0:0:0:0:
401,288,51752,1,4,0:0:0:0:
342,135,51988,1,4,0:0:0:0:
476,226,52224,1,0,0:0:0:0:
388,59,52460,1,2,1:2:0:0:
348,218,52697,1,0,0:0:0:0:
262,79,52933,6,0,P|191:104|155:240,1,222.750006797791,4|0,0:0|0:0,0:0:0:0:
153,235,53405,102,0,B|208:196|262:233|257:255|320:284|379:229,1,242.999992584229
385,220,53878,5,0,0:0:0:0:
435,229,53996,1,0,0:0:0:0:
486,237,54114,85,0,0:0:0:0:
480,163,54232,1,0,1:0:0:0:
471,89,54350,1,0,1:0:0:0:
424,300,54586,1,4,0:0:0:0:
352,99,54823,101,4,1:2:0:0:
195,52,55059,1,0,0:0:0:0:
355,19,55295,1,0,1:0:0:0:
378,180,55531,1,0,0:0:0:0:
497,67,55768,1,2,1:2:0:0:
337,101,56004,1,2,0:2:0:0:
175,127,56240,1,0,1:0:0:0:
14,154,56476,1,0,0:0:0:0:
54,312,56712,6,0,B|95:284|119:303|147:323|202:289,1,148.50000453186,0|0,1:0|0:0,0:0:0:0:
471,227,57185,2,0,B|439:218|406:255|406:255|349:236|318:271,1,148.50000453186,0|0,1:0|0:0,0:0:0:0:
37,172,57657,2,0,P|92:222|154:192,1,148.50000453186,0|0,1:0|0:0,0:0:0:0:
483,102,58130,2,0,B|453:125|421:117|421:117|410:128|410:128|377:112|342:137,1,148.50000453186,0|0,1:0|0:0,0:0:0:0:
102,42,58602,101,0,1:0:0:0:
58,199,58838,1,0,0:0:0:0:
16,40,59075,1,0,1:0:0:0:
173,83,59311,1,0,0:0:0:0:
25,14,59547,1,2,1:2:0:0:
179,67,59783,1,2,0:2:0:0:
331,127,60020,1,2,1:2:0:0:
478,194,60256,1,0,0:0:0:0:
488,32,60492,6,2,P|379:35|330:127,1,222.750006797791,2|0,1:0|0:0,0:1:0:0:
323,123,60964,2,0,B|374:89|432:119|444:177|444:177|459:252,1,222.750006797791,2|0,1:2|0:0,0:0:0:0:
465,238,61437,2,0,B|366:251|366:251|354:274|354:274|299:265|262:293,1,222.750006797791,0|0,1:0|0:0,0:0:0:0:
258,303,61909,1,0,1:0:0:0:
404,374,62145,102,2,B|471:321|452:242|415:230|389:144|457:94,1,297.000009063721,2|0,0:2|0:0,0:2:0:0:
300,32,62854,1,0,1:0:0:0:
164,124,63090,1,0,0:0:0:0:
20,204,63327,2,0,P|84:220|104:296,1,148.50000453186,0|0,1:0|0:0,0:0:0:0:
63,101,63799,1,2,1:2:0:0:
108,374,64035,6,2,B|41:321|60:242|97:230|123:144|55:94,1,297.000009063721,2|0,0:2|0:0,0:2:0:0:
212,32,64744,1,0,1:0:0:0:
348,124,64980,1,0,0:0:0:0:
492,204,65217,2,0,P|428:220|408:296,1,148.50000453186,0|0,1:0|0:0,0:0:0:0:
449,101,65689,1,2,1:2:0:0:
400,300,65925,102,2,B|336:264|256:292|256:308|176:336|112:300,1,297.000009063721,2|0,0:2|0:0,0:2:0:0:
128,84,66634,1,0,1:0:0:0:
172,240,66870,1,0,0:0:0:0:
256,56,67106,1,0,1:0:0:0:
256,296,67342,1,0,0:0:0:0:
384,84,67579,1,0,1:0:0:0:
340,240,67815,1,0,0:0:0:0:
500,36,68051,6,0,P|435:97|379:81,1,148.50000453186,0|0,1:0|0:0,0:0:0:0:
28,124,68523,2,0,B|69:152|93:133|121:113|176:147,1,148.50000453186,0|0,1:0|0:0,0:0:0:0:
456,240,68996,2,0,B|436:260|384:242|384:242|351:279|319:270,1,148.50000453186,0|0,1:0|0:0,0:0:0:0:
104,296,69468,2,0,P|184:312|252:336,1,148.50000453186,0|0,1:0|0:0,0:0:0:0:
408,371,69941,21,4,0:1:0:0:
160,348,73720,6,0,B|216:312|256:348|296:384|352:348,1,202.5
512,258,74193,2,0,P|448:248|400:292,1,135,2|0,0:0|0:0,0:0:0:0:
364,164,74665,1,0,0:0:0:0:
492,128,74901,1,0,0:0:0:0:
456,260,75138,1,2,0:0:0:0:
412,92,75374,2,0,B|312:116|312:116|264:128|192:124|168:60,1,270
300,31,76082,2,0,L|168:62,1,135,2|0,0:0|0:0,0:0:0:0:
36,92,76555,1,2,0:2:0:0:
128,192,76791,1,2,0:2:0:0:
36,292,77027,1,2,0:3:0:0:
168,322,77264,1,2,0:2:0:0:
300,348,77500,6,0,B|364:355|358:279|387:267|437:324|476:272,1,202.5,0|0,0:2|0:0,0:0:0:0:
400,100,77972,2,0,P|388:164|425:218,1,135,2|0,0:3|0:0,0:0:0:0:
500,12,78445,1,0,0:0:0:0:
400,100,78681,2,0,B|352:92|352:92|316:100|316:100|264:92,1,135,0|2,0:0|0:0,0:0:0:0:
53,60,79153,2,0,B|169:80|169:80|128:112|120:160,1,202.5
136,220,79626,1,0,0:0:0:0:
12,168,79862,1,2,0:0:0:0:
32,300,80098,2,0,L|84:172,1,135,0|2,0:0|0:2,0:0:0:0:
112,348,80571,1,0,0:0:0:0:
12,168,80807,2,0,P|24:80|124:60,1,202.5,2|0,1:2|0:0,0:0:0:0:
316,64,81279,102,0,B|295:76|295:76|274:79|274:79|257:90|257:90|236:92|236:92|223:103|223:103|207:103|207:103|189:114|189:114|169:117|169:117|152:128|152:128|131:131,1,202.5,2|0,0:2|0:0,0:0:0:0:
11,104,81752,2,0,P|58:57|124:60,1,135,2|0,0:0|0:0,0:0:0:0:
252,96,82224,1,0,0:0:0:0:
360,16,82460,1,2,0:2:0:0:
376,152,82697,1,2,0:0:0:0:
376,152,82933,1,2,0:2:0:0:
484,232,83169,2,0,P|424:284|368:288,1,135
308,36,83642,1,2,0:0:0:0:
376,152,83878,1,2,0:2:0:0:
371,288,84114,2,2,B|315:252|275:288|235:324|179:288,1,202.5,2|0,0:2|0:0,0:2:0:0:
40,157,84586,2,0,B|97:199|97:199|111:262,1,135,2|0,0:0|0:0,0:0:0:0:
80,43,85059,6,0,P|35:91|39:156,1,135
285,48,85531,2,0,L|145:72,1,135,2|0,0:0|0:0,0:0:0:0:
285,48,86004,2,0,B|314:94|370:96|377:75|437:78|467:121,1,202.5,2|0,0:2|0:0,0:0:0:0:
392,163,86476,1,2,0:0:0:0:
358,12,86712,2,0,P|437:13|464:119,1,202.5
392,163,87185,1,0,0:0:0:0:
320,72,87421,1,2,0:0:0:0:
192,72,87657,1,0,0:0:0:0:
120,163,87894,2,0,L|144:303,1,135,2|0,0:2|0:0,0:0:0:0:
43,144,88366,2,0,B|55:216|55:216|68:290|144:296,1,202.5,2|0,1:2|0:0,0:0:0:0:
152,92,88838,102,0,P|113:139|43:144,1,135,2|0,0:2|0:0,0:0:0:0:
16,312,89311,2,0,P|55:359|125:364,1,135,2|0,0:0|0:0,0:0:0:0:
132,126,89783,1,2,0:2:0:0:
99,257,90020,1,0,0:0:0:0:
2,162,90256,1,2,0:0:0:0:
160,200,90492,2,0,B|305:164|305:164|329:181|329:181|417:159,1,270
256,68,91201,1,2,0:0:0:0:
120,16,91437,1,2,0:2:0:0:
120,16,91673,2,2,B|117:40|117:40|107:58|107:58|105:78|105:78|94:96|94:96|94:113|94:113|84:126|84:126|82:147|82:147|72:165|72:165|70:185|70:185|60:203,1,202.5,2|0,0:2|0:0,0:2:0:0:
0,160,92145,1,2,0:0:0:0:
36,284,92382,1,0,0:0:0:0:
44,292,92500,1,0,0:0:0:0:
52,300,92618,22,0,B|108:336|148:300|188:264|244:300,1,202.5,2|0,0:2|0:0,0:0:0:0:
440,316,93090,2,0,B|376:340|376:340|308:328,1,135,2|0,0:0|0:0,0:0:0:0:
348,120,93563,1,2,0:2:0:0:
364,252,93799,2,0,B|300:276|300:276|244:240|168:256,1,202.5
29,313,94271,2,0,P|122:335|171:255,1,202.5
128,196,94744,1,0,0:0:0:0:
4,248,94980,1,2,0:0:0:0:
16,112,95216,1,0,0:0:0:0:
128,196,95453,2,0,P|44:204|0:180,1,135,2|0,0:2|0:0,0:0:0:0:
84,20,95925,1,2,1:2:0:0:
128,196,96161,6,2,B|172:240|220:192|256:168|292:192|340:240|384:196,1,270,2|0,0:2|0:0,0:2:0:0:
452,40,96870,2,0,P|386:50|346:102,1,135,2|0,0:0|0:0,0:0:0:0:
352,116,97224,1,0,0:0:0:0:
356,128,97342,1,2,0:2:0:0:
396,256,97579,1,0,0:0:0:0:
436,128,97815,1,2,0:0:0:0:
308,88,98051,2,0,B|240:72|240:72|120:44|56:124,1,270
152,220,98760,1,2,0:0:0:0:
52,312,98996,1,0,0:0:0:0:
64,320,99114,1,0,0:0:0:0:
76,328,99232,2,0,P|144:336|192:288,1,135,2|0,0:2|0:0,0:0:0:0:
88,128,99705,1,2,0:0:0:0:
116,260,99941,1,0,0:0:0:0:
144,72,100177,86,0,P|72:48|8:140,1,202.5,2|0,0:2|0:0,0:0:0:0:
40,270,100649,2,0,L|7:136,1,135,2|0,0:0|0:0,0:0:0:0:
48,8,101122,1,2,0:2:0:0:
160,84,101358,2,0,B|216:120|256:84|296:48|352:84,1,202.5,2|0,0:2|0:0,0:0:0:0:
408,136,101831,1,0,0:0:0:0:
476,20,102067,2,0,B|464:84|464:84|484:124|484:124|464:224,1,202.5
448,288,102539,1,2,0:0:0:0:
328,352,102775,2,2,B|269:376|253:302|222:298|190:366|138:327,1,202.5,0|0,0:0|0:0,0:2:0:0:
144,256,103248,1,0,0:0:0:0:
256,76,103484,1,2,1:2:0:0:
368,256,103720,1,0,0:0:0:0:
506,57,103957,70,0,B|474:57|466:33|430:17|394:33|386:57|354:57,1,162
212,100,104429,2,0,B|240:108|256:129|256:129|272:108|300:100,1,108,2|0,0:0|0:0,0:0:0:0:
158,57,104901,2,0,B|126:57|118:33|82:17|46:33|38:57|6:57,1,162
80,248,105374,1,2,0:0:0:0:
80,136,105610,1,0,0:0:0:0:
36,340,105846,2,0,P|84:361|131:337,1,108
476,340,106319,2,0,P|428:362|382:338,1,108,2|0,0:0|0:0,0:0:0:0:
432,136,106791,1,0,0:0:0:0:
432,192,106909,1,2,0:0:0:0:
432,248,107027,1,0,0:0:0:0:
332,288,107264,2,0,B|296:272|296:308|256:328|216:308|216:272|180:288,1,162,2|0,0:0|0:0,0:0:0:0:
332,300,107736,6,0,B|256:348|180:300,1,162
80,248,108208,1,2,0:0:0:0:
80,192,108326,1,0,0:0:0:0:
80,136,108444,1,0,0:0:0:0:
132,40,108681,2,0,P|168:84|164:144,1,108
380,40,109153,2,0,P|344:84|348:144,1,108,2|0,0:0|0:0,0:0:0:0:
256,356,109626,86,2,L|256:24,1,330.749989906311,4|0,0:0|0:0,0:0:0:0:
109,152,111516,101,4,1:2:0:0:
104,300,111752,1,0,0:0:0:0:
24,176,111988,1,0,1:0:0:0:
160,232,112224,1,0,0:0:0:0:
8,112,112461,1,2,1:2:0:0:
204,44,112697,1,2,0:2:0:0:
136,144,112933,1,0,1:0:0:0:
164,244,113169,1,0,0:0:0:0:
236,296,113405,5,0,1:0:0:0:
336,260,113642,2,0,P|360:280|396:280,1,54
432,192,113878,2,0,P|432:164|476:124,1,67.5,0|0,1:0|0:0,0:0:0:0:
336,32,114114,2,2,P|356:60|364:108,1,80.9999975280763,2|0,0:2|0:0,0:1:0:0:
240,88,114350,2,0,P|216:56|208:16,1,74.2500022659302,0|0,1:0|0:0,0:0:0:0:
112,88,114586,2,2,P|132:108|144:148,1,67.5,0|0,0:0|0:0,0:1:0:0:
64,196,114823,2,0,P|40:224|32:256,1,60.7499981460572,0|0,1:0|0:0,0:0:0:0:
24,328,115059,2,0,P|52:320|92:324,1,54
240,356,115295,101,0,1:0:0:0:
352,260,115531,1,0,0:0:0:0:
204,288,115768,1,0,1:0:0:0:
340,344,116004,1,0,0:0:0:0:
368,168,116240,1,2,1:2:0:0:
480,344,116476,1,2,0:2:0:0:
508,196,116713,1,2,1:2:0:0:
428,260,116949,1,0,0:0:0:0:
340,280,117185,5,0,1:0:0:0:
236,312,117421,2,0,P|216:320|180:320,1,54
116,236,117657,2,0,P|84:216|64:184,1,67.5,0|0,1:0|0:0,0:0:0:0:
156,96,117894,2,2,P|164:52|200:16,1,80.9999975280763,2|0,0:2|0:0,0:1:0:0:
304,44,118130,2,0,P|340:28|376:32,1,74.2500022659302,0|0,1:0|0:0,0:0:0:0:
356,132,118366,2,2,P|376:152|388:192,1,67.5,0|0,0:0|0:0,0:1:0:0:
332,268,118602,2,0,P|320:300|292:324,1,60.7499981460572,0|0,1:0|0:0,0:0:0:0:
216,300,118838,2,0,P|192:292|168:272,1,54
64,328,119075,102,0,P|76:248|48:184,1,148.50000453186,0|0,1:0|0:0,0:0:0:0:
152,60,119547,1,0,1:0:0:0:
4,128,119783,1,0,0:0:0:0:
168,132,120020,2,0,P|240:136|296:88,1,148.50000453186,0|0,1:0|0:0,0:0:0:0:
448,101,120492,1,2,1:2:0:0:
405,373,120728,6,2,B|385:227|385:227|377:143|448:100,1,297.000009063721,2|0,0:2|0:0,0:2:0:0:
296,36,121437,1,0,1:0:0:0:
460,28,121673,1,0,0:0:0:0:
316,104,121910,2,0,P|252:120|176:80,1,148.50000453186,0|0,1:0|0:0,0:0:0:0:
332,20,122382,1,2,1:2:0:0:
400,300,122618,102,2,B|336:344|284:280|256:292|228:280|176:344|112:300,1,297.000009063721,2|0,0:2|0:0,0:2:0:0:
128,84,123327,1,0,1:0:0:0:
156,244,123563,1,0,0:0:0:0:
352,144,123799,1,0,1:0:0:0:
160,144,124035,1,0,0:0:0:0:
356,244,124272,1,0,1:0:0:0:
384,84,124508,1,0,0:0:0:0:
112,48,124744,6,0,P|184:40|248:88,1,148.50000453186,0|0,1:0|0:0,0:0:0:0:
492,192,125216,2,0,B|449:175|427:214|398:256|356:226,1,148.50000453186,0|0,1:0|0:0,0:0:0:0:
152,328,125689,2,0,B|172:348|224:330|224:330|257:367|289:358,1,148.50000453186,0|0,1:0|0:0,0:0:0:0:
320,292,126043,1,0,1:0:0:0:
359,228,126161,1,0,1:0:0:0:
412,368,126397,1,0,0:0:0:0:
464,120,126634,101,4,0:2:0:0:
448,268,126870,1,0,0:0:0:0:
388,100,127106,1,0,1:0:0:0:
496,204,127342,1,0,0:0:0:0:
504,24,127579,1,2,1:2:0:0:
364,72,127815,1,2,0:2:0:0:
224,20,128051,1,0,1:0:0:0:
84,68,128287,1,0,0:0:0:0:
8,196,128523,6,0,B|49:224|73:205|101:185|156:219,1,148.50000453186,0|0,1:0|0:0,0:0:0:0:
436,268,128996,2,0,B|404:259|371:296|371:296|314:277|283:312,1,148.50000453186,0|0,1:0|0:0,0:0:0:0:
172,104,129468,2,0,P|248:64|324:92,1,148.50000453186,0|0,1:0|0:0,0:0:0:0:
436,268,129941,2,0,B|443:219|443:219|446:157|404:131,1,148.50000453186,0|0,1:0|0:0,0:0:0:0:
172,104,130413,101,0,1:0:0:0:
59,201,130649,1,0,0:0:0:0:
133,38,130886,1,0,1:0:0:0:
150,185,131122,1,0,0:0:0:0:
60,14,131358,1,2,1:2:0:0:
188,88,131594,1,2,0:2:0:0:
336,84,131831,1,2,1:2:0:0:
464,158,132067,1,0,0:0:0:0:
488,32,132303,6,2,P|383:0|335:83,1,222.750006797791,2|0,1:0|0:0,0:1:0:0:
343,89,132775,2,0,B|304:134|236:116|238:97|166:90|135:131,1,222.750006797791,2|0,1:2|0:0,0:0:0:0:
142,136,133248,2,0,B|117:223|117:223|91:301|6:285,1,222.750006797791,0|0,1:0|0:0,0:0:0:0:
3,275,133720,1,0,1:0:0:0:
164,379,133956,102,2,B|86:337|109:254|109:254|151:101,1,297.000009063721,2|0,0:2|0:0,0:2:0:0:
7,61,134665,1,0,1:0:0:0:
154,75,134901,1,0,0:0:0:0:
302,87,135138,2,0,B|345:91|345:91|411:99|433:151,1,148.50000453186,0|0,1:0|0:0,0:0:0:0:
509,275,135610,1,2,1:2:0:0:
348,379,135846,6,2,B|426:337|403:254|403:254|361:101,1,297.000009063721,2|0,0:2|0:0,0:2:0:0:
505,61,136555,1,0,1:0:0:0:
358,75,136791,1,0,0:0:0:0:
210,87,137028,2,0,B|167:91|167:91|101:99|79:151,1,148.50000453186,0|0,1:0|0:0,0:0:0:0:
60,292,137500,1,2,1:2:0:0:
115,145,137736,102,2,B|163:109|207:109|207:109|303:109|303:109|347:109|395:145,1,297.000009063721,2|0,0:2|0:0,0:2:0:0:
448,16,138445,1,0,1:0:0:0:
384,228,138681,1,0,0:0:0:0:
164,104,138917,1,0,1:0:0:0:
348,104,139153,1,0,0:0:0:0:
128,228,139390,1,0,1:0:0:0:
64,16,139626,1,0,0:0:0:0:
352,46,139862,6,0,B|310:41|291:80|291:80|250:66|220:90,1,148.50000453186,0|0,1:0|0:0,0:0:0:0:
16,148,140334,2,0,B|47:183|82:157|116:132|154:176,1,148.50000453186,0|0,1:0|0:0,0:0:0:0:
372,230,140807,2,0,P|322:295|251:314,1,148.50000453186,0|0,1:0|0:0,0:0:0:0:
51,319,141279,2,0,P|120:317|199:359,1,148.50000453186,0|0,1:0|0:0,0:0:0:0:
308,84,141752,101,4,1:1:0:0:
352,256,141988,1,0,0:0:0:0:
408,36,142224,1,0,1:0:0:0:
400,196,142460,1,0,0:0:0:0:
512,64,142697,2,2,B|420:164|304:100|320:84|264:52|212:80,1,323.999990112305,0|0,1:0|1:0,0:1:0:0:
128,220,143405,1,2,0:1:0:0:
12,108,143642,6,0,P|56:48|152:56,1,161.999995056153,0|0,1:0|0:0,0:0:0:0:
68,332,144114,2,0,B|60:252|60:252|28:220|28:220|24:184,1,161.999995056153,0|0,1:0|0:0,0:0:0:0:
276,328,144586,2,0,B|236:312|211:350|182:392|128:368,1,161.999995056153,0|0,1:0|0:0,0:0:0:0:
492,320,145059,2,0,B|468:344|416:326|416:326|383:363|340:352,1,161.999995056153,0|0,1:0|0:0,0:0:0:0:
496,104,145531,101,0,1:0:0:0:
412,244,145768,1,0,0:0:0:0:
416,84,146004,1,0,1:0:0:0:
412,244,146240,1,0,0:0:0:0:
328,104,146476,1,0,1:0:0:0:
492,276,146712,2,2,B|468:336|384:352|344:320|360:280|248:244|204:304,1,323.999990112305,2|0,0:2|0:0,0:1:0:0:
64,344,147421,6,2,B|82:297|38:237|38:237|114:261|186:221|130:189|210:141|282:173|282:173|242:109|322:13|398:81|406:109,1,614.249971881868,0|0,1:0|2:0,0:1:0:0:
342,137,148366,2,0,P|438:48|425:177,1,323.999990112305,2|0,1:0|1:0,0:0:0:0:
436,172,149075,102,2,P|437:32|342:137,1,364.499988876343,2|0,1:0|1:0,0:0:0:0:
316,288,150020,1,0,0:0:0:0:
132,232,150256,1,0,1:0:0:0:
208,316,150492,1,0,0:0:0:0:
372,212,150728,1,0,1:0:0:0:
328,340,150964,6,2,B|288:284|336:212|384:236|436:172|380:108,1,270,0|0,0:0|0:0,0:1:0:0:
188,64,151673,2,0,P|248:96|316:80,1,135,0|0,1:0|0:0,0:0:0:0:
100,200,152145,2,0,B|88:150|88:150|74:100|105:74,1,135,0|0,1:0|0:0,0:0:0:0:
13,284,152618,2,0,B|40:263|40:263|103:283|103:283|131:263,1,135,0|0,1:0|0:0,0:0:0:0:
47,348,153090,101,0,1:0:0:0:
100,200,153327,1,0,0:0:0:0:
279,316,153563,5,0,1:0:0:0:
131,263,153800,1,0,0:0:0:0:
289,83,154035,101,0,1:0:0:0:
208,285,154271,1,0,0:0:0:0:
148,30,154508,5,0,1:0:0:0:
439,123,154744,1,0,0:0:0:0:
309,35,154980,5,6,0:1:0:0:
47,346,170098,5,0,0:0:0:0:
66,327,170334,1,0,0:0:0:0:
87,309,170571,1,0,0:0:0:0:
107,292,170807,1,0,0:0:0:0:
52,188,171043,101,0,0:0:0:0:
71,169,171279,1,0,0:0:0:0:
188,308,171516,1,2,1:2:0:0:
477,42,171988,6,0,P|409:65|458:106,1,161.999995056153,4|0,1:2|0:0,0:0:0:0:
485,298,172697,1,0,1:0:0:0:
485,298,172933,2,0,P|480:230|463:165,1,121.499996292114,0|0,1:0|0:0,0:0:0:0:
461,161,173405,6,0,P|472:247|371:353,1,242.999992584229,2|0,1:2|0:0,0:0:0:0:
243,339,173878,86,0,P|250:272|313:316,1,161.999995056153,0|0,1:3|0:0,0:0:0:0:
44,345,174586,1,0,1:0:0:0:
44,345,174823,2,0,B|76:328|100:349|123:368|159:345,1,121.499996292114,0|0,1:0|0:0,0:0:0:0:
183,351,175295,70,0,B|107:306|122:242|122:242|154:115,1,263.249987949372,2|0,1:2|0:0,0:0:0:0:
110,61,175768,54,0,P|122:9|182:47,1,148.50000453186,0|0,1:0|0:0,0:0:0:0:
79,222,176476,1,0,1:0:0:0:
79,222,176712,2,0,P|122:186|149:125,1,111.375003398895,0|0,1:0|0:0,0:0:0:0:
149,114,177185,22,0,B|109:178|160:232|201:205|256:276|215:350,1,273.375001042843,2|0,1:2|0:0,0:0:0:0:
95,333,177657,70,0,P|141:332|103:283,1,135,0|0,1:0|0:0,0:0:0:0:
22,158,178366,1,0,1:0:0:0:
22,158,178602,2,0,B|10:196|20:223|20:223|32:265,1,101.25,0|0,1:0|0:0,0:0:0:0:
48,278,179075,54,0,P|29:201|166:81,1,283.499991348267,2|0,1:2|0:0,0:0:0:0:
197,16,179547,70,0,P|249:18|232:77,1,121.499996292114,0|0,1:0|0:0,0:0:0:0:
147,167,180256,1,0,1:0:0:0:
147,167,180492,2,0,P|148:123|170:74,1,91.1249972190858,0|0,1:0|0:0,0:0:0:0:
174,58,180964,6,0,B|159:132|93:149|93:149|88:178|88:178|19:192|-1:271,1,293.625008960724,0|0,1:0|0:0,0:0:0:0:
82,306,181437,86,0,P|95:255|139:269,1,108,0|0,1:0|0:0,0:0:0:0:
270,318,182145,1,0,1:0:0:0:
270,318,182382,2,0,P|233:331|195:321,1,81,0|0,1:0|0:0,0:0:0:0:
178,302,182854,70,0,B|222:357|276:346|276:346|355:329|355:329|412:319|424:254,1,303.750011587143,2|0,1:2|0:0,0:0:0:0:
388,187,183327,54,0,P|397:149|423:182,1,94.4999971160889,0|0,1:0|0:0,0:0:0:0:
343,264,184035,1,0,1:0:0:0:
343,264,184271,2,0,P|361:301|358:336,1,70.8749978370667,0|0,1:0|0:0,0:0:0:0:
369,350,184744,22,0,P|376:172|468:85,1,313.875002394676,2|0,1:2|0:0,0:0:0:0:
501,162,185216,70,0,P|466:188|498:202,1,80.9999975280763,0|0,1:0|0:0,0:0:0:0:
493,215,186161,53,8,0:0:0:0:
469,190,186279,1,4,0:0:0:0:
432,172,186397,1,4,0:0:0:0:
384,172,186516,1,0,1:0:0:0:
351,105,186634,1,2,1:2:0:0:
351,105,187106,22,0,P|286:68|205:80,1,148.50000453186,4|0,0:2|0:0,0:0:0:0:
283,317,187579,2,0,P|348:279|378:203,1,148.50000453186,0|0,1:0|0:0,0:0:0:0:
133,153,188051,2,0,P|133:228|184:292,1,148.50000453186,0|0,1:0|0:0,0:0:0:0:
378,230,188523,2,0,P|378:155|327:91,1,148.50000453186,0|0,1:0|0:0,0:0:0:0:
256,304,188996,5,0,1:0:0:0:
256,80,189232,2,0,P|224:84|188:104,1,54,2|0,0:2|0:0,0:0:0:0:
120,20,189468,2,0,P|152:28|196:16,1,67.5,0|0,1:0|0:0,0:0:0:0:
320,32,189705,2,2,P|336:64|332:112,1,80.9999975280763,2|0,0:2|0:0,0:0:0:0:
360,200,189941,2,0,P|388:172|440:168,1,80.9999975280763,2|0,1:2|0:0,0:0:0:0:
444,312,190177,2,2,P|440:280|424:248,1,67.5,0|0,0:0|0:0,0:0:0:0:
316,312,190413,2,0,P|340:312|384:300,1,54,0|0,1:0|0:0,0:0:0:0:
491,240,190649,2,0,P|457:241|424:248,1,67.5,2|0,0:2|0:0,0:0:0:0:
316,312,190886,102,0,P|232:324|176:296,1,148.50000453186,0|0,1:0|0:0,0:0:0:0:
329,80,191358,2,0,P|382:146|386:209,1,148.50000453186,0|0,1:0|0:0,0:0:0:0:
122,183,191831,2,0,P|153:105|205:70,1,148.50000453186,0|0,1:0|0:0,0:0:0:0:
389,200,192303,2,0,P|358:278|306:313,1,148.50000453186,0|0,1:2|0:0,0:0:0:0:
256,24,192775,5,0,1:0:0:0:
256,360,193012,2,0,P|224:356|184:344,1,54,2|0,0:2|0:0,0:0:0:0:
88,296,193248,2,0,P|120:288|164:300,1,67.5,0|0,1:0|0:0,0:0:0:0:
0,288,193485,2,2,P|16:256|12:208,1,80.9999975280763,2|0,0:2|0:0,0:0:0:0:
136,200,193721,2,0,P|108:172|56:168,1,80.9999975280763,2|0,1:2|0:0,0:0:0:0:
60,40,193957,2,2,P|36:72|40:104,1,67.5,0|0,0:0|0:0,0:0:0:0:
168,92,194193,2,0,P|144:92|100:80,1,54,0|0,1:0|0:0,0:0:0:0:
252,80,194429,2,0,P|286:81|316:96,1,67.5,2|0,0:2|0:0,0:0:0:0:
376,256,194665,101,0,1:0:0:0:
308,288,194901,1,0,0:0:0:0:
196,280,195138,1,0,1:0:0:0:
100,164,195374,1,0,0:0:0:0:
256,64,195610,2,2,B|332:32|416:96|352:124|440:188|512:148,1,297.000009063721,0|0,1:0|1:0,0:2:0:0:
468,44,196319,1,0,0:0:0:0:
396,68,196555,1,0,1:0:0:0:
292,24,196791,1,0,0:0:0:0:
152,76,197027,2,0,P|112:144|160:280,1,222.750006797791,2|0,1:2|0:0,0:0:0:0:
188,292,197500,2,0,P|120:268|48:304,1,141.749995674133,0|0,1:0|0:0,0:0:0:0:
152,76,197972,1,0,1:0:0:0:
144,88,198445,5,0,1:0:0:0:
212,56,198681,1,0,0:0:0:0:
324,64,198918,1,0,1:0:0:0:
420,180,199154,1,0,0:0:0:0:
320,336,199390,2,2,B|200:348|200:348|80:360|56:276,1,297.000009063721,0|0,1:0|1:0,0:2:0:0:
44,164,200099,1,0,0:0:0:0:
112,192,200335,1,0,1:0:0:0:
176,100,200571,1,0,0:0:0:0:
320,68,200807,2,0,B|376:68|396:136|396:136|444:80|496:108,1,222.750006797791,2|0,1:2|0:0,0:0:0:0:
512,88,201280,2,0,P|456:92|404:24,1,141.749995674133,0|0,1:0|0:0,0:0:0:0:
408,296,201752,1,0,1:0:0:0:
148,188,202224,102,0,P|116:116|144:52,1,148.50000453186,0|0,1:0|0:0,0:0:0:0:
364,196,202697,2,0,P|396:268|368:332,1,148.50000453186,0|0,1:0|0:0,0:0:0:0:
260,84,203169,2,0,P|332:52|396:80,1,148.50000453186,0|0,1:0|0:0,0:0:0:0:
252,300,203642,2,0,P|180:332|116:304,1,148.50000453186,0|0,1:0|0:0,0:0:0:0:
364,196,204114,5,0,1:0:0:0:
148,196,204350,2,0,P|152:164|172:128,1,54,2|0,0:2|0:0,0:0:0:0:
280,80,204586,2,0,P|248:96|200:100,1,67.5,0|0,1:0|0:0,0:0:0:0:
84,12,204823,2,2,P|68:44|72:92,1,80.9999975280763,2|0,0:2|0:0,0:0:0:0:
4,228,205059,2,0,P|32:200|36:148,1,80.9999975280763,2|0,1:2|0:0,0:0:0:0:
168,256,205295,2,2,P|160:232|124:204,1,67.5,0|0,0:0|0:0,0:0:0:0:
224,312,205531,2,0,P|248:312|292:300,1,54,0|0,1:0|0:0,0:0:0:0:
400,252,205768,2,0,P|364:268|344:292,1,67.5,2|0,0:2|0:0,0:0:0:0:
368,188,206004,102,0,P|400:116|372:52,1,148.50000453186,0|0,1:0|0:0,0:0:0:0:
144,196,206477,2,0,P|112:268|140:332,1,148.50000453186,0|0,1:0|0:0,0:0:0:0:
252,80,206949,2,0,P|180:48|116:76,1,148.50000453186,0|0,1:0|0:0,0:0:0:0:
260,304,207422,2,0,P|332:336|396:308,1,148.50000453186,0|0,1:0|0:0,0:0:0:0:
144,196,207894,5,0,1:0:0:0:
368,188,208130,2,0,P|364:156|344:120,1,54,2|0,0:2|0:0,0:0:0:0:
248,40,208366,2,0,P|264:76|304:92,1,67.5,0|0,1:0|0:0,0:0:0:0:
448,72,208603,2,2,P|416:56|368:60,1,80.9999975280763,2|0,0:2|0:0,0:0:0:0:
406,191,208839,2,0,P|390:155|342:135,1,80.9999975280763,2|0,1:2|0:0,0:0:0:0:
476,228,209075,2,2,P|452:256|408:268,1,67.5,0|0,0:0|0:0,0:0:0:0:
300,288,209311,2,0,P|324:288|368:300,1,54,0|0,1:0|0:0,0:0:0:0:
200,368,209548,2,0,P|239:365|266:349,1,67.5,2|0,0:2|0:0,0:0:0:0:
354,135,209783,101,2,1:0:0:0:
296,88,210019,1,2,0:2:0:0:
184,88,210256,1,2,1:0:0:0:
76,188,210492,1,2,0:2:0:0:
160,352,210728,2,2,B|230:385|271:314|300:321|326:305|388:360|444:306,1,297.000009063721,2|0,1:1|1:0,0:0:0:0:
472,200,211437,1,2,0:2:0:0:
404,228,211673,1,2,1:1:0:0:
376,120,211909,1,0,0:2:0:0:
268,20,212145,2,2,P|160:48|124:148,1,222.750006797791,2|0,1:2|0:0,0:1:0:0:
116,184,212618,2,0,P|88:116|28:96,1,141.749995674133,0|0,1:0|0:0,0:0:0:0:
268,20,213090,1,0,1:0:0:0:
144,296,213563,5,2,1:0:0:0:
212,328,213799,1,2,0:2:0:0:
324,320,214036,1,2,1:0:0:0:
420,204,214272,1,2,0:2:0:0:
288,72,214508,2,2,B|211:29|135:122|135:122|58:216,1,297.000009063721,2|0,1:0|1:0,0:1:0:0:
24,324,215217,1,2,0:2:0:0:
88,364,215453,1,2,1:0:0:0:
176,296,215689,1,2,0:2:0:0:
320,336,215925,2,2,B|301:291|301:291|285:254|316:224|359:223|374:260|374:260|393:304,1,222.750006797791,2|0,1:2|0:0,0:1:0:0:
416,340,216398,2,0,P|452:292|524:312,1,141.749995674133,0|0,1:0|0:0,0:0:0:0:
384,120,216870,1,0,1:0:0:0:
256,344,217337,37,4,0:0:0:0:
324,316,217817,1,0,0:0:0:0:
316,296,218057,1,0,0:0:0:0:
188,316,218537,1,0,0:0:0:0:
196,296,218777,1,2,0:2:0:0:
468,192,219257,5,4,0:0:0:0:
396,192,219731,1,0,0:0:0:0:
432,192,219968,1,0,0:0:0:0:
468,192,220205,1,0,0:0:0:0:
348,192,220679,1,2,0:2:0:0:
256,40,221154,5,4,0:0:0:0:
324,68,221620,1,0,0:0:0:0:
316,88,221854,1,0,0:0:0:0:
188,68,222321,1,0,0:0:0:0:
196,88,222554,1,2,0:2:0:0:
44,192,223021,5,4,0:0:0:0:
116,192,223491,1,0,0:0:0:0:
80,192,223726,1,0,0:0:0:0:
44,192,223962,1,0,0:0:0:0:
164,192,224432,1,2,0:2:0:0:
256,80,224903,5,0,0:0:0:0:
335,112,225140,1,0,0:0:0:0:
368,192,225376,1,0,0:0:0:0:
335,272,225613,1,0,0:0:0:0:
256,304,225851,1,0,0:0:0:0:
256,304,226325,1,2,0:2:0:0:
177,272,226563,1,0,0:0:0:0:
144,192,226800,1,0,0:0:0:0:
177,112,227040,1,0,0:0:0:0:
335,272,227280,1,0,0:0:0:0:
177,112,227761,1,0,0:0:0:0:
256,80,228720,5,0,0:0:0:0:
176,112,228956,1,0,0:0:0:0:
144,192,229192,1,0,0:0:0:0:
177,272,229428,1,0,0:0:0:0:
256,304,229664,1,0,0:0:0:0:
256,304,230137,1,2,0:2:0:0:
335,272,230373,1,0,0:0:0:0:
368,192,230609,1,0,0:0:0:0:
335,112,230841,1,0,0:0:0:0:
177,272,231073,1,0,0:0:0:0:
335,112,231550,1,0,0:0:0:0:
256,192,231780,12,0,234380,2:0:0:0:
