osu file format v14

[General]
AudioFilename: audio.mp3
AudioLeadIn: 0
PreviewTime: 40041
Countdown: 0
SampleSet: Soft
StackLeniency: 0.7
Mode: 0
LetterboxInBreaks: 0
WidescreenStoryboard: 0

[Editor]
Bookmarks: 14601,40547,66493,79466,105412
DistanceSpacing: 1.9
BeatDivisor: 4
GridSize: 32
TimelineZoom: 1.9

[Metadata]
Title:Sugar Sugar Rune
TitleUnicode:슈가슈가 룬
Artist:Kim Ryung Hee
ArtistUnicode:김령희
Creator:milr_
Version:Insane
Source:슈가슈가룬
Tags:シュガシュガルーン anime korean pop op opening
BeatmapID:4337333
BeatmapSetID:2072532

[Difficulty]
HPDrainRate:6
CircleSize:4
OverallDifficulty:7.5
ApproachRate:8
SliderMultiplier:1.4
SliderTickRate:1

[Events]
//Background and Video events
0,0,"shuga.jpg",0,0
//Break Periods
//Storyboard Layer 0 (Background)
//Storyboard Layer 1 (Fail)
//Storyboard Layer 2 (Pass)
//Storyboard Layer 3 (Foreground)
//Storyboard Layer 4 (Overlay)
//Storyboard Sound Samples

[TimingPoints]
1629,405.405405405405,4,2,1,70,1,0
14601,-100,4,2,1,60,0,0
16933,-100,4,2,1,60,0,0
17034,-100,4,2,1,60,0,0
17642,-100,4,2,1,60,0,0
17845,-100,4,2,1,60,0,0
20885,-100,4,2,1,60,0,0
21088,-100,4,2,1,60,0,0
23419,-100,4,2,1,60,0,0
23520,-100,4,2,1,60,0,0
27372,-100,4,2,1,60,0,0
27574,-133.333333333333,4,2,1,60,0,0
29196,-100,4,2,1,60,0,0
30210,-100,4,2,1,60,0,0
30412,-100,4,2,1,60,0,0
30615,-100,4,2,1,60,0,0
30818,-100,4,2,1,60,0,0
32642,-100,4,2,1,60,0,0
32845,-100,4,2,1,60,0,0
33554,-100,4,2,1,60,0,0
33656,-100,4,2,1,60,0,0
35277,-133.333333333333,4,2,1,60,0,0
35683,-100,4,2,1,60,0,0
36696,-100,4,2,1,60,0,0
36899,-100,4,2,1,60,0,0
37101,-100,4,2,1,60,0,0
37304,-100,4,2,1,60,0,0
38723,-133.333333333333,4,2,1,60,0,0
39027,-133.333333333333,4,2,1,60,0,0
39128,-100,4,2,1,60,0,0
40041,-100,4,2,1,60,0,0
40142,-100,4,2,1,60,0,0
40547,-80,4,2,1,80,0,1
44906,-80,4,2,1,80,0,1
45007,-80,4,2,1,80,0,1
47743,-80,4,2,1,80,0,1
47845,-80,4,2,1,80,0,1
48452,-80,4,2,1,80,0,1
48656,-80,4,2,1,80,0,1
50987,-80,4,2,1,80,0,1
51088,-80,4,2,1,80,0,1
52101,-80,4,2,1,80,0,1
52304,-80,4,2,1,80,0,1
57878,-80,4,2,1,80,0,1
57980,-80,4,2,1,80,0,1
59906,-80,4,2,1,80,0,1
60007,-80,4,2,1,80,0,0
61628,-80,4,2,1,80,0,1
62338,-80,4,2,1,80,0,1
62439,-80,4,2,1,80,0,1
63047,-80,4,2,1,80,0,1
63250,-80,4,2,1,80,0,1
63554,-80,4,2,1,80,0,1
63656,-80,4,2,1,80,0,1
63960,-80,4,2,1,80,0,1
64061,-80,4,2,1,80,0,1
64669,-100,4,2,1,80,0,0
65074,-100,4,2,1,80,0,0
65277,-100,4,2,1,80,0,0
65378,-100,4,2,1,80,0,0
65479,-100,4,2,1,80,0,0
66493,-100,4,2,1,70,0,0
79466,-100,4,2,1,60,0,0
81797,-100,4,2,1,60,0,0
81899,-100,4,2,1,60,0,0
85750,-100,4,2,1,60,0,0
85953,-100,4,2,1,60,0,0
88284,-100,4,2,1,60,0,0
88385,-100,4,2,1,60,0,0
92237,-100,4,2,1,60,0,0
92439,-100,4,2,1,60,0,0
93656,-133.333333333333,4,2,1,60,0,0
94061,-100,4,2,1,60,0,0
95074,-100,4,2,1,60,0,0
95277,-100,4,2,1,60,0,0
95480,-100,4,2,1,60,0,0
95683,-100,4,2,1,60,0,0
97507,-100,4,2,1,60,0,0
97710,-100,4,2,1,60,0,0
98419,-100,4,2,1,60,0,0
98520,-100,4,2,1,60,0,0
100142,-133.333333333333,4,2,1,60,0,0
100547,-100,4,2,1,60,0,0
101561,-100,4,2,1,60,0,0
101764,-100,4,2,1,60,0,0
101966,-100,4,2,1,60,0,0
102169,-100,4,2,1,60,0,0
103588,-133.333333333333,4,2,1,60,0,0
103892,-133.333333333333,4,2,1,60,0,0
103993,-100,4,2,1,60,0,0
104905,-100,4,2,1,60,0,0
105007,-100,4,2,1,60,0,0
105412,-80,4,2,1,80,0,1
109770,-80,4,2,1,80,0,1
109872,-80,4,2,1,80,0,1
112608,-80,4,2,1,80,0,1
112710,-80,4,2,1,80,0,1
113317,-80,4,2,1,80,0,1
113520,-80,4,2,1,80,0,1
115851,-80,4,2,1,80,0,1
115953,-80,4,2,1,80,0,1
116966,-80,4,2,1,80,0,1
117169,-80,4,2,1,80,0,1
122743,-80,4,2,1,80,0,1
122845,-80,4,2,1,80,0,1
124770,-80,4,2,1,80,0,1
124872,-80,4,2,1,80,0,0
126493,-80,4,2,1,80,0,1
127203,-80,4,2,1,80,0,1
127304,-80,4,2,1,80,0,1
127912,-80,4,2,1,80,0,1
128115,-80,4,2,1,80,0,1
128419,-80,4,2,1,80,0,1
128520,-80,4,2,1,80,0,1
128824,-80,4,2,1,80,0,1
128926,-80,4,2,1,80,0,1
129534,-100,4,2,1,80,0,0
131358,-80,4,2,1,80,0,0
133689,-80,4,2,1,80,0,0
133791,-80,4,2,1,80,0,0
133993,-80,4,2,1,80,0,0
134196,-80,4,2,1,80,0,0
134297,-80,4,2,1,80,0,0
134601,-80,4,2,1,80,0,0
135311,-80,4,2,1,80,0,0
135412,-80,4,2,1,80,0,0
136831,-80,4,2,1,80,0,0
137034,-80,4,2,1,80,0,0
137237,-80,4,2,1,80,0,0
137439,-80,4,2,1,80,0,0
137845,-100,4,2,1,80,0,0
139466,405.405405405405,4,2,1,60,1,0
142507,-133.333333333333,4,2,1,60,0,0
144128,-133.333333333333,4,2,1,80,0,1
144330,-133.333333333333,4,2,1,80,0,1
144534,-80,4,2,1,80,0,1
146662,-80,4,2,1,80,0,1
146764,-80,4,2,1,80,0,1
149905,-80,4,2,1,80,0,1
150007,-80,4,2,1,80,0,1
151020,-80,4,2,1,80,0,1
151223,-80,4,2,1,80,0,1
156797,-80,4,2,1,80,0,1
156899,-80,4,2,1,80,0,1
158824,-80,4,2,1,80,0,1
158925,-80,4,2,1,80,0,0
160547,-80,4,2,1,80,0,1
161257,-80,4,2,1,80,0,1
161358,-80,4,2,1,80,0,1
161966,-80,4,2,1,80,0,1
162169,-80,4,2,1,80,0,1
162473,-80,4,2,1,80,0,1
162574,-80,4,2,1,80,0,1
162878,-80,4,2,1,80,0,1
162980,-80,4,2,1,80,0,1
163587,-100,4,2,1,80,0,0
163993,-100,4,2,1,80,0,0
164196,-100,4,2,1,80,0,0
164297,-100,4,2,1,80,0,0
164398,-100,4,2,1,80,0,0
167033,-80,4,2,1,80,0,1
167743,-80,4,2,1,80,0,1
167845,-80,4,2,1,80,0,1
168453,-80,4,2,1,80,0,1
168656,-80,4,2,1,80,0,1
168960,-80,4,2,1,80,0,1
169061,-80,4,2,1,80,0,1
169365,-80,4,2,1,80,0,1
169466,-80,4,2,1,80,0,1
170074,-100,4,2,1,80,0,0
170479,-100,4,2,1,80,0,0
170683,-100,4,2,1,80,0,0
170784,-100,4,2,1,80,0,0
170885,-100,4,2,1,80,0,0
171899,-100,4,2,1,70,0,0
178486,-100,4,2,1,30,0,0
181020,-100,4,2,1,5,0,0

[Colours]
Combo1 : 82,235,216
Combo2 : 112,208,74
Combo3 : 172,100,238
Combo4 : 239,75,75

[HitObjects]
106,154,1629,6,0,P|116:201|128:252,1,70,4|0,1:2|0:0,0:0:0:0:
22,263,2034,1,8,0:0:0:0:
53,91,2237,1,2,0:0:0:0:
219,134,2439,1,0,1:0:0:0:
219,134,2642,2,0,B|258:168|267:235|232:282,1,140,2|0,0:0|0:0,0:0:0:0:
154,363,3250,6,0,P|166:310|174:276,1,70,0|0,1:0|0:0,0:0:0:0:
292,241,3656,1,8,0:0:0:0:
313,314,3858,1,2,0:0:0:0:
450,298,4061,1,0,1:0:0:0:
471,371,4264,2,0,P|485:279|495:216,1,140,2|0,0:0|0:0,0:0:0:0:
437,176,4872,6,0,P|387:188|349:195,1,70,0|0,1:0|0:0,0:0:0:0:
491,108,5277,1,8,0:0:0:0:
340,68,5480,1,2,0:0:0:0:
310,237,5683,1,0,1:0:0:0:
310,237,5885,2,0,B|289:258|248:242|231:203,1,70,2|8,0:0|0:0,0:0:0:0:
375,184,6291,6,0,B|411:210|476:213|495:151,1,140,2|0,0:0|0:0,0:0:0:0:
442,8,6899,1,0,1:0:0:0:
311,53,7101,1,0,1:0:0:0:
311,53,7203,1,0,1:0:0:0:
311,53,7304,2,0,B|305:75|303:81|298:107,3,35,0|0|0|0,1:0|1:0|1:0|1:0,0:0:0:0:
312,129,7710,1,2,1:2:0:0:
293,161,7811,1,2,1:2:0:0:
260,182,7912,1,2,1:2:0:0:
216,176,8014,1,2,1:2:0:0:
183,153,8115,6,0,P|173:111|162:71,1,70,4|2,1:2|0:0,0:0:0:0:
170,80,8419,1,2,0:0:0:0:
174,75,8520,1,8,0:0:0:0:
46,21,8723,1,0,0:0:0:0:
8,217,8926,2,0,P|44:210|80:203,1,70,0|2,1:0|0:0,0:0:0:0:
217,108,9331,2,0,P|170:98|127:85,1,70,8|2,0:0|0:0,0:0:0:0:
327,202,9737,6,0,P|373:206|403:178,1,70,0|2,1:2|0:0,0:0:0:0:
396,189,10041,1,2,0:0:0:0:
401,183,10142,1,8,0:0:0:0:
445,49,10345,1,2,0:0:0:0:
284,12,10547,2,0,P|294:67|303:105,1,70,0|2,1:0|0:0,0:0:0:0:
495,197,10953,2,0,P|487:162|481:128,1,70,8|2,0:0|0:0,0:0:0:0:
324,288,11358,5,4,1:2:0:0:
324,288,11460,1,0,0:0:0:0:
324,288,11561,1,2,0:0:0:0:
324,288,11662,1,0,0:0:0:0:
324,288,11764,2,0,P|316:202|351:129,2,140,0|0|0,1:0|1:0|1:0,0:0:0:0:
494,358,12777,1,4,1:2:0:0:
494,358,13183,1,4,1:2:0:0:
471,195,13386,1,4,1:2:0:0:
309,214,13588,1,4,1:2:0:0:
333,376,13791,1,4,1:2:0:0:
180,300,14601,6,0,P|192:250|212:153,1,140,0|8,1:0|0:0,0:0:0:0:
337,196,15210,1,2,0:0:0:0:
293,333,15412,2,0,P|285:298|277:264,1,70,0|2,1:0|0:0,0:0:0:0:
206,296,15818,1,8,0:0:0:0:
175,365,16020,1,2,0:0:0:0:
102,338,16223,6,0,P|43:347|11:268,1,140,0|8,1:0|0:0,0:0:0:0:
47,220,16831,1,2,0:0:0:0:
47,220,16933,1,0,0:0:0:0:
47,220,17034,2,0,P|113:233|208:251,1,140,0|8,1:0|0:0,0:0:0:0:
300,313,17642,1,0,0:0:0:0:
300,313,17845,6,0,P|310:260|324:164,1,140,0|8,1:0|0:0,0:0:0:0:
244,177,18453,2,0,P|230:111|214:32,1,140,2|2,0:0|0:0,0:0:0:0:
348,0,19061,1,8,0:0:0:0:
348,0,19264,1,2,0:0:0:0:
311,77,19466,6,0,P|272:71|255:39,1,70,0|2,1:0|0:0,0:0:0:0:
151,77,19872,1,8,0:0:0:0:
126,10,20074,1,2,0:0:0:0:
126,10,20480,1,2,0:0:0:0:
58,141,20683,1,8,0:0:0:0:
168,189,20885,1,0,0:0:0:0:
137,123,21088,6,0,P|206:141|294:165,1,140,0|8,1:0|0:0,0:0:0:0:
348,59,21696,1,2,0:0:0:0:
348,59,21899,2,0,P|288:71|254:78,1,70,0|2,1:0|0:0,0:0:0:0:
134,238,22304,2,0,P|174:230|217:219,1,70,8|2,0:0|0:0,0:0:0:0:
278,179,22710,6,0,P|301:224|286:325,1,140,0|8,1:0|0:0,0:0:0:0:
211,226,23318,1,2,0:0:0:0:
211,226,23419,1,0,0:0:0:0:
211,226,23520,2,0,P|186:173|203:76,1,140,0|8,1:0|0:0,0:0:0:0:
339,36,24128,1,2,0:0:0:0:
284,135,24331,6,0,P|266:69|249:-7,1,140,0|8,1:0|0:0,0:0:0:0:
176,37,24939,2,0,P|126:47|22:65,1,140,2|2,0:0|0:0,0:0:0:0:
0,159,25547,1,8,0:0:0:0:
0,159,25750,1,2,0:0:0:0:
72,183,25953,6,0,P|111:173|126:129,1,70,0|2,1:0|0:0,0:0:0:0:
165,6,26358,1,8,0:0:0:0:
241,28,26561,1,2,0:0:0:0:
241,28,26966,1,2,0:0:0:0:
268,176,27169,1,8,0:0:0:0:
298,336,27372,1,0,0:0:0:0:
471,279,27574,5,4,1:2:0:0:
428,182,27980,1,4,1:2:0:0:
320,232,28385,1,0,1:0:0:0:
320,232,28791,2,0,P|311:192|306:169,1,52.5000020027161,0|2,1:0|0:0,0:0:0:0:
399,254,29196,6,0,P|387:303|373:350,1,70,0|2,1:0|0:0,0:0:0:0:
221,219,29601,2,0,P|233:170|247:123,1,70,8|2,0:0|0:0,0:0:0:0:
283,301,30007,1,0,1:0:0:0:
224,365,30210,1,0,0:0:0:0:
150,309,30412,1,8,0:0:0:0:
212,243,30615,5,0,0:0:0:0:
212,243,30716,1,0,0:0:0:0:
212,243,30818,1,0,1:0:0:0:
303,217,31020,1,2,0:0:0:0:
102,177,31223,1,8,0:0:0:0:
11,209,31426,2,0,P|0:149|32:50,1,140,2|2,0:0|0:0,0:0:0:0:
166,13,32034,2,0,P|154:61|143:106,1,70,8|2,0:0|0:0,0:0:0:0:
87,143,32439,5,0,1:0:0:0:
113,227,32642,1,0,0:0:0:0:
180,165,32845,1,8,0:0:0:0:
16,203,33047,1,4,1:2:0:0:
401,205,33453,2,0,P|425:212|445:219,1,35,4|0,1:2|0:0,0:0:0:0:
472,196,33656,1,2,0:0:0:0:
488,188,33757,1,2,0:0:0:0:
495,171,33858,1,2,0:0:0:0:
495,156,33960,1,2,0:0:0:0:
492,143,34061,5,4,1:2:0:0:
356,98,34466,1,4,1:2:0:0:
403,12,34872,1,0,1:0:0:0:
403,12,35277,2,0,P|410:47|415:74,1,52.5000020027161,0|2,1:0|0:0,0:0:0:0:
317,129,35683,6,0,P|327:95|337:56,1,70,0|2,1:0|0:0,0:0:0:0:
507,23,36088,2,0,P|497:57|487:96,1,70,8|2,0:0|0:0,0:0:0:0:
423,234,36493,1,0,1:0:0:0:
391,155,36696,1,0,0:0:0:0:
469,112,36899,1,8,0:0:0:0:
502,196,37101,5,0,0:0:0:0:
502,196,37203,1,0,0:0:0:0:
502,196,37304,1,0,1:0:0:0:
342,229,37507,1,2,0:0:0:0:
261,121,37710,1,8,0:0:0:0:
411,87,37912,1,2,0:0:0:0:
343,136,38115,5,0,1:0:0:0:
255,19,38318,1,2,0:0:0:0:
210,211,38520,1,8,0:0:0:0:
141,101,38723,2,0,P|89:115|53:126,1,78.7500030040742,4|0,1:2|0:0,0:0:0:0:
55,130,39128,5,4,1:2:0:0:
10,52,39331,1,4,1:2:0:0:
163,0,39534,1,4,1:2:0:0:
256,144,39737,2,0,P|259:210|214:250,1,105,4|0,1:2|0:0,0:0:0:0:
228,242,40142,1,8,0:0:0:0:
88,193,40547,6,0,P|131:184|195:170,1,87.5,4|2,1:2|0:0,0:0:0:0:
383,264,40953,2,0,P|340:255|276:241,1,87.5,8|2,0:0|0:0,0:0:0:0:
177,365,41358,5,0,1:0:0:0:
215,295,41561,1,2,0:0:0:0:
258,311,41662,1,2,0:0:0:0:
258,352,41764,1,8,0:0:0:0:
189,215,41966,2,0,B|204:145|215:129|236:22,1,175,2|2,0:0|0:0,0:0:0:0:
300,6,42574,1,8,0:0:0:0:
144,66,42777,1,2,0:0:0:0:
272,190,42980,5,0,1:0:0:0:
341,147,43183,1,2,0:0:0:0:
273,110,43385,1,8,0:0:0:0:
429,190,43588,6,0,B|468:181|532:167|529:120|408:154,1,175,2|2,0:0|0:0,0:0:0:0:
265,197,44196,2,0,P|208:181|169:168,1,87.5,8|2,0:0|0:0,0:0:0:0:
6,162,44601,1,0,1:0:0:0:
82,41,44804,1,2,0:0:0:0:
93,80,44906,1,0,0:0:0:0:
106,117,45007,1,8,0:0:0:0:
134,199,45210,6,0,P|188:181|225:170,1,87.5,2|0,0:0|1:2,0:0:0:0:
358,116,45615,1,2,0:0:0:0:
213,83,45818,1,8,0:0:0:0:
233,255,46020,1,2,0:0:0:0:
441,204,46223,1,0,1:0:0:0:
480,300,46426,5,2,0:0:0:0:
337,358,46628,1,8,0:0:0:0:
300,201,46831,1,2,0:0:0:0:
423,250,47034,6,0,P|436:189|444:152,1,87.5,0|2,1:2|0:0,0:0:0:0:
511,62,47439,1,8,0:0:0:0:
356,186,47642,1,2,0:0:0:0:
356,186,47743,1,0,0:0:0:0:
356,186,47845,2,0,P|342:118|334:81,1,87.5,0|2,1:0|0:0,0:0:0:0:
503,264,48250,2,0,P|508:314|514:358,1,87.5,8|0,0:0|0:0,0:0:0:0:
318,381,48656,5,0,1:2:0:0:
284,208,48858,1,2,0:0:0:0:
428,256,49061,1,8,0:0:0:0:
248,339,49264,1,2,0:0:0:0:
145,175,49466,1,0,1:0:0:0:
14,254,49669,5,2,0:0:0:0:
54,361,49872,1,8,0:0:0:0:
136,326,50074,1,2,0:0:0:0:
105,260,50277,6,0,P|177:252|234:294,1,131.25,0|2,1:2|0:0,0:0:0:0:
217,358,50683,2,0,P|266:348|344:327,1,131.25,8|0,0:0|0:0,0:0:0:0:
412,364,51088,1,0,1:0:0:0:
484,215,51291,1,2,0:0:0:0:
315,157,51493,1,8,0:0:0:0:
252,310,51696,1,2,0:0:0:0:
360,288,51899,6,0,P|376:227|387:190,1,87.5,0|0,1:2|0:0,0:0:0:0:
422,217,52203,1,0,0:0:0:0:
463,231,52304,1,0,1:2:0:0:
505,142,52507,1,0,1:0:0:0:
512,99,52608,1,0,1:0:0:0:
473,71,52710,1,0,1:0:0:0:
392,14,52912,5,0,1:0:0:0:
385,22,53014,1,0,1:0:0:0:
380,29,53115,1,0,1:0:0:0:
373,37,53217,1,0,1:0:0:0:
368,44,53318,1,0,1:0:0:0:
362,51,53419,1,0,1:0:0:0:
357,59,53520,1,4,1:2:0:0:
203,9,53723,1,2,0:0:0:0:
287,159,53926,1,8,0:0:0:0:
125,202,54128,1,2,0:0:0:0:
256,83,54331,5,0,1:0:0:0:
209,151,54534,2,0,P|180:142|151:133,2,43.75,2|2|8,0:0|0:0|0:0,0:0:0:0:
342,220,54939,2,0,B|410:204|417:206|517:181,1,175,2|2,0:0|0:0,0:0:0:0:
371,101,55547,1,8,0:0:0:0:
268,199,55750,1,2,0:0:0:0:
469,353,55953,5,0,1:0:0:0:
450,276,56156,1,2,0:0:0:0:
389,328,56358,1,8,0:0:0:0:
479,131,56561,6,0,B|483:84|513:18|534:41|521:107|496:153,1,175,2|2,0:0|0:0,0:0:0:0:
444,269,57169,2,0,P|457:328|467:376,1,87.5,8|2,0:0|0:0,0:0:0:0:
512,219,57574,1,0,1:0:0:0:
335,177,57777,1,2,0:0:0:0:
322,218,57878,1,0,0:0:0:0:
308,261,57980,1,8,0:0:0:0:
279,348,58183,6,0,P|268:294|260:249,1,87.5,2|0,0:0|1:2,0:0:0:0:
177,283,58588,1,2,0:0:0:0:
362,324,58791,1,8,0:0:0:0:
251,162,58993,1,2,0:0:0:0:
81,210,59196,1,0,1:0:0:0:
10,374,59399,5,2,0:0:0:0:
89,350,59601,1,8,0:0:0:0:
51,286,59804,5,2,0:0:0:0:
51,286,59906,1,0,0:0:0:0:
51,286,60007,1,4,1:2:0:0:
319,343,60412,1,4,1:2:0:0:
512,279,60818,1,4,1:2:0:0:
232,331,61223,1,4,1:2:0:0:
21,171,61628,5,0,1:2:0:0:
131,98,61831,1,2,0:0:0:0:
187,248,62034,1,8,0:0:0:0:
321,184,62237,1,2,0:0:0:0:
321,184,62338,1,0,0:0:0:0:
321,184,62439,1,0,1:0:0:0:
197,142,62642,2,0,P|211:197|224:245,1,87.5,2|8,0:0|0:0,0:0:0:0:
399,272,63047,1,0,0:0:0:0:
512,204,63250,6,0,P|445:209|396:159,1,131.25,0|0,1:2|0:0,0:0:0:0:
363,103,63656,2,0,P|352:53|414:-13,1,131.25,8|0,0:0|0:0,0:0:0:0:
469,11,64061,1,0,1:0:0:0:
390,175,64264,1,2,0:0:0:0:
240,77,64466,1,8,0:0:0:0:
22,204,64669,6,0,P|36:283|51:365,1,140,4|0,1:2|0:0,0:0:0:0:
45,99,65277,2,0,P|51:69|58:44,3,35,0|0|0|0,1:0|0:0|1:0|1:0,0:0:0:0:
103,156,65683,1,0,1:0:0:0:
137,136,65784,1,0,1:0:0:0:
179,149,65885,1,0,1:0:0:0:
201,183,65987,1,0,1:0:0:0:
201,227,66088,1,2,1:2:0:0:
222,259,66189,1,2,1:2:0:0:
265,275,66291,1,2,1:2:0:0:
306,262,66392,1,2,1:2:0:0:
335,232,66493,6,0,P|326:190|320:155,1,70,4|0,1:2|0:0,0:0:0:0:
280,84,66899,1,8,0:0:0:0:
442,128,67101,1,2,0:0:0:0:
400,295,67304,1,0,1:0:0:0:
400,295,67507,2,0,B|325:281|328:271|235:257,1,140,2|0,0:0|0:0,0:0:0:0:
183,373,68115,6,0,P|193:325|203:286,1,70,0|0,1:2|0:0,0:0:0:0:
194,225,68520,1,8,0:0:0:0:
264,261,68723,1,2,0:0:0:0:
79,353,68926,1,0,1:0:0:0:
9,316,69128,2,0,P|24:249|109:244,1,140,2|0,0:0|0:0,0:0:0:0:
265,270,69737,6,0,P|277:315|285:351,1,70,0|0,1:2|0:0,0:0:0:0:
183,284,70142,1,8,0:0:0:0:
215,130,70345,1,2,0:0:0:0:
366,167,70547,1,0,1:0:0:0:
366,167,70750,2,0,P|375:217|354:250,1,70,2|8,0:0|0:0,0:0:0:0:
175,197,71156,6,0,P|160:124|145:52,1,140,2|0,0:0|0:0,0:0:0:0:
312,16,71764,1,0,1:0:0:0:
255,131,71966,1,0,1:0:0:0:
255,131,72068,1,0,1:0:0:0:
255,131,72169,2,0,P|249:163|244:186,3,35,0|0|0|0,1:0|1:0|1:0|1:0,0:0:0:0:
283,201,72574,1,2,1:2:0:0:
292,241,72676,1,2,1:2:0:0:
301,283,72777,1,2,1:2:0:0:
310,324,72878,1,2,1:2:0:0:
319,367,72980,6,0,P|332:320|340:290,1,70,4|2,1:2|0:0,0:0:0:0:
345,295,73284,1,2,0:0:0:0:
352,291,73385,1,8,0:0:0:0:
421,343,73588,1,0,0:0:0:0:
222,312,73791,2,0,P|213:266|207:227,1,70,0|2,1:0|0:0,0:0:0:0:
379,151,74196,2,0,P|384:185|389:220,1,70,8|2,0:0|0:0,0:0:0:0:
246,86,74601,6,0,P|283:97|316:105,1,70,0|2,1:2|0:0,0:0:0:0:
319,101,74906,1,2,0:0:0:0:
325,97,75007,1,8,0:0:0:0:
493,71,75210,1,2,0:0:0:0:
413,0,75412,2,0,P|404:45|395:79,1,70,0|2,1:0|0:0,0:0:0:0:
225,163,75818,2,0,P|233:129|239:94,1,70,8|2,0:0|0:0,0:0:0:0:
430,225,76223,5,4,1:2:0:0:
430,225,76324,1,0,0:0:0:0:
430,225,76426,1,2,0:0:0:0:
430,225,76527,1,0,0:0:0:0:
430,225,76628,2,0,P|367:200|268:205,2,140,0|0|0,1:0|1:0|1:0,0:0:0:0:
359,316,77642,1,4,1:2:0:0:
359,316,78047,1,4,1:2:0:0:
273,159,78250,1,4,1:2:0:0:
419,79,78453,1,4,1:2:0:0:
512,234,78656,1,4,1:2:0:0:
362,158,79466,6,0,B|280:181|300:187|219:209,1,140,0|8,1:0|0:0,0:0:0:0:
192,120,80074,1,2,0:0:0:0:
323,253,80277,2,0,P|361:263|401:273,1,70,0|2,1:0|0:0,0:0:0:0:
448,217,80683,1,8,0:0:0:0:
503,161,80885,1,2,0:0:0:0:
324,50,81088,6,0,P|310:110|355:187,1,140,0|8,1:0|0:0,0:0:0:0:
462,318,81696,1,2,0:0:0:0:
462,318,81797,1,0,0:0:0:0:
462,318,81899,2,0,P|460:258|418:185,1,140,0|8,1:0|0:0,0:0:0:0:
286,234,82507,1,2,0:0:0:0:
286,234,82710,6,0,B|206:219|201:213|129:197,1,140,0|8,1:0|0:0,0:0:0:0:
401,114,83318,2,0,B|321:129|316:135|244:151,1,140,2|2,0:0|0:0,0:0:0:0:
202,296,83926,1,8,0:0:0:0:
202,296,84128,1,2,0:0:0:0:
345,351,84331,6,0,P|362:318|355:278,1,70,0|2,1:0|0:0,0:0:0:0:
179,203,84737,1,8,0:0:0:0:
159,279,84939,1,2,0:0:0:0:
159,279,85345,1,2,0:0:0:0:
314,324,85547,1,8,0:0:0:0:
299,156,85750,1,0,0:0:0:0:
112,183,85953,6,0,P|201:208|275:228,1,140,0|8,1:0|0:0,0:0:0:0:
288,76,86561,1,2,0:0:0:0:
288,76,86764,2,0,P|248:88|207:98,1,70,0|2,1:0|0:0,0:0:0:0:
174,280,87169,2,0,P|134:292|93:302,1,70,8|2,0:0|0:0,0:0:0:0:
345,376,87574,6,0,P|354:319|308:241,1,140,0|8,1:0|0:0,0:0:0:0:
181,311,88183,1,2,0:0:0:0:
181,311,88284,1,0,0:0:0:0:
181,311,88385,2,0,P|109:291|40:273,1,140,0|8,1:0|0:0,0:0:0:0:
162,186,88993,1,2,0:0:0:0:
257,348,89196,6,0,B|266:290|265:277|285:201,1,140,0|8,1:0|0:0,0:0:0:0:
205,203,89804,2,0,B|196:145|197:132|177:56,1,140,2|2,0:0|0:0,0:0:0:0:
295,2,90412,1,8,0:0:0:0:
295,2,90615,1,2,0:0:0:0:
396,91,90818,6,0,P|347:93|322:61,1,70,0|2,1:0|0:0,0:0:0:0:
157,24,91223,1,8,0:0:0:0:
235,53,91426,1,2,0:0:0:0:
235,53,91831,1,2,0:0:0:0:
193,206,92034,1,8,0:0:0:0:
350,181,92237,1,0,0:0:0:0:
301,2,92439,5,4,1:2:0:0:
260,154,92845,1,4,1:2:0:0:
219,306,93250,1,0,1:0:0:0:
219,306,93656,2,0,P|209:266|204:238,1,52.5000020027161,0|2,1:0|0:0,0:0:0:0:
292,359,94061,6,0,P|304:301|311:269,1,70,0|2,1:0|0:0,0:0:0:0:
141,204,94466,2,0,P|129:262|122:294,1,70,8|2,0:0|0:0,0:0:0:0:
233,234,94872,1,0,1:0:0:0:
288,163,95074,1,0,0:0:0:0:
209,104,95277,1,8,0:0:0:0:
160,184,95480,5,0,0:0:0:0:
160,184,95581,1,0,0:0:0:0:
160,184,95683,1,0,1:0:0:0:
35,150,95885,1,2,0:0:0:0:
248,122,96088,1,8,0:0:0:0:
362,103,96291,2,0,P|395:172|388:253,1,140,2|2,0:0|0:0,0:0:0:0:
223,279,96899,2,0,P|232:227|240:189,1,70,8|2,0:0|0:0,0:0:0:0:
309,275,97304,5,0,1:0:0:0:
147,232,97507,1,0,0:0:0:0:
309,275,97710,1,8,0:0:0:0:
260,353,97912,1,4,1:2:0:0:
255,82,98318,2,0,P|250:58|244:33,1,35,4|0,1:2|0:0,0:0:0:0:
225,10,98520,1,2,0:0:0:0:
238,14,98622,1,2,0:0:0:0:
250,18,98723,1,2,0:0:0:0:
263,22,98824,1,2,0:0:0:0:
274,25,98926,5,4,1:2:0:0:
138,65,99331,1,4,1:2:0:0:
10,108,99737,1,0,1:0:0:0:
10,108,100142,2,0,P|21:148|27:173,1,52.5000020027161,0|2,1:0|0:0,0:0:0:0:
75,271,100547,6,0,P|86:223|97:177,1,70,0|2,1:0|0:0,0:0:0:0:
147,0,100953,2,0,P|138:34|131:68,1,70,8|2,0:0|0:0,0:0:0:0:
278,172,101358,1,0,1:0:0:0:
208,130,101561,1,0,0:0:0:0:
164,198,101764,1,8,0:0:0:0:
239,244,101966,5,0,0:0:0:0:
239,244,102068,1,0,0:0:0:0:
239,244,102169,1,0,1:0:0:0:
292,84,102372,1,2,0:0:0:0:
428,123,102574,1,8,0:0:0:0:
368,277,102777,1,2,0:0:0:0:
292,182,102980,5,0,1:0:0:0:
113,219,103183,1,2,0:0:0:0:
259,332,103385,1,8,0:0:0:0:
449,288,103588,2,0,P|451:241|434:198,1,78.7500030040742,4|0,1:2|0:0,0:0:0:0:
448,203,103993,5,4,1:2:0:0:
512,77,104196,1,4,1:2:0:0:
395,0,104399,1,4,1:2:0:0:
271,111,104601,2,0,P|267:188|281:239,1,105,4|0,1:2|0:0,0:0:0:0:
280,222,105007,1,8,0:0:0:0:
356,287,105412,6,0,P|367:220|375:167,1,87.5,4|2,1:2|0:0,0:0:0:0:
186,280,105818,2,0,P|197:328|206:373,1,87.5,8|2,0:0|0:0,0:0:0:0:
273,246,106223,5,0,1:0:0:0:
217,151,106426,1,2,0:0:0:0:
217,151,106527,1,2,0:0:0:0:
217,151,106628,1,8,0:0:0:0:
112,200,106831,2,0,P|84:132|134:45,1,175,2|2,0:0|0:0,0:0:0:0:
280,6,107439,1,8,0:0:0:0:
318,165,107642,1,2,0:0:0:0:
156,301,107845,5,0,1:0:0:0:
226,260,108047,1,2,0:0:0:0:
232,341,108250,1,8,0:0:0:0:
77,297,108453,6,0,B|18:282|-19:273|-8:226|90:259,1,175,2|2,0:0|0:0,0:0:0:0:
242,335,109061,2,0,P|301:321|338:310,1,87.5,8|2,0:0|0:0,0:0:0:0:
498,232,109466,1,0,1:0:0:0:
414,215,109669,1,2,0:0:0:0:
374,207,109770,1,0,0:0:0:0:
330,198,109872,1,8,0:0:0:0:
419,384,110074,6,0,P|430:333|442:285,1,87.5,2|0,0:0|1:2,0:0:0:0:
247,326,110480,1,2,0:0:0:0:
290,204,110683,1,8,0:0:0:0:
512,272,110885,1,2,0:0:0:0:
474,159,111088,1,0,1:0:0:0:
355,251,111291,5,2,0:0:0:0:
202,166,111493,1,8,0:0:0:0:
104,303,111696,1,2,0:0:0:0:
267,372,111899,6,0,P|282:303|292:253,1,87.5,0|2,1:2|0:0,0:0:0:0:
386,182,112304,1,8,0:0:0:0:
213,263,112507,1,2,0:0:0:0:
213,263,112608,1,0,0:0:0:0:
213,263,112710,2,0,P|201:207|190:158,1,87.5,0|2,1:0|0:0,0:0:0:0:
359,259,113115,2,0,P|368:301|377:344,1,87.5,8|0,0:0|0:0,0:0:0:0:
313,90,113520,5,0,1:2:0:0:
282,226,113723,1,2,0:0:0:0:
105,174,113926,1,8,0:0:0:0:
195,17,114128,1,2,0:0:0:0:
242,155,114331,1,0,1:0:0:0:
8,238,114534,5,2,0:0:0:0:
133,278,114737,1,8,0:0:0:0:
46,337,114939,1,2,0:0:0:0:
183,376,115142,6,0,B|167:302|163:295|148:221,1,131.25,0|2,1:2|0:0,0:0:0:0:
83,223,115547,2,0,B|99:149|103:142|118:68,1,131.25,8|0,0:0|0:0,0:0:0:0:
177,56,115953,1,0,1:0:0:0:
32,15,116156,1,2,0:0:0:0:
197,151,116358,1,8,0:0:0:0:
342,110,116561,1,2,0:0:0:0:
172,230,116764,6,0,P|159:286|150:326,1,87.5,0|0,1:2|0:0,0:0:0:0:
184,338,117068,1,0,0:0:0:0:
216,360,117169,1,0,1:2:0:0:
303,326,117372,1,0,1:0:0:0:
323,289,117473,1,0,1:0:0:0:
290,265,117574,1,0,1:0:0:0:
231,183,117777,5,0,1:0:0:0:
227,175,117878,1,0,1:0:0:0:
223,166,117980,1,0,1:0:0:0:
217,157,118081,1,0,1:0:0:0:
213,149,118183,1,0,1:0:0:0:
209,140,118285,1,0,1:0:0:0:
205,131,118386,1,4,1:2:0:0:
295,13,118588,1,2,0:0:0:0:
350,202,118791,1,8,0:0:0:0:
440,84,118993,1,2,0:0:0:0:
286,143,119196,5,0,1:0:0:0:
355,110,119399,2,0,P|362:85|367:61,2,43.75,2|2|8,0:0|0:0|0:0,0:0:0:0:
200,139,119804,2,0,B|214:201|243:329,1,175,2|2,0:0|0:0,0:0:0:0:
360,362,120412,1,8,0:0:0:0:
384,240,120615,1,2,0:0:0:0:
156,292,120818,5,0,1:0:0:0:
181,372,121020,1,2,0:0:0:0:
237,316,121223,1,8,0:0:0:0:
76,215,121426,6,0,B|12:237|-25:250|-16:285|97:243,1,175,2|2,0:0|0:0,0:0:0:0:
271,197,122034,2,0,P|321:209|377:222,1,87.5,8|2,0:0|0:0,0:0:0:0:
186,245,122439,1,0,1:0:0:0:
144,162,122642,1,2,0:0:0:0:
156,120,122743,1,0,0:0:0:0:
168,75,122845,1,8,0:0:0:0:
31,127,123047,6,0,P|18:76|5:29,1,87.5,2|0,0:0|1:2,0:0:0:0:
184,0,123453,1,2,0:0:0:0:
233,163,123656,1,8,0:0:0:0:
78,199,123858,1,2,0:0:0:0:
19,344,124061,1,0,1:0:0:0:
198,311,124264,5,2,0:0:0:0:
183,223,124466,1,8,0:0:0:0:
120,278,124669,5,2,0:0:0:0:
120,278,124770,1,0,0:0:0:0:
120,278,124872,1,4,1:2:0:0:
455,339,125277,1,4,1:2:0:0:
335,304,125683,1,4,1:2:0:0:
0,365,126088,1,4,1:2:0:0:
289,156,126493,5,0,1:2:0:0:
418,251,126696,1,2,0:0:0:0:
502,126,126899,1,8,0:0:0:0:
371,28,127101,1,2,0:0:0:0:
371,28,127203,1,0,0:0:0:0:
371,28,127304,1,0,1:0:0:0:
413,181,127507,2,0,P|397:240|385:277,1,87.5,2|8,0:0|0:0,0:0:0:0:
263,371,127912,1,0,0:0:0:0:
176,213,128115,6,0,P|229:174|312:194,1,131.25,0|0,1:2|0:0,0:0:0:0:
358,214,128520,2,0,P|390:256|377:343,1,131.25,8|0,0:0|0:0,0:0:0:0:
312,312,128926,1,0,1:0:0:0:
162,242,129128,1,2,0:0:0:0:
83,379,129331,1,8,0:0:0:0:
320,320,129534,6,0,P|392:300|467:280,1,140,4|2,1:2|0:0,0:0:0:0:
503,384,130142,1,0,1:2:0:0:
428,371,130345,1,0,1:0:0:0:
376,229,130547,1,0,1:0:0:0:
349,202,130649,1,0,1:0:0:0:
307,192,130750,1,0,1:0:0:0:
265,215,130851,1,0,1:0:0:0:
250,252,130953,1,2,1:2:0:0:
235,289,131054,1,2,1:2:0:0:
193,312,131155,1,2,1:2:0:0:
151,302,131256,1,2,1:2:0:0:
124,275,131358,5,4,1:2:0:0:
42,239,131561,1,2,0:0:0:0:
110,187,131764,1,8,0:0:0:0:
319,293,131966,2,0,P|306:341|295:388,1,87.5,2|0,0:0|1:2,0:0:0:0:
192,214,132372,1,2,0:0:0:0:
386,165,132574,1,8,0:0:0:0:
273,224,132777,6,0,P|256:132|237:43,1,175,2|2,0:0|0:0,0:0:0:0:
359,3,133385,1,8,0:0:0:0:
306,123,133588,1,2,0:0:0:0:
306,123,133689,1,0,0:0:0:0:
306,123,133791,1,0,1:2:0:0:
153,67,133993,1,0,0:0:0:0:
219,208,134196,1,10,0:0:0:0:
211,236,134297,1,2,0:0:0:0:
202,270,134399,1,2,0:0:0:0:
191,299,134500,1,2,0:0:0:0:
181,331,134601,5,0,1:2:0:0:
255,372,134804,1,2,0:0:0:0:
300,298,135007,1,8,0:0:0:0:
103,304,135210,5,2,0:0:0:0:
103,304,135311,1,0,0:0:0:0:
103,304,135412,2,0,P|86:249|73:206,1,87.5,0|2,1:2|0:0,0:0:0:0:
303,283,135818,2,0,P|320:338|333:381,1,87.5,8|2,0:0|0:0,0:0:0:0:
195,199,136223,5,0,1:2:0:0:
340,116,136426,1,2,0:0:0:0:
409,285,136628,1,8,0:0:0:0:
302,206,136831,1,0,0:0:0:0:
302,206,136933,1,0,0:0:0:0:
302,206,137034,1,0,1:2:0:0:
365,0,137237,5,0,0:0:0:0:
489,36,137439,1,8,0:0:0:0:
448,144,137642,1,2,0:0:0:0:
331,109,137845,6,0,P|269:123|184:141,1,140,4|0,1:2|1:0,0:0:0:0:
142,85,138453,1,0,1:0:0:0:
142,85,138554,1,0,1:0:0:0:
142,85,138656,2,0,P|105:82|84:81,3,35,0|0|0|0,1:0|1:0|1:0|1:0,0:0:0:0:
44,124,139061,1,2,1:2:0:0:
10,107,139162,1,2,1:2:0:0:
0,69,139264,1,2,1:2:0:0:
22,35,139365,1,2,1:2:0:0:
61,23,139466,1,4,1:2:0:0:
0,82,139872,1,8,2:1:0:0:
12,375,140480,5,8,2:1:0:0:
12,375,140683,1,8,2:1:0:0:
218,324,140885,5,4,1:2:0:0:
268,121,141493,1,8,2:1:0:0:
214,7,142101,5,8,2:1:0:0:
214,7,142303,1,8,2:1:0:0:
390,45,142507,6,0,P|399:92|408:157,1,105.000004005432,4|0,1:2|0:0,0:0:0:0:
330,207,143115,1,8,2:1:0:0:
300,117,143318,1,0,1:0:0:0:
300,117,143419,1,0,1:0:0:0:
300,117,143520,2,0,P|272:111|253:107,3,26.2500010013581,0|0|8|0,1:0|1:0|1:0|1:0,0:0:0:0:
216,167,143926,5,8,1:0:0:0:
216,167,144027,1,0,1:2:0:0:
216,167,144128,2,0,P|207:212|199:240,1,52.5000020027161,4|0,1:2|0:0,0:0:0:0:
350,192,144534,1,2,0:0:0:0:
299,44,144737,1,8,0:0:0:0:
140,92,144939,1,2,0:0:0:0:
177,236,145142,1,0,1:2:0:0:
311,342,145345,5,2,0:0:0:0:
231,176,145547,1,8,0:0:0:0:
76,269,145750,1,2,0:0:0:0:
220,375,145953,6,0,P|234:307|245:252,1,87.5,0|2,1:2|0:0,0:0:0:0:
155,169,146358,1,8,0:0:0:0:
311,235,146561,1,2,0:0:0:0:
311,235,146662,1,0,0:0:0:0:
311,235,146764,2,0,P|321:284|333:335,1,87.5,0|2,1:0|0:0,0:0:0:0:
138,348,147169,2,0,P|128:299|116:248,1,87.5,8|2,0:0|0:0,0:0:0:0:
226,165,147574,5,0,1:2:0:0:
386,219,147777,1,2,0:0:0:0:
443,3,147980,1,8,0:0:0:0:
270,45,148183,1,2,0:0:0:0:
297,144,148385,1,0,1:0:0:0:
512,209,148588,5,2,0:0:0:0:
479,337,148791,1,8,0:0:0:0:
419,143,148993,1,2,0:0:0:0:
385,284,149196,6,0,B|318:302|317:308|225:330,1,131.25,0|2,1:2|0:0,0:0:0:0:
207,374,149601,2,0,P|151:358|57:329,1,131.25,8|0,0:0|0:0,0:0:0:0:
11,372,150007,1,0,1:0:0:0:
70,183,150210,1,2,0:0:0:0:
270,238,150412,1,8,0:0:0:0:
248,317,150615,1,2,0:0:0:0:
129,240,150818,6,0,P|110:171|101:133,1,87.5,0|0,1:2|0:0,0:0:0:0:
130,133,151122,1,0,0:0:0:0:
155,109,151223,1,0,1:2:0:0:
22,13,151426,1,0,1:0:0:0:
6,54,151527,1,0,1:0:0:0:
39,78,151628,1,0,1:0:0:0:
202,30,151831,5,0,1:0:0:0:
210,33,151933,1,0,1:0:0:0:
218,35,152034,1,0,1:0:0:0:
226,38,152134,1,0,1:0:0:0:
234,40,152237,1,0,1:0:0:0:
242,43,152338,1,0,1:0:0:0:
250,45,152439,1,4,1:2:0:0:
299,188,152642,1,2,0:0:0:0:
144,244,152845,1,8,0:0:0:0:
91,98,153047,1,2,0:0:0:0:
224,151,153250,5,0,1:0:0:0:
174,216,153453,2,0,P|183:245|193:276,2,43.75,2|2|8,0:0|0:0|0:0,0:0:0:0:
366,255,153858,6,0,P|304:245|264:353,1,175,2|2,0:0|0:0,0:0:0:0:
55,255,154466,1,8,0:0:0:0:
186,377,154669,1,2,0:0:0:0:
391,332,154872,5,0,1:0:0:0:
330,277,155074,1,2,0:0:0:0:
308,353,155277,1,8,0:0:0:0:
440,151,155480,6,0,B|486:156|550:167|546:217|414:174,1,175,2|2,0:0|0:0,0:0:0:0:
258,152,156088,2,0,P|191:170|163:178,1,87.5,8|2,0:0|0:0,0:0:0:0:
12,212,156493,1,0,1:0:0:0:
46,89,156696,1,2,0:0:0:0:
84,100,156797,1,0,0:0:0:0:
120,110,156899,1,8,0:0:0:0:
195,301,157101,6,0,P|205:242|216:197,1,87.5,2|0,0:0|1:2,0:0:0:0:
120,122,157507,1,2,0:0:0:0:
255,17,157710,1,8,0:0:0:0:
366,151,157912,1,2,0:0:0:0:
285,233,158115,1,0,1:0:0:0:
492,366,158318,5,2,0:0:0:0:
466,283,158520,1,8,0:0:0:0:
412,346,158723,5,2,0:0:0:0:
412,346,158824,1,0,0:0:0:0:
412,346,158926,1,4,1:2:0:0:
349,96,159331,1,4,1:2:0:0:
435,0,159737,1,4,1:2:0:0:
372,250,160142,1,4,1:2:0:0:
497,160,160547,5,0,1:2:0:0:
343,80,160750,1,2,0:0:0:0:
293,242,160953,1,8,0:0:0:0:
128,178,161156,1,2,0:0:0:0:
128,178,161257,1,0,0:0:0:0:
128,178,161358,1,0,1:0:0:0:
244,122,161561,2,0,P|231:185|222:225,1,87.5,2|8,0:0|0:0,0:0:0:0:
76,263,161966,1,0,0:0:0:0:
3,56,162169,6,0,P|36:18|128:24,1,131.25,0|0,1:2|0:0,0:0:0:0:
182,50,162574,2,0,P|206:91|192:172,1,131.25,8|0,0:0|0:0,0:0:0:0:
130,215,162980,1,0,1:0:0:0:
286,296,163183,1,2,0:0:0:0:
368,134,163385,1,8,0:0:0:0:
480,367,163588,6,0,P|491:307|504:224,1,140,4|0,1:2|0:0,0:0:0:0:
419,189,164196,2,0,P|427:217|434:242,3,35,0|0|0|0,1:0|0:0|1:0|1:0,0:0:0:0:
360,258,164601,1,0,1:0:0:0:
326,238,164702,1,0,1:0:0:0:
284,251,164803,1,0,1:0:0:0:
262,285,164905,1,0,1:0:0:0:
262,329,165006,1,2,1:2:0:0:
241,361,165107,1,2,1:2:0:0:
198,377,165209,1,2,1:2:0:0:
157,364,165310,1,2,1:2:0:0:
128,334,165412,5,4,1:2:0:0:
345,359,165818,1,4,1:2:0:0:
30,364,166223,1,4,1:2:0:0:
480,325,166628,1,4,1:2:0:0:
176,225,167034,5,0,1:2:0:0:
308,305,167237,1,2,0:0:0:0:
390,167,167439,1,8,0:0:0:0:
254,96,167642,1,2,0:0:0:0:
254,96,167743,1,0,0:0:0:0:
254,96,167845,1,0,1:0:0:0:
328,233,168047,2,0,P|381:248|429:261,1,87.5,2|8,0:0|0:0,0:0:0:0:
512,197,168453,1,0,0:0:0:0:
282,170,168656,6,0,P|214:185|123:203,1,131.25,0|0,1:2|0:0,0:0:0:0:
97,252,169061,2,0,P|32:243|25:154,1,131.25,8|0,0:0|0:0,0:0:0:0:
42,120,169466,1,0,1:0:0:0:
205,163,169669,1,2,0:0:0:0:
162,339,169872,1,8,0:0:0:0:
33,114,170074,6,0,P|128:91|171:78,1,140,4|0,1:2|0:0,0:0:0:0:
213,152,170683,2,0,P|242:160|268:168,3,35,0|0|0|0,1:0|0:0|1:0|1:0,0:0:0:0:
308,41,171088,1,0,1:0:0:0:
342,21,171189,1,0,1:0:0:0:
378,15,171291,1,0,1:0:0:0:
415,29,171392,1,0,1:0:0:0:
445,56,171493,1,2,1:2:0:0:
462,97,171595,1,2,1:2:0:0:
461,136,171696,1,2,1:2:0:0:
445,170,171797,1,2,1:2:0:0:
411,203,171899,6,0,P|363:190|319:178,1,70,4|2,1:2|0:0,0:0:0:0:
339,179,172203,1,2,0:0:0:0:
335,173,172304,1,8,0:0:0:0:
377,108,172507,1,0,0:0:0:0:
444,303,172710,2,0,P|497:293|534:286,1,70,0|2,1:0|0:0,0:0:0:0:
335,355,173115,2,0,P|300:361|266:367,1,70,8|2,0:0|0:0,0:0:0:0:
70,282,173520,5,0,1:2:0:0:
148,251,173723,1,2,0:0:0:0:
174,327,173926,1,8,0:0:0:0:
102,363,174128,1,2,0:0:0:0:
102,363,174230,1,0,0:0:0:0:
102,363,174331,1,0,1:0:0:0:
0,238,174534,1,2,0:0:0:0:
145,174,174737,2,0,P|192:183|243:194,1,70,8|0,0:0|0:0,0:0:0:0:
289,320,175142,6,0,P|298:281|277:246,1,70,0|2,1:2|0:0,0:0:0:0:
278,251,175446,1,0,0:0:0:0:
269,246,175547,1,8,0:0:0:0:
128,275,175750,1,2,0:0:0:0:
201,375,175953,2,0,P|208:326|214:284,1,70,0|2,1:0|0:0,0:0:0:0:
9,204,176358,2,0,P|16:253|22:295,1,70,8|2,0:0|0:0,0:0:0:0:
194,134,176764,5,0,1:0:0:0:
269,168,176966,1,2,0:0:0:0:
326,105,177169,1,8,0:0:0:0:
402,147,177372,1,0,1:0:0:0:
402,147,177473,1,0,1:0:0:0:
402,147,177574,2,0,P|397:176|392:206,3,35,0|0|0|0,1:0|1:0|1:0|1:0,0:0:0:0:
459,230,177980,1,2,1:2:0:0:
493,213,178081,1,2,1:2:0:0:
512,178,178183,1,2,1:2:0:0:
502,143,178284,1,2,1:2:0:0:
476,116,178385,1,4,1:2:0:0:
256,192,178487,12,0,181020,0:0:0:0:
