osu file format v14

[General]
AudioFilename: audio.mp3
AudioLeadIn: 0
PreviewTime: 46207
Countdown: 0
SampleSet: Normal
StackLeniency: 0.7
Mode: 2
LetterboxInBreaks: 0
WidescreenStoryboard: 1

[Editor]
DistanceSpacing: 1
BeatDivisor: 4
GridSize: 4
TimelineZoom: 1.9

[Metadata]
Title:MINE
TitleUnicode:MINE
Artist:Kim Jaejoong
ArtistUnicode:김재중
Creator:Ollapeu
Version:Cup
Source:
Tags:I (Jaejoong EP)
BeatmapID:1524622
BeatmapSetID:721379

[Difficulty]
HPDrainRate:3
CircleSize:2
OverallDifficulty:6
ApproachRate:6
SliderMultiplier:0.999999999999999
SliderTickRate:1

[Events]
//Background and Video events
0,0,"bg.jpg",0,0
//Break Periods
//Storyboard Layer 0 (Background)
//Storyboard Layer 1 (Fail)
//Storyboard Layer 2 (Pass)
//Storyboard Layer 3 (Foreground)
//Storyboard Sound Samples

[TimingPoints]
12075,359.281437125748,4,1,0,85,1,0
23572,-100,4,2,0,60,0,0
28422,-100,4,2,0,70,0,0
28961,-100,4,2,0,80,0,0
29141,-100,4,2,0,60,0,0
33632,-100,4,2,0,70,0,0
34889,-100,4,2,0,80,0,0
45847,-100,4,3,0,80,0,0
46386,-100,4,1,1,95,0,0
48542,-100,4,3,0,80,0,0
48721,-100,4,1,1,80,0,0
48901,-100,4,3,0,80,0,0
49260,-100,4,1,1,80,0,0
51596,-100,4,1,1,80,0,0
51775,-100,4,3,0,80,0,0
52135,-100,4,1,1,80,0,0
60039,-100,4,3,0,80,0,0
60218,-100,4,1,1,80,0,0
62913,-100,4,3,0,80,0,0
63093,-100,4,1,1,80,0,0
63272,-100,4,1,1,80,0,0
66147,-100,4,3,1,80,0,0
66506,-100,4,1,1,80,0,0
67404,-100,4,1,1,45,0,0
67584,-100,4,1,1,55,0,0
67763,-100,4,1,1,75,0,0
67943,-100,4,1,1,80,0,0
68123,-100,4,2,0,80,0,0
69560,-100,4,1,1,90,0,1
80608,-100,4,3,0,90,0,1
80698,-100,4,1,1,90,0,1
80967,-100,4,3,0,90,0,1
81057,-100,4,1,1,90,0,1
83931,-100,4,1,1,90,0,1
84290,-100,4,1,2,90,0,1
84649,-100,4,1,1,90,0,1
86446,-100,4,1,1,90,0,1
89320,-100,4,1,2,90,0,1
89500,-100,4,1,1,90,0,1
90039,-100,4,1,2,90,0,1
90218,-100,4,3,0,90,0,1
90398,-100,4,1,1,90,0,1
91835,-100,4,1,0,90,0,0
92554,-100,4,1,0,90,0,1
92913,-100,4,1,1,90,0,1
93452,-100,4,1,1,90,0,1
94350,-100,4,1,2,90,0,1
94530,-100,4,1,1,90,0,1
95069,-100,4,1,2,90,0,1
95248,-100,4,1,1,90,0,1
96236,-100,4,1,1,90,0,1
97224,-100,4,1,2,90,0,1
97404,-100,4,1,1,90,0,1
97943,-100,4,1,2,90,0,1
98123,-100,4,1,1,90,0,1
99111,-100,4,1,1,90,0,1
100099,-100,4,1,2,90,0,1
100278,-100,4,1,1,90,0,1
101985,-100,4,1,1,90,0,1
102973,-100,4,1,2,90,0,1
103153,-100,4,1,1,90,0,1
104051,-100,4,1,0,90,0,0

[Colours]
Combo1 : 192,192,192
Combo2 : 148,148,148

[HitObjects]
204,256,12075,6,0,L|36:240,2,150,8|8|8,0:0|0:0|0:0,0:0:0:0:
364,192,13692,1,8,0:0:0:0:
168,200,14230,2,0,L|160:92,1,99.9999999999999,8|8,0:0|0:0,0:0:0:0:
296,96,14949,6,0,L|445:110,2,150,12|8|0,0:0|0:0|0:0,0:0:0:0:
80,100,16566,1,0,0:0:0:0:
292,104,17105,2,0,L|300:220,1,99.9999999999999,0|0,0:0|0:0,0:0:0:0:
140,200,17823,6,0,P|140:152|224:96,1,150,8|8,0:0|0:0,0:0:0:0:
416,96,18901,1,8,0:0:0:0:
180,96,19440,1,8,0:0:0:0:
372,96,19979,2,0,L|436:96,2,50,8|0|8,0:0|0:0|0:0,0:0:0:0:
224,96,20698,6,0,L|208:252,1,150,8|8,0:0|0:0,0:0:0:0:
424,240,21775,1,8,0:0:0:0:
204,240,22314,1,8,0:0:0:0:
440,240,22853,2,0,L|448:180,1,50,8|0,0:0|0:0,0:0:0:0:
292,100,23572,6,0,P|200:136|332:216,1,300,0|0,0:0|0:0,0:0:0:0:
424,248,25009,1,2,0:0:0:0:
252,248,25548,1,2,0:0:0:0:
400,248,26087,1,2,0:0:0:0:
232,340,26446,6,0,L|196:36,1,300,0|0,0:0|0:0,0:0:0:0:
332,40,27883,2,0,L|480:68,2,150,2|2|2,0:0|0:0|0:0,0:0:0:0:
168,44,29320,6,0,P|124:88|184:208,1,200,0|0,0:0|0:0,0:0:0:0:
292,200,30398,1,0,0:0:0:0:
416,44,30757,2,0,P|460:88|400:208,1,200,2|0,0:0|0:0,0:0:0:0:
264,200,31835,1,2,0:0:0:0:
400,204,32195,6,0,L|424:84,1,99.9999999999999,0|2,0:0|0:0,0:0:0:0:
272,104,32913,1,0,0:0:0:0:
128,104,33272,1,0,0:0:0:0:
332,104,33632,2,0,L|456:104,1,99.9999999999999,2|0,0:0|0:0,0:0:0:0:
368,104,34171,2,0,L|256:104,1,99.9999999999999,2|0,0:0|0:0,0:0:0:0:
320,104,34710,1,0,0:0:0:0:
380,104,34889,6,0,P|408:152|296:232,1,200,2|0,0:0|0:0,0:0:0:0:
200,240,35967,1,0,0:0:0:0:
48,244,36326,2,0,L|268:244,1,200,2|0,0:0|0:0,0:0:0:0:
368,244,37404,1,0,0:0:0:0:
212,244,37763,6,0,P|164:196|220:88,1,200,2|0,0:0|0:0,0:0:0:0:
336,88,38841,1,0,0:0:0:0:
208,96,39201,1,2,0:0:0:0:
156,96,39380,2,0,L|16:152,2,150,0|0|0,0:0|0:0|0:0,0:0:0:0:
216,96,40638,6,0,P|256:144|168:224,1,200,2|0,0:0|0:0,0:0:0:0:
52,224,41716,1,0,0:0:0:0:
208,224,42075,2,0,L|432:224,1,200,2|0,0:0|0:0,0:0:0:0:
272,224,43153,1,0,0:0:0:0:
408,224,43512,6,0,L|416:66,1,150,2|0,0:0|0:0,0:0:0:0:
280,80,44410,2,0,L|172:64,1,99.9999999999999,0|0,0:0|0:0,0:0:0:0:
352,80,45129,2,0,P|388:140|332:208,1,150,0|0,0:0|0:0,0:0:0:0:
296,200,45847,1,0,0:0:0:0:
244,200,46027,1,8,0:0:0:0:
80,200,46386,6,0,P|80:144|176:76,1,150,4|0,0:0|0:0,0:0:0:0:
300,80,47284,1,8,0:0:0:0:
160,80,47644,1,0,0:0:0:0:
300,80,48003,2,0,L|400:80,1,99.9999999999999,0|0,0:0|0:0,0:0:0:0:
448,80,48542,1,0,0:0:0:0:
400,80,48721,2,0,L|284:80,1,99.9999999999999,8|0,0:0|0:0,0:0:0:0:
248,80,49260,6,0,P|216:128|268:216,1,150,4|0,0:0|0:0,0:0:0:0:
404,204,50159,2,0,L|420:84,1,99.9999999999999,8|0,0:0|0:0,0:0:0:0:
248,180,50877,1,0,0:0:0:0:
244,152,51057,1,0,0:0:0:0:
240,128,51236,1,0,0:0:0:0:
416,132,51596,2,0,L|424:68,1,50,8|0,0:0|0:0,0:0:0:0:
268,80,52135,6,0,L|96:80,1,150,4|0,0:0|0:0,0:0:0:0:
268,80,53033,2,0,P|308:128|236:196,1,150,8|0,0:0|0:0,0:0:0:0:
208,196,53751,1,4,0:0:0:0:
64,196,54470,1,8,0:0:0:0:
200,196,54829,1,0,0:0:0:0:
260,196,55009,6,0,P|296:152|236:72,1,150,4|0,0:0|0:0,0:0:0:0:
88,76,55907,2,0,L|16:76,2,50,8|0|0,0:0|0:0|0:0,0:0:0:0:
236,76,56626,2,0,P|292:124|224:216,1,200,4|8,0:0|0:0,0:0:0:0:
100,216,57704,1,0,0:0:0:0:
44,216,57883,6,0,L|36:56,1,150,4|0,0:0|0:0,0:0:0:0:
172,68,58781,1,8,0:0:0:0:
48,68,59141,1,0,0:0:0:0:
192,68,59500,2,0,L|308:68,1,99.9999999999999,0|0,0:0|0:0,0:0:0:0:
348,68,60039,1,0,0:0:0:0:
412,68,60218,2,0,L|292:68,1,99.9999999999999,8|0,0:0|0:0,0:0:0:0:
252,68,60757,6,0,P|220:132|272:204,1,150,4|0,0:0|0:0,0:0:0:0:
376,196,61656,2,0,L|488:196,1,99.9999999999999,8|0,0:0|0:0,0:0:0:0:
280,196,62374,1,0,0:0:0:0:
272,136,62554,1,0,0:0:0:0:
264,72,62733,1,0,0:0:0:0:
424,68,63093,2,0,L|432:140,1,50,8|0,0:0|0:0,0:0:0:0:
228,104,63632,6,0,P|176:152|248:256,1,200,2|0,0:0|0:0,0:0:0:0:
288,252,64530,1,8,0:0:0:0:
416,248,64889,1,0,0:0:0:0:
476,248,65069,2,0,L|492:92,1,150,2|0,0:0|0:0,0:0:0:0:
324,248,65967,1,8,0:0:0:0:
292,196,66147,1,0,0:0:0:0:
292,144,66326,1,0,0:0:0:0:
328,92,66506,6,0,P|412:128|412:192,1,150,2|0,0:0|0:0,0:0:0:0:
280,92,67404,1,0,0:0:0:0:
220,92,67584,1,0,0:0:0:0:
160,92,67763,1,0,0:0:0:0:
280,92,68123,1,0,0:0:0:0:
179,107,69560,6,0,L|171:223,1,99.9999999999999,0|0,0:0|0:0,0:0:0:0:
309,211,70278,1,8,0:0:0:0:
173,207,70638,1,0,0:0:0:0:
336,212,70997,2,0,P|388:120|320:52,1,200,0|8,0:0|0:0,0:0:0:0:
208,56,72075,2,0,L|140:56,1,50,0|0,0:0|0:0,0:0:0:0:
100,56,72434,6,0,P|60:108|128:228,1,200,0|8,0:0|0:0,0:0:0:0:
264,220,73512,1,0,0:0:0:0:
100,220,73871,2,0,L|-12:212,2,99.9999999999999,0|0|8,0:0|0:0|0:0,0:0:0:0:
252,216,74949,1,0,0:0:0:0:
100,216,75308,6,0,L|96:108,1,99.9999999999999,2|0,0:0|0:0,0:0:0:0:
280,160,76027,2,0,L|284:52,1,99.9999999999999,10|0,0:0|0:0,0:0:0:0:
120,160,76745,2,0,L|116:52,1,99.9999999999999,2|0,0:0|0:0,0:0:0:0:
300,160,77464,2,0,L|308:52,1,99.9999999999999,8|0,0:0|0:0,0:0:0:0:
240,56,78003,1,0,0:0:0:0:
308,60,78183,6,0,L|424:72,1,99.9999999999999,0|0,0:0|0:0,0:0:0:0:
248,64,78901,1,8,0:0:0:0:
424,60,79260,1,0,0:0:0:0:
428,120,79440,1,0,0:0:0:0:
432,176,79620,1,0,0:0:0:0:
236,176,79979,1,0,0:0:0:0:
392,176,80338,2,0,L|456:176,2,50,8|0|0,0:0|0:0|0:0,0:0:0:0:
232,176,81057,5,4,0:0:0:0:
168,96,81416,1,8,0:0:0:0:
168,0,81775,1,0,0:0:0:0:
232,176,82135,1,8,0:0:0:0:
376,176,82494,2,0,L|476:176,1,99.9999999999999,2|8,0:0|0:0,0:0:0:0:
416,176,83033,1,2,0:0:0:0:
356,176,83213,2,0,L|256:176,1,99.9999999999999,0|0,0:0|0:0,0:0:0:0:
316,176,83751,1,0,0:0:0:0:
376,176,83931,6,0,P|424:96|364:12,1,200,0|0,0:0|0:0,0:0:0:0:
316,12,84829,1,0,0:0:0:0:
260,12,85009,1,8,0:0:0:0:
88,16,85368,6,0,L|80:128,1,99.9999999999999,2|8,0:0|0:0,0:0:0:0:
264,184,86087,6,0,L|271:84,1,99.9999999999999,0|8,0:0|0:0,0:0:0:0:
208,84,86626,1,0,0:0:0:0:
148,84,86805,2,0,L|40:80,1,99.9999999999999,0|8,0:0|0:0,0:0:0:0:
216,176,87524,2,0,L|328:184,1,99.9999999999999,0|8,0:0|0:0,0:0:0:0:
136,272,88242,2,0,L|28:268,1,99.9999999999999,0|8,0:0|0:0,0:0:0:0:
240,276,88961,2,0,P|240:220|160:156,1,150,0|0,0:0|0:0,0:0:0:0:
112,160,89680,6,0,P|84:80|136:32,1,150
184,36,90398,1,0,0:0:0:0:
376,40,90757,1,8,0:0:0:0:
372,104,90937,1,0,0:0:0:0:
368,168,91117,1,0,0:0:0:0:
200,172,91476,1,0,0:0:0:0:
400,172,91835,2,0,P|432:132|380:44,1,150,0|0,0:0|0:0,0:0:0:0:
332,52,92554,6,0,L|176:84,2,150,6|2|10,0:0|0:0|0:0,0:0:0:0:
124,52,94171,1,2,0:0:0:0:
348,56,94710,2,0,L|356:172,1,99.9999999999999,0|0,0:0|0:0,0:0:0:0:
220,156,95428,6,0,L|376:180,2,150,6|2|10,0:0|0:0|0:0,0:0:0:0:
440,152,97045,1,2,0:0:0:0:
224,156,97584,2,0,L|116:156,1,99.9999999999999,0|0,0:0|0:0,0:0:0:0:
296,212,98302,6,0,P|332:168|284:92,2,150,6|2|10,0:0|0:0|0:0,0:0:0:0:
64,212,99919,1,2,0:0:0:0:
296,208,100458,1,0,0:0:0:0:
172,208,100817,1,0,0:0:0:0:
340,208,101177,6,0,L|496:184,2,150,6|2|10,0:0|0:0|0:0,0:0:0:0:
112,208,102793,1,2,0:0:0:0:
300,208,103332,1,0,0:0:0:0:
304,148,103512,1,0,0:0:0:0:
308,88,103692,1,0,0:0:0:0:
96,84,104051,1,4,0:0:0:0:
