osu file format v14

[General]
AudioFilename: audio.mp3
AudioLeadIn: 0
PreviewTime: 54277
Countdown: 0
SampleSet: Soft
StackLeniency: 0.7
Mode: 0
LetterboxInBreaks: 0
WidescreenStoryboard: 1

[Editor]
DistanceSpacing: 1
BeatDivisor: 4
GridSize: 32
TimelineZoom: 1.7

[Metadata]
Title:Make Me Famous
TitleUnicode:Make Me Famous
Artist:Kim Dracula
ArtistUnicode:Kim Dracula
Creator:Mirash
Version:Insane
Source:
Tags:A Gradual Decline In Morale english rock trap metal alternative nu-metal experimental indie
BeatmapID:4378461
BeatmapSetID:2088941

[Difficulty]
HPDrainRate:5.5
CircleSize:4
OverallDifficulty:7
ApproachRate:8.8
SliderMultiplier:1.1
SliderTickRate:1

[Events]
//Background and Video events
0,0,"123333.jpg",0,0
//Break Periods
//Storyboard Layer 0 (Background)
//Storyboard Layer 1 (Fail)
//Storyboard Layer 2 (Pass)
//Storyboard Layer 3 (Foreground)
//Storyboard Layer 4 (Overlay)
//Storyboard Sound Samples

[TimingPoints]
492,428.571428571429,4,3,1,40,1,0
492,-133.333333333333,4,3,1,40,0,0
6920,-133.333333333333,4,3,1,20,0,0
7349,-133.333333333333,4,3,1,40,0,0
13777,-133.333333333333,4,3,1,50,0,0
14206,-66.6666666666667,4,2,1,80,0,0
19563,-100,4,2,1,80,0,0
20206,-66.6666666666667,4,2,1,80,0,0
26634,-50,4,2,1,80,0,0
27063,428.571428571429,4,2,1,60,1,0
33277,-100,4,2,2,70,0,0
33920,-50,4,2,1,70,0,0
38205,-133.333333333333,4,2,1,50,0,0
39063,-133.333333333333,4,2,1,40,0,0
39491,-133.333333333333,4,2,1,30,0,0
39705,-133.333333333333,4,2,1,20,0,0
39920,-133.333333333333,4,2,1,10,0,0
40348,-133.333333333333,4,2,1,6,0,0
40777,-50,4,2,1,90,0,0
42491,-50,4,2,1,70,0,0
42920,-83.3333333333333,4,2,1,70,0,0
44205,-50,4,2,1,80,0,0
46027,-50,4,2,1,40,0,0
46348,-50,4,2,1,60,0,0
46777,-50,4,2,1,70,0,0
47634,-58.8235294117647,4,2,1,80,0,0
49563,-58.8235294117647,4,2,1,70,0,0
51063,-58.8235294117647,4,2,1,80,0,0
54491,375,4,3,1,70,1,0
54491,-66.6666666666667,4,3,1,70,0,0
60116,-50,4,3,1,70,0,0
60491,-66.6666666666667,4,3,1,70,0,0
63116,-66.6666666666667,4,3,1,80,0,0
65741,-40,4,3,1,80,0,0
66116,-100,4,2,1,50,0,0
66491,360.36036036036,4,2,1,80,1,0
66491,-66.6666666666667,4,2,1,80,0,0
76761,-66.6666666666667,4,2,2,80,0,0
77301,-66.6666666666667,4,2,1,80,0,0
78027,375,4,3,1,70,1,0
88527,-50,4,3,1,70,0,0
89464,-100,4,3,1,70,0,0
90027,-50,4,2,1,80,0,0
95183,-50,4,2,1,90,0,0
95370,-50,4,2,1,80,0,0
96027,-66.6666666666667,4,2,1,70,0,0
102027,361.44578313253,4,2,1,80,1,0
102027,-66.6666666666667,4,2,1,80,0,0
107805,363.636363636364,4,2,1,80,1,0
107805,-66.6666666666667,4,2,1,80,0,0
112168,-66.6666666666667,4,2,2,80,0,0
112895,-66.6666666666667,4,2,1,80,0,0
113623,359.281437125748,4,2,1,80,1,0
113623,-66.6666666666667,4,2,1,80,0,0
119371,365.853658536585,4,2,1,80,1,0
119371,-66.6666666666667,4,2,1,80,0,0
122297,357.142857142857,4,2,1,80,1,0
122297,-66.6666666666667,4,2,1,80,0,0
123725,-66.6666666666667,4,2,2,80,0,0
124439,-66.6666666666667,4,2,1,80,0,0
125154,357.142857142857,4,3,1,60,1,0
128011,340.909090909091,4,3,1,70,1,0
130738,333.333333333333,4,3,1,70,1,0
133404,319.148936170213,4,3,1,70,1,0
135957,317.460317460317,4,2,1,80,1,0
135957,-66.6666666666667,4,2,1,80,0,0
136433,-83.3333333333333,4,2,1,80,0,0
138496,315.789473684211,4,2,1,80,1,0
138496,-83.3333333333333,4,2,1,80,0,0
143548,-66.6666666666667,4,2,1,90,0,0
144811,326.086956521739,4,2,1,80,1,0
145137,-66.6666666666667,4,2,1,60,0,0
145300,-66.6666666666667,4,2,1,60,0,0
145463,-100,4,2,1,70,0,0
145544,-100,4,2,3,20,0,0
146115,352.941176470588,4,2,1,40,1,0
150350,-100,4,2,1,60,0,0
151585,-100,4,2,1,10,0,0
151762,315.789473684211,4,2,1,90,1,0
151762,-50,4,2,1,90,0,0
158077,-100,4,2,1,90,0,0
158393,-50,4,2,1,90,0,0
166288,-50,4,3,2,90,0,0
166919,-50,4,2,1,90,0,0
171025,-50,4,2,1,70,0,0
171340,-50,4,2,1,50,0,0
171656,-50,4,2,1,40,0,0
172919,-50,4,2,1,5,0,0

[Colours]
Combo1 : 88,29,29
Combo2 : 32,170,142
Combo3 : 51,221,128
Combo4 : 251,0,0
Combo5 : 255,238,28
Combo6 : 226,225,184
Combo7 : 186,225,181
Combo8 : 155,32,32

[HitObjects]
419,192,492,69,2,1:3:0:0:
360,239,920,1,0,0:0:0:0:
360,239,1134,1,8,0:0:0:0:
408,294,1349,2,0,P|406:320|408:352,1,41.2500015735627,8|0,0:0|0:0,0:0:0:0:
220,369,1992,1,0,1:0:0:0:
172,314,2207,6,0,P|174:288|172:256,1,41.2500015735627
121,215,2634,1,2,0:0:0:0:
202,110,2849,2,0,P|202:147|204:210,1,82.5000031471254,8|0,0:0|0:0,0:0:0:0:
270,232,3492,1,0,0:0:0:0:
313,170,3706,1,2,0:0:0:0:
313,170,3813,1,0,0:0:0:0:
313,170,3920,1,2,1:3:0:0:
174,109,4349,102,0,P|172:67|173:56,1,41.2500015735627
112,22,4777,1,8,0:0:0:0:
221,6,4992,1,2,0:0:0:0:
292,94,5206,5,0,0:0:0:0:
340,32,5420,2,0,P|382:37|440:42,1,82.5000031471254,2|8,0:0|0:0,0:0:0:0:
496,54,6063,1,2,0:0:0:0:
349,167,6277,1,2,0:0:0:0:
499,142,6492,2,0,P|457:138|417:134,1,82.5000031471254,0|4,0:0|0:2,0:0:0:0:
296,157,7134,1,4,0:2:0:0:
135,188,7349,102,0,P|93:184|52:179,1,82.5000031471254,2|2,1:3|0:0,0:0:0:0:
39,106,7992,1,0,0:0:0:0:
118,97,8206,2,0,P|118:122|115:143,1,41.2500015735627,8|2,0:0|0:0,0:0:0:0:
106,215,8634,1,0,0:0:0:0:
96,292,8849,2,0,P|101:332|106:379,1,82.5000031471254,2|2,1:3|0:0,0:0:0:0:
178,352,9492,5,2,0:0:0:0:
252,377,9706,1,8,0:0:0:0:
375,310,9920,1,8,0:0:0:0:
299,320,10134,1,0,0:0:0:0:
249,263,10349,1,2,0:0:0:0:
278,193,10563,1,2,0:0:0:0:
408,201,10777,102,0,P|433:210|454:219,1,41.2500015735627,2|0,1:3|0:0,0:0:0:0:
490,156,11206,2,0,P|481:126|465:64,1,82.5000031471254,2|8,0:0|0:0,0:0:0:0:
398,49,11849,1,2,0:0:0:0:
220,141,12277,1,2,0:0:0:0:
151,110,12492,6,0,P|127:117|94:123,1,41.2500015735627,0|8,0:0|0:0,0:0:0:0:
41,143,12920,1,2,0:0:0:0:
41,143,13134,2,0,P|63:152|123:190,1,82.5000031471254,0|0,1:0|0:0,0:0:0:0:
136,256,13777,1,2,0:0:0:0:
172,252,13884,1,2,0:0:0:0:
209,248,13992,1,2,0:0:0:0:
245,244,14099,1,2,0:0:0:0:
282,279,14206,38,0,B|296:295|296:295|287:318,1,41.2500015735627,6|0,1:0|0:0,0:0:0:0:
142,140,14849,2,0,B|121:144|121:144|105:124,1,41.2500015735627,10|0,1:0|0:0,0:0:0:0:
351,86,15492,2,0,B|357:65|357:65|382:62,1,41.2500015735627,10|0,1:0|0:0,0:0:0:0:
256,196,16134,6,0,L|248:144,1,41.2500015735627,10|0,1:0|0:0,0:0:0:0:
294,32,16563,1,2,0:1:0:0:
253,26,16670,1,0,0:0:0:0:
212,20,16777,1,2,0:1:0:0:
186,51,16884,101,0,0:0:0:0:
144,56,16992,1,2,0:1:0:0:
103,62,17099,1,2,0:1:0:0:
62,66,17206,2,0,B|45:49|45:49|52:25,1,41.2500015735627,2|0,0:1|0:0,0:0:0:0:
105,134,17420,2,0,L|59:150,1,41.2500015735627,2|0,0:1|0:0,0:0:0:0:
4,197,17634,6,0,B|43:225|43:225|16:282,1,82.5000031471254,4|2,1:0|0:1,0:0:0:0:
67,319,17956,1,0,0:0:0:0:
107,312,18063,1,2,0:1:0:0:
147,305,18170,1,2,0:1:0:0:
164,267,18277,101,10,1:0:0:0:
203,277,18384,1,0,0:0:0:0:
243,286,18492,1,2,0:1:0:0:
283,295,18599,1,0,0:0:0:0:
323,303,18706,2,0,L|376:292,1,41.2500015735627,2|2,0:1|0:1,0:0:0:0:
431,325,18920,5,2,1:0:0:0:
446,286,19027,1,0,0:0:0:0:
416,240,19134,1,2,1:0:0:0:
436,203,19242,1,0,0:0:0:0:
471,206,19349,2,0,L|460:136,1,41.2500015735627,4|2,0:0|0:0,0:0:0:0:
410,108,19563,2,0,L|419:41,2,55,2|2|4,1:0|0:0|0:0,0:0:0:0:
215,83,20206,101,8,1:0:0:0:
220,123,20313,1,8,1:0:0:0:
225,163,20420,1,8,1:0:0:0:
231,203,20527,1,8,1:0:0:0:
277,230,20634,1,4,3:0:0:0:
266,270,20742,1,8,1:0:0:0:
256,310,20849,1,8,1:0:0:0:
247,350,20956,1,8,1:0:0:0:
208,370,21063,5,4,1:0:0:0:
36,202,21277,101,8,1:0:0:0:
30,161,21384,1,8,1:0:0:0:
25,119,21492,1,8,1:0:0:0:
20,78,21599,1,8,1:0:0:0:
51,50,21706,6,0,B|78:84|78:84|138:55,1,82.5000031471254,4|8,1:0|1:0,0:0:0:0:
176,22,22027,1,8,1:0:0:0:
216,31,22134,1,8,1:0:0:0:
256,40,22242,1,8,1:0:0:0:
313,25,22349,102,0,B|279:52|279:52|308:112,1,82.5000031471254,4|8,1:0|1:0,0:0:0:0:
256,150,22670,1,8,1:0:0:0:
273,187,22777,1,8,1:0:0:0:
290,224,22884,1,8,1:0:0:0:
288,276,22992,6,0,L|353:282,1,41.2500015735627,4|0,1:0|0:0,0:0:0:0:
381,333,23206,1,8,1:0:0:0:
413,307,23313,1,8,1:0:0:0:
445,281,23420,1,8,1:0:0:0:
477,256,23527,1,8,1:0:0:0:
508,226,23634,1,8,1:0:0:0:
450,208,23742,1,4,3:0:0:0:
446,187,23849,1,8,1:0:0:0:
443,166,23956,1,8,1:0:0:0:
437,146,24063,1,8,1:0:0:0:
408,129,24170,1,8,3:0:0:0:
412,117,24277,1,8,3:0:0:0:
416,105,24384,1,8,3:0:0:0:
421,93,24492,1,4,1:0:0:0:
256,118,24706,101,2,1:0:0:0:
249,78,24813,1,2,0:1:0:0:
281,95,24920,2,0,L|265:184,2,55.0000020980836,2|0|0,0:1|0:0|0:0,0:0:0:0:
214,55,25349,2,0,L|167:5,1,55.0000020980836,2|0,0:1|0:0,0:0:0:0:
277,18,25634,1,0,0:0:0:0:
319,24,25777,2,0,L|383:4,1,55.0000020980836,2|0,1:0|0:0,0:0:0:0:
433,47,26063,1,0,0:0:0:0:
503,25,26206,1,2,0:0:0:0:
405,131,26420,1,6,1:0:0:0:
511,208,26634,2,0,P|506:153|507:131,2,55,2|8|2,1:0|0:0|1:0,0:0:0:0:
321,239,27063,54,0,P|321:299|322:311,1,55,4|0,1:2|1:0,0:0:0:0:
267,351,27491,1,8,1:0:0:0:
214,293,27705,1,8,1:0:0:0:
55,197,27920,1,0,1:0:0:0:
55,197,28027,1,8,1:0:0:0:
55,197,28134,1,0,1:0:0:0:
65,335,28348,1,8,1:0:0:0:
90,346,28455,2,0,P|101:287|101:268,1,55
159,241,28777,6,0,P|148:182|141:142,1,82.5,4|0,1:0|1:0,0:0:0:0:
133,87,29205,1,8,1:0:0:0:
293,33,29420,2,0,P|285:73|278:114,1,82.5,8|8,1:0|1:0,0:0:0:0:
265,188,29848,1,0,1:0:0:0:
439,189,30063,1,0,1:0:0:0:
424,165,30170,1,8,1:0:0:0:
448,152,30277,2,0,P|440:111|437:89,1,55,8|0,1:0|1:0,0:0:0:0:
491,25,30705,101,0,0:0:0:0:
491,25,30813,1,0,1:0:0:0:
491,25,30920,1,8,1:0:0:0:
348,175,31134,1,8,1:0:0:0:
509,297,31348,1,0,0:0:0:0:
509,297,31455,1,8,1:0:0:0:
509,297,31563,1,0,1:0:0:0:
510,172,31777,5,0,1:0:0:0:
485,184,31884,1,0,0:0:0:0:
460,196,31991,1,8,1:0:0:0:
435,209,32098,1,0,1:0:0:0:
410,222,32205,1,0,0:0:0:0:
216,198,32420,102,0,P|226:142|231:121,1,55,8|0,1:0|0:0,0:0:0:0:
280,241,32741,2,0,P|323:277|339:292,1,55,8|0,1:0|1:0,0:0:0:0:
210,271,33063,2,0,P|156:290|135:296,1,55,8|0,1:0|3:0,0:0:0:0:
97,246,33384,5,0,3:0:0:0:
86,271,33491,1,4,3:0:0:0:
75,296,33598,1,0,3:0:0:0:
65,321,33705,1,4,3:0:0:0:
55,346,33813,1,8,3:0:0:0:
26,348,33920,38,0,P|22:277|17:249,1,55,4|0,3:2|0:0,0:0:0:0:
16,220,34134,1,2,0:0:0:0:
117,144,34348,1,2,3:0:0:0:
2,88,34563,1,2,0:0:0:0:
99,0,34777,2,0,P|99:73|93:138,1,110,4|0,3:0|0:0,0:0:0:0:
96,109,35098,1,0,0:0:0:0:
96,109,35205,1,0,3:0:0:0:
259,253,35420,6,0,L|253:314,1,55,0|0,3:0|0:0,0:0:0:0:
486,348,35634,102,0,P|490:277|495:249,1,55,8|0,3:0|0:0,0:0:0:0:
496,220,35848,1,2,0:0:0:0:
395,144,36062,1,2,3:0:0:0:
510,88,36277,1,2,0:0:0:0:
413,0,36491,2,0,P|413:73|419:138,1,110,4|0,3:0|0:0,0:0:0:0:
415,109,36812,1,0,0:0:0:0:
415,109,36919,1,0,3:0:0:0:
254,140,37134,6,0,L|259:85,1,55,0|0,3:0|0:0,0:0:0:0:
245,12,37348,101,8,3:0:0:0:
333,107,37563,1,2,3:0:0:0:
211,198,37777,1,8,3:0:0:0:
287,276,37991,1,2,3:0:0:0:
251,350,38205,1,4,3:0:0:0:
267,372,38420,1,0,0:0:0:0:
208,289,38634,5,0,3:0:0:0:
313,219,38848,1,0,3:0:0:0:
211,148,39063,1,0,3:0:0:0:
271,101,39277,1,0,3:0:0:0:
247,68,39491,1,0,3:0:0:0:
262,40,39705,1,0,3:0:0:0:
251,30,39920,1,2,3:0:0:0:
256,24,40348,1,4,0:0:0:0:
51,123,40777,6,0,B|45:216|45:216|153:127|153:127|96:308|96:308|182:221|182:221|184:212|184:212|263:148|263:148|227:209|227:209|247:271,1,770,4|0,1:0|0:0,0:0:0:0:
206,319,42491,6,0,L|228:356,30,27.5,8|0|0|0|0|0|0|0|0|0|0|0|0|0|0|0|0|0|0|0|0|0|0|0|0|0|0|0|0|0|0,1:0|0:0|0:0|0:0|0:0|0:0|0:0|0:0|0:0|0:0|0:0|0:0|0:0|0:0|0:0|0:0|0:0|0:0|0:0|0:0|0:0|0:0|0:0|0:0|0:0|0:0|0:0|0:0|0:0|0:0|0:0,0:0:0:0:
271,249,44205,102,0,B|285:209|285:209|249:148|249:148|328:212|328:212|330:221|330:221|416:308|416:308|359:127|359:127|467:216|467:216|461:123,1,770,4|0,1:0|0:0,0:0:0:0:
416,65,45920,6,0,L|431:7,1,55,12|0,1:0|0:0,0:0:0:0:
332,44,46134,2,0,L|354:121,1,55,2|2,0:0|0:0,0:0:0:0:
249,56,46348,2,0,L|264:-2,1,55,2|2,0:0|0:0,0:0:0:0:
170,60,46563,2,0,L|192:137,1,55,2|2,0:0|0:0,0:0:0:0:
90,86,46777,101,2,1:1:0:0:
81,103,46884,1,0,0:0:0:0:
73,121,46991,1,2,0:1:0:0:
64,138,47098,1,2,0:0:0:0:
38,153,47205,1,2,1:0:0:0:
45,171,47313,1,0,0:0:0:0:
52,189,47420,1,2,0:1:0:0:
59,206,47527,1,0,0:0:0:0:
88,218,47634,6,0,B|120:125|202:-33|508:306|139:218|136:355|153:455|374:441|498:433|381:143|302:307,1,701.250013375283,12|0,1:0|0:0,0:0:0:0:
321,278,49348,102,0,P|333:239|335:217,1,46.7500008916855,12|0,1:0|0:0,0:0:0:0:
387,182,49563,1,2,0:1:0:0:
308,103,49777,1,2,3:1:0:0:
316,76,49884,1,2,3:1:0:0:
324,49,49991,1,2,3:1:0:0:
185,50,50205,1,2,3:1:0:0:
194,76,50313,1,2,3:1:0:0:
202,102,50420,1,2,3:1:0:0:
414,217,50634,5,2,1:1:0:0:
428,261,50741,1,2,1:1:0:0:
441,305,50848,1,2,1:1:0:0:
454,349,50955,1,2,1:1:0:0:
423,346,51063,102,0,B|299:237|299:237|291:213|291:213|252:176|252:176|276:186|276:186|333:186|333:186|396:200|396:200|375:128|375:128|324:101|324:101|270:104|270:104|300:80|300:80|286:25,1,654.500012483597,12|0,1:0|0:0,0:0:0:0:
256,192,52777,12,0,54277,0:0:0:0:
172,93,54491,86,0,P|170:135|171:148,1,41.2500015735627,4|0,3:0|0:0,0:0:0:0:
342,134,54678,2,0,P|341:113|340:93,1,41.2500015735627,8|0,3:0|0:0,0:0:0:0:
253,20,54866,1,0,0:0:0:0:
259,206,55053,2,0,P|255:233|249:256,1,41.2500015735627,8|0,3:0|0:0,0:0:0:0:
262,364,55241,2,0,P|266:311|265:267,1,82.5000031471254,8|0,2:0|0:0,0:0:0:0:
153,263,55616,6,0,P|97:277|65:283,1,82.5000031471254,4|0,0:0|0:0,0:0:0:0:
330,168,55991,1,0,0:0:0:0:
351,241,56178,1,8,0:0:0:0:
465,149,56366,1,4,0:0:0:0:
511,288,56553,2,0,P|470:279|430:269,1,82.5000031471254,2|8,3:0|0:2,0:0:0:0:
299,342,56928,1,2,0:0:0:0:
176,222,57116,1,2,0:0:0:0:
190,183,57209,1,2,0:0:0:0:
207,145,57303,1,2,0:0:0:0:
221,38,57491,102,0,P|233:62|248:85,1,41.2500015735627,4|0,0:0|0:0,0:0:0:0:
324,171,57678,2,0,P|296:169|269:170,1,41.2500015735627,10|0,0:0|0:0,0:0:0:0:
99,180,57866,2,0,P|114:156|126:132,1,41.2500015735627,2|0,0:0|0:0,0:0:0:0:
15,226,58053,5,6,0:0:0:0:
11,267,58147,1,0,0:0:0:0:
49,282,58241,1,8,2:2:0:0:
224,298,58428,1,2,0:0:0:0:
232,257,58522,1,0,0:0:0:0:
271,243,58616,2,0,P|294:258|316:269,1,41.2500015735627,6|0,0:0|0:0,0:0:0:0:
348,326,58803,2,0,P|396:317|409:315,1,41.2500015735627,2|0,0:0|0:0,0:0:0:0:
449,359,58991,101,2,0:0:0:0:
510,258,59178,2,0,P|462:249|449:247,1,41.2500015735627,10|0,0:0|0:0,0:0:0:0:
359,191,59366,2,0,P|407:182|420:180,1,41.2500015735627,6|0,0:0|0:0,0:0:0:0:
480,83,59553,2,0,P|483:146|485:195,1,82.5000031471254,2|12,0:0|2:0,0:0:0:0:
361,91,59928,1,0,0:0:0:0:
251,203,60116,2,0,L|246:173,6,27.5,2|0|0|0|0|0|0,2:0|0:0|0:0|0:0|0:0|0:0|0:0,0:0:0:0:
172,149,60491,6,0,P|185:84|185:75,1,41.2500015735627,4|0,3:0|0:0,0:0:0:0:
327,28,60678,2,0,P|331:55|337:76,1,41.2500015735627,8|0,0:0|0:0,0:0:0:0:
425,181,60866,1,0,0:0:0:0:
328,274,61053,1,4,0:0:0:0:
323,165,61241,1,8,2:0:0:0:
431,293,61428,2,0,P|443:352|442:391,2,82.5000031471254,0|4|0,0:0|0:0|0:0,0:0:0:0:
211,234,61991,101,2,0:0:0:0:
180,261,62084,1,2,0:0:0:0:
202,295,62178,2,0,P|233:292|255:292,1,41.2500015735627,8|0,0:0|0:0,0:0:0:0:
125,313,62366,2,0,P|128:344|128:366,1,41.2500015735627,4|0,0:0|0:0,0:0:0:0:
109,234,62553,2,0,P|78:237|15:238,1,82.5000031471254,0|8,0:0|2:0,0:0:0:0:
160,173,62928,1,0,0:0:0:0:
178,87,63116,5,2,0:0:0:0:
194,49,63209,1,2,0:0:0:0:
159,26,63303,1,2,0:0:0:0:
61,91,63491,2,0,P|99:86|119:86,1,41.2500015735627,4|0,0:0|0:0,0:0:0:0:
234,140,63678,2,0,P|272:145|292:145,1,41.2500015735627,8|0,0:0|0:0,0:0:0:0:
333,194,63866,1,0,0:0:0:0:
432,111,64053,1,4,0:0:0:0:
406,36,64241,102,0,P|413:83|424:217,1,165.000006294251,8|4,2:0|0:0,0:0:0:0:
474,262,64803,1,2,0:0:0:0:
304,363,64991,2,0,P|301:314|301:292,1,41.2500015735627,2|0,0:0|0:0,0:0:0:0:
242,268,65178,1,4,0:0:0:0:
318,133,65366,5,8,0:0:0:0:
161,41,65553,1,2,0:0:0:0:
260,8,65741,2,0,P|244:80|225:154,1,137.5,2|0,0:0|0:0,0:0:0:0:
46,241,66116,102,0,P|55:280|69:330,1,82.5,4|0,0:0|0:0,0:0:0:0:
80,361,66491,6,0,P|150:351|166:260,1,165.000006294251,4|2,1:0|0:0,0:0:0:0:
156,121,67031,1,0,0:0:0:0:
345,195,67211,1,8,1:0:0:0:
254,249,67391,1,0,0:0:0:0:
254,249,67481,1,0,0:0:0:0:
254,249,67572,2,0,P|254:188|255:176,1,41.2500015735627,4|0,3:2|0:0,0:0:0:0:
241,135,67752,1,0,0:0:0:0:
416,45,67932,37,0,1:0:0:0:
450,172,68112,1,8,1:3:0:0:
398,284,68292,1,4,1:0:0:0:
459,349,68472,1,0,0:0:0:0:
459,349,68563,1,0,0:0:0:0:
459,349,68653,2,0,P|448:294|442:244,1,82.5000031471254,8|2,1:0|0:0,0:0:0:0:
277,197,69013,2,0,P|270:237|262:278,1,82.5000031471254,0|0,1:0|0:0,0:0:0:0:
399,127,69373,6,0,P|386:61|289:40,2,165.000006294251,0|2|8,1:0|0:0|1:0,0:0:0:0:
323,225,70274,1,2,0:0:0:0:
164,140,70454,2,0,P|240:135|258:136,1,82.5000031471254,8|0,1:3|0:0,0:0:0:0:
142,271,70815,37,4,0:0:0:0:
23,154,70995,1,2,1:2:0:0:
169,68,71175,1,8,1:0:0:0:
122,158,71355,1,0,0:0:0:0:
122,158,71445,1,0,0:0:0:0:
122,158,71536,2,0,P|125:206|125:243,1,82.5000031471254,8|0,1:0|1:0,0:0:0:0:
224,343,71896,1,0,1:0:0:0:
332,233,72076,1,0,0:0:0:0:
135,321,72256,6,0,P|69:313|36:303,1,82.5000031471254,4|0,1:0|0:0,0:0:0:0:
212,218,72617,2,0,P|203:166|199:120,1,82.5000031471254,2|0,0:0|0:0,0:0:0:0:
301,324,72977,2,0,P|353:333|399:337,1,82.5000031471254,8|2,1:0|0:0,0:0:0:0:
512,155,73337,38,0,P|432:162|422:267,1,165.000006294251,8|4,1:3|0:0,0:0:0:0:
486,304,73878,1,8,1:0:0:0:
315,243,74058,2,0,P|314:180|312:126,1,82.5000031471254,0|0,1:0|0:0,0:0:0:0:
226,4,74418,2,0,P|224:45|224:86,1,82.5000031471254,8|0,1:0|1:0,0:0:0:0:
177,172,74779,1,0,1:0:0:0:
253,329,74959,1,0,1:0:0:0:
143,264,75139,2,0,P|141:207|133:88,1,165.000006294251,4|2,1:2|0:0,0:0:0:0:
99,33,75680,1,0,0:0:0:0:
277,178,75860,5,8,1:0:0:0:
234,259,76040,1,0,0:0:0:0:
234,259,76130,1,0,0:0:0:0:
234,259,76220,1,8,1:0:0:0:
139,162,76400,1,0,1:0:0:0:
258,55,76581,37,4,1:3:0:0:
348,167,76761,1,0,3:0:0:0:
348,167,76851,1,0,3:0:0:0:
348,167,76941,1,0,3:0:0:0:
469,108,77121,5,0,3:0:0:0:
502,84,77211,1,0,1:0:0:0:
481,48,77301,2,0,P|486:100|487:116,1,41.2500015735627,8|0,1:0|0:0,0:0:0:0:
443,150,77481,2,0,P|444:211|443:315,1,165.000006294251,4|2,0:0|0:0,0:0:0:0:
310,358,78027,102,0,P|308:317|307:293,1,55,4|0,0:2|0:0,0:0:0:0:
204,303,78402,2,0,P|203:330|202:358,1,55
258,243,78777,2,0,P|253:186|256:115,1,110,8|2,0:0|0:0,0:0:0:0:
256,57,79339,1,0,0:0:0:0:
351,23,79527,2,0,P|352:77|347:132,1,110,8|0,0:0|0:0,0:0:0:0:
163,160,80089,2,0,P|162:129|163:106,2,55,2|0|2,0:0|0:0|0:0,0:0:0:0:
125,39,80652,1,0,0:0:0:0:
41,198,80839,1,0,0:0:0:0:
115,223,81027,6,0,P|113:277|118:332,1,110,8|8,0:0|0:0,0:0:0:0:
243,372,81589,1,0,0:0:0:0:
347,276,81777,2,0,P|348:231|345:195,1,55,2|2,0:0|0:0,0:0:0:0:
250,161,82152,2,0,P|249:188|250:215,1,55,8|0,0:0|0:0,0:0:0:0:
447,325,82527,102,0,P|451:270|450:215,1,110,8|0,0:0|0:0,0:0:0:0:
329,108,83089,1,0,0:0:0:0:
461,18,83277,1,2,0:0:0:0:
496,117,83464,5,2,0:1:0:0:
367,37,83652,1,8,0:0:0:0:
413,157,83839,1,2,0:1:0:0:
461,18,84027,1,8,0:0:0:0:
252,86,84402,102,0,P|212:78|188:73,1,55,2|0,0:0|0:0,0:0:0:0:
147,22,84777,1,2,0:0:0:0:
80,65,84964,2,0,P|53:109|55:175,1,110,2|8,0:0|0:0,0:0:0:0:
111,218,85527,1,0,0:0:0:0:
111,218,85714,1,8,0:0:0:0:
66,279,85902,2,0,P|51:312|33:345,2,55,0|2|0,0:0|0:0|0:0,0:0:0:0:
206,318,86464,6,0,P|256:304|322:292,1,110
346,222,87027,1,2,0:0:0:0:
413,184,87214,2,0,P|452:197|479:206,1,55,8|0,0:0|0:0,0:0:0:0:
346,222,87589,2,0,P|303:199|298:131,1,110,8|2,0:0|0:0,0:0:0:0:
354,95,88152,1,0,0:0:0:0:
311,32,88339,1,8,0:0:0:0:
191,120,88527,102,0,L|127:133,1,55,2|0,0:1|2:0,0:0:0:0:
137,130,88902,1,2,0:1:0:0:
200,41,89089,1,0,0:0:0:0:
271,135,89277,1,2,0:1:0:0:
211,224,89464,2,0,P|229:290|239:349,1,110,2|2,0:1|2:1,0:0:0:0:
408,233,90027,6,0,P|451:203|452:157,1,55,4|0,1:0|0:0,0:0:0:0:
426,135,90214,2,0,P|416:64|416:7,1,110,0|4,1:0|0:0,0:0:0:0:
303,161,90589,1,2,1:0:0:0:
229,147,90777,2,0,P|186:117|185:71,1,55,8|0,1:0|0:0,0:0:0:0:
112,100,90964,1,4,0:0:0:0:
37,208,91152,2,0,P|73:202|102:202,1,55,2|0,1:0|0:0,0:0:0:0:
153,250,91339,2,0,P|180:248|207:243,1,55,2|0,1:0|0:0,0:0:0:0:
95,313,91527,37,2,0:0:0:0:
289,355,91714,2,0,P|287:327|282:300,1,55,2|2,1:0|0:0,0:0:0:0:
338,248,91902,1,0,0:0:0:0:
255,134,92089,1,2,0:1:0:0:
318,25,92277,1,10,1:0:0:0:
344,52,92370,1,0,0:0:0:0:
336,89,92464,1,2,0:0:0:0:
191,28,92652,1,4,0:0:0:0:
125,106,92839,1,2,0:0:0:0:
52,35,93027,6,0,P|36:73|31:98,1,55,6|0,1:0|0:0,0:0:0:0:
63,156,93214,2,0,P|79:194|84:219,1,55,0|0,1:0|0:0,0:0:0:0:
75,282,93402,1,4,0:0:0:0:
252,212,93589,2,0,P|260:167|260:148,1,55,2|0,1:0|0:0,0:0:0:0:
313,98,93777,1,8,1:0:0:0:
181,170,93964,1,4,0:0:0:0:
322,251,94152,2,0,P|360:236|405:232,2,73.3333333333333,2|2|0,1:0|1:0|1:0,0:0:0:0:
255,290,94527,2,0,P|248:330|229:371,2,73.3333333333333,6|8|8,1:0|1:0|1:0,0:0:0:0:
252,212,94902,2,0,P|220:186|194:149,2,73.3333333333333,4|8|8,1:0|1:0|1:0,0:0:0:0:
319,176,95277,37,8,1:0:0:0:
319,132,95402,1,8,1:0:0:0:
321,88,95527,1,8,1:0:0:0:
321,44,95652,1,4,1:0:0:0:
85,57,96027,6,0,P|46:83|31:106,1,41.2500015735627,4|0,1:0|0:0,0:0:0:0:
17,147,96214,2,0,P|43:197|56:241,1,82.5000031471254,2|0,1:0|1:0,0:0:0:0:
136,335,96589,2,0,P|172:323|187:317,1,41.2500015735627,6|0,1:0|1:0,0:0:0:0:
246,334,96777,2,0,P|253:281|250:221,1,82.5000031471254,8|4,1:0|0:0,0:0:0:0:
267,74,97152,2,0,P|299:90|322:101,1,41.2500015735627,2|0,1:0|0:0,0:0:0:0:
376,111,97339,2,0,P|391:162|398:212,1,82.5000031471254,2|4,1:0|0:0,0:0:0:0:
408,339,97714,1,0,1:0:0:0:
481,246,97902,2,0,P|438:254|406:257,1,41.2500015735627,0|0,1:0|0:0,0:0:0:0:
364,266,98089,1,0,1:0:0:0:
233,204,98277,37,8,1:0:0:0:
159,310,98464,1,4,0:0:0:0:
159,310,98558,1,0,0:0:0:0:
159,310,98652,1,4,0:0:0:0:
46,235,98839,1,0,1:0:0:0:
62,216,98933,1,0,0:0:0:0:
49,194,99027,2,0,P|43:160|42:146,1,41.2500015735627,6|0,1:0|0:0,0:0:0:0:
86,92,99214,1,0,1:0:0:0:
63,0,99402,1,4,0:0:0:0:
219,21,99589,1,2,1:0:0:0:
202,39,99683,1,0,0:0:0:0:
223,50,99777,2,0,P|220:70|216:90,1,41.2500015735627,8|0,1:0|0:0,0:0:0:0:
244,162,99964,1,4,0:0:0:0:
404,107,100152,5,2,1:0:0:0:
422,122,100245,1,0,0:0:0:0:
445,114,100339,1,2,1:0:0:0:
356,45,100527,1,4,1:0:0:0:
381,189,100714,1,0,1:0:0:0:
365,208,100808,1,0,0:0:0:0:
368,232,100902,1,4,1:0:0:0:
200,180,101089,1,0,0:0:0:0:
249,120,101277,1,8,1:0:0:0:
272,111,101370,1,0,1:0:0:0:
289,128,101464,1,8,1:0:0:0:
189,275,101652,1,8,1:0:0:0:
55,174,101839,1,8,1:0:0:0:
151,45,102027,38,0,P|224:51|325:-7,2,165.000006294251,4|2|8,1:0|0:0|1:0,0:0:0:0:
23,91,102930,1,2,0:0:0:0:
62,222,103111,2,0,P|65:274|65:325,1,82.5000031471254,4|0,1:0|0:0,0:0:0:0:
210,374,103472,5,0,0:0:0:0:
337,270,103653,1,0,1:0:0:0:
337,270,103743,1,0,0:0:0:0:
337,270,103834,1,0,1:0:0:0:
208,273,104014,1,0,0:0:0:0:
322,366,104195,2,0,P|382:367|416:363,1,82.5000031471254,8|0,1:0|1:0,0:0:0:0:
481,348,104557,1,4,0:0:0:0:
410,200,104737,1,0,0:0:0:0:
484,32,104918,38,0,P|485:117|492:201,1,165.000006294251,4|0,1:0|3:0,0:0:0:0:
368,122,105460,1,0,1:0:0:0:
259,217,105641,1,8,1:0:0:0:
335,254,105822,1,0,0:0:0:0:
335,254,105912,1,0,0:0:0:0:
335,254,106002,2,0,P|329:202|325:179,1,41.2500015735627,4|0,1:0|0:0,0:0:0:0:
188,184,106183,2,0,P|185:204|183:225,1,41.2500015735627
130,277,106364,5,4,0:0:0:0:
33,164,106545,1,0,1:0:0:0:
152,83,106725,1,0,1:0:0:0:
115,155,106906,1,0,0:0:0:0:
61,84,107087,2,0,L|51:33,1,41.2500015735627,0|0,1:0|0:0,0:0:0:0:
249,34,107267,2,0,L|241:74,1,41.2500015735627,4|0,0:0|0:0,0:0:0:0:
268,145,107448,2,0,P|277:219|285:260,1,82.5000031471254,4|0,1:0|0:0,0:0:0:0:
432,349,107805,38,0,P|504:297|482:203,1,165.000006294251,4|2,1:0|0:0,0:0:0:0:
343,319,108350,1,0,0:0:0:0:
343,319,108441,1,0,0:0:0:0:
343,319,108532,2,0,P|287:321|243:315,1,82.5000031471254,8|4,1:0|0:0,0:0:0:0:
85,245,108895,2,0,P|146:264|167:366,1,165.000006294251,0|0,1:0|1:0,0:0:0:0:
32,355,109441,5,8,1:0:0:0:
72,243,109623,2,0,P|63:188|60:152,1,82.5000031471254,0|4,1:0|0:0,0:0:0:0:
192,29,109986,2,0,P|191:84|189:141,1,82.5000031471254,8|0,1:0|0:0,0:0:0:0:
145,186,110350,1,0,1:0:0:0:
290,280,110532,37,2,1:0:0:0:
297,256,110623,1,0,0:0:0:0:
321,260,110714,2,0,P|362:235|371:119,1,165.000006294251,4|2,1:0|0:0,0:0:0:0:
262,162,111259,1,0,0:0:0:0:
245,354,111441,2,0,P|304:355|353:368,1,82.5000031471254,8|0,1:0|1:0,0:0:0:0:
190,269,111805,1,8,1:0:0:0:
115,360,111986,1,0,1:0:0:0:
285,275,112168,5,4,3:0:0:0:
214,183,112350,1,4,3:0:0:0:
219,158,112441,1,0,0:0:0:0:
224,133,112532,1,8,3:0:0:0:
391,130,112714,1,4,3:0:0:0:
381,89,112805,1,8,3:0:0:0:
370,49,112895,1,12,1:0:0:0:
273,18,113077,38,0,P|233:38|223:44,1,41.2500015735627,4|0,1:2|0:0,0:0:0:0:
161,15,113259,2,0,P|116:47|73:64,1,82.5000031471254
12,256,113623,6,0,P|70:275|83:382,2,165.000006294251,4|2|8,1:0|0:0|1:0,0:0:0:0:
12,256,114521,1,4,0:0:0:0:
152,165,114700,2,0,P|226:183|264:190,1,82.5000031471254,4|0,1:0|0:0,0:0:0:0:
315,333,115060,37,0,1:0:0:0:
469,227,115239,1,0,1:0:0:0:
360,176,115419,2,0,P|364:235|365:277,1,82.5000031471254,0|0,1:0|0:0,0:0:0:0:
426,358,115778,2,0,P|423:322|425:300,1,41.2500015735627,8|0,1:0|0:0,0:0:0:0:
469,227,115958,2,0,P|470:185|473:144,1,82.5000031471254,0|2,1:0|1:2,0:0:0:0:
325,41,116317,5,0,0:0:0:0:
340,65,116407,1,0,0:0:0:0:
322,88,116497,2,0,P|264:87|196:4,2,165.000006294251,4|2|8,1:0|0:0|1:0,0:0:0:0:
427,86,117395,1,2,0:0:0:0:
455,80,117485,1,0,0:0:0:0:
473,102,117575,2,0,P|457:160|451:189,1,82.5000031471254,4|0,1:2|0:0,0:0:0:0:
277,219,117934,37,4,0:0:0:0:
391,342,118114,1,2,1:2:0:0:
234,367,118293,1,0,1:0:0:0:
309,335,118473,1,0,0:0:0:0:
309,335,118563,1,0,0:0:0:0:
309,335,118652,2,0,P|302:291|301:270,1,41.2500015735627,8|0,1:0|0:0,0:0:0:0:
186,209,118832,5,4,0:0:0:0:
284,114,119012,1,0,1:0:0:0:
372,215,119191,1,0,1:0:0:0:
281,203,119371,38,0,P|292:138|297:29,1,165.000006294251,6|2,1:0|1:0,0:0:0:0:
201,101,119919,1,0,0:0:0:0:
456,135,120102,1,10,1:0:0:0:
437,0,120285,1,2,0:1:0:0:
382,84,120468,2,0,P|338:67|295:47,1,82.5000031471254,2|0,1:0|0:0,0:0:0:0:
208,22,120834,5,0,1:0:0:0:
126,167,121017,1,10,1:0:0:0:
15,52,121200,1,2,1:0:0:0:
115,59,121383,37,0,0:0:0:0:
216,207,121566,1,8,1:0:0:0:
39,229,121749,1,0,1:0:0:0:
39,229,121840,1,0,1:0:0:0:
39,229,121931,2,0,P|47:176|50:141,1,82.5000031471254,0|8,1:0|1:0,0:0:0:0:
131,221,122297,6,0,P|140:314|154:399,1,165.000006294251,4|2,1:0|0:0,0:0:0:0:
233,302,122832,1,0,0:0:0:0:
381,207,123011,2,0,P|383:151|380:105,1,82.5000031471254,8|0,1:0|1:0,0:0:0:0:
181,68,123368,2,0,P|179:109|181:150,1,82.5000031471254,8|8,1:0|1:0,0:0:0:0:
210,150,123636,1,0,0:0:0:0:
215,178,123725,1,4,3:0:0:0:
342,361,123904,37,4,3:0:0:0:
357,314,123993,1,0,3:0:0:0:
373,267,124082,1,8,3:0:0:0:
209,296,124261,1,4,3:0:0:0:
173,261,124350,1,8,3:0:0:0:
138,225,124439,1,8,1:0:0:0:
57,293,124618,5,4,1:0:0:0:
30,366,124797,2,0,P|36:289|40:179,1,165.000006294251,0|4,0:0|0:0,0:0:0:0:
94,146,125332,37,8,0:0:0:0:
26,116,125511,2,0,P|26:72|21:41,1,55,2|0,0:0|0:0,0:0:0:0:
171,69,125868,2,0,P|170:116|171:191,1,110,8|4,0:2|0:0,0:0:0:0:
260,257,126404,1,2,0:0:0:0:
256,289,126493,1,2,0:0:0:0:
253,321,126582,1,0,0:0:0:0:
181,269,126761,5,4,0:0:0:0:
335,264,126939,2,0,P|327:218|322:188,1,55,8|2,0:0|0:0,0:0:0:0:
251,150,127296,1,8,0:2:0:0:
400,38,127475,2,0,P|411:103|424:162,1,110,2|0,0:0|0:0,0:0:0:0:
505,237,128011,101,4,0:0:0:0:
396,327,128181,1,8,0:0:0:0:
396,327,128266,1,0,0:0:0:0:
396,327,128351,2,0,P|403:272|406:258,1,55,0|4,0:0|0:0,0:0:0:0:
308,207,128692,1,8,0:2:0:0:
282,329,128863,1,0,0:0:0:0:
189,204,129033,2,0,P|193:231|195:258,1,55,4|2,0:0|0:0,0:0:0:0:
308,207,129374,5,4,0:0:0:0:
209,100,129545,1,8,0:0:0:0:
351,43,129715,1,2,0:0:0:0:
291,128,129886,1,2,0:0:0:0:
291,128,129971,1,0,0:0:0:0:
291,128,130056,2,0,P|288:100|284:73,1,55,8|2,0:2|2:0,0:0:0:0:
132,30,130397,2,0,L|128:47,6,13.75,2|0|2|2|2|0|0,2:0|2:0|2:0|2:0|2:0|0:0|0:0,0:0:0:0:
66,87,130738,102,0,P|67:107|67:127,1,27.5,4|0,0:0|0:0,0:0:0:0:
139,145,130904,2,0,P|139:131|140:117,1,27.5,8|0,0:0|0:0,0:0:0:0:
77,190,131071,1,2,0:0:0:0:
195,278,131238,1,6,0:0:0:0:
267,162,131404,2,0,P|271:117|271:87,1,55,8|0,0:2|0:0,0:0:0:0:
278,242,131738,2,0,P|367:233|400:230,1,110,4|2,0:0|0:0,0:0:0:0:
488,168,132238,5,4,0:0:0:0:
438,293,132404,1,8,0:0:0:0:
350,167,132571,1,0,0:0:0:0:
350,167,132654,1,0,0:0:0:0:
350,167,132738,1,8,0:2:0:0:
408,118,132904,2,0,P|405:71|404:37,1,55,2|0,0:0|0:0,0:0:0:0:
256,22,133238,1,2,0:0:0:0:
200,146,133404,102,0,P|202:180|201:188,1,27.5,4|0,0:0|0:0,0:0:0:0:
251,234,133563,2,0,P|249:268|250:276,1,27.5,8|0,0:0|0:0,0:0:0:0:
202,318,133723,1,2,0:0:0:0:
93,236,133882,1,4,0:0:0:0:
93,236,133962,1,0,0:0:0:0:
93,236,134042,2,0,P|143:231|168:229,1,55,8|2,0:2|0:0,0:0:0:0:
34,174,134361,5,4,0:0:0:0:
89,311,134521,1,8,0:0:0:0:
200,173,134680,2,0,P|227:175|254:178,1,55,2|4,0:0|0:0,0:0:0:0:
342,313,134999,1,8,0:0:0:0:
471,158,135159,2,0,P|443:160|348:170,1,110,2|0,0:0|0:0,0:0:0:0:
260,67,135638,102,0,L|262:83,6,13.75,0|0|0|0|0|0|2,0:0|0:0|0:0|0:0|0:0|0:0|2:0,0:0:0:0:
193,24,135957,22,0,P|145:34|86:142,1,165.000006294251,4|0,1:0|0:0,0:0:0:0:
18,160,136433,1,0,0:0:0:0:
86,204,136591,2,0,P|120:225|162:325,1,131.99999597168,8|4,1:0|0:0,0:0:0:0:
211,364,137068,1,0,0:0:0:0:
400,249,137226,6,0,P|351:262|328:281,1,65.9999979858399,0|0,1:0|0:0,0:0:0:0:
231,187,137544,2,0,P|280:200|303:219,1,65.9999979858399,0|2,0:0|0:0,0:0:0:0:
462,128,137861,2,0,P|413:141|390:160,1,65.9999979858399,2|0,1:2|0:0,0:0:0:0:
199,54,138179,2,0,P|248:67|271:86,1,65.9999979858399,2|4,0:0|0:0,0:0:0:0:
387,73,138496,101,4,1:0:0:0:
475,229,138653,1,0,0:0:0:0:
315,234,138811,1,0,0:0:0:0:
376,184,138969,5,0,1:0:0:0:
362,347,139127,2,0,P|321:333|297:309,1,65.9999979858399,8|0,1:0|0:0,0:0:0:0:
188,298,139443,2,0,P|202:257|226:233,1,65.9999979858399,4|2,0:0|0:0,0:0:0:0:
227,61,139759,102,0,P|268:75|292:99,1,65.9999979858399,0|0,1:0|1:0,0:0:0:0:
365,153,140074,2,0,P|351:194|327:218,1,65.9999979858399,2|0,1:3|0:0,0:0:0:0:
268,300,140390,2,0,P|227:286|203:262,1,65.9999979858399,8|0,1:0|0:0,0:0:0:0:
94,194,140706,1,0,1:0:0:0:
102,155,140785,1,0,3:0:0:0:
136,135,140864,1,4,1:1:0:0:
102,274,141022,6,0,P|53:303|31:309,1,65.9999979858399,4|0,1:0|0:0,0:0:0:0:
189,268,141338,2,0,P|191:220|188:191,1,65.9999979858399,2|0,0:1|0:0,0:0:0:0:
150,348,141653,2,0,P|197:360|283:359,1,131.99999597168,10|2,1:0|1:0,0:0:0:0:
400,249,142127,101,0,1:0:0:0:
400,249,142206,1,0,0:0:0:0:
400,249,142285,2,0,P|397:283|392:323,1,65.9999979858399,2|2,1:0|0:0,0:0:0:0:
461,370,142601,1,2,0:0:0:0:
304,237,142759,1,2,0:0:0:0:
319,162,142917,2,0,P|315:129|312:96,1,65.9999979858399,2|2,1:0|0:0,0:0:0:0:
119,49,143232,2,0,P|116:81|112:114,1,65.9999979858399,2|8,0:0|1:0,0:0:0:0:
71,144,143469,1,8,1:0:0:0:
95,187,143548,6,0,P|92:233|90:249,1,41.2500015735627,12|0,1:0|0:0,0:0:0:0:
168,174,143706,2,0,P|214:177|230:179,1,41.2500015735627,4|0,1:3|0:0,0:0:0:0:
266,126,143864,2,0,P|263:73|256:26,1,82.5000031471254,4|14,1:3|1:0,0:0:0:0:
395,132,144180,1,0,0:0:0:0:
320,231,144338,101,10,1:3:0:0:
320,231,144417,1,0,0:0:0:0:
320,231,144496,2,0,P|274:234|258:236,1,41.2500015735627,4|0,1:0|0:0,0:0:0:0:
388,249,144653,2,0,P|391:295|393:311,1,41.2500015735627,8|0,1:0|0:0,0:0:0:0:
457,197,144811,1,8,1:0:0:0:
314,92,144974,1,8,1:0:0:0:
222,176,145137,6,0,P|223:130|223:100,1,55.0000020980836,4|0,0:0|0:0,0:0:0:0:
208,69,145354,1,2,3:1:0:0:
158,64,145463,2,0,P|106:73|36:220,1,220,6|4,1:0|0:0,0:0:0:0:
256,192,149997,12,0,151585,0:0:0:0:
385,287,151762,38,0,B|432:259|432:259|401:196,1,110,4|0,1:0|0:0,0:0:0:0:
268,115,152077,2,0,B|221:143|221:143|252:206,1,110,4|0,1:0|0:0,0:0:0:0:
329,234,152393,6,0,L|318:175,1,55,4|0,1:0|0:0,0:0:0:0:
178,234,152551,2,0,L|188:288,1,55,4|0,1:2|0:0,0:0:0:0:
238,377,152709,2,0,L|268:262,1,110,4|0,1:2|0:0,0:0:0:0:
87,237,153025,102,0,L|57:122,1,110,8|0,1:0|0:0,0:0:0:0:
211,41,153340,6,0,B|161:58|161:58|178:134,1,110,4|0,1:2|0:0,0:0:0:0:
301,41,153656,2,0,B|351:58|351:58|334:134,1,110,4|0,1:0|0:0,0:0:0:0:
155,190,153972,102,0,B|118:227|118:227|167:287,1,110,4|0,1:0|0:0,0:0:0:0:
357,190,154288,2,0,B|393:227|393:227|344:287,1,110,4|0,1:0|0:0,0:0:0:0:
246,367,154604,6,0,L|258:131,1,220,4|4,1:2|1:0,0:0:0:0:
245,116,154998,1,0,0:0:0:0:
264,88,155077,2,0,L|257:28,1,55,4|0,1:2|0:0,0:0:0:0:
161,119,155235,2,0,L|43:99,1,110,4|0,1:2|0:0,0:0:0:0:
363,174,155551,38,0,B|384:162|384:162|402:175|402:175|426:165|426:165|453:181|453:181|486:172,1,110,10|0,1:0|0:0,0:0:0:0:
279,288,155867,6,0,B|291:309|291:309|278:327|278:327|288:351|288:351|272:378|272:378|281:411,1,110,2|0,1:0|0:0,0:0:0:0:
180,205,156183,70,0,B|159:217|159:217|141:204|141:204|117:214|117:214|90:198|90:198|57:207,1,110,2|0,1:0|0:0,0:0:0:0:
274,107,156498,6,0,B|262:86|262:86|275:68|275:68|265:44|265:44|281:17|281:17|272:-16,1,110,2|0,1:0|0:0,0:0:0:0:
420,119,156814,70,0,P|515:167|497:293,2,220,4|4|4,1:0|1:0|1:0,0:0:0:0:
394,97,157525,1,0,1:0:0:0:
381,127,157604,2,0,P|365:147|337:171,1,55,4|0,1:2|0:0,0:0:0:0:
311,238,157762,2,0,B|252:187|252:187|131:279,1,220,4|8,1:2|1:0,0:0:0:0:
70,308,158393,1,2,1:0:0:0:
400,303,158709,6,0,B|432:240|432:240|299:145,1,220,6|6,1:0|1:0,1:0:0:0:
112,81,159340,2,0,B|80:144|80:144|213:239,1,220,6|4,1:0|1:2,0:0:0:0:
314,67,159972,102,0,L|300:7,1,55,2|0,1:3|1:0,0:0:0:0:
203,58,160130,2,0,L|215:111,1,55,2|0,1:3|0:0,0:0:0:0:
322,251,160288,2,0,L|291:135,1,110,4|0,1:0|0:0,0:0:0:0:
135,208,160604,2,0,B|68:175|68:175|36:328,1,220,10|4,1:0|1:2,0:0:0:0:
365,209,161235,6,0,B|381:196|381:196|401:248,1,55,8|0,1:0|0:0,0:0:0:0:
420,254,161393,2,0,B|436:241|436:241|456:293,1,55,8|0,1:0|0:0,0:0:0:0:
330,299,161551,2,0,B|346:286|346:286|366:338,1,55,8|0,1:0|0:0,0:0:0:0:
385,344,161709,2,0,B|401:331|401:331|421:383,1,55,4|0,1:2|0:0,0:0:0:0:
244,293,161867,102,0,L|261:166,1,110,4|0,1:0|0:0,0:0:0:0:
148,78,162183,2,0,L|162:187,1,110,4|0,1:2|1:0,0:0:0:0:
427,270,162498,6,0,L|436:208,1,55,2|0,1:3|1:0,0:0:0:0:
359,121,162656,2,0,L|364:179,1,55,2|0,1:3|0:0,0:0:0:0:
461,141,162814,2,0,L|491:17,1,110,4|0,1:0|0:0,0:0:0:0:
233,2,163130,38,0,L|258:108,1,110,8|0,1:0|0:0,0:0:0:0:
136,172,163446,2,0,L|161:65,1,110,0|4,1:0|0:0,0:0:0:0:
36,13,163762,2,0,L|61:119,1,110,4|0,1:0|0:0,0:0:0:0:
192,271,164077,2,0,L|217:164,1,110,4|0,1:0|0:0,0:0:0:0:
54,219,164393,6,0,L|74:280,1,55,4|0,1:0|0:0,0:0:0:0:
57,345,164551,1,0,0:0:0:0:
255,377,164709,1,4,1:2:0:0:
458,219,165025,38,0,L|438:280,1,55,2|0,1:3|1:0,0:0:0:0:
320,265,165183,2,0,L|337:212,1,55,2|0,1:3|0:0,0:0:0:0:
432,61,165340,2,0,L|394:180,1,110,4|0,1:0|1:0,0:0:0:0:
140,147,165656,6,0,B|109:136|109:136|100:182,1,55,10|0,1:0|0:0,0:0:0:0:
78,178,165814,1,0,0:0:0:0:
87,207,165893,1,0,0:0:0:0:
58,219,165972,2,0,B|138:300|138:300|39:384,1,220,2|2,1:0|0:1,0:0:0:0:
108,363,166393,101,0,0:0:0:0:
158,358,166498,5,0,0:0:0:0:
209,353,166604,101,2,3:1:0:0:
260,350,166709,5,0,0:0:0:0:
311,347,166814,37,0,0:0:0:0:
361,343,166919,6,0,B|284:267|284:267|375:179,1,220,4|4,1:0|1:0,0:0:0:0:
149,114,167551,70,0,B|170:131|170:131|151:161,1,55,4|2,1:0|1:3,0:0:0:0:
235,158,167709,2,0,B|220:134|220:134|241:117,1,55,2|0,1:3|0:0,0:0:0:0:
200,50,167867,2,0,L|182:274,1,220,4|8,1:0|1:0,0:0:0:0:
243,358,168498,1,0,1:0:0:0:
132,332,168814,6,0,L|80:349,2,55,4|0|0,1:0|1:0|0:0,0:0:0:0:
271,274,169130,2,0,L|322:256,2,55,4|0|0,1:0|1:0|0:0,0:0:0:0:
63,227,169446,70,0,L|11:244,2,55,4|0|0,1:0|1:0|0:0,0:0:0:0:
264,146,169762,2,0,L|315:128,2,55,4|0|0,1:2|1:0|0:0,0:0:0:0:
100,4,170077,6,0,L|84:61,1,55,4|0,1:0|0:0,0:0:0:0:
189,124,170235,2,0,L|203:71,1,55,4|0,1:2|0:0,0:0:0:0:
0,140,170393,2,0,L|122:133,1,110,4|0,1:2|1:0,0:0:0:0:
233,230,170709,38,0,B|272:280|272:280|449:217,2,220,8|4|2,1:0|0:0|0:0,0:0:0:0:
101,278,171656,6,0,B|24:224|24:224|443:90|443:90|452:122|452:122|315:172|315:172|153:224,1,880
