osu file format v14

[General]
AudioFilename: audio.mp3
AudioLeadIn: 0
PreviewTime: 54277
Countdown: 0
SampleSet: Soft
StackLeniency: 0.7
Mode: 0
LetterboxInBreaks: 0
WidescreenStoryboard: 1

[Editor]
DistanceSpacing: 0.6
BeatDivisor: 4
GridSize: 32
TimelineZoom: 1.7

[Metadata]
Title:Make Me Famous
TitleUnicode:Make Me Famous
Artist:Kim Dracula
ArtistUnicode:Kim Dracula
Creator:Mirash
Version:Hard
Source:
Tags:A Gradual Decline In Morale english rock trap metal alternative nu-metal experimental indie
BeatmapID:4379690
BeatmapSetID:2088941

[Difficulty]
HPDrainRate:5
CircleSize:3.5
OverallDifficulty:6.5
ApproachRate:8
SliderMultiplier:1
SliderTickRate:1

[Events]
//Background and Video events
0,0,"123333.jpg",0,0
//Break Periods
//Storyboard Layer 0 (Background)
//Storyboard Layer 1 (Fail)
//Storyboard Layer 2 (Pass)
//Storyboard Layer 3 (Foreground)
//Storyboard Layer 4 (Overlay)
//Storyboard Sound Samples

[TimingPoints]
492,428.571428571429,4,3,1,40,1,0
492,-100,4,3,1,40,0,0
6920,-100,4,3,1,20,0,0
7349,-100,4,3,1,40,0,0
13777,-100,4,3,1,50,0,0
14206,-66.6666666666667,4,2,1,80,0,0
19563,-100,4,2,1,80,0,0
20206,-66.6666666666667,4,2,1,80,0,0
26634,-100,4,2,1,80,0,0
27063,428.571428571429,4,2,1,60,1,0
33277,-100,4,2,2,70,0,0
33920,-83.3333333333333,4,2,1,70,0,0
38205,-133.333333333333,4,2,1,50,0,0
39063,-133.333333333333,4,2,1,40,0,0
39491,-133.333333333333,4,2,1,30,0,0
39705,-133.333333333333,4,2,1,20,0,0
39920,-133.333333333333,4,2,1,10,0,0
40348,-133.333333333333,4,2,1,6,0,0
40777,-66.6666666666667,4,2,1,90,0,0
42491,-50,4,2,1,70,0,0
42920,-83.3333333333333,4,2,1,70,0,0
44205,-66.6666666666667,4,2,1,80,0,0
46027,-50,4,2,1,40,0,0
46348,-50,4,2,1,60,0,0
46777,-50,4,2,1,70,0,0
47634,-66.6666666666667,4,2,1,80,0,0
49563,-58.8235294117647,4,2,1,70,0,0
51063,-66.6666666666667,4,2,1,80,0,0
54063,-66.6666666666667,4,2,1,10,0,0
54491,375,4,3,1,70,1,0
54491,-66.6666666666667,4,3,1,70,0,0
60116,-50,4,3,1,70,0,0
60491,-66.6666666666667,4,3,1,70,0,0
63116,-66.6666666666667,4,3,1,80,0,0
66116,-100,4,2,1,50,0,0
66491,360.36036036036,4,2,1,80,1,0
66491,-66.6666666666667,4,2,1,80,0,0
76761,-66.6666666666667,4,2,2,80,0,0
77301,-66.6666666666667,4,2,1,80,0,0
78027,375,4,3,1,70,1,0
88527,-50,4,3,1,70,0,0
89464,-100,4,3,1,70,0,0
90027,-66.6666666666667,4,2,1,80,0,0
95183,-66.6666666666667,4,2,1,90,0,0
95370,-50,4,2,1,80,0,0
96027,-100,4,2,1,70,0,0
102027,361.44578313253,4,2,1,80,1,0
102027,-66.6666666666667,4,2,1,80,0,0
107448,-66.2251655629139,4,2,1,80,0,0
107805,363.636363636364,4,2,1,80,1,0
107805,-66.6666666666667,4,2,1,80,0,0
112168,-66.6666666666667,4,2,2,80,0,0
112895,-66.6666666666667,4,2,1,80,0,0
113623,359.281437125748,4,2,1,80,1,0
113623,-66.6666666666667,4,2,1,80,0,0
119371,365.853658536585,4,2,1,80,1,0
119371,-66.6666666666667,4,2,1,80,0,0
122297,357.142857142857,4,2,1,80,1,0
122297,-66.6666666666667,4,2,1,80,0,0
123725,-66.6666666666667,4,2,2,80,0,0
124439,-66.6666666666667,4,2,1,80,0,0
125154,357.142857142857,4,3,1,60,1,0
128011,340.909090909091,4,3,1,70,1,0
130738,333.333333333333,4,3,1,70,1,0
133404,319.148936170213,4,3,1,70,1,0
135957,317.460317460317,4,2,1,80,1,0
135957,-66.6666666666667,4,2,1,80,0,0
136433,-83.3333333333333,4,2,1,80,0,0
138496,315.789473684211,4,2,1,80,1,0
138496,-83.3333333333333,4,2,1,80,0,0
143548,-66.6666666666667,4,2,1,90,0,0
144180,-66.6666666666667,4,2,1,30,0,0
144496,-66.6666666666667,4,2,1,90,0,0
144811,326.086956521739,4,2,1,80,1,0
145137,-66.6666666666667,4,2,1,60,0,0
145300,-66.6666666666667,4,2,1,60,0,0
145463,-100,4,2,1,70,0,0
145544,-100,4,2,3,20,0,0
146115,352.941176470588,4,2,1,40,1,0
150350,-100,4,2,1,60,0,0
151409,-100,4,2,1,10,0,0
151762,315.789473684211,4,2,1,90,1,0
151762,-66.6666666666667,4,2,1,90,0,0
158077,-100,4,2,1,90,0,0
158393,-66.6666666666667,4,2,1,90,0,0
166288,-66.6666666666667,4,3,2,90,0,0
166919,-66.6666666666667,4,2,1,90,0,0
171025,-66.6666666666667,4,2,1,70,0,0
171340,-66.6666666666667,4,2,1,50,0,0
171656,-80,4,2,1,40,0,0
172919,-66.6666666666667,4,2,1,5,0,0

[Colours]
Combo1 : 88,29,29
Combo2 : 32,170,142
Combo3 : 51,221,128
Combo4 : 251,0,0
Combo5 : 255,238,28
Combo6 : 226,225,184
Combo7 : 186,225,181
Combo8 : 155,32,32

[HitObjects]
487,143,492,70,0,P|490:201|496:258,1,100,2|0,1:3|0:0,0:0:0:0:
442,302,1134,1,8,0:0:0:0:
375,259,1349,2,0,P|331:258|314:257,1,50,8|0,0:0|0:0,0:0:0:0:
259,299,1777,1,2,0:0:0:0:
189,260,1992,2,0,P|191:218|189:190,2,50,0|0|0,1:0|0:0|0:0,0:0:0:0:
128,309,2634,1,2,0:0:0:0:
59,268,2849,2,0,P|57:226|59:198,2,50,8|0|0,0:0|0:0|0:0,0:0:0:0:
127,311,3492,1,0,0:0:0:0:
191,263,3706,5,2,0:0:0:0:
191,263,3813,1,0,0:0:0:0:
191,263,3920,2,0,P|234:270|248:272,1,50,2|0,1:3|0:0,0:0:0:0:
310,234,4349,1,0,0:0:0:0:
356,299,4563,1,0,0:0:0:0:
432,279,4777,2,0,P|437:244|438:212,1,50,8|2,0:0|0:0,0:0:0:0:
470,157,5206,1,0,0:0:0:0:
447,81,5420,1,2,0:0:0:0:
447,81,5634,102,0,P|410:84|391:86,1,50,0|8,0:0|0:0,0:0:0:0:
327,45,6063,1,2,0:0:0:0:
327,45,6277,2,0,P|290:48|271:50,1,50,2|0,0:0|0:0,0:0:0:0:
204,14,6706,1,8,0:0:0:0:
172,87,6920,2,0,P|179:104|188:122,1,25,4|0,0:2|0:0,0:0:0:0:
198,128,7134,2,0,P|194:146|190:166,1,25,4|0,0:2|0:0,0:0:0:0:
167,179,7349,6,0,P|168:224|171:292,1,100,2|2,1:3|0:0,0:0:0:0:
165,358,7992,1,0,0:0:0:0:
244,369,8206,1,8,0:0:0:0:
250,290,8420,2,0,P|291:296|371:303,1,100,2|2,0:0|1:3,0:0:0:0:
419,259,9063,102,0,P|444:284|458:300,2,50,0|2|2,0:0|0:0|0:0,0:0:0:0:
349,226,9706,1,8,0:0:0:0:
349,226,9920,2,0,P|340:171|335:157,1,50,8|0,0:0|0:0,0:0:0:0:
333,299,10349,2,0,P|311:324|293:342,1,50,2|2,0:0|0:0,0:0:0:0:
194,282,10777,5,2,1:3:0:0:
96,137,11206,1,2,0:0:0:0:
172,159,11420,1,0,0:0:0:0:
205,88,11634,1,8,0:0:0:0:
205,88,11849,2,0,P|198:53|196:37,1,50,2|0,0:0|0:0,0:0:0:0:
273,18,12277,1,2,0:0:0:0:
345,74,12492,102,0,P|341:98|336:123,1,50,0|8,0:0|0:0,0:0:0:0:
288,184,12920,1,2,0:0:0:0:
347,238,13134,1,0,1:0:0:0:
319,315,13349,2,0,P|322:339|327:364,1,50,0|0,1:0|0:0,0:0:0:0:
231,261,13777,6,0,L|190:248,3,25,2|2|2|2,0:0|0:0|0:0|0:0,0:0:0:0:
201,232,14206,38,0,L|121:252,1,75.0000028610231,6|0,1:0|0:0,0:0:0:0:
133,100,14849,2,0,L|213:120,1,75.0000028610231,10|0,1:0|0:0,0:0:0:0:
305,230,15492,6,0,L|385:250,1,75.0000028610231,10|0,1:0|0:0,0:0:0:0:
373,98,16135,2,0,L|293:118,1,75.0000028610231,10|0,1:0|0:0,0:0:0:0:
217,181,16563,101,2,0:1:0:0:
219,218,16670,1,0,0:0:0:0:
219,255,16777,2,0,L|228:297,2,37.5000014305115,2|0|2,0:1|0:0|0:1,0:0:0:0:
316,311,17206,2,0,L|325:353,1,37.5000014305115,2|0,0:1|0:0,0:0:0:0:
360,356,17420,1,2,0:1:0:0:
462,310,17634,6,0,P|475:269|484:229,1,75.0000028610231,4|2,1:0|0:1,0:0:0:0:
448,222,17956,1,0,0:0:0:0:
460,186,18063,1,2,0:1:0:0:
473,150,18170,1,2,0:1:0:0:
485,114,18277,2,0,L|478:78,2,37.5000014305115,10|0|2,1:0|0:0|0:1,0:0:0:0:
400,75,18599,1,0,0:0:0:0:
400,75,18706,2,0,L|407:39,1,37.5000014305115,2|2,0:1|0:1,0:0:0:0:
306,53,18920,1,2,1:0:0:0:
342,140,19134,1,2,1:0:0:0:
278,230,19349,102,0,P|286:294|291:323,2,75.0000028610231,4|2|2,0:0|1:0|0:0,0:0:0:0:
183,181,19992,1,4,0:0:0:0:
154,304,20206,1,8,1:0:0:0:
154,304,20313,1,8,1:0:0:0:
154,304,20420,1,8,1:0:0:0:
154,304,20527,1,8,1:0:0:0:
154,304,20634,2,0,B|100:331|100:331|44:288,1,112.500004291535,4|0,3:0|1:0,0:0:0:0:
46,263,21063,5,4,1:0:0:0:
120,179,21277,1,8,1:0:0:0:
113,142,21384,1,8,1:0:0:0:
106,104,21492,1,8,1:0:0:0:
99,67,21599,1,8,1:0:0:0:
99,67,21706,2,0,P|124:73|156:80,1,37.5000014305115,4|0,1:0|0:0,0:0:0:0:
201,122,21920,2,0,L|248:114,3,37.5000014305115,8|8|8|8,1:0|1:0|1:0|1:0,0:0:0:0:
264,88,22349,1,4,1:0:0:0:
379,107,22563,101,8,1:0:0:0:
386,144,22670,1,8,1:0:0:0:
393,182,22778,1,8,1:0:0:0:
400,219,22885,1,8,1:0:0:0:
400,219,22992,2,0,P|375:213|343:206,1,37.5000014305115,4|0,1:0|0:0,0:0:0:0:
296,251,23206,2,0,L|257:266,3,37.5000014305115,8|8|8|8,1:0|1:0|1:0|1:0,0:0:0:0:
365,296,23634,2,0,L|404:311,7,37.5000014305115,8|4|8|8|8|8|8|8,1:0|3:0|1:0|1:0|1:0|3:0|3:0|3:0,0:0:0:0:
362,332,24492,5,4,1:0:0:0:
280,273,24706,2,0,L|242:285,2,37.5000014305115,2|2|2,1:0|0:1|0:1,0:0:0:0:
314,203,25027,1,0,0:0:0:0:
314,203,25134,2,0,P|311:173|304:141,1,37.5000014305115,10|0,1:0|0:0,0:0:0:0:
389,226,25349,2,0,P|446:241|478:246,2,50.0000019073487,2|0|0,0:1|0:0|0:0,0:0:0:0:
314,278,25777,2,0,P|257:293|225:298,2,50.0000019073487,2|0|0,1:0|0:0|0:0,0:0:0:0:
376,328,26206,2,0,P|416:343|483:353,2,75.0000028610231,2|6|2,0:0|1:0|1:0,0:0:0:0:
273,373,26849,1,2,1:0:0:0:
182,285,27063,38,0,P|178:249|177:226,1,50,4|0,1:2|1:0,0:0:0:0:
124,181,27491,1,8,1:0:0:0:
168,120,27705,1,8,1:0:0:0:
228,180,27920,1,0,1:0:0:0:
228,180,28027,1,8,1:0:0:0:
228,180,28134,1,0,1:0:0:0:
295,147,28348,1,8,1:0:0:0:
295,147,28455,2,0,P|342:160|360:163,1,50
375,140,28777,6,0,P|385:194|395:226,1,75,4|0,1:0|1:0,0:0:0:0:
420,235,29205,1,8,1:0:0:0:
398,307,29420,1,8,1:0:0:0:
462,363,29634,1,0,0:0:0:0:
462,363,29741,1,8,1:0:0:0:
462,363,29848,1,0,1:0:0:0:
491,298,30063,101,0,1:0:0:0:
491,298,30170,1,8,1:0:0:0:
491,298,30277,2,0,P|493:258|491:242,1,50,8|0,1:0|1:0,0:0:0:0:
461,179,30705,1,0,0:0:0:0:
485,107,30920,1,8,1:0:0:0:
444,44,31134,1,8,1:0:0:0:
411,115,31348,1,0,0:0:0:0:
411,115,31455,1,8,1:0:0:0:
411,115,31563,2,0,P|374:120|342:125,1,50,0|0,1:0|1:0,0:0:0:0:
291,148,31991,2,0,P|254:153|222:158,1,50,8|0,1:0|0:0,0:0:0:0:
178,113,32420,6,0,P|140:154|122:170,1,75,8|8,1:0|1:0,0:0:0:0:
51,176,32955,1,0,1:0:0:0:
15,193,33063,2,0,L|27:237,3,25,8|0|0|0,1:0|3:0|3:0|3:0,0:0:0:0:
11,251,33491,1,4,3:0:0:0:
51,322,33705,1,4,3:0:0:0:
127,291,33920,38,0,P|182:288|205:284,1,59.9999981689454,4|2,3:2|0:0,0:0:0:0:
265,330,34348,1,2,3:0:0:0:
298,246,34563,1,2,0:0:0:0:
385,267,34777,1,4,3:0:0:0:
439,97,35205,2,0,P|384:94|361:90,1,59.9999981689454,0|0,3:0|3:0,0:0:0:0:
317,28,35633,1,8,3:0:0:0:
257,94,35848,1,2,0:0:0:0:
173,63,36062,1,2,3:0:0:0:
121,136,36277,1,2,0:0:0:0:
31,125,36491,1,4,3:0:0:0:
142,266,36920,6,0,P|185:275|208:280,1,59.9999981689454,0|0,3:0|3:0,0:0:0:0:
275,328,37348,2,0,P|316:314|345:306,1,59.9999981689454,8|2,3:0|3:0,0:0:0:0:
391,241,37777,1,8,3:0:0:0:
474,274,37991,1,2,3:0:0:0:
474,274,38205,2,0,P|480:239|487:187,1,75.0000028610231,4|0,3:0|3:0,0:0:0:0:
452,131,38848,1,0,3:0:0:0:
452,131,39063,2,0,P|452:99|452:89,1,37.5000014305115,0|0,3:0|3:0,0:0:0:0:
381,56,39491,2,0,P|381:24|381:14,1,37.5000014305115,0|0,3:0|3:0,0:0:0:0:
460,7,39920,1,2,3:0:0:0:
460,7,40348,1,4,0:0:0:0:
286,46,40777,6,0,B|237:118|237:118|386:214|386:214|288:358|288:358|178:288,1,562.500021457673,4|0,1:0|0:0,0:0:0:0:
183,291,42491,6,0,L|167:320,28,25,8|0|0|0|0|0|0|0|0|0|0|0|0|0|0|0|0|0|0|0|0|0|0|0|0|0|0|0|0,1:0|0:0|0:0|0:0|0:0|0:0|0:0|0:0|0:0|0:0|0:0|0:0|0:0|0:0|0:0|0:0|0:0|0:0|0:0|0:0|0:0|0:0|0:0|0:0|0:0|0:0|0:0|0:0|0:0,0:0:0:0:
265,287,44205,102,0,B|160:353|160:353|62:209|62:209|211:113|211:113|162:41,1,562.500021457673,4|0,1:0|0:0,0:0:0:0:
181,53,45920,1,12,1:0:0:0:
207,66,46027,1,0,0:0:0:0:
233,79,46134,1,2,0:0:0:0:
259,92,46241,1,2,0:0:0:0:
286,104,46348,2,0,L|335:130,3,50,2|2|2|2,0:0|0:0|0:0|0:0,0:0:0:0:
393,72,46777,2,0,L|442:98,3,50,2|0|2|2,1:1|0:0|0:1|0:0,0:0:0:0:
314,35,47205,2,0,L|270:12,3,50,2|0|2|0,1:0|0:0|0:1|0:0,0:0:0:0:
252,126,47634,6,0,B|146:69|146:69|61:212|61:212|157:273|157:273|100:368|100:368|75:293,1,562.500021457673,12|0,1:0|0:0,0:0:0:0:
83,319,49348,101,12,1:0:0:0:
202,351,49563,2,0,P|246:364|258:369,1,42.5000008106232,2|0,0:1|0:0,0:0:0:0:
312,324,49777,1,2,3:1:0:0:
312,324,49884,1,2,3:1:0:0:
312,324,49991,1,2,3:1:0:0:
422,285,50205,2,0,P|466:298|478:303,2,42.5000008106232,2|2|2,3:1|3:1|3:1,0:0:0:0:
340,203,50634,1,2,1:1:0:0:
340,203,50741,1,2,1:1:0:0:
340,203,50848,1,2,1:1:0:0:
340,203,50955,1,2,1:1:0:0:
340,203,51063,6,0,B|392:112|392:112|258:67|258:67|223:201|223:201|275:297|275:297|366:287,1,562.500021457673,12|0,1:0|0:0,0:0:0:0:
256,192,52777,12,0,54063,0:0:0:0:
257,197,54491,69,4,3:0:0:0:
257,197,54678,1,8,3:0:0:0:
257,197,54866,2,0,P|254:248|252:277,1,75.0000028610231,0|8,0:0|3:0,0:0:0:0:
194,325,55241,1,8,2:0:0:0:
267,364,55428,1,0,0:0:0:0:
326,309,55616,2,0,P|367:319|413:326,1,75.0000028610231,4|0,0:0|0:0,0:0:0:0:
457,268,55991,1,0,0:0:0:0:
506,333,56178,1,8,0:0:0:0:
429,349,56366,1,4,0:0:0:0:
376,288,56553,6,0,P|385:227|390:131,1,150.000005722046,2|2,3:0|0:0,0:0:0:0:
381,58,57116,1,2,0:0:0:0:
381,58,57209,1,2,0:0:0:0:
381,58,57303,1,2,0:0:0:0:
310,100,57491,101,4,0:0:0:0:
206,39,57678,1,10,0:0:0:0:
218,121,57866,2,0,P|221:177|223:207,1,75.0000028610231,2|6,0:0|0:0,0:0:0:0:
302,289,58241,1,8,2:2:0:0:
199,284,58428,1,2,0:0:0:0:
214,362,58616,2,0,P|216:324|218:287,1,75.0000028610231,6|2,0:0|0:0,0:0:0:0:
129,243,58991,2,0,P|126:205|124:168,2,75.0000028610231,2|10|6,0:0|0:0|0:0,0:0:0:0:
66,306,59553,1,2,0:0:0:0:
66,306,59741,1,12,2:0:0:0:
193,176,60116,6,0,P|266:189|418:207,1,200,2|4,2:0|3:0,0:0:0:0:
461,166,60678,1,8,0:0:0:0:
411,109,60866,2,0,P|408:55|407:29,1,75.0000028610231,0|4,0:0|0:0,0:0:0:0:
332,7,61241,1,8,2:0:0:0:
290,68,61428,2,0,P|235:80|142:67,1,150.000005722046
74,25,61991,101,2,0:0:0:0:
74,25,62084,1,2,0:0:0:0:
74,25,62178,1,8,0:0:0:0:
26,90,62366,1,4,0:0:0:0:
71,157,62553,2,0,P|80:205|89:244,1,75.0000028610231,0|8,0:0|2:0,0:0:0:0:
98,310,62928,1,0,0:0:0:0:
179,360,63116,5,2,0:0:0:0:
179,360,63209,1,2,0:0:0:0:
179,360,63303,1,2,0:0:0:0:
241,308,63491,2,0,P|281:317|322:326,2,75.0000028610231,4|8|0,0:0|0:0|0:0,0:0:0:0:
206,238,64053,1,4,0:0:0:0:
175,163,64241,2,0,P|138:154|20:124,1,150.000005722046,8|4,2:0|0:0,0:0:0:0:
92,84,64803,1,2,0:0:0:0:
163,45,64991,102,0,P|199:55|255:62,1,75.0000028610231,2|4,0:0|0:0,0:0:0:0:
313,32,65366,1,8,0:0:0:0:
350,106,65553,1,2,0:0:0:0:
426,86,65741,6,0,P|435:153|451:244,1,150.000005722046,2|4,0:0|0:0,0:0:0:0:
374,314,66491,102,0,P|320:295|316:187,2,150.000005722046,4|2|8,1:0|0:0|1:0,0:0:0:0:
478,272,67391,1,0,0:0:0:0:
422,173,67572,2,0,P|423:118|421:81,1,75.0000028610231,4|0,3:2|0:0,0:0:0:0:
340,20,67932,53,0,1:0:0:0:
259,98,68112,1,8,1:3:0:0:
328,186,68292,2,0,P|326:223|328:260,1,75.0000028610231,4|0,1:0|0:0,0:0:0:0:
260,360,68653,1,8,1:0:0:0:
155,308,68833,2,0,P|158:258|244:227,1,150.000005722046,2|0,0:0|0:0,0:0:0:0:
180,141,69373,6,0,P|122:148|81:153,1,75.0000028610231,0|0,1:0|0:0,0:0:0:0:
188,61,69734,2,0,P|146:32|123:16,1,75.0000028610231,2|0,0:0|0:0,0:0:0:0:
252,107,70094,2,0,P|301:74|397:24,1,150.000005722046,8|8,1:0|1:3,0:0:0:0:
382,153,70635,5,0,0:0:0:0:
382,153,70725,1,2,0:0:0:0:
382,153,70815,1,4,0:0:0:0:
463,227,70995,1,2,1:2:0:0:
383,326,71175,2,0,P|384:272|385:235,1,75.0000028610231,8|0,1:0|0:0,0:0:0:0:
275,222,71536,5,8,1:0:0:0:
281,334,71716,2,0,P|214:331|121:321,1,150.000005722046,0|0,1:0|0:0,0:0:0:0:
21,300,72256,2,0,P|18:244|5:132,2,150.000005722046,4|2|8,1:0|0:0|1:0,0:0:0:0:
223,200,73337,2,0,P|231:125|246:36,1,150.000005722046,8|4,1:3|0:0,0:0:0:0:
342,104,73878,37,8,1:0:0:0:
329,215,74058,2,0,P|318:262|323:293,1,75.0000028610231,0|0,1:0|0:0,0:0:0:0:
408,359,74418,1,8,1:0:0:0:
467,263,74599,2,0,P|481:200|398:139,1,150.000005722046,0|0,1:0|1:0,0:0:0:0:
325,126,75139,6,0,P|260:137|154:144,2,150.000005722046,4|2|8,1:2|0:0|1:0,0:0:0:0:
177,144,76220,2,0,P|169:207|160:239,1,75.0000028610231,8|0,1:0|1:0,0:0:0:0:
112,292,76581,1,4,1:3:0:0:
212,342,76761,1,0,3:0:0:0:
212,342,76851,1,0,3:0:0:0:
212,342,76941,1,0,3:0:0:0:
264,242,77121,2,0,L|257:193,2,37.5000014305115,0|0|8,3:0|1:0|1:0,0:0:0:0:
314,141,77481,2,0,P|308:92|300:52,2,75.0000028610231,4|2|2,0:0|0:0|0:0,0:0:0:0:
385,176,78027,38,0,P|385:212|386:288,1,100,4|0,0:2|0:0,0:0:0:0:
438,336,78589,1,0,0:0:0:0:
438,336,78777,2,0,P|486:320|492:257,1,100,8|2,0:0|0:0,0:0:0:0:
460,206,79339,1,0,0:0:0:0:
460,206,79527,6,0,P|466:144|473:91,1,100,8|0,0:0|0:0,0:0:0:0:
424,41,80089,1,2,0:0:0:0:
424,41,80277,1,0,0:0:0:0:
424,41,80464,1,2,0:0:0:0:
283,117,80839,101,0,0:0:0:0:
283,117,81027,2,0,P|202:108|164:104,1,100,8|8,0:0|0:0,0:0:0:0:
105,86,81589,1,0,0:0:0:0:
56,22,81777,2,0,P|66:68|69:90,1,50,2|2,0:0|0:0,0:0:0:0:
32,143,82152,2,0,P|27:186|20:263,1,100,8|8,0:0|0:0,0:0:0:0:
43,319,82714,5,0,0:0:0:0:
189,383,83089,1,0,0:0:0:0:
189,383,83277,1,2,0:0:0:0:
189,383,83464,2,0,P|191:348|191:332,1,50,2|8,0:1|0:0,0:0:0:0:
247,275,83839,1,2,0:1:0:0:
247,275,84027,102,0,P|240:220|240:163,1,100,8|2,0:0|0:0,0:0:0:0:
276,104,84589,1,0,0:0:0:0:
217,49,84777,1,2,0:0:0:0:
217,49,84964,2,0,P|167:63|116:74,2,100,2|8|8,0:0|0:0|0:0,0:0:0:0:
290,93,85902,5,0,0:0:0:0:
290,93,86089,2,0,P|316:86|361:81,1,50,2|0,0:0|0:0,0:0:0:0:
396,137,86464,1,0,0:0:0:0:
463,93,86652,1,8,0:0:0:0:
504,218,87027,102,0,P|493:273|492:283,1,50,2|8,0:0|0:0,0:0:0:0:
448,333,87402,1,0,0:0:0:0:
448,333,87589,2,0,P|378:322|335:317,1,100,8|2,0:0|0:0,0:0:0:0:
285,270,88152,1,0,0:0:0:0:
244,338,88339,1,8,0:0:0:0:
155,355,88527,5,2,0:1:0:0:
102,232,88902,1,2,0:1:0:0:
169,189,89089,1,0,0:0:0:0:
156,112,89277,1,2,0:1:0:0:
156,112,89464,1,2,0:1:0:0:
340,196,90027,101,4,1:0:0:0:
419,154,90214,1,0,1:0:0:0:
229,140,90589,1,2,1:0:0:0:
150,98,90776,1,8,1:0:0:0:
179,276,91152,1,2,1:0:0:0:
258,234,91339,1,2,1:0:0:0:
83,168,91714,53,2,1:0:0:0:
132,340,92089,1,2,0:1:0:0:
211,298,92276,1,10,1:0:0:0:
252,315,92370,1,0,0:0:0:0:
293,333,92464,1,2,0:0:0:0:
377,300,92652,2,0,P|365:249|361:207,1,75.0000028610231,4|2,0:0|0:0,0:0:0:0:
405,147,93027,5,6,1:0:0:0:
343,82,93214,1,0,1:0:0:0:
270,135,93402,1,4,0:0:0:0:
235,52,93589,1,2,1:0:0:0:
148,78,93777,1,8,1:0:0:0:
187,158,93964,1,4,0:0:0:0:
270,135,94152,102,0,P|294:194|298:205,2,50.0000019073487,2|2|0,1:0|1:0|1:0,0:0:0:0:
231,88,94527,2,0,P|240:64|250:41,2,50.0000019073487,6|8|8,1:0|1:0|1:0,0:0:0:0:
218,147,94902,2,0,P|193:150|168:153,2,50.0000019073487,4|8|8,1:0|1:0|1:0,0:0:0:0:
270,135,95277,2,0,P|294:194|299:209,2,50.0000019073487,8|8|8,1:0|1:0|1:0,0:0:0:0:
231,88,95652,1,4,1:0:0:0:
125,233,96027,53,4,1:0:0:0:
125,233,96214,2,0,P|199:257|241:272,1,100,2|6,1:0|1:0,0:0:0:0:
292,293,96777,2,0,P|308:246|313:227,1,50,8|4,1:0|0:0,0:0:0:0:
303,169,97152,1,2,1:0:0:0:
303,169,97339,2,0,P|308:132|321:63,1,100,2|0,1:0|1:0,0:0:0:0:
395,37,97902,5,0,1:0:0:0:
395,37,98089,1,0,1:0:0:0:
430,107,98277,2,0,P|423:146|418:167,1,50,8|4,1:0|0:0,0:0:0:0:
462,225,98652,2,0,P|455:264|450:285,1,50,4|0,0:0|1:0,0:0:0:0:
456,358,99027,37,6,1:0:0:0:
456,358,99214,2,0,P|392:350|351:343,1,100,0|2,1:0|1:0,0:0:0:0:
298,291,99777,1,8,1:0:0:0:
172,338,100152,2,0,P|128:328|105:323,1,50,2|2,1:0|1:0,0:0:0:0:
46,313,100527,5,4,1:0:0:0:
46,313,100714,2,0,P|47:263|46:212,1,100,0|0,1:0|0:0,0:0:0:0:
52,135,101277,1,8,1:0:0:0:
131,129,101464,1,8,1:0:0:0:
211,123,101652,1,8,1:0:0:0:
290,117,101839,1,8,1:0:0:0:
374,116,102027,38,0,P|431:137|452:227,2,150.000005722046,4|2|8,1:0|0:0|1:0,0:0:0:0:
288,189,102930,1,2,0:0:0:0:
215,102,103111,2,0,P|131:114|55:121,1,150.000005722046,4|0,1:0|0:0,0:0:0:0:
112,17,103653,5,0,1:0:0:0:
224,27,103834,2,0,P|218:75|214:109,1,75.0000028610231,0|0,1:0|0:0,0:0:0:0:
153,196,104195,1,8,1:0:0:0:
238,269,104376,2,0,P|304:271|403:282,1,150.000005722046,0|0,1:0|0:0,0:0:0:0:
492,238,104918,38,0,P|486:188|476:72,2,150.000005722046,4|0|8,1:0|3:0|1:0,0:0:0:0:
469,349,105822,1,0,0:0:0:0:
362,315,106002,2,0,P|312:316|280:317,1,75.0000028610231,4|0,1:0|0:0,0:0:0:0:
185,366,106364,5,4,0:0:0:0:
96,295,106545,1,0,1:0:0:0:
179,220,106725,2,0,P|180:166|176:67,1,150.000005722046,0|0,1:0|1:0,0:0:0:0:
71,28,107267,1,4,0:0:0:0:
61,141,107448,1,4,1:0:0:0:
234,4,107805,5,4,1:0:0:0:
444,80,108168,1,2,0:0:0:0:
273,227,108532,2,0,P|277:179|275:144,1,75.0000028610231,8|4,1:0|0:0,0:0:0:0:
383,184,108895,2,0,P|440:214|461:320,1,150.000005722046,0|0,1:0|1:0,0:0:0:0:
391,375,109441,5,8,1:0:0:0:
295,315,109623,2,0,P|224:322|190:327,1,75.0000028610231,0|4,1:0|0:0,0:0:0:0:
109,303,109986,1,8,1:0:0:0:
67,198,110168,2,0,P|88:127|151:90,1,150.000005722046,0|2,0:0|1:0,0:0:0:0:
237,164,110714,38,0,P|318:172|411:184,2,150.000005722046,4|2|8,1:0|0:0|1:0,0:0:0:0:
45,281,111805,1,8,1:0:0:0:
24,170,111986,1,0,1:0:0:0:
134,193,112168,2,0,P|144:255|151:284,1,75.0000028610231,4|4,3:0|3:0,0:0:0:0:
146,266,112441,1,0,0:0:0:0:
146,266,112532,1,8,3:0:0:0:
251,308,112714,2,0,L|238:361,2,37.5000014305115,4|8|12,3:0|3:0|1:0,0:0:0:0:
333,231,113077,2,0,P|328:162|319:76,1,150.000005722046,4|0,1:2|0:0,0:0:0:0:
218,26,113623,5,4,1:0:0:0:
68,193,113982,1,2,0:0:0:0:
244,332,114341,1,8,1:0:0:0:
325,253,114521,1,4,0:0:0:0:
218,217,114700,2,0,P|168:254|140:275,1,75.0000028610231,4|0,1:0|0:0,0:0:0:0:
236,136,115060,37,0,1:0:0:0:
316,164,115239,1,0,1:0:0:0:
296,245,115419,2,0,P|311:288|323:328,1,75.0000028610231,0|0,1:0|0:0,0:0:0:0:
422,354,115778,1,8,1:0:0:0:
422,354,115958,2,0,P|441:285|456:192,1,150.000005722046,0|0,1:0|0:0,0:0:0:0:
353,156,116497,6,0,P|343:106|340:73,1,75.0000028610231,4|0,1:0|0:0,0:0:0:0:
273,195,116856,2,0,P|220:182|193:178,1,75.0000028610231,2|0,0:0|0:0,0:0:0:0:
310,273,117215,2,0,P|300:317|292:358,1,75.0000028610231,8|2,1:0|0:0,0:0:0:0:
116,359,117575,38,0,P|119:270|114:198,1,150.000005722046,4|4,1:2|0:0,0:0:0:0:
71,105,118114,1,2,1:2:0:0:
169,51,118293,2,0,P|157:108|151:144,1,75.0000028610231,0|0,1:0|0:0,0:0:0:0:
234,203,118652,1,8,1:0:0:0:
323,134,118832,1,4,0:0:0:0:
258,41,119012,2,0,P|270:98|276:134,1,75.0000028610231,0|0,1:0|1:0,0:0:0:0:
369,201,119371,6,0,P|348:285|334:368,2,150.000005722046,6|2|10,1:0|1:0|1:0,0:0:0:0:
454,127,120285,1,2,0:1:0:0:
375,46,120468,2,0,P|329:41|197:22,1,150.000005722046,2|0,1:0|1:0,0:0:0:0:
155,114,121017,37,10,1:0:0:0:
69,41,121200,2,0,P|135:39|159:35,1,75.0000028610231,2|0,1:0|0:0,0:0:0:0:
245,116,121566,1,8,1:0:0:0:
171,200,121749,2,0,P|163:260|150:369,1,150.000005722046,0|8,1:0|1:0,0:0:0:0:
266,365,122297,6,0,P|325:334|343:249,1,150.000005722046,4|2,1:0|0:0,0:0:0:0:
284,163,122832,1,0,0:0:0:0:
338,64,123011,1,8,1:0:0:0:
504,215,123368,37,8,1:0:0:0:
394,240,123547,1,8,1:0:0:0:
422,131,123725,2,0,P|421:91|417:42,1,75.0000028610231,4|4,3:0|3:0,0:0:0:0:
418,56,123993,1,0,3:0:0:0:
418,56,124082,1,8,3:0:0:0:
306,36,124261,2,0,L|313:-9,2,37.5000014305115,4|8|8,3:0|3:0|1:0,0:0:0:0:
276,144,124618,2,0,P|279:234|293:372,1,225.000008583069,4|4,1:0|0:0,0:0:0:0:
199,351,125332,5,8,0:0:0:0:
199,351,125511,2,0,P|167:348|144:347,1,50,2|0,0:0|0:0,0:0:0:0:
75,359,125868,2,0,P|71:297|66:249,1,100,8|4,0:2|0:0,0:0:0:0:
83,186,126404,1,2,0:0:0:0:
38,126,126582,1,0,0:0:0:0:
38,126,126761,1,4,0:0:0:0:
66,56,126939,1,8,0:0:0:0:
197,127,127296,37,8,0:2:0:0:
197,127,127475,2,0,P|264:141|306:151,1,100,2|0,0:0|0:0,0:0:0:0:
348,205,128011,5,4,0:0:0:0:
412,167,128181,1,8,0:0:0:0:
399,93,128351,2,0,P|396:64|392:37,1,50,0|4,0:0|0:0,0:0:0:0:
321,20,128692,2,0,P|317:44|315:69,1,50,8|0,0:2|0:0,0:0:0:0:
249,106,129033,2,0,P|252:130|254:155,1,50,4|2,0:0|0:0,0:0:0:0:
304,212,129374,101,4,0:0:0:0:
274,281,129545,1,8,0:0:0:0:
274,281,129715,1,2,0:0:0:0:
300,351,129886,1,2,0:0:0:0:
364,313,130056,2,0,P|410:318|435:319,1,50,8|2,0:2|2:0,0:0:0:0:
468,267,130397,2,0,P|462:223|456:144,1,100,2|4,2:0|0:0,0:0:0:0:
415,104,130904,5,8,0:0:0:0:
427,29,131071,2,0,P|471:34|493:39,1,50,2|6,0:0|0:0,0:0:0:0:
347,40,131404,2,0,P|282:51|230:61,1,100,8|4,0:2|0:0,0:0:0:0:
176,36,131904,1,2,0:0:0:0:
176,36,132071,1,2,0:0:0:0:
123,89,132238,101,4,0:0:0:0:
123,89,132404,2,0,P|127:132|127:154,1,50,8|0,0:0|0:0,0:0:0:0:
182,197,132738,1,8,0:2:0:0:
182,197,132904,2,0,P|173:262|167:319,1,100,2|2,0:0|0:0,0:0:0:0:
217,358,133404,5,4,0:0:0:0:
286,330,133563,1,8,0:0:0:0:
286,330,133723,2,0,P|293:286|295:264,1,50,2|4,0:0|0:0,0:0:0:0:
370,258,134042,2,0,P|373:282|377:307,1,50,8|2,0:2|0:0,0:0:0:0:
453,335,134361,2,0,P|460:291|462:269,1,50,4|8,0:0|0:0,0:0:0:0:
506,226,134680,101,2,0:0:0:0:
506,226,134840,1,4,0:0:0:0:
446,176,134999,1,8,0:0:0:0:
446,176,135159,2,0,P|439:117|438:109,2,50,2|8|0,0:0|0:2|0:0,0:0:0:0:
373,207,135638,1,0,0:0:0:0:
214,119,135957,22,0,P|162:133|121:225,1,150.000005722046,4|0,1:0|0:0,0:0:0:0:
32,370,136591,1,8,1:0:0:0:
211,351,136909,5,4,0:0:0:0:
216,261,137068,1,0,0:0:0:0:
126,269,137226,2,0,P|77:278|42:281,2,59.9999981689454,0|0|0,1:0|0:0|0:0,0:0:0:0:
157,183,137703,2,0,P|186:178|216:172,2,59.9999981689454,2|2|0,0:0|1:2|0:0,0:0:0:0:
87,126,138179,2,0,P|38:135|3:138,1,59.9999981689454,2|4,0:0|0:0,0:0:0:0:
142,62,138496,102,0,P|201:51|285:127,1,179.999994506836,4|0,1:0|1:0,0:0:0:0:
348,188,139127,2,0,P|399:186|434:182,1,59.9999981689454,8|0,1:0|0:0,0:0:0:0:
432,272,139443,2,0,P|402:274|372:274,1,59.9999981689454,4|2,0:0|0:0,0:0:0:0:
308,339,139759,5,0,1:0:0:0:
221,362,139917,1,0,1:0:0:0:
158,297,140074,1,2,1:3:0:0:
158,297,140232,1,0,0:0:0:0:
165,207,140390,2,0,P|178:152|185:124,1,59.9999981689454,8|0,1:0|0:0,0:0:0:0:
63,165,140706,2,0,P|70:194|76:223,1,59.9999981689454,0|4,0:0|0:1,0:0:0:0:
47,258,140943,1,0,0:0:0:0:
58,301,141022,102,0,P|101:307|125:314,1,59.9999981689454,4|0,1:0|0:0,0:0:0:0:
187,368,141338,2,0,P|228:357|253:355,1,59.9999981689454,2|0,0:1|0:0,0:0:0:0:
334,369,141653,2,0,P|366:340|447:285,1,119.999996337891,10|2,1:0|1:0,0:0:0:0:
475,218,142127,1,0,0:0:0:0:
386,199,142285,6,0,P|394:141|394:121,1,59.9999981689454,2|2,1:0|0:0,0:0:0:0:
318,89,142601,1,2,0:0:0:0:
383,27,142759,2,0,P|416:42|453:74,2,59.9999981689454,2|2|2,0:0|1:0|0:0,0:0:0:0:
296,1,143232,2,0,P|256:14|232:22,1,59.9999981689454,2|8,0:0|1:0,0:0:0:0:
202,14,143469,1,8,1:0:0:0:
165,9,143548,101,12,1:0:0:0:
171,83,143706,1,4,1:3:0:0:
175,157,143864,1,4,1:3:0:0:
176,234,144022,2,0,P|166:282|160:319,1,75.0000028610231,14|0,1:0|0:0,0:0:0:0:
286,218,144496,5,4,1:0:0:0:
290,141,144653,1,8,1:0:0:0:
370,138,144811,1,8,1:0:0:0:
368,222,144974,1,8,1:0:0:0:
368,222,145137,2,0,P|357:270|351:305,1,75.0000028610231,4|0,0:0|0:0,0:0:0:0:
391,360,145463,102,0,P|455:345|482:217,1,200,6|4,1:0|0:0,0:0:0:0:
256,192,149997,12,0,151409,0:0:0:0:
247,206,151762,54,0,P|249:153|248:40,1,150.000005722046,4|4,1:0|1:0,0:0:0:0:
58,146,152393,2,0,L|66:185,1,37.5000014305115,4|0,1:0|0:0,0:0:0:0:
39,210,152551,2,0,L|47:249,1,37.5000014305115,4|0,1:2|0:0,0:0:0:0:
70,275,152709,1,4,1:2:0:0:
253,377,153025,5,8,1:0:0:0:
396,257,153340,1,4,1:2:0:0:
247,107,153656,1,4,1:0:0:0:
87,243,153972,1,4,1:0:0:0:
250,323,154288,102,0,B|264:262|264:262|247:233|247:233|261:158,1,150.000005722046,4|4,1:0|1:2,0:0:0:0:
91,50,154919,2,0,L|146:40,1,37.5000014305115,4|0,1:0|0:0,0:0:0:0:
163,57,155077,2,0,L|218:47,1,37.5000014305115,4|0,1:2|0:0,0:0:0:0:
234,65,155235,1,4,1:2:0:0:
432,134,155551,6,0,B|464:169|464:169|479:229|479:229|516:263,3,150.000005722046,10|2|2|2,1:0|1:0|1:0|1:0,0:0:0:0:
299,240,156814,102,0,B|234:224|234:224|203:326,1,150.000005722046,4|4,1:0|1:0,0:0:0:0:
412,360,157446,2,0,L|408:314,1,37.5000014305115,4|0,1:0|1:0,0:0:0:0:
420,286,157604,2,0,L|416:240,1,37.5000014305115,4|0,1:2|0:0,0:0:0:0:
390,221,157762,1,4,1:2:0:0:
442,91,158077,5,8,1:0:0:0:
205,48,158393,1,2,1:0:0:0:
210,248,158709,1,4,1:0:0:0:
420,286,159025,1,4,1:0:0:0:
322,147,159340,38,0,L|162:164,1,150.000005722046,6|4,1:0|1:2,0:0:0:0:
9,109,159972,1,2,1:3:0:0:
9,109,160051,1,0,1:0:0:0:
9,109,160130,1,2,1:3:0:0:
76,189,160288,2,0,P|74:245|71:289,1,75.0000028610231,4|0,1:0|0:0,0:0:0:0:
133,350,160604,6,0,P|181:347|223:258,1,150.000005722046,10|4,1:0|1:2,0:0:0:0:
205,55,161235,1,8,1:0:0:0:
282,26,161393,1,8,1:0:0:0:
341,82,161551,1,8,1:0:0:0:
305,156,161709,1,4,1:2:0:0:
222,161,161867,38,0,P|221:109|224:68,1,75.0000028610231,4|0,1:0|0:0,0:0:0:0:
139,77,162183,2,0,P|140:114|139:151,1,75.0000028610231,4|0,1:2|1:0,0:0:0:0:
91,219,162498,1,2,1:3:0:0:
91,219,162577,1,0,1:0:0:0:
91,219,162656,1,2,1:3:0:0:
129,291,162814,1,4,1:0:0:0:
283,231,163130,6,0,P|341:241|439:252,1,150.000005722046,8|0,1:0|1:0,0:0:0:0:
395,89,163762,2,0,P|320:80|246:68,1,150.000005722046,4|4,1:0|1:0,0:0:0:0:
93,129,164393,102,0,P|151:139|249:150,2,150.000005722046,4|4|2,1:0|1:2|1:3,0:0:0:0:
55,54,165183,1,2,1:3:0:0:
132,26,165340,2,0,P|185:36|211:37,1,75.0000028610231,4|0,1:0|1:0,0:0:0:0:
322,92,165656,6,0,P|353:124|348:230,1,150.000005722046,10|2,1:0|1:0,0:0:0:0:
276,258,166130,1,0,1:0:0:0:
276,258,166209,1,0,1:0:0:0:
276,258,166288,2,0,L|252:318,2,50.0000019073487,2|0|0,0:1|0:0|0:0,0:0:0:0:
198,228,166604,2,0,L|179:181,2,50.0000019073487,2|0|0,3:1|0:0|0:0,0:0:0:0:
164,297,166919,102,0,P|116:312|7:348,2,150.000005722046,4|4|4,1:0|1:0|1:0,0:0:0:0:
164,297,167630,1,2,1:3:0:0:
164,297,167709,1,2,1:3:0:0:
242,343,167867,2,0,P|291:332|323:326,1,75.0000028610231,4|0,1:0|0:0,0:0:0:0:
367,267,168183,5,8,1:0:0:0:
471,140,168498,2,0,P|474:213|479:292,2,150.000005722046,0|4|4,1:0|1:0|1:0,0:0:0:0:
309,177,169446,101,4,1:0:0:0:
211,44,169762,1,4,1:2:0:0:
108,173,170077,1,4,1:0:0:0:
108,173,170156,1,0,1:0:0:0:
108,173,170235,1,4,1:2:0:0:
181,211,170393,2,0,P|177:264|181:313,1,75.0000028610231,4|0,1:2|1:0,0:0:0:0:
229,350,170709,54,0,P|294:334|327:243,2,150.000005722046,8|4|2,1:0|0:0|0:0,0:0:0:0:
64,332,171656,6,0,P|65:249|406:111,1,500
