osu file format v14

[General]
AudioFilename: audio.mp3
AudioLeadIn: 0
PreviewTime: 137750
Countdown: 0
SampleSet: Normal
StackLeniency: 0.7
Mode: 0
LetterboxInBreaks: 0
WidescreenStoryboard: 0

[Editor]
DistanceSpacing: 1.7
BeatDivisor: 8
GridSize: 4
TimelineZoom: 2.5

[Metadata]
Title:Party Electricity (feat. Amari)
TitleUnicode:Party Electricity (feat. Amari)
Artist:Kim Dotcom
ArtistUnicode:Kim Dotcom
Creator:Stamby
Version:Insane
Source:
Tags:good times
BeatmapID:1364972
BeatmapSetID:643969

[Difficulty]
HPDrainRate:6
CircleSize:4
OverallDifficulty:8
ApproachRate:9
SliderMultiplier:2.4
SliderTickRate:1

[Events]
//Background and Video events
0,0,"bg.jpg",0,0
//Break Periods
2,105442,118365
//Storyboard Layer 0 (Background)
//Storyboard Layer 1 (Fail)
//Storyboard Layer 2 (Pass)
//Storyboard Layer 3 (Foreground)
//Storyboard Sound Samples

[TimingPoints]
1135,461.538461538462,4,1,0,50,1,0
8519,-100,4,1,0,50,0,0
10365,-100,4,1,0,50,0,0
12211,-100,4,1,0,50,0,0
14058,-100,4,1,0,50,0,0
15904,-100,4,1,0,50,0,0
23288,-100,4,1,0,50,0,0
30673,-100,4,1,0,50,0,0
38058,-100,4,1,0,50,0,0
39904,-100,4,1,0,50,0,0
41750,-100,4,1,0,50,0,0
43596,-100,4,1,0,50,0,0
45442,-100,4,1,0,50,0,0
60211,-100,4,1,0,50,0,1
73135,-100,4,1,0,45,0,1
73596,-100,4,1,0,40,0,1
74058,-100,4,1,0,35,0,1
74519,-100,4,1,0,30,0,1
74981,-100,4,1,0,50,0,0
76827,-100,4,1,0,50,0,0
78673,-100,4,1,0,50,0,0
80519,-100,4,1,0,50,0,0
82365,-100,4,1,0,50,0,0
97135,-133.333333333333,4,1,0,50,0,0
97596,-100,4,1,0,50,0,0
98058,-80,4,1,0,50,0,0
98519,-100,4,1,0,50,0,0
98981,-133.333333333333,4,1,0,50,0,0
99442,-100,4,1,0,50,0,0
99904,-80,4,1,0,50,0,0
100365,-100,4,1,0,50,0,0
100827,-133.333333333333,4,1,0,50,0,0
101288,-100,4,1,0,50,0,0
101750,-80,4,1,0,50,0,0
102211,-80,4,1,0,50,0,0
102673,-100,4,1,0,50,0,0
103135,-80,4,1,0,50,0,0
103596,-100,4,1,0,50,0,0
104058,-80,4,1,0,50,0,0
104519,-100,4,1,0,50,0,0
119288,-100,4,1,0,10,0,0
119750,-100,4,1,0,15,0,0
120211,-100,4,1,0,20,0,0
120673,-100,4,1,0,25,0,0
121135,-100,4,1,0,30,0,0
121596,-100,4,1,0,35,0,0
122058,-100,4,1,0,40,0,0
122519,-100,4,1,0,45,0,0
122981,-100,4,1,0,50,0,0
137750,-100,4,1,0,50,0,1
150673,-100,4,1,0,45,0,1
151135,-100,4,1,0,40,0,1
151596,-100,4,1,0,35,0,1
152058,-100,4,1,0,30,0,1
152519,-100,4,1,0,35,0,0
154365,-100,4,1,0,40,0,0
156211,-100,4,1,0,45,0,0
158058,-100,4,1,0,50,0,0
159904,-100,4,1,0,50,0,0
167288,-100,4,1,0,50,0,0

[Colours]
Combo1 : 193,43,122
Combo2 : 63,66,205
Combo3 : 34,120,183
Combo4 : 211,69,211

[HitObjects]
336,248,28827,6,0,B|372:240|372:240|396:244|396:244|432:232|432:232|472:240|472:240|512:224,1,180
372,136,29288,2,0,P|308:132|248:164,1,120
248,316,29635,1,0,0:0:0:0:
176,236,29750,2,0,P|152:200|144:160,1,60
148,24,29981,2,0,P|172:60|180:100,1,60
20,120,30211,1,0,0:0:0:0:
28,172,30326,1,0,0:0:0:0:
36,224,30441,1,0,0:0:0:0:
44,276,30557,1,0,0:0:0:0:
52,328,30673,6,0,L|244:336,1,180
340,344,31135,2,0,P|336:308|320:272,1,60
332,180,31365,2,0,P|336:144|348:112,1,60
244,76,31596,2,0,P|304:20|400:28,1,180
472,104,32058,2,0,P|460:140|448:160,1,60
512,248,32288,2,0,L|508:332,1,60
360,372,32519,6,0,L|367:252,1,120
344,148,32865,1,0,0:0:0:0:
232,268,32981,2,0,P|256:244|272:216,1,60
168,180,33211,1,0,0:0:0:0:
264,372,33442,2,0,P|228:376|192:368,1,60
108,344,33673,2,0,P|78:340|48:344,1,60
56,244,33904,2,0,L|58:184,1,60
108,96,34135,2,0,L|110:36,1,60
176,176,34365,6,0,P|260:144|352:164,1,180
232,264,34827,2,0,P|204:276|164:280,1,60
244,368,35058,2,0,P|276:356|304:336,1,60
376,276,35288,2,0,P|448:224|452:124,1,180
340,40,35750,2,0,L|280:37,1,60
184,72,35981,2,0,P|204:108|232:128,1,60
76,60,36211,6,0,P|92:124|128:184,1,120
200,232,36558,1,0,0:0:0:0:
316,132,36673,2,0,L|375:134,1,60
256,40,36904,2,0,L|196:37,1,60
96,20,37135,2,0,P|96:49|104:78,1,60
188,136,37365,1,0,0:0:0:0:
16,244,37596,2,0,L|23:124,1,120
108,184,37942,1,0,0:0:0:0:
76,332,38058,6,0,P|132:304|204:304,1,120
268,236,38404,1,0,0:0:0:0:
364,356,38519,2,0,P|332:344|308:324,1,60
392,264,38750,2,0,P|452:304|472:360,2,120
400,60,39442,2,0,P|408:104|404:140,1,60
508,144,39673,2,0,P|496:176|468:208,1,60
328,184,39904,6,0,L|148:176,1,180
176,80,40365,2,0,L|316:88,2,120
76,104,40942,1,0,0:0:0:0:
56,204,41058,2,0,P|72:240|100:264,1,60
0,128,41288,1,0,0:0:0:0:
0,332,41519,1,0,0:0:0:0:
256,356,41750,6,0,P|336:344|416:276,1,180
320,240,42211,2,0,L|328:116,1,120
364,84,42558,1,0,0:0:0:0:
408,56,42673,2,0,P|440:60|476:72,3,60
492,164,43135,2,0,P|452:160|416:148,1,60
452,256,43365,2,0,P|492:260|532:256,1,60
468,352,43597,5,0,0:0:0:0:
420,344,43711,1,0,0:0:0:0:
380,312,43827,1,0,0:0:0:0:
352,268,43942,1,0,0:0:0:0:
324,228,44058,1,0,0:0:0:0:
276,208,44173,1,0,0:0:0:0:
224,208,44288,1,0,0:0:0:0:
180,224,44404,1,0,0:0:0:0:
144,256,44519,2,0,B|132:216|132:216|108:184|108:184|100:144,1,120
308,36,44981,2,0,B|320:76|320:76|344:108|344:108|352:148,1,120
192,352,45442,6,0,P|224:300|216:224,1,120
180,152,45788,1,0,0:0:0:0:
316,224,45904,2,0,P|384:256|436:248,2,120
392,152,46481,2,0,L|528:160,1,120
404,52,46827,2,0,L|320:48,1,60
244,72,47058,2,0,L|160:68,1,60
100,124,47288,6,0,P|40:104|4:48,1,120
104,20,47635,1,0,0:0:0:0:
184,152,47750,2,0,L|176:276,1,120
268,320,48096,1,0,0:0:0:0:
176,364,48211,2,0,P|144:360|116:340,1,60
88,252,48442,2,0,L|92:188,1,60
12,324,48673,1,0,0:0:0:0:
208,264,48904,1,0,0:0:0:0:
8,104,49135,6,0,L|0:228,1,120
100,252,49481,1,0,0:0:0:0:
112,100,49596,2,0,P|88:40|28:0,2,120
204,56,50173,2,0,P|268:64|328:56,1,120
396,192,50519,2,0,L|400:128,1,60
300,152,50750,2,0,P|256:156|216:148,1,60
340,272,50981,6,0,P|408:292|464:268,1,120
496,184,51327,1,0,0:0:0:0:
432,44,51442,2,0,L|312:36,1,120
208,32,51788,1,0,0:0:0:0:
136,168,51904,2,0,P|144:204|156:232,1,60
20,148,52135,2,0,P|24:188|32:212,1,60
96,68,52365,2,0,P|72:52|32:40,1,60
188,92,52596,2,0,P|212:108|252:120,1,60
252,272,52827,6,0,P|220:312|144:328,1,120
160,228,53173,1,0,0:0:0:0:
308,192,53288,2,0,P|360:160|428:156,2,120
344,288,53865,2,0,P|412:284|464:248,1,120
512,112,54211,2,0,P|492:84|460:60,1,60
320,60,54442,2,0,P|288:72|260:92,1,60
160,196,54673,6,0,L|167:76,1,120
76,28,55019,1,0,0:0:0:0:
60,180,55135,2,0,P|72:248|120:292,1,120
352,348,55596,2,0,P|336:320|304:292,1,60
216,284,55827,2,0,L|220:220,1,60
248,376,56058,1,0,0:0:0:0:
324,188,56288,1,0,0:0:0:0:
512,364,56519,6,0,P|528:304|500:232,1,120
428,304,56865,1,0,0:0:0:0:
484,160,56981,2,0,P|504:104|488:40,2,120
404,96,57558,2,0,L|284:89,1,120
148,16,57904,2,0,P|144:48|132:92,1,60
72,152,58135,2,0,P|80:188|80:220,1,60
184,332,58365,6,0,B|180:296|180:296|192:272|192:272|172:236|172:236|184:212|184:212|168:156,1,180
112,24,58827,2,0,B|128:80|128:80|96:96|76:136,1,120
232,84,59173,1,0,0:0:0:0:
276,176,59288,2,0,P|304:160|328:132,2,60
32,256,59750,1,0,0:0:0:0:
64,216,59865,1,0,0:0:0:0:
96,180,59981,1,0,0:0:0:0:
128,140,60096,1,0,0:0:0:0:
160,108,60211,6,0,P|216:84|284:88,1,120
232,180,60558,1,0,0:0:0:0:
80,184,60673,2,0,P|52:136|56:60,2,120
156,252,61250,1,0,0:0:0:0:
60,280,61365,2,0,L|-24:276,1,60
140,344,61596,2,0,L|224:348,1,60
296,316,61827,2,0,P|284:288|280:244,1,60
376,140,62058,6,0,L|368:264,1,120
384,360,62404,1,0,0:0:0:0:
464,228,62519,2,0,L|471:108,1,120
400,32,62865,2,0,P|340:44|260:28,1,120
220,116,63211,2,0,L|216:176,1,60
156,32,63442,1,0,0:0:0:0:
332,140,63673,1,0,0:0:0:0:
76,132,63904,6,0,P|40:80|44:4,1,120
136,48,64250,1,0,0:0:0:0:
184,192,64365,2,0,L|176:316,1,120
272,344,64711,2,0,P|332:332|412:348,1,120
488,304,65058,2,0,L|492:220,1,60
380,140,65288,2,0,P|384:169|396:197,1,60
480,140,65519,2,0,L|484:56,1,60
336,36,65750,6,0,P|287:74|272:144,1,120
280,232,66096,1,0,0:0:0:0:
188,188,66211,2,0,P|176:160|172:120,2,60
200,292,66558,1,0,0:0:0:0:
108,252,66673,2,0,P|88:216|72:128,1,120
308,40,67135,2,0,L|184:32,1,120
284,268,67596,6,0,L|408:276,1,120
472,196,67942,1,0,0:0:0:0:
464,348,68058,2,0,P|424:368|384:364,1,60
308,364,68288,2,0,L|184:356,1,120
188,252,68635,1,0,0:0:0:0:
112,320,68750,2,0,P|84:320|48:308,1,60
100,164,68981,2,0,L|96:248,1,60
0,192,69211,2,0,L|4:108,1,60
136,60,69442,6,0,P|192:104|204:164,1,120
188,252,69788,1,0,0:0:0:0:
300,148,69904,2,0,L|304:64,1,60
388,148,70135,2,0,L|395:28,1,120
496,44,70481,1,0,0:0:0:0:
484,144,70596,2,0,L|480:228,1,60
332,244,70827,1,0,0:0:0:0:
512,340,71058,1,0,0:0:0:0:
308,348,71288,6,0,P|256:320|228:264,1,120
264,172,71635,1,0,0:0:0:0:
120,224,71750,2,0,L|116:308,1,60
20,256,71981,2,0,P|12:196|44:136,1,120
72,48,72327,2,0,P|136:60|204:44,1,120
340,76,72673,2,0,L|424:80,1,60
280,176,72904,2,0,L|196:172,1,60
256,192,73135,12,0,74519,0:0:0:0:
220,173,74981,6,0,L|204:364,1,180
308,356,75442,2,0,P|368:348|428:356,2,120
320,252,76019,2,0,L|327:132,1,120
368,40,76365,2,0,P|404:28|436:24,1,60
416,128,76596,2,0,P|452:120|488:120,1,60
424,264,76827,6,0,P|392:328|284:348,1,180
220,280,77288,2,0,L|227:160,2,120
124,292,77865,2,0,L|131:172,1,120
168,76,78211,2,0,P|200:60|236:56,1,60
76,96,78442,1,0,0:0:0:0:
232,300,78673,6,0,B|240:164|240:164|268:160|288:148,1,180
384,152,79135,2,0,P|368:88|316:52,2,120
476,112,79711,2,0,P|480:172|464:244,1,120
368,256,80058,2,0,P|336:244|308:220,1,60
268,320,80288,2,0,P|240:332|204:336,1,60
92,240,80519,6,0,P|160:244|212:236,1,120
220,136,80865,2,0,P|160:144|100:140,1,120
148,48,81212,2,0,P|188:44|228:36,1,60
304,72,81443,2,0,P|316:100|320:132,1,60
424,124,81674,2,0,P|420:160|408:188,1,60
408,284,81905,2,0,P|376:280|348:268,1,60
248,276,82135,2,0,P|252:240|264:208,1,60
148,324,82365,6,0,L|155:204,1,120
220,124,82711,1,0,0:0:0:0:
68,132,82827,2,0,P|92:112|132:96,1,60
196,32,83058,2,0,P|256:36|320:28,1,120
416,28,83404,2,0,P|460:64|480:140,1,120
336,172,83750,2,0,P|356:140|372:124,1,60
436,204,83981,2,0,P|439:233|434:263,1,60
308,348,84211,6,0,P|256:364|192:344,1,120
252,264,84558,1,0,0:0:0:0:
104,296,84673,2,0,P|92:324|88:360,1,60
8,292,84904,2,0,L|15:172,1,120
8,68,85250,2,0,P|64:80|116:144,1,120
196,252,85596,2,0,P|180:224|152:200,1,60
236,72,85827,2,0,B|232:112|232:112|224:148,1,60
336,24,86058,6,0,L|329:144,1,120
352,244,86404,1,0,0:0:0:0:
464,128,86519,2,0,P|436:148|412:184,1,60
512,228,86750,2,0,L|505:348,1,120
404,340,87096,2,0,P|348:328|272:336,1,120
164,240,87442,2,0,P|208:244|232:252,1,60
180,344,87673,2,0,P|152:344|120:336,1,60
56,200,87904,6,0,P|128:132|220:144,1,180
308,24,88365,2,0,L|304:108,1,60
356,172,88596,2,0,L|352:256,1,60
456,232,88827,2,0,P|452:268|436:296,1,60
400,384,89058,2,0,P|372:364|352:336,1,60
204,324,89288,2,0,P|244:320|280:308,1,60
232,216,89519,2,0,B|236:176|236:176|244:140,1,60
140,40,89750,6,0,L|133:160,1,120
120,260,90096,1,0,0:0:0:0:
16,148,90211,2,0,P|21:177|30:205,1,60
40,308,90442,2,0,P|64:336|96:352,1,60
188,348,90673,2,0,P|240:324|320:324,1,120
244,72,91135,2,0,L|237:192,1,120
444,40,91596,6,0,P|452:88|424:152,1,120
356,72,91942,1,0,0:0:0:0:
344,224,92058,2,0,P|404:260|472:248,1,120
248,272,92519,2,0,P|212:248|188:236,1,60
128,164,92750,2,0,P|112:180|96:220,1,60
176,344,92981,2,0,P|224:376|308:364,1,120
348,292,93327,1,0,0:0:0:0:
312,144,93442,6,0,P|256:128|212:64,1,120
312,44,93788,1,0,0:0:0:0:
436,132,93904,2,0,L|432:216,1,60
512,260,94135,2,0,P|472:288|448:292,1,60
312,264,94365,2,0,L|192:257,1,120
96,20,94827,2,0,P|104:68|88:144,1,120
344,124,95288,6,0,P|288:132|228:108,1,120
296,28,95635,1,0,0:0:0:0:
440,76,95750,2,0,P|452:132|424:200,2,120
308,232,96442,2,0,L|224:228,1,60
120,316,96673,2,0,L|36:312,1,60
212,320,96904,2,0,L|296:324,1,60
400,192,97135,6,0,B|408:236|408:236|400:280|400:280|408:336,1,135.000005149841
224,20,97827,1,0,0:0:0:0:
512,160,98058,2,0,P|432:92|316:112,1,225
252,244,98519,2,0,P|244:208|228:180,1,60
148,248,98750,2,0,P|156:284|172:312,1,60
272,352,98981,6,0,L|416:360,1,135.000005149841
56,300,99673,1,0,0:0:0:0:
320,120,99904,2,0,P|212:120|164:224,1,225
264,200,100365,2,0,P|328:220|384:200,1,120
472,36,100827,6,0,L|337:28,1,135.000005149841
512,340,101519,1,0,0:0:0:0:
260,304,101750,2,0,P|348:240|320:112,1,225
172,224,102211,2,0,P|144:272|160:364,1,150
8,156,102673,6,0,L|0:290,1,135.000005149841
52,348,103019,1,0,0:0:0:0:
96,164,103135,2,0,P|152:128|240:132,1,150
192,252,103481,1,0,0:0:0:0:
328,180,103596,2,0,P|340:152|340:108,1,60
436,80,103827,2,0,P|448:52|448:8,1,60
492,208,104058,1,0,0:0:0:0:
440,248,104173,1,0,0:0:0:0:
388,288,104288,1,0,0:0:0:0:
336,328,104404,1,0,0:0:0:0:
284,368,104519,5,0,0:0:0:0:
256,192,119288,12,0,122519,0:0:0:0:
292,372,122981,6,0,L|300:248,1,120
380,188,123327,1,0,0:0:0:0:
228,180,123442,2,0,P|176:160|112:168,2,120
160,260,124019,2,0,P|104:272|44:248,1,120
12,100,124365,2,0,P|36:80|60:52,1,60
156,64,124596,2,0,P|192:48|224:24,1,60
304,156,124827,6,0,L|423:163,1,120
508,104,125173,1,0,0:0:0:0:
488,256,125288,2,0,P|432:280|364:264,1,120
272,252,125635,1,0,0:0:0:0:
252,352,125750,2,0,P|228:372|200:384,1,60
176,284,125981,2,0,L|178:224,1,60
108,360,126211,1,0,0:0:0:0:
292,268,126442,1,0,0:0:0:0:
68,144,126673,6,0,P|112:104|184:88,1,120
244,160,127019,1,0,0:0:0:0:
116,244,127135,2,0,P|56:256|0:236,2,120
216,260,127711,2,0,L|335:267,1,120
488,236,128057,2,0,P|468:212|452:180,1,60
500,96,128288,2,0,P|472:84|436:80,1,60
296,120,128519,6,0,P|252:68|248:16,1,120
348,32,128865,1,0,0:0:0:0:
368,184,128981,2,0,L|361:303,1,120
276,360,129327,1,0,0:0:0:0:
208,284,129442,2,0,P|168:280|144:272,1,60
36,168,129673,2,0,P|80:172|112:184,1,60
72,328,129904,2,0,P|60:300|56:252,1,60
188,192,130135,2,0,P|232:188|272:192,1,60
144,76,130365,6,0,L|263:83,1,120
336,156,130711,1,0,0:0:0:0:
343,307,130827,2,0,P|288:287|228:285,2,120
440,276,131404,2,0,P|468:228|462:160,1,120
312,196,131751,2,0,L|372:198,1,60
380,96,131981,2,0,L|320:94,1,60
204,196,132211,6,0,P|156:164|92:160,1,120
120,260,132558,1,0,0:0:0:0:
0,164,132673,2,0,L|7:44,1,120
108,60,133019,1,0,0:0:0:0:
208,48,133135,2,0,P|232:32|276:20,1,60
280,120,133365,2,0,L|276:179,1,60
356,48,133596,1,0,0:0:0:0:
176,144,133827,1,0,0:0:0:0:
396,272,134058,6,0,L|403:152,1,120
472,76,134404,1,0,0:0:0:0:
496,228,134519,2,0,P|504:296|472:356,2,120
392,220,135096,2,0,P|344:228|272:216,1,120
120,216,135442,2,0,P|152:204|180:200,1,60
188,304,135673,2,0,P|156:320|112:328,1,60
16,224,135904,6,0,B|8:180|8:180|28:144|28:144|24:100|24:100|44:76|44:76|56:36,1,180
200,28,136365,2,0,B|208:64|196:100|196:100|168:96|140:100,1,120
300,128,136711,1,0,0:0:0:0:
348,40,136827,2,0,P|324:32|276:32,2,60
148,200,137289,1,0,0:0:0:0:
200,204,137404,1,0,0:0:0:0:
252,208,137519,1,0,0:0:0:0:
28,84,137750,6,0,L|148:91,1,120
244,132,138096,1,0,0:0:0:0:
104,192,138211,2,0,P|68:224|56:300,2,120
156,280,138788,1,0,0:0:0:0:
256,256,138904,2,0,P|284:244|328:240,1,60
448,312,139135,2,0,P|412:320|380:316,1,60
392,164,139365,2,0,P|412:200|416:240,1,60
300,120,139596,6,0,L|180:113,1,120
96,52,139942,1,0,0:0:0:0:
108,204,140058,2,0,P|112:268|152:316,1,120
208,228,140404,2,0,L|328:235,1,120
384,92,140750,2,0,L|386:32,1,60
404,184,140981,1,0,0:0:0:0:
272,28,141211,1,0,0:0:0:0:
504,140,141442,6,0,P|512:200|488:256,1,120
512,356,141788,1,0,0:0:0:0:
360,336,141904,2,0,L|240:329,1,120
140,356,142250,2,0,P|88:336|52:272,1,120
152,260,142596,2,0,L|154:200,1,60
52,88,142827,2,0,L|50:148,1,60
144,104,143058,2,0,P|184:108|220:124,1,60
332,36,143288,6,0,L|452:43,1,120
512,128,143635,1,0,0:0:0:0:
428,184,143750,2,0,P|412:156|408:112,2,60
508,248,144096,1,0,0:0:0:0:
416,296,144211,2,0,P|384:280|324:200,1,120
156,32,144673,2,0,P|160:96|149:152,1,120
404,152,145135,6,0,L|411:32,1,120
316,64,145481,1,0,0:0:0:0:
328,216,145596,2,0,P|356:240|384:252,1,60
224,244,145827,2,0,P|268:296|332:332,1,120
412,340,146173,1,0,0:0:0:0:
484,272,146288,2,0,L|486:212,1,60
376,104,146519,2,0,P|348:92|308:84,1,60
176,144,146750,2,0,P|204:148|240:144,1,60
116,52,146981,6,0,P|76:104|72:172,1,120
128,240,147327,1,0,0:0:0:0:
280,252,147442,2,0,P|312:248|340:250,1,60
392,340,147673,2,0,P|436:296|440:224,1,120
504,156,148019,1,0,0:0:0:0:
400,152,148135,2,0,L|340:150,1,60
460,60,148365,1,0,0:0:0:0:
260,92,148596,1,0,0:0:0:0:
312,344,148827,6,0,P|256:348|196:312,1,120
276,244,149173,1,0,0:0:0:0:
156,148,149288,2,0,P|160:184|156:216,1,60
60,176,149519,2,0,P|64:112|112:56,1,120
196,60,149865,2,0,L|316:67,1,120
268,212,150211,2,0,P|260:248|244:272,1,60
368,172,150442,2,0,P|372:204|368:232,1,60
256,192,150673,12,0,152058,0:0:0:0:
220,172,152519,6,0,L|204:363,2,180
464,352,153557,2,0,L|471:232,1,120
412,148,153903,2,0,P|448:136|480:132,1,60
404,52,154134,2,0,P|440:44|476:40,1,60
328,120,154365,6,0,P|272:68|160:76,2,180
96,320,155403,2,0,L|103:200,1,120
360,368,155980,1,0,0:0:0:0:
228,152,156211,6,0,L|216:332,1,180
312,296,156673,2,0,L|320:176,2,120
508,240,157365,1,0,0:0:0:0:
420,56,157596,2,0,L|412:176,1,120
260,40,158058,6,0,P|164:52|56:40,1,180
0,108,158519,2,0,P|16:148|16:224,1,120
176,356,158981,1,0,0:0:0:0:
128,160,159211,1,0,0:0:0:0:
72,356,159442,2,0,P|92:296|140:260,1,120
260,40,159904,6,0,L|248:220,1,180
336,344,160365,2,0,L|344:224,2,120
508,240,161058,1,0,0:0:0:0:
388,76,161288,2,0,L|384:135,1,60
424,284,161519,2,0,L|428:208,1,60
292,152,161750,6,0,P|264:72|168:44,1,180
72,148,162211,2,0,P|136:160|208:128,2,120
12,232,162788,2,0,P|100:260|140:260,1,120
240,364,163135,2,0,L|120:356,1,120
324,348,163596,6,0,P|384:364|448:348,1,120
384,264,163942,1,0,0:0:0:0:
232,260,164058,2,0,P|276:228|300:156,2,120
192,164,164635,2,0,P|232:80|260:60,1,120
404,60,164981,2,0,P|377:73|347:77,1,60
452,188,165211,2,0,P|424:172|388:164,1,60
498,278,165442,6,0,P|446:286|382:262,1,120
324,348,165788,1,0,0:0:0:0:
172,364,165904,2,0,P|124:316|116:244,1,120
100,12,166365,1,0,0:0:0:0:
299,168,166596,1,0,0:0:0:0:
44,204,166827,1,0,0:0:0:0:
200,0,167058,1,0,0:0:0:0:
188,52,167173,1,0,0:0:0:0:
156,92,167288,6,0,P|108:112|0:48,1,180
44,204,167750,2,0,P|108:212|172:192,1,120
408,136,168211,2,0,P|380:92|296:60,1,120
228,300,168673,2,0,P|288:308|364:280,1,120
508,96,169135,6,0,P|512:172|436:248,1,180
304,192,169596,2,0,P|352:156|408:136,1,120
164,68,170058,2,0,P|96:72|44:48,1,120
12,148,170404,1,0,0:0:0:0:
164,168,170519,2,0,P|224:148|260:96,1,120
60,264,170981,6,0,L|244:272,1,180
412,356,171442,2,0,P|352:344|280:352,1,120
336,148,171904,2,0,P|392:140|464:144,1,120
200,148,172365,2,0,P|152:116|104:52,1,120
368,44,172827,6,0,P|288:52|204:-4,1,180
200,148,173288,2,0,L|192:268,1,120
448,268,173750,2,0,P|460:240|468:200,1,60
324,152,173981,2,0,P|348:180|380:200,1,60
492,104,174211,2,0,P|456:108|424:120,1,60
436,12,174442,2,0,P|392:24|364:36,1,60
