osu file format v14

[General]
AudioFilename: audio.mp3
AudioLeadIn: 0
PreviewTime: 4056
Countdown: 0
SampleSet: Normal
StackLeniency: 0.7
Mode: 0
LetterboxInBreaks: 0
WidescreenStoryboard: 1

[Editor]
Bookmarks: 4656
DistanceSpacing: 0.5
BeatDivisor: 4
GridSize: 16
TimelineZoom: 1

[Metadata]
Title:Sea
TitleUnicode:Sea
Artist:Kim
ArtistUnicode:Kim
Creator:dota2thebest
Version:Insane
Source:
Tags:Sea Kim
BeatmapID:1898154
BeatmapSetID:909588

[Difficulty]
HPDrainRate:4
CircleSize:4
OverallDifficulty:5
ApproachRate:9
SliderMultiplier:1.4
SliderTickRate:1

[Events]
//Background and Video events
0,0,"maxresdefault (1).jpg",0,0
//Break Periods
//Storyboard Layer 0 (Background)
//Storyboard Layer 1 (Fail)
//Storyboard Layer 2 (Pass)
//Storyboard Layer 3 (Foreground)
//Storyboard Sound Samples

[TimingPoints]
4656.88177482075,300,4,1,0,100,1,0
5256,-66.6666666666667,4,1,0,100,0,0
5856,-133.333333333333,4,1,0,100,0,0
26556,-66.6666666666667,4,1,0,100,0,0
28058,-166.666666666667,4,1,0,100,0,0
29556,-133.333333333333,4,1,0,100,0,0
35856,-66.6666666666667,4,1,0,100,0,0
36756,-133.333333333333,4,1,0,100,0,0
42756,-66.6666666666667,4,1,0,100,0,0
44256,-133.333333333333,4,1,0,100,0,0

[HitObjects]
487,33,4656,6,0,B|469:92|450:131|367:124,1,140
317,199,5256,2,0,L|216:248,1,105.000004005432
161,320,5556,2,0,L|85:239,1,105.000004005432
120,148,5856,1,0,0:0:0:0:
212,56,6156,2,0,B|271:38|271:38|328:61,1,105.000004005432
501,178,6756,5,0,0:0:0:0:
501,178,6906,1,0,0:0:0:0:
459,278,7056,2,0,B|404:305|404:305|397:308,1,52.5000020027161
291,245,7356,2,0,L|221:272,1,52.5000020027161
27,229,7656,2,0,L|128:183,1,105.000004005432
243,218,8106,1,0,0:0:0:0:
507,71,8256,2,0,B|453:116|439:113|439:113|411:145,1,105.000004005432
433,220,8706,6,0,L|385:266,2,52.5000020027161
290,331,9156,2,0,L|237:298,1,52.5000020027161
26,237,9456,2,0,B|74:217|74:217|83:182|83:182|110:177,1,105.000004005432
99,178,9906,1,0,0:0:0:0:
8,29,10056,6,0,B|55:43|55:43|50:78|50:78|73:87,1,105.000004005432
154,71,10506,1,0,0:0:0:0:
214,155,10656,1,0,0:0:0:0:
287,80,10806,1,0,0:0:0:0:
495,199,10956,6,0,B|469:224|469:224|415:224|395:237,1,105.000004005432
323,310,11406,2,0,L|247:297,1,52.5000020027161
113,344,11706,2,0,L|147:301,2,52.5000020027161
47,120,12156,2,0,L|114:135,1,52.5000020027161
217,78,12456,1,0,0:0:0:0:
301,180,12606,1,0,0:0:0:0:
497,91,12756,6,0,B|466:141|466:141|410:163,1,105.000004005432
475,285,13206,1,0,0:0:0:0:
349,258,13356,2,0,B|314:305|314:305|285:308|285:308|254:321,1,105.000004005432
183,208,13806,1,0,0:0:0:0:
1,319,13956,2,0,B|43:302|43:302|48:260|48:260|70:246,1,105.000004005432
24,44,14406,6,0,B|65:47|65:47|78:66,1,52.5000020027161
162,184,14706,1,0,0:0:0:0:
336,13,15006,2,0,B|321:36|319:42|319:42|326:66,1,52.5000020027161
439,184,15306,1,0,0:0:0:0:
397,368,15456,2,0,B|364:317|364:317|372:286|372:286|354:254,1,105.000004005432
43,37,16056,6,0,B|60:73|60:73|54:88,1,52.5000020027161
159,175,16356,1,0,0:0:0:0:
317,94,16506,1,0,0:0:0:0:
377,255,16656,1,0,0:0:0:0:
145,364,16806,6,0,B|183:334|183:334|184:293|197:265,1,105.000004005432
55,191,17256,2,0,B|85:181|93:168|94:168|94:168|100:158,1,52.5000020027161
194,58,17556,2,0,B|212:80|212:80|237:95,1,52.5000020027161
440,56,17856,1,0,0:0:0:0:
386,168,18006,1,0,0:0:0:0:
386,168,18156,2,0,B|375:228|375:228|326:242,1,105.000004005432
245,327,18606,5,0,0:0:0:0:
113,248,18756,1,0,0:0:0:0:
14,154,18906,2,0,B|53:150|53:150|61:129|61:129|77:123|77:123|106:125,1,105.000004005432
212,34,19356,1,0,0:0:0:0:
366,143,19506,1,0,0:0:0:0:
508,266,19656,2,0,B|457:240|457:240|402:248,1,105.000004005432
283,330,20406,6,0,L|230:288,1,52.5000020027161
112,306,20706,2,0,L|130:255,1,52.5000020027161
8,137,21006,2,0,L|53:137,2,26.2500010013581
150,24,21306,2,0,B|173:55|173:55|169:73,1,52.5000020027161
264,110,21606,2,0,B|266:142|266:142|282:164,1,52.5000020027161
218,238,21906,2,0,B|216:278|216:278|199:306,1,52.5000020027161
477,193,22356,6,0,B|432:163|432:163|404:181|404:181|378:169,1,105.000004005432
281,275,22806,2,0,L|231:234,3,52.5000020027161
153,144,23406,6,0,B|171:118|171:118|161:113|161:113|169:97,1,52.5000020027161
499,113,23856,2,0,B|470:159|470:159|434:166|434:166|412:184,1,105.000004005432
374,291,24306,2,0,L|307:297,1,52.5000020027161
191,247,24606,1,0,0:0:0:0:
87,143,24756,1,0,0:0:0:0:
252,17,25056,6,0,B|238:48|238:48|250:69|250:69|230:82|230:82|250:100,1,105.000004005432
321,145,25506,1,0,0:0:0:0:
321,145,25656,2,0,L|350:209,1,52.5000020027161
495,355,25956,2,0,L|483:302,1,52.5000020027161
423,234,26256,2,0,L|399:184,1,52.5000020027161
502,73,26556,6,0,B|446:84|446:84|399:65,1,105.000004005432
310,100,26856,2,0,B|263:136|263:136|168:157,1,105.000004005432
9,104,27456,6,0,B|64:141|64:141|110:122|110:122|172:182|159:224,1,210.000008010865
228,298,27906,1,0,0:0:0:0:
375,242,28056,1,0,0:0:0:0:
304,19,28356,6,0,B|326:68|326:68|301:91|300:92,1,83.9999974365235
375,184,28806,1,0,0:0:0:0:
333,367,28956,2,0,B|296:333|296:333|246:324,1,83.9999974365235
21,191,29556,5,0,0:0:0:0:
182,88,29706,1,0,0:0:0:0:
247,218,29856,2,0,P|288:170|331:149,1,105.000004005432
464,318,30456,2,0,B|415:297|405:274|405:274|377:240,1,105.000004005432
268,205,30906,6,0,L|213:172,1,52.5000020027161
22,106,31356,6,0,B|74:80|74:80|130:78,1,105.000004005432
232,15,31806,2,0,L|279:49,1,52.5000020027161
416,89,32106,2,0,L|359:123,1,52.5000020027161
377,262,32406,1,0,0:0:0:0:
244,330,32556,1,0,0:0:0:0:
62,224,32706,1,0,0:0:0:0:
134,78,32856,2,0,B|198:49|198:49|246:48,1,105.000004005432
487,269,33456,6,0,L|429:242,1,52.5000020027161
385,157,33756,1,0,0:0:0:0:
279,44,33906,1,0,0:0:0:0:
212,314,34056,2,0,L|250:268,1,52.5000020027161
166,120,34356,1,0,0:0:0:0:
281,20,34506,2,0,L|328:52,1,52.5000020027161
512,117,34806,2,0,L|405:163,1,105.000004005432
362,295,35256,2,0,L|311:255,1,52.5000020027161
415,74,35856,6,0,P|427:200|381:276,1,210.000008010865
279,315,36456,1,0,0:0:0:0:
142,313,36756,2,0,L|165:193,2,105.000004005432
101,144,37656,6,0,L|169:109,1,52.5000020027161
259,53,37956,1,0,0:0:0:0:
376,130,38106,1,0,0:0:0:0:
369,334,38256,2,0,P|367:273|325:228,1,105.000004005432
4,317,38856,6,0,B|38:306|38:306|44:282|44:282|68:263|99:253,1,105.000004005432
107,180,39306,1,0,0:0:0:0:
155,81,39456,2,0,B|202:55|202:55|260:72,1,105.000004005432
331,147,39906,1,0,0:0:0:0:
393,237,40056,2,0,B|398:270|398:270|383:299,1,52.5000020027161
252,345,40356,6,0,B|245:299|245:299|234:292,1,52.5000020027161
126,238,40656,1,0,0:0:0:0:
10,116,40806,2,0,L|72:95,1,52.5000020027161
200,13,41256,2,0,L|220:62,2,52.5000020027161
508,114,41706,2,0,L|474:154,1,52.5000020027161
446,287,42006,1,0,0:0:0:0:
344,198,42156,1,0,0:0:0:0:
246,311,42306,1,0,0:0:0:0:
246,311,42456,2,0,L|208:264,1,52.5000020027161
104,223,42756,2,0,L|191:148,1,105.000004005432
503,85,43056,6,0,B|447:112|447:112|418:155,1,105.000004005432
396,251,43356,1,0,0:0:0:0:
232,373,43956,2,0,B|285:331|285:331|306:259,1,105.000004005432
208,188,44256,1,0,0:0:0:0:
2,196,44856,6,0,P|29:163|55:155,1,52.5000020027161
140,98,45156,1,0,0:0:0:0:
400,316,45456,6,0,P|380:284|380:264,1,52.5000020027161
376,162,45756,1,0,0:0:0:0:
314,56,45906,2,0,B|277:56|277:56|248:73,1,52.5000020027161
158,132,46206,2,0,B|132:150|132:150|122:183,1,52.5000020027161
15,237,46656,2,0,P|47:246|72:244,1,52.5000020027161
246,306,46956,1,0,0:0:0:0:
447,248,47256,6,0,L|409:291,1,52.5000020027161
390,123,47556,2,0,L|359:178,1,52.5000020027161
260,142,47856,2,0,L|258:211,1,52.5000020027161
85,29,48156,2,0,L|106:96,1,52.5000020027161
65,178,48456,1,0,0:0:0:0:
156,275,48606,1,0,0:0:0:0:
156,275,48756,2,0,P|208:276|256:295,1,105.000004005432
354,208,49206,6,0,L|408:182,2,52.5000020027161
258,167,49656,1,0,0:0:0:0:
180,133,49956,2,0,L|102:56,1,105.000004005432
17,128,50406,1,0,0:0:0:0:
120,228,50706,5,0,0:0:0:0:
149,264,50856,2,0,L|215:298,1,52.5000020027161
288,334,51156,2,0,L|323:267,1,52.5000020027161
283,203,51456,1,0,0:0:0:0:
356,142,51606,1,0,0:0:0:0:
247,63,51756,1,0,0:0:0:0:
72,149,51906,1,0,0:0:0:0:
72,149,52056,2,0,B|113:169|113:169|119:203|119:203|148:209,1,105.000004005432
419,295,52656,6,0,B|393:245|393:245|345:241|342:240,1,105.000004005432
180,205,53106,2,0,L|147:143,1,52.5000020027161
273,22,53406,1,0,0:0:0:0:
503,100,53556,6,0,B|455:144|446:167|415:168,1,105.000004005432
408,372,54006,2,0,L|368:317,1,52.5000020027161
252,266,54306,1,0,0:0:0:0:
99,263,54456,1,0,0:0:0:0:
96,95,54606,2,0,L|161:62,1,52.5000020027161
264,16,55056,5,0,0:0:0:0:
504,112,55356,2,0,B|471:142|436:134|436:134|415:162,1,105.000004005432
366,249,55806,1,0,0:0:0:0:
239,369,55956,2,0,B|254:343|254:343|247:318,1,52.5000020027161
0,226,56256,2,0,B|45:208|45:208|45:166|45:166|69:144,1,105.000004005432
256,192,56856,12,0,59556,0:0:0:0:
