osu file format v14

[General]
AudioFilename: audio.mp3
AudioLeadIn: 0
PreviewTime: 22181
Countdown: 0
SampleSet: Drum
StackLeniency: 0.3
Mode: 0
LetterboxInBreaks: 0
EpilepsyWarning: 1
WidescreenStoryboard: 1

[Editor]
Bookmarks: 68593,119416,170416
DistanceSpacing: 1
BeatDivisor: 4
GridSize: 32
TimelineZoom: 1.5

[Metadata]
Title:In Due Time
TitleUnicode:In Due Time
Artist:Killswitch Engage
ArtistUnicode:Killswitch Engage
Creator:K4L1
Version:SharitsuTv's Extra
Source:
Tags:Kalindraz Dada yShadowXOP_ ChuuritsuTv Sakura Airi Metalcore Disarm the Descent
BeatmapID:2103164
BeatmapSetID:941053

[Difficulty]
HPDrainRate:5
CircleSize:4.4
OverallDifficulty:8
ApproachRate:9.2
SliderMultiplier:2
SliderTickRate:1

[Events]
//Background and Video events
0,0,"T3N1e1A0cjNEM19wNFAzbF9tVF8zUGlDMF9NM3VfNG0xRzB9.jpg",0,0
//Break Periods
2,170440,172493
//Storyboard Layer 0 (Background)
//Storyboard Layer 1 (Fail)
//Storyboard Layer 2 (Pass)
//Storyboard Layer 3 (Foreground)
Sprite,Foreground,Centre,"sb\SharitsuTv\yshadowxop.png",320,240 M,0,34,,150,100 S,0,34,,0.6455383 F,0,34,123,0,1 F,0,123,67357,1 F,0,67357,67446,1,0 F,0,67446,119328,0 F,0,119328,119416,0,1 F,0,119416,170240,1 F,0,170240,170328,1,0
Sprite,Foreground,Centre,"sb\SharitsuTv\chuuritsutv.png",320,240 M,0,68504,,150,100 S,0,68504,,0.6455383 F,0,68504,68593,0,1 F,0,68593,119240,1 F,0,119240,119328,1,0 F,0,119328,172975,0 F,0,172975,173063,0,1 F,0,173063,196710,1 F,0,196710,196799,1,0
Sprite,Foreground,Centre,"sb\hl2.png",0,0 C,0,147828,,128,255,255 M,0,147828,147872,189,198,206.1457,164.869 F,2,147828,149157,0.5,0 S,2,147828,149157,1,0.8 P,0,147828,149157,A M,0,147872,147916,206.1457,164.869,209.2812,127.7649 M,0,147916,147960,209.2812,127.7649,210.0158,110.3609 M,0,147960,148004,210.0158,110.3609,223.4371,144.7839 M,0,148004,148048,223.4371,144.7839,214.0236,180.5594 M,0,148048,148092,214.0236,180.5594,206.1498,210.9577 M,0,148092,148136,206.1498,210.9577,189.8344,244.6399 M,0,148136,148180,189.8344,244.6399,183.5113,281.4098 M,0,148180,148225,183.5113,281.4098,191.9633,317.6506 M,0,148225,148269,191.9633,317.6506,216.0973,340.4027 M,0,148269,148313,216.0973,340.4027,249.5949,324.3279 M,0,148313,148357,249.5949,324.3279,270.5782,293.7589
Sprite,Foreground,Centre,"sb\hl2.png",189,198 C,0,147872,,128,255,255 F,2,147872,148672,0.5,0 P,0,147872,148672,A
Sprite,Foreground,Centre,"sb\hl2.png",206.1457,164.869 C,0,147916,,128,255,255 F,2,147916,148716,0.5,0 P,0,147916,148716,A
Sprite,Foreground,Centre,"sb\hl2.png",209.2812,127.7649 C,0,147960,,128,255,255 F,2,147960,148760,0.5,0 P,0,147960,148760,A
Sprite,Foreground,Centre,"sb\hl2.png",210.0158,110.3609 C,0,148004,,128,255,255 F,2,148004,148804,0.5,0 P,0,148004,148804,A
Sprite,Foreground,Centre,"sb\hl2.png",223.4371,144.7839 C,0,148048,,128,255,255 F,2,148048,148848,0.5,0 P,0,148048,148848,A
Sprite,Foreground,Centre,"sb\hl2.png",214.0236,180.5594 C,0,148092,,128,255,255 F,2,148092,148892,0.5,0 P,0,148092,148892,A
Sprite,Foreground,Centre,"sb\hl2.png",206.1498,210.9577 C,0,148136,,128,255,255 F,2,148136,148936,0.5,0 P,0,148136,148936,A
Sprite,Foreground,Centre,"sb\hl2.png",189.8344,244.6399 C,0,148180,,128,255,255 F,2,148180,148980,0.5,0 P,0,148180,148980,A
Sprite,Foreground,Centre,"sb\hl2.png",183.5113,281.4098 C,0,148225,,128,255,255 F,2,148225,149025,0.5,0 P,0,148225,149025,A
Sprite,Foreground,Centre,"sb\hl2.png",191.9633,317.6506 C,0,148269,,128,255,255 F,2,148269,149069,0.5,0 P,0,148269,149069,A
Sprite,Foreground,Centre,"sb\hl2.png",216.0973,340.4027 C,0,148313,,128,255,255 F,2,148313,149113,0.5,0 P,0,148313,149113,A
Sprite,Foreground,Centre,"sb\hl2.png",249.5949,324.3279 C,0,148357,,128,255,255 F,2,148357,149157,0.5,0 P,0,148357,149157,A
Sprite,Foreground,Centre,"sb\hl2.png",135,142 C,0,148534,,128,255,255 F,2,148534,149334,0.5,0 S,2,148534,149334,1,0.8 P,0,148534,149334,A
Sprite,Foreground,Centre,"sb\hl2.png",0,0 C,0,148710,,128,255,255 M,0,148710,148754,352,304,388.3633,295.3792 F,2,148710,149774,0.5,0 S,2,148710,149774,1,0.8 P,0,148710,149774,A M,0,148754,148798,388.3633,295.3792,418.8585,274.1351 M,0,148798,148842,418.8585,274.1351,436.5898,242.5117 M,0,148842,148886,436.5898,242.5117,468.4662,261.9105 M,0,148886,148930,468.4662,261.9105,505.0826,269.0916 M,0,148930,148974,505.0826,269.0916,542.2607,265.0396
Sprite,Foreground,Centre,"sb\hl2.png",352,304 C,0,148754,,128,255,255 F,2,148754,149554,0.5,0 P,0,148754,149554,A
Sprite,Foreground,Centre,"sb\hl2.png",388.3633,295.3792 C,0,148798,,128,255,255 F,2,148798,149598,0.5,0 P,0,148798,149598,A
Sprite,Foreground,Centre,"sb\hl2.png",418.8585,274.1351 C,0,148842,,128,255,255 F,2,148842,149642,0.5,0 P,0,148842,149642,A
Sprite,Foreground,Centre,"sb\hl2.png",436.5898,242.5117 C,0,148886,,128,255,255 F,2,148886,149686,0.5,0 P,0,148886,149686,A
Sprite,Foreground,Centre,"sb\hl2.png",468.4662,261.9105 C,0,148930,,128,255,255 F,2,148930,149730,0.5,0 P,0,148930,149730,A
Sprite,Foreground,Centre,"sb\hl2.png",505.0826,269.0916 C,0,148974,,128,255,255 F,2,148974,149774,0.5,0 P,0,148974,149774,A
Sprite,Foreground,Centre,"sb\hl2.png",555,248 C,0,149063,,128,255,255 F,2,149063,149863,0.5,0 S,2,149063,149863,1,0.8 P,0,149063,149863,A
Sprite,Foreground,Centre,"sb\hl2.png",0,0 C,0,149240,,6,87,255 M,0,149240,149284,359,102,345.5178,125.9683 F,2,149240,150216,0.5,0 S,2,149240,150216,1,0.8 P,0,149240,150216,A M,0,149284,149328,345.5178,125.9683,332.0356,149.9367 M,0,149328,149372,332.0356,149.9367,340.2234,176.1655 M,0,149372,149416,340.2234,176.1655,348.4687,202.4003
Sprite,Foreground,Centre,"sb\hl2.png",359,102 C,0,149284,,6,87,255 F,2,149284,150084,0.5,0 P,0,149284,150084,A
Sprite,Foreground,Centre,"sb\hl2.png",345.5178,125.9683 C,0,149328,,6,87,255 F,2,149328,150128,0.5,0 P,0,149328,150128,A
Sprite,Foreground,Centre,"sb\hl2.png",332.0356,149.9367 C,0,149372,,6,87,255 F,2,149372,150172,0.5,0 P,0,149372,150172,A
Sprite,Foreground,Centre,"sb\hl2.png",340.2234,176.1655 C,0,149416,,6,87,255 F,2,149416,150216,0.5,0 P,0,149416,150216,A
Sprite,Foreground,Centre,"sb\hl2.png",0,0 C,0,149593,,6,87,255 M,0,149593,149637,449,434,462.4822,410.0317 F,2,149593,150569,0.5,0 S,2,149593,150569,1,0.8 P,0,149593,150569,A M,0,149637,149681,462.4822,410.0317,475.9644,386.0634 M,0,149681,149725,475.9644,386.0634,467.7766,359.8345 M,0,149725,149769,467.7766,359.8345,459.5313,333.5997
Sprite,Foreground,Centre,"sb\hl2.png",449,434 C,0,149637,,6,87,255 F,2,149637,150437,0.5,0 P,0,149637,150437,A
Sprite,Foreground,Centre,"sb\hl2.png",462.4822,410.0317 C,0,149681,,6,87,255 F,2,149681,150481,0.5,0 P,0,149681,150481,A
Sprite,Foreground,Centre,"sb\hl2.png",475.9644,386.0634 C,0,149725,,6,87,255 F,2,149725,150525,0.5,0 P,0,149725,150525,A
Sprite,Foreground,Centre,"sb\hl2.png",467.7766,359.8345 C,0,149769,,6,87,255 F,2,149769,150569,0.5,0 P,0,149769,150569,A
Sprite,Foreground,Centre,"sb\hl2.png",225,312 C,0,149946,,6,87,255 F,2,149946,150746,0.5,0 S,2,149946,150746,1,0.8 P,0,149946,150746,A
Sprite,Foreground,Centre,"sb\hl2.png",388,376 C,0,150122,,6,87,255 F,2,150122,150922,0.5,0 S,2,150122,150922,1,0.8 P,0,150122,150922,A
Sprite,Foreground,Centre,"sb\hl2.png",193,420 C,0,150299,,6,87,255 F,2,150299,151099,0.5,0 S,2,150299,151099,1,0.8 P,0,150299,151099,A
Sprite,Foreground,Centre,"sb\hl2.png",315,222 C,0,150475,,6,87,255 F,2,150475,151275,0.5,0 S,2,150475,151275,1,0.8 P,0,150475,151275,A
Sprite,Foreground,Centre,"sb\hl2.png",318,248 C,0,150563,,6,87,255 F,2,150563,151363,0.5,0 S,2,150563,151363,1,0.8 P,0,150563,151363,A
Sprite,Foreground,Centre,"sb\hl2.png",322,275 C,0,150652,,128,255,255 F,2,150652,151452,0.5,0 S,2,150652,151452,1,0.8 P,0,150652,151452,A
Sprite,Foreground,Centre,"sb\hl2.png",126,328 C,0,150828,,128,255,255 F,2,150828,151628,0.5,0 S,2,150828,151628,1,0.8 P,0,150828,151628,A
Sprite,Foreground,Centre,"sb\hl2.png",302,415 C,0,151004,,128,255,255 F,2,151004,151804,0.5,0 S,2,151004,151804,1,0.8 P,0,151004,151804,A
Sprite,Foreground,Centre,"sb\hl2.png",124,221 C,0,151181,,6,87,255 F,2,151181,151981,0.5,0 S,2,151181,151981,1,0.8 P,0,151181,151981,A
Sprite,Foreground,Centre,"sb\hl2.png",200,267 C,0,151357,,6,87,255 F,2,151357,152157,0.5,0 S,2,151357,152157,1,0.8 P,0,151357,152157,A
Sprite,Foreground,Centre,"sb\hl2.png",126,328 C,0,151534,,6,87,255 F,2,151534,152334,0.5,0 S,2,151534,152334,1,0.8 P,0,151534,152334,A
Sprite,Foreground,Centre,"sb\hl2.png",209,415 C,0,151710,,128,255,255 F,2,151710,152510,0.5,0 S,2,151710,152510,1,0.8 P,0,151710,152510,A
Sprite,Foreground,Centre,"sb\hl2.png",0,0 C,0,151887,,128,255,255 M,0,151887,151931,267,129,303.7718,121.6456 F,2,151887,152951,0.5,0 S,2,151887,152951,1,0.8 P,0,151887,152951,A M,0,151931,151975,303.7718,121.6456,340.5435,114.2913 M,0,151975,152019,340.5435,114.2913,336.5415,149.5987 M,0,152019,152063,336.5415,149.5987,330.858,186.6655 M,0,152063,152107,330.858,186.6655,325.1744,223.7322 M,0,152107,152151,325.1744,223.7322,319.4908,260.799
Sprite,Foreground,Centre,"sb\hl2.png",267,129 C,0,151931,,128,255,255 F,2,151931,152731,0.5,0 P,0,151931,152731,A
Sprite,Foreground,Centre,"sb\hl2.png",303.7718,121.6456 C,0,151975,,128,255,255 F,2,151975,152775,0.5,0 P,0,151975,152775,A
Sprite,Foreground,Centre,"sb\hl2.png",340.5435,114.2913 C,0,152019,,128,255,255 F,2,152019,152819,0.5,0 P,0,152019,152819,A
Sprite,Foreground,Centre,"sb\hl2.png",336.5415,149.5987 C,0,152063,,128,255,255 F,2,152063,152863,0.5,0 P,0,152063,152863,A
Sprite,Foreground,Centre,"sb\hl2.png",330.858,186.6655 C,0,152107,,128,255,255 F,2,152107,152907,0.5,0 P,0,152107,152907,A
Sprite,Foreground,Centre,"sb\hl2.png",325.1744,223.7322 C,0,152151,,128,255,255 F,2,152151,152951,0.5,0 P,0,152151,152951,A
Sprite,Foreground,Centre,"sb\hl2.png",0,0 C,0,152240,,6,87,255 M,0,152240,152284,319,260,343.8352,262.8656 F,2,152240,153392,0.5,0 S,2,152240,153392,1,0.8 P,0,152240,153392,A M,0,152284,152328,343.8352,262.8656,368.6704,265.7312 M,0,152328,152372,368.6704,265.7312,393.5057,268.5968 M,0,152372,152416,393.5057,268.5968,410.2256,285.9287 M,0,152416,152460,410.2256,285.9287,427.8374,301.6599 M,0,152460,152504,427.8374,301.6599,452.6792,304.4681 M,0,152504,152548,452.6792,304.4681,477.521,307.2763 M,0,152548,152592,477.521,307.2763,502.3628,310.0845
Sprite,Foreground,Centre,"sb\hl2.png",319,260 C,0,152284,,6,87,255 F,2,152284,153084,0.5,0 P,0,152284,153084,A
Sprite,Foreground,Centre,"sb\hl2.png",343.8352,262.8656 C,0,152328,,6,87,255 F,2,152328,153128,0.5,0 P,0,152328,153128,A
Sprite,Foreground,Centre,"sb\hl2.png",368.6704,265.7312 C,0,152372,,6,87,255 F,2,152372,153172,0.5,0 P,0,152372,153172,A
Sprite,Foreground,Centre,"sb\hl2.png",393.5057,268.5968 C,0,152416,,6,87,255 F,2,152416,153216,0.5,0 P,0,152416,153216,A
Sprite,Foreground,Centre,"sb\hl2.png",410.2256,285.9287 C,0,152460,,6,87,255 F,2,152460,153260,0.5,0 P,0,152460,153260,A
Sprite,Foreground,Centre,"sb\hl2.png",427.8374,301.6599 C,0,152504,,6,87,255 F,2,152504,153304,0.5,0 P,0,152504,153304,A
Sprite,Foreground,Centre,"sb\hl2.png",452.6792,304.4681 C,0,152548,,6,87,255 F,2,152548,153348,0.5,0 P,0,152548,153348,A
Sprite,Foreground,Centre,"sb\hl2.png",477.521,307.2763 C,0,152592,,6,87,255 F,2,152592,153392,0.5,0 P,0,152592,153392,A
Sprite,Foreground,Centre,"sb\hl2.png",0,0 C,0,152769,,6,87,255 M,0,152769,152813,354,430,342.2353,407.9412 F,2,152769,153745,0.5,0 S,2,152769,153745,1,0.8 P,0,152769,153745,A M,0,152813,152857,342.2353,407.9412,330.4706,385.8824 M,0,152857,152901,330.4706,385.8824,339.4104,362.9218 M,0,152901,152945,339.4104,362.9218,349.2128,339.9238
Sprite,Foreground,Centre,"sb\hl2.png",354,430 C,0,152813,,6,87,255 F,2,152813,153613,0.5,0 P,0,152813,153613,A
Sprite,Foreground,Centre,"sb\hl2.png",342.2353,407.9412 C,0,152857,,6,87,255 F,2,152857,153657,0.5,0 P,0,152857,153657,A
Sprite,Foreground,Centre,"sb\hl2.png",330.4706,385.8824 C,0,152901,,6,87,255 F,2,152901,153701,0.5,0 P,0,152901,153701,A
Sprite,Foreground,Centre,"sb\hl2.png",339.4104,362.9218 C,0,152945,,6,87,255 F,2,152945,153745,0.5,0 P,0,152945,153745,A
Sprite,Foreground,Centre,"sb\hl2.png",439,186 C,0,153122,,6,87,255 F,2,153122,153922,0.5,0 S,2,153122,153922,1,0.8 P,0,153122,153922,A
Sprite,Foreground,Centre,"sb\hl2.png",242,105 C,0,153299,,6,87,255 F,2,153299,154099,0.5,0 S,2,153299,154099,1,0.8 P,0,153299,154099,A
Sprite,Foreground,Centre,"sb\hl2.png",231,108 C,0,153387,,6,87,255 F,2,153387,154187,0.5,0 S,2,153387,154187,1,0.8 P,0,153387,154187,A
Sprite,Foreground,Centre,"sb\hl2.png",0,0 C,0,153475,,191,128,255 M,0,153475,153519,219,111,214.8151,80.03149 F,2,153475,154392,0.5,0 S,2,153475,154392,1,0.8 P,0,153475,154392,A M,0,153519,153563,214.8151,80.03149,216.21,90.35432 M,0,153563,153592,216.21,90.35432,219,111
Sprite,Foreground,Centre,"sb\hl2.png",219,111 C,0,153519,,191,128,255 F,2,153519,154319,0.5,0 P,0,153519,154319,A
Sprite,Foreground,Centre,"sb\hl2.png",214.8151,80.03149 C,0,153563,,191,128,255 F,2,153563,154363,0.5,0 P,0,153563,154363,A
Sprite,Foreground,Centre,"sb\hl2.png",216.21,90.35432 C,0,153592,,191,128,255 F,2,153592,154392,0.5,0 P,0,153592,154392,A
Sprite,Foreground,Centre,"sb\hl2.png",0,0 C,0,153652,,191,128,255 M,0,153652,153696,163,164,136.5001,147.4375 F,2,153652,154569,0.5,0 S,2,153652,154569,1,0.8 P,0,153652,154569,A M,0,153696,153740,136.5001,147.4375,145.3334,152.9584 M,0,153740,153769,145.3334,152.9584,163,164
Sprite,Foreground,Centre,"sb\hl2.png",163,164 C,0,153696,,191,128,255 F,2,153696,154496,0.5,0 P,0,153696,154496,A
Sprite,Foreground,Centre,"sb\hl2.png",136.5001,147.4375 C,0,153740,,191,128,255 F,2,153740,154540,0.5,0 P,0,153740,154540,A
Sprite,Foreground,Centre,"sb\hl2.png",145.3334,152.9584 C,0,153769,,191,128,255 F,2,153769,154569,0.5,0 P,0,153769,154569,A
Sprite,Foreground,Centre,"sb\hl2.png",0,0 C,0,153828,,191,128,255 M,0,153828,153872,170,238,140.114,247.1318 F,2,153828,154745,0.5,0 S,2,153828,154745,1,0.8 P,0,153828,154745,A M,0,153872,153916,140.114,247.1318,150.076,244.0879 M,0,153916,153945,150.076,244.0879,170,238
Sprite,Foreground,Centre,"sb\hl2.png",170,238 C,0,153872,,191,128,255 F,2,153872,154672,0.5,0 P,0,153872,154672,A
Sprite,Foreground,Centre,"sb\hl2.png",140.114,247.1318 C,0,153916,,191,128,255 F,2,153916,154716,0.5,0 P,0,153916,154716,A
Sprite,Foreground,Centre,"sb\hl2.png",150.076,244.0879 C,0,153945,,191,128,255 F,2,153945,154745,0.5,0 P,0,153945,154745,A
Sprite,Foreground,Centre,"sb\hl2.png",0,0 C,0,154004,,191,128,255 M,0,154004,154048,225,289,212.8919,317.809 F,2,154004,154921,0.5,0 S,2,154004,154921,1,0.8 P,0,154004,154921,A M,0,154048,154092,212.8919,317.809,216.9279,308.206 M,0,154092,154121,216.9279,308.206,225,289
Sprite,Foreground,Centre,"sb\hl2.png",225,289 C,0,154048,,191,128,255 F,2,154048,154848,0.5,0 P,0,154048,154848,A
Sprite,Foreground,Centre,"sb\hl2.png",212.8919,317.809 C,0,154092,,191,128,255 F,2,154092,154892,0.5,0 P,0,154092,154892,A
Sprite,Foreground,Centre,"sb\hl2.png",216.9279,308.206 C,0,154121,,191,128,255 F,2,154121,154921,0.5,0 P,0,154121,154921,A
Sprite,Foreground,Centre,"sb\hl2.png",0,0 C,0,154181,,133,11,255 M,0,154181,154225,299,272,313.3112,299.7805 F,2,154181,155098,0.5,0 S,2,154181,155098,1,0.8 P,0,154181,155098,A M,0,154225,154269,313.3112,299.7805,308.5408,290.5203 M,0,154269,154298,308.5408,290.5203,299,272
Sprite,Foreground,Centre,"sb\hl2.png",299,272 C,0,154225,,133,11,255 F,2,154225,155025,0.5,0 P,0,154225,155025,A
Sprite,Foreground,Centre,"sb\hl2.png",313.3112,299.7805 C,0,154269,,133,11,255 F,2,154269,155069,0.5,0 P,0,154269,155069,A
Sprite,Foreground,Centre,"sb\hl2.png",308.5408,290.5203 C,0,154298,,133,11,255 F,2,154298,155098,0.5,0 P,0,154298,155098,A
Sprite,Foreground,Centre,"sb\hl2.png",0,0 C,0,154357,,133,11,255 M,0,154357,154401,325,201,352.7805,186.6889 F,2,154357,155274,0.5,0 S,2,154357,155274,1,0.8 P,0,154357,155274,A M,0,154401,154445,352.7805,186.6889,343.5203,191.4592 M,0,154445,154474,343.5203,191.4592,325,201
Sprite,Foreground,Centre,"sb\hl2.png",325,201 C,0,154401,,133,11,255 F,2,154401,155201,0.5,0 P,0,154401,155201,A
Sprite,Foreground,Centre,"sb\hl2.png",352.7805,186.6889 C,0,154445,,133,11,255 F,2,154445,155245,0.5,0 P,0,154445,155245,A
Sprite,Foreground,Centre,"sb\hl2.png",343.5203,191.4592 C,0,154474,,133,11,255 F,2,154474,155274,0.5,0 P,0,154474,155274,A
Sprite,Foreground,Centre,"sb\hl2.png",0,0 C,0,154534,,133,11,255 M,0,154534,154578,255,169,240.6889,141.2195 F,2,154534,155451,0.5,0 S,2,154534,155451,1,0.8 P,0,154534,155451,A M,0,154578,154622,240.6889,141.2195,245.4592,150.4797 M,0,154622,154651,245.4592,150.4797,255,169
Sprite,Foreground,Centre,"sb\hl2.png",255,169 C,0,154578,,133,11,255 F,2,154578,155378,0.5,0 P,0,154578,155378,A
Sprite,Foreground,Centre,"sb\hl2.png",240.6889,141.2195 C,0,154622,,133,11,255 F,2,154622,155422,0.5,0 P,0,154622,155422,A
Sprite,Foreground,Centre,"sb\hl2.png",245.4592,150.4797 C,0,154651,,133,11,255 F,2,154651,155451,0.5,0 P,0,154651,155451,A
Sprite,Foreground,Centre,"sb\hl2.png",0,0 C,0,154710,,133,11,255 M,0,154710,154754,225,238,197.2195,252.3111 F,2,154710,155627,0.5,0 S,2,154710,155627,1,0.8 P,0,154710,155627,A M,0,154754,154798,197.2195,252.3111,206.4797,247.5408 M,0,154798,154827,206.4797,247.5408,225,238
Sprite,Foreground,Centre,"sb\hl2.png",225,238 C,0,154754,,133,11,255 F,2,154754,155554,0.5,0 P,0,154754,155554,A
Sprite,Foreground,Centre,"sb\hl2.png",197.2195,252.3111 C,0,154798,,133,11,255 F,2,154798,155598,0.5,0 P,0,154798,155598,A
Sprite,Foreground,Centre,"sb\hl2.png",206.4797,247.5408 C,0,154827,,133,11,255 F,2,154827,155627,0.5,0 P,0,154827,155627,A
Sprite,Foreground,Centre,"sb\hl2.png",0,0 C,0,154887,,255,128,128 M,0,154887,154931,299,272,313.3112,299.7805 F,2,154887,155804,0.5,0 S,2,154887,155804,1,0.8 P,0,154887,155804,A M,0,154931,154975,313.3112,299.7805,308.5408,290.5203 M,0,154975,155004,308.5408,290.5203,299,272
Sprite,Foreground,Centre,"sb\hl2.png",299,272 C,0,154931,,255,128,128 F,2,154931,155731,0.5,0 P,0,154931,155731,A
Sprite,Foreground,Centre,"sb\hl2.png",313.3112,299.7805 C,0,154975,,255,128,128 F,2,154975,155775,0.5,0 P,0,154975,155775,A
Sprite,Foreground,Centre,"sb\hl2.png",308.5408,290.5203 C,0,155004,,255,128,128 F,2,155004,155804,0.5,0 P,0,155004,155804,A
Sprite,Foreground,Centre,"sb\hl2.png",0,0 C,0,155063,,255,128,128 M,0,155063,155107,374,267,361.7411,295.7451 F,2,155063,155980,0.5,0 S,2,155063,155980,1,0.8 P,0,155063,155980,A M,0,155107,155151,361.7411,295.7451,365.8274,286.1634 M,0,155151,155180,365.8274,286.1634,374,267
Sprite,Foreground,Centre,"sb\hl2.png",374,267 C,0,155107,,255,128,128 F,2,155107,155907,0.5,0 P,0,155107,155907,A
Sprite,Foreground,Centre,"sb\hl2.png",361.7411,295.7451 C,0,155151,,255,128,128 F,2,155151,155951,0.5,0 P,0,155151,155951,A
Sprite,Foreground,Centre,"sb\hl2.png",365.8274,286.1634 C,0,155180,,255,128,128 F,2,155180,155980,0.5,0 P,0,155180,155980,A
Sprite,Foreground,Centre,"sb\hl2.png",0,0 C,0,155240,,255,128,128 M,0,155240,155284,421,327,391.1501,336.2492 F,2,155240,156157,0.5,0 S,2,155240,156157,1,0.8 P,0,155240,156157,A M,0,155284,155328,391.1501,336.2492,401.1001,333.1662 M,0,155328,155357,401.1001,333.1662,421,327
Sprite,Foreground,Centre,"sb\hl2.png",421,327 C,0,155284,,255,128,128 F,2,155284,156084,0.5,0 P,0,155284,156084,A
Sprite,Foreground,Centre,"sb\hl2.png",391.1501,336.2492 C,0,155328,,255,128,128 F,2,155328,156128,0.5,0 P,0,155328,156128,A
Sprite,Foreground,Centre,"sb\hl2.png",401.1001,333.1662 C,0,155357,,255,128,128 F,2,155357,156157,0.5,0 P,0,155357,156157,A
Sprite,Foreground,Centre,"sb\hl2.png",0,0 C,0,155416,,255,128,128 M,0,155416,155460,388,394,361.8081,376.9545 F,2,155416,156333,0.5,0 S,2,155416,156333,1,0.8 P,0,155416,156333,A M,0,155460,155504,361.8081,376.9545,370.5388,382.6363 M,0,155504,155533,370.5388,382.6363,388,394
Sprite,Foreground,Centre,"sb\hl2.png",388,394 C,0,155460,,255,128,128 F,2,155460,156260,0.5,0 P,0,155460,156260,A
Sprite,Foreground,Centre,"sb\hl2.png",361.8081,376.9545 C,0,155504,,255,128,128 F,2,155504,156304,0.5,0 P,0,155504,156304,A
Sprite,Foreground,Centre,"sb\hl2.png",370.5388,382.6363 C,0,155533,,255,128,128 F,2,155533,156333,0.5,0 P,0,155533,156333,A
Sprite,Foreground,Centre,"sb\hl2.png",0,0 C,0,155593,,255,6,6 M,0,155593,155637,313,410,308.8151,379.0315 F,2,155593,156510,0.5,0 S,2,155593,156510,1,0.8 P,0,155593,156510,A M,0,155637,155681,308.8151,379.0315,310.21,389.3543 M,0,155681,155710,310.21,389.3543,313,410
Sprite,Foreground,Centre,"sb\hl2.png",313,410 C,0,155637,,255,6,6 F,2,155637,156437,0.5,0 P,0,155637,156437,A
Sprite,Foreground,Centre,"sb\hl2.png",308.8151,379.0315 C,0,155681,,255,6,6 F,2,155681,156481,0.5,0 P,0,155681,156481,A
Sprite,Foreground,Centre,"sb\hl2.png",310.21,389.3543 C,0,155710,,255,6,6 F,2,155710,156510,0.5,0 P,0,155710,156510,A
Sprite,Foreground,Centre,"sb\hl2.png",0,0 C,0,155769,,255,6,6 M,0,155769,155813,242,384,237.8151,353.0315 F,2,155769,156686,0.5,0 S,2,155769,156686,1,0.8 P,0,155769,156686,A M,0,155813,155857,237.8151,353.0315,239.21,363.3543 M,0,155857,155886,239.21,363.3543,242,384
Sprite,Foreground,Centre,"sb\hl2.png",242,384 C,0,155813,,255,6,6 F,2,155813,156613,0.5,0 P,0,155813,156613,A
Sprite,Foreground,Centre,"sb\hl2.png",237.8151,353.0315 C,0,155857,,255,6,6 F,2,155857,156657,0.5,0 P,0,155857,156657,A
Sprite,Foreground,Centre,"sb\hl2.png",239.21,363.3543 C,0,155886,,255,6,6 F,2,155886,156686,0.5,0 P,0,155886,156686,A
Sprite,Foreground,Centre,"sb\hl2.png",0,0 C,0,155946,,255,6,6 M,0,155946,155990,169,358,164.8151,327.0315 F,2,155946,156863,0.5,0 S,2,155946,156863,1,0.8 P,0,155946,156863,A M,0,155990,156034,164.8151,327.0315,166.2101,337.3543 M,0,156034,156063,166.2101,337.3543,169,358
Sprite,Foreground,Centre,"sb\hl2.png",169,358 C,0,155990,,255,6,6 F,2,155990,156790,0.5,0 P,0,155990,156790,A
Sprite,Foreground,Centre,"sb\hl2.png",164.8151,327.0315 C,0,156034,,255,6,6 F,2,156034,156834,0.5,0 P,0,156034,156834,A
Sprite,Foreground,Centre,"sb\hl2.png",166.2101,337.3543 C,0,156063,,255,6,6 F,2,156063,156863,0.5,0 P,0,156063,156863,A
Sprite,Foreground,Centre,"sb\hl2.png",0,0 C,0,156122,,255,6,6 M,0,156122,156166,98,332,93.81506,301.0315 F,2,156122,157039,0.5,0 S,2,156122,157039,1,0.8 P,0,156122,157039,A M,0,156166,156210,93.81506,301.0315,95.21004,311.3543 M,0,156210,156239,95.21004,311.3543,98,332
Sprite,Foreground,Centre,"sb\hl2.png",98,332 C,0,156166,,255,6,6 F,2,156166,156966,0.5,0 P,0,156166,156966,A
Sprite,Foreground,Centre,"sb\hl2.png",93.81506,301.0315 C,0,156210,,255,6,6 F,2,156210,157010,0.5,0 P,0,156210,157010,A
Sprite,Foreground,Centre,"sb\hl2.png",95.21004,311.3543 C,0,156239,,255,6,6 F,2,156239,157039,0.5,0 P,0,156239,157039,A
Sprite,Foreground,Centre,"sb\hl2.png",0,0 C,0,156299,,191,128,255 M,0,156299,156343,155,242,159.1849,211.0315 F,2,156299,157216,0.5,0 S,2,156299,157216,1,0.8 P,0,156299,157216,A M,0,156343,156387,159.1849,211.0315,157.7899,221.3543 M,0,156387,156416,157.7899,221.3543,155,242
Sprite,Foreground,Centre,"sb\hl2.png",155,242 C,0,156343,,191,128,255 F,2,156343,157143,0.5,0 P,0,156343,157143,A
Sprite,Foreground,Centre,"sb\hl2.png",159.1849,211.0315 C,0,156387,,191,128,255 F,2,156387,157187,0.5,0 P,0,156387,157187,A
Sprite,Foreground,Centre,"sb\hl2.png",157.7899,221.3543 C,0,156416,,191,128,255 F,2,156416,157216,0.5,0 P,0,156416,157216,A
Sprite,Foreground,Centre,"sb\hl2.png",0,0 C,0,156475,,191,128,255 M,0,156475,156519,226,216,230.1849,185.0315 F,2,156475,157392,0.5,0 S,2,156475,157392,1,0.8 P,0,156475,157392,A M,0,156519,156563,230.1849,185.0315,228.79,195.3543 M,0,156563,156592,228.79,195.3543,226,216
Sprite,Foreground,Centre,"sb\hl2.png",226,216 C,0,156519,,191,128,255 F,2,156519,157319,0.5,0 P,0,156519,157319,A
Sprite,Foreground,Centre,"sb\hl2.png",230.1849,185.0315 C,0,156563,,191,128,255 F,2,156563,157363,0.5,0 P,0,156563,157363,A
Sprite,Foreground,Centre,"sb\hl2.png",228.79,195.3543 C,0,156592,,191,128,255 F,2,156592,157392,0.5,0 P,0,156592,157392,A
Sprite,Foreground,Centre,"sb\hl2.png",0,0 C,0,156652,,191,128,255 M,0,156652,156696,299,190,303.1849,159.0315 F,2,156652,157569,0.5,0 S,2,156652,157569,1,0.8 P,0,156652,157569,A M,0,156696,156740,303.1849,159.0315,301.79,169.3543 M,0,156740,156769,301.79,169.3543,299,190
Sprite,Foreground,Centre,"sb\hl2.png",299,190 C,0,156696,,191,128,255 F,2,156696,157496,0.5,0 P,0,156696,157496,A
Sprite,Foreground,Centre,"sb\hl2.png",303.1849,159.0315 C,0,156740,,191,128,255 F,2,156740,157540,0.5,0 P,0,156740,157540,A
Sprite,Foreground,Centre,"sb\hl2.png",301.79,169.3543 C,0,156769,,191,128,255 F,2,156769,157569,0.5,0 P,0,156769,157569,A
Sprite,Foreground,Centre,"sb\hl2.png",0,0 C,0,156828,,191,128,255 M,0,156828,156872,370,164,374.1849,133.0315 F,2,156828,157745,0.5,0 S,2,156828,157745,1,0.8 P,0,156828,157745,A M,0,156872,156916,374.1849,133.0315,372.7899,143.3543 M,0,156916,156945,372.7899,143.3543,370,164
Sprite,Foreground,Centre,"sb\hl2.png",370,164 C,0,156872,,191,128,255 F,2,156872,157672,0.5,0 P,0,156872,157672,A
Sprite,Foreground,Centre,"sb\hl2.png",374.1849,133.0315 C,0,156916,,191,128,255 F,2,156916,157716,0.5,0 P,0,156916,157716,A
Sprite,Foreground,Centre,"sb\hl2.png",372.7899,143.3543 C,0,156945,,191,128,255 F,2,156945,157745,0.5,0 P,0,156945,157745,A
Sprite,Foreground,Centre,"sb\hl2.png",0,0 C,0,157004,,133,11,255 M,0,157004,157048,415,223,409.1141,253.6907 F,2,157004,157921,0.5,0 S,2,157004,157921,1,0.8 P,0,157004,157921,A M,0,157048,157092,409.1141,253.6907,411.0761,243.4605 M,0,157092,157121,411.0761,243.4605,415,223
Sprite,Foreground,Centre,"sb\hl2.png",415,223 C,0,157048,,133,11,255 F,2,157048,157848,0.5,0 P,0,157048,157848,A
Sprite,Foreground,Centre,"sb\hl2.png",409.1141,253.6907 C,0,157092,,133,11,255 F,2,157092,157892,0.5,0 P,0,157092,157892,A
Sprite,Foreground,Centre,"sb\hl2.png",411.0761,243.4605 C,0,157121,,133,11,255 F,2,157121,157921,0.5,0 P,0,157121,157921,A
Sprite,Foreground,Centre,"sb\hl2.png",0,0 C,0,157181,,133,11,255 M,0,157181,157225,477,170,507.8043,175.2593 F,2,157181,158098,0.5,0 S,2,157181,158098,1,0.8 P,0,157181,158098,A M,0,157225,157269,507.8043,175.2593,497.5362,173.5062 M,0,157269,157298,497.5362,173.5062,477,170
Sprite,Foreground,Centre,"sb\hl2.png",477,170 C,0,157225,,133,11,255 F,2,157225,158025,0.5,0 P,0,157225,158025,A
Sprite,Foreground,Centre,"sb\hl2.png",507.8043,175.2593 C,0,157269,,133,11,255 F,2,157269,158069,0.5,0 P,0,157269,158069,A
Sprite,Foreground,Centre,"sb\hl2.png",497.5362,173.5062 C,0,157298,,133,11,255 F,2,157298,158098,0.5,0 P,0,157298,158098,A
Sprite,Foreground,Centre,"sb\hl2.png",0,0 C,0,157357,,133,11,255 M,0,157357,157401,428,113,433.4789,82.23404 F,2,157357,158274,0.5,0 S,2,157357,158274,1,0.8 P,0,157357,158274,A M,0,157401,157445,433.4789,82.23404,431.6526,92.48936 M,0,157445,157474,431.6526,92.48936,428,113
Sprite,Foreground,Centre,"sb\hl2.png",428,113 C,0,157401,,133,11,255 F,2,157401,158201,0.5,0 P,0,157401,158201,A
Sprite,Foreground,Centre,"sb\hl2.png",433.4789,82.23404 C,0,157445,,133,11,255 F,2,157445,158245,0.5,0 P,0,157445,158245,A
Sprite,Foreground,Centre,"sb\hl2.png",431.6526,92.48936 C,0,157474,,133,11,255 F,2,157474,158274,0.5,0 P,0,157474,158274,A
Sprite,Foreground,Centre,"sb\hl2.png",0,0 C,0,157534,,133,11,255 M,0,157534,157578,370,164,339.3019,158.1527 F,2,157534,158451,0.5,0 S,2,157534,158451,1,0.8 P,0,157534,158451,A M,0,157578,157622,339.3019,158.1527,349.5346,160.1018 M,0,157622,157651,349.5346,160.1018,370,164
Sprite,Foreground,Centre,"sb\hl2.png",370,164 C,0,157578,,133,11,255 F,2,157578,158378,0.5,0 P,0,157578,158378,A
Sprite,Foreground,Centre,"sb\hl2.png",339.3019,158.1527 C,0,157622,,133,11,255 F,2,157622,158422,0.5,0 P,0,157622,158422,A
Sprite,Foreground,Centre,"sb\hl2.png",349.5346,160.1018 C,0,157651,,133,11,255 F,2,157651,158451,0.5,0 P,0,157651,158451,A
Sprite,Foreground,Centre,"sb\hl2.png",0,0 C,0,157710,,255,128,128 M,0,157710,157754,415,223,409.1141,253.6907 F,2,157710,158627,0.5,0 S,2,157710,158627,1,0.8 P,0,157710,158627,A M,0,157754,157798,409.1141,253.6907,411.0761,243.4605 M,0,157798,157827,411.0761,243.4605,415,223
Sprite,Foreground,Centre,"sb\hl2.png",415,223 C,0,157754,,255,128,128 F,2,157754,158554,0.5,0 P,0,157754,158554,A
Sprite,Foreground,Centre,"sb\hl2.png",409.1141,253.6907 C,0,157798,,255,128,128 F,2,157798,158598,0.5,0 P,0,157798,158598,A
Sprite,Foreground,Centre,"sb\hl2.png",411.0761,243.4605 C,0,157827,,255,128,128 F,2,157827,158627,0.5,0 P,0,157827,158627,A
Sprite,Foreground,Centre,"sb\hl2.png",0,0 C,0,157887,,255,128,128 M,0,157887,157931,471,274,443.6628,289.1406 F,2,157887,158804,0.5,0 S,2,157887,158804,1,0.8 P,0,157887,158804,A M,0,157931,157975,443.6628,289.1406,452.7752,284.0938 M,0,157975,158004,452.7752,284.0938,471,274
Sprite,Foreground,Centre,"sb\hl2.png",471,274 C,0,157931,,255,128,128 F,2,157931,158731,0.5,0 P,0,157931,158731,A
Sprite,Foreground,Centre,"sb\hl2.png",443.6628,289.1406 C,0,157975,,255,128,128 F,2,157975,158775,0.5,0 P,0,157975,158775,A
Sprite,Foreground,Centre,"sb\hl2.png",452.7752,284.0938 C,0,158004,,255,128,128 F,2,158004,158804,0.5,0 P,0,158004,158804,A
Sprite,Foreground,Centre,"sb\hl2.png",0,0 C,0,158063,,255,128,128 M,0,158063,158107,471,349,441.7054,338.1192 F,2,158063,158980,0.5,0 S,2,158063,158980,1,0.8 P,0,158063,158980,A M,0,158107,158151,441.7054,338.1192,451.4703,341.7461 M,0,158151,158180,451.4703,341.7461,471,349
Sprite,Foreground,Centre,"sb\hl2.png",471,349 C,0,158107,,255,128,128 F,2,158107,158907,0.5,0 P,0,158107,158907,A
Sprite,Foreground,Centre,"sb\hl2.png",441.7054,338.1192 C,0,158151,,255,128,128 F,2,158151,158951,0.5,0 P,0,158151,158951,A
Sprite,Foreground,Centre,"sb\hl2.png",451.4703,341.7461 C,0,158180,,255,128,128 F,2,158180,158980,0.5,0 P,0,158180,158980,A
Sprite,Foreground,Centre,"sb\hl2.png",0,0 C,0,158240,,255,128,128 M,0,158240,158284,403,385,392.1192,355.7054 F,2,158240,159157,0.5,0 S,2,158240,159157,1,0.8 P,0,158240,159157,A M,0,158284,158328,392.1192,355.7054,395.7461,365.4703 M,0,158328,158357,395.7461,365.4703,403,385
Sprite,Foreground,Centre,"sb\hl2.png",403,385 C,0,158284,,255,128,128 F,2,158284,159084,0.5,0 P,0,158284,159084,A
Sprite,Foreground,Centre,"sb\hl2.png",392.1192,355.7054 C,0,158328,,255,128,128 F,2,158328,159128,0.5,0 P,0,158328,159128,A
Sprite,Foreground,Centre,"sb\hl2.png",395.7461,365.4703 C,0,158357,,255,128,128 F,2,158357,159157,0.5,0 P,0,158357,159157,A
Sprite,Foreground,Centre,"sb\hl2.png",0,0 C,0,158416,,255,6,6 M,0,158416,158460,333,356,348.4593,328.8417 F,2,158416,159333,0.5,0 S,2,158416,159333,1,0.8 P,0,158416,159333,A M,0,158460,158504,348.4593,328.8417,343.3062,337.8945 M,0,158504,158533,343.3062,337.8945,333,356
Sprite,Foreground,Centre,"sb\hl2.png",333,356 C,0,158460,,255,6,6 F,2,158460,159260,0.5,0 P,0,158460,159260,A
Sprite,Foreground,Centre,"sb\hl2.png",348.4593,328.8417 C,0,158504,,255,6,6 F,2,158504,159304,0.5,0 P,0,158504,159304,A
Sprite,Foreground,Centre,"sb\hl2.png",343.3062,337.8945 C,0,158533,,255,6,6 F,2,158533,159333,0.5,0 P,0,158533,159333,A
Sprite,Foreground,Centre,"sb\hl2.png",0,0 C,0,158593,,255,6,6 M,0,158593,158637,279,301,268.1192,271.7054 F,2,158593,159510,0.5,0 S,2,158593,159510,1,0.8 P,0,158593,159510,A M,0,158637,158681,268.1192,271.7054,271.7461,281.4703 M,0,158681,158710,271.7461,281.4703,279,301
Sprite,Foreground,Centre,"sb\hl2.png",279,301 C,0,158637,,255,6,6 F,2,158637,159437,0.5,0 P,0,158637,159437,A
Sprite,Foreground,Centre,"sb\hl2.png",268.1192,271.7054 C,0,158681,,255,6,6 F,2,158681,159481,0.5,0 P,0,158681,159481,A
Sprite,Foreground,Centre,"sb\hl2.png",271.7461,281.4703 C,0,158710,,255,6,6 F,2,158710,159510,0.5,0 P,0,158710,159510,A
Sprite,Foreground,Centre,"sb\hl2.png",0,0 C,0,158769,,255,6,6 M,0,158769,158813,236,363,246.5583,392.4123 F,2,158769,159686,0.5,0 S,2,158769,159686,1,0.8 P,0,158769,159686,A M,0,158813,158857,246.5583,392.4123,243.0388,382.6082 M,0,158857,158886,243.0388,382.6082,236,363
Sprite,Foreground,Centre,"sb\hl2.png",236,363 C,0,158813,,255,6,6 F,2,158813,159613,0.5,0 P,0,158813,159613,A
Sprite,Foreground,Centre,"sb\hl2.png",246.5583,392.4123 C,0,158857,,255,6,6 F,2,158857,159657,0.5,0 P,0,158857,159657,A
Sprite,Foreground,Centre,"sb\hl2.png",243.0388,382.6082 C,0,158886,,255,6,6 F,2,158886,159686,0.5,0 P,0,158886,159686,A
Sprite,Foreground,Centre,"sb\hl2.png",0,0 C,0,158946,,255,6,6 M,0,158946,158990,170,323,153.922,349.7967 F,2,158946,159863,0.5,0 S,2,158946,159863,1,0.8 P,0,158946,159863,A M,0,158990,159034,153.922,349.7967,159.2813,340.8644 M,0,159034,159063,159.2813,340.8644,170,323
Sprite,Foreground,Centre,"sb\hl2.png",170,323 C,0,158990,,255,6,6 F,2,158990,159790,0.5,0 P,0,158990,159790,A
Sprite,Foreground,Centre,"sb\hl2.png",153.922,349.7967 C,0,159034,,255,6,6 F,2,159034,159834,0.5,0 P,0,159034,159834,A
Sprite,Foreground,Centre,"sb\hl2.png",159.2813,340.8644 C,0,159063,,255,6,6 F,2,159063,159863,0.5,0 P,0,159063,159863,A
Sprite,Foreground,Centre,"sb\hl2.png",155,249 C,0,159122,,255,6,6 F,2,159122,159922,0.5,0 S,2,159122,159922,1,0.8 P,0,159122,159922,A
Sprite,Foreground,Centre,"sb\hl2.png",0,0 C,0,159299,,128,255,255 M,0,159299,159343,280,95,320.0822,86.29173 F,2,159299,160540,0.5,0 S,2,159299,160540,1,0.8 P,0,159299,160540,A M,0,159343,159387,320.0822,86.29173,360.2549,94.19249 M,0,159387,159431,360.2549,94.19249,391.9094,107.9915 M,0,159431,159475,391.9094,107.9915,409.314,71.10228 M,0,159475,159519,409.314,71.10228,444.2227,50.51077 M,0,159519,159563,444.2227,50.51077,484.5463,54.93167 M,0,159563,159607,484.5463,54.93167,514.4513,82.32491 M,0,159607,159651,514.4513,82.32491,522.1896,122.138 M,0,159651,159696,522.1896,122.138,504.7586,158.7289 M,0,159696,159740,504.7586,158.7289,468.2095,175.7198
Sprite,Foreground,Centre,"sb\hl2.png",280,95 C,0,159343,,128,255,255 F,2,159343,160143,0.5,0 P,0,159343,160143,A
Sprite,Foreground,Centre,"sb\hl2.png",320.0822,86.29173 C,0,159387,,128,255,255 F,2,159387,160187,0.5,0 P,0,159387,160187,A
Sprite,Foreground,Centre,"sb\hl2.png",360.2549,94.19249 C,0,159431,,128,255,255 F,2,159431,160231,0.5,0 P,0,159431,160231,A
Sprite,Foreground,Centre,"sb\hl2.png",391.9094,107.9915 C,0,159475,,128,255,255 F,2,159475,160275,0.5,0 P,0,159475,160275,A
Sprite,Foreground,Centre,"sb\hl2.png",409.314,71.10228 C,0,159519,,128,255,255 F,2,159519,160319,0.5,0 P,0,159519,160319,A
Sprite,Foreground,Centre,"sb\hl2.png",444.2227,50.51077 C,0,159563,,128,255,255 F,2,159563,160363,0.5,0 P,0,159563,160363,A
Sprite,Foreground,Centre,"sb\hl2.png",484.5463,54.93167 C,0,159607,,128,255,255 F,2,159607,160407,0.5,0 P,0,159607,160407,A
Sprite,Foreground,Centre,"sb\hl2.png",514.4513,82.32491 C,0,159651,,128,255,255 F,2,159651,160451,0.5,0 P,0,159651,160451,A
Sprite,Foreground,Centre,"sb\hl2.png",522.1896,122.138 C,0,159696,,128,255,255 F,2,159696,160496,0.5,0 P,0,159696,160496,A
Sprite,Foreground,Centre,"sb\hl2.png",504.7586,158.7289 C,0,159740,,128,255,255 F,2,159740,160540,0.5,0 P,0,159740,160540,A
Sprite,Foreground,Centre,"sb\hl2.png",450,172 C,0,159828,,128,255,255 F,2,159828,160628,0.5,0 S,2,159828,160628,1,0.8 P,0,159828,160628,A
Sprite,Foreground,Centre,"sb\hl2.png",284,200 C,0,160004,,128,255,255 F,2,160004,160804,0.5,0 S,2,160004,160804,1,0.8 P,0,160004,160804,A
Sprite,Foreground,Centre,"sb\hl2.png",539,298 C,0,160181,,128,255,255 F,2,160181,160981,0.5,0 S,2,160181,160981,1,0.8 P,0,160181,160981,A
Sprite,Foreground,Centre,"sb\hl2.png",0,0 C,0,160357,,6,87,255 M,0,160357,160401,371,396,350.1494,369.5552 F,2,160357,161509,0.5,0 S,2,160357,161509,1,0.8 P,0,160357,161509,A M,0,160401,160445,350.1494,369.5552,336.5319,338.7921 M,0,160445,160489,336.5319,338.7921,332.8464,305.4099 M,0,160489,160533,332.8464,305.4099,342.2817,273.3206 M,0,160533,160577,342.2817,273.3206,367.0527,251.3044 M,0,160577,160621,367.0527,251.3044,400.1025,250.4078 M,0,160621,160665,400.1025,250.4078,426.7148,270.1769 M,0,160665,160709,426.7148,270.1769,434.6097,302.2519
Sprite,Foreground,Centre,"sb\hl2.png",371,396 C,0,160401,,6,87,255 F,2,160401,161201,0.5,0 P,0,160401,161201,A
Sprite,Foreground,Centre,"sb\hl2.png",350.1494,369.5552 C,0,160445,,6,87,255 F,2,160445,161245,0.5,0 P,0,160445,161245,A
Sprite,Foreground,Centre,"sb\hl2.png",336.5319,338.7921 C,0,160489,,6,87,255 F,2,160489,161289,0.5,0 P,0,160489,161289,A
Sprite,Foreground,Centre,"sb\hl2.png",332.8464,305.4099 C,0,160533,,6,87,255 F,2,160533,161333,0.5,0 P,0,160533,161333,A
Sprite,Foreground,Centre,"sb\hl2.png",342.2817,273.3206 C,0,160577,,6,87,255 F,2,160577,161377,0.5,0 P,0,160577,161377,A
Sprite,Foreground,Centre,"sb\hl2.png",367.0527,251.3044 C,0,160621,,6,87,255 F,2,160621,161421,0.5,0 P,0,160621,161421,A
Sprite,Foreground,Centre,"sb\hl2.png",400.1025,250.4078 C,0,160665,,6,87,255 F,2,160665,161465,0.5,0 P,0,160665,161465,A
Sprite,Foreground,Centre,"sb\hl2.png",426.7148,270.1769 C,0,160709,,6,87,255 F,2,160709,161509,0.5,0 P,0,160709,161509,A
Sprite,Foreground,Centre,"sb\hl2.png",429,315 C,0,160799,,6,87,255 F,2,160799,161599,0.5,0 S,2,160799,161599,1,0.8 P,0,160799,161599,A
Sprite,Foreground,Centre,"sb\hl2.png",0,0 C,0,160887,,6,87,255 M,0,160887,160931,422,327,388.6545,322.1868 F,2,160887,161775,0.5,0 S,2,160887,161775,1,0.8 P,0,160887,161775,A M,0,160931,160975,388.6545,322.1868,356.531,312.0359
Sprite,Foreground,Centre,"sb\hl2.png",422,327 C,0,160931,,6,87,255 F,2,160931,161731,0.5,0 P,0,160931,161731,A
Sprite,Foreground,Centre,"sb\hl2.png",388.6545,322.1868 C,0,160975,,6,87,255 F,2,160975,161775,0.5,0 P,0,160975,161775,A
Sprite,Foreground,Centre,"sb\hl2.png",0,0 C,0,161063,,6,87,255 M,0,161063,161107,274,419,240.6546,423.8132 F,2,161063,161951,0.5,0 S,2,161063,161951,1,0.8 P,0,161063,161951,A M,0,161107,161151,240.6546,423.8132,208.5311,433.9641
Sprite,Foreground,Centre,"sb\hl2.png",274,419 C,0,161107,,6,87,255 F,2,161107,161907,0.5,0 P,0,161107,161907,A
Sprite,Foreground,Centre,"sb\hl2.png",240.6546,423.8132 C,0,161151,,6,87,255 F,2,161151,161951,0.5,0 P,0,161151,161951,A
Sprite,Foreground,Centre,"sb\hl2.png",98,329 C,0,161240,,128,255,255 F,2,161240,162040,0.5,0 S,2,161240,162040,1,0.8 P,0,161240,162040,A
Sprite,Foreground,Centre,"sb\hl2.png",208,208 C,0,161416,,128,255,255 F,2,161416,162216,0.5,0 S,2,161416,162216,1,0.8 P,0,161416,162216,A
Sprite,Foreground,Centre,"sb\hl2.png",208,433 C,0,161593,,128,255,255 F,2,161593,162393,0.5,0 S,2,161593,162393,1,0.8 P,0,161593,162393,A
Sprite,Foreground,Centre,"sb\hl2.png",0,0 C,0,161769,,6,87,255 M,0,161769,161813,117,135,138.4189,109.1342 F,2,161769,162921,0.5,0 S,2,161769,162921,1,0.8 P,0,161769,162921,A M,0,161813,161857,138.4189,109.1342,152.4516,78.49732 M,0,161857,161901,152.4516,78.49732,162.2186,101.5774 M,0,161901,161945,162.2186,101.5774,154.2271,133.8636 M,0,161945,161989,154.2271,133.8636,144.8766,162.5026 M,0,161989,162033,144.8766,162.5026,133.215,193.9881 M,0,162033,162077,133.215,193.9881,133.0809,227.5822 M,0,162077,162121,133.0809,227.5822,142.4649,259.9182
Sprite,Foreground,Centre,"sb\hl2.png",117,135 C,0,161813,,6,87,255 F,2,161813,162613,0.5,0 P,0,161813,162613,A
Sprite,Foreground,Centre,"sb\hl2.png",138.4189,109.1342 C,0,161857,,6,87,255 F,2,161857,162657,0.5,0 P,0,161857,162657,A
Sprite,Foreground,Centre,"sb\hl2.png",152.4516,78.49732 C,0,161901,,6,87,255 F,2,161901,162701,0.5,0 P,0,161901,162701,A
Sprite,Foreground,Centre,"sb\hl2.png",162.2186,101.5774 C,0,161945,,6,87,255 F,2,161945,162745,0.5,0 P,0,161945,162745,A
Sprite,Foreground,Centre,"sb\hl2.png",154.2271,133.8636 C,0,161989,,6,87,255 F,2,161989,162789,0.5,0 P,0,161989,162789,A
Sprite,Foreground,Centre,"sb\hl2.png",144.8766,162.5026 C,0,162033,,6,87,255 F,2,162033,162833,0.5,0 P,0,162033,162833,A
Sprite,Foreground,Centre,"sb\hl2.png",133.215,193.9881 C,0,162077,,6,87,255 F,2,162077,162877,0.5,0 P,0,162077,162877,A
Sprite,Foreground,Centre,"sb\hl2.png",133.0809,227.5822 C,0,162121,,6,87,255 F,2,162121,162921,0.5,0 P,0,162121,162921,A
Sprite,Foreground,Centre,"sb\hl2.png",153,269 C,0,162210,,6,87,255 F,2,162210,163010,0.5,0 S,2,162210,163010,1,0.8 P,0,162210,163010,A
Sprite,Foreground,Centre,"sb\hl2.png",0,0 C,0,162299,,6,87,255 M,0,162299,162343,161,279,194.4851,282.0647 F,2,162299,163187,0.5,0 S,2,162299,163187,1,0.8 P,0,162299,163187,A M,0,162343,162387,194.4851,282.0647,227.4274,275.3611
Sprite,Foreground,Centre,"sb\hl2.png",161,279 C,0,162343,,6,87,255 F,2,162343,163143,0.5,0 P,0,162343,163143,A
Sprite,Foreground,Centre,"sb\hl2.png",194.4851,282.0647 C,0,162387,,6,87,255 F,2,162387,163187,0.5,0 P,0,162387,163187,A
Sprite,Foreground,Centre,"sb\hl2.png",0,0 C,0,162475,,6,87,255 M,0,162475,162519,312,373,325.6225,342.2345 F,2,162475,163363,0.5,0 S,2,162475,163363,1,0.8 P,0,162475,163363,A M,0,162519,162563,325.6225,342.2345,330.673,308.9749
Sprite,Foreground,Centre,"sb\hl2.png",312,373 C,0,162519,,6,87,255 F,2,162519,163319,0.5,0 P,0,162519,163319,A
Sprite,Foreground,Centre,"sb\hl2.png",325.6225,342.2345 C,0,162563,,6,87,255 F,2,162563,163363,0.5,0 P,0,162563,163363,A
Sprite,Foreground,Centre,"sb\hl2.png",394,213 C,0,162652,,128,255,255 F,2,162652,163452,0.5,0 S,2,162652,163452,1,0.8 P,0,162652,163452,A
Sprite,Foreground,Centre,"sb\hl2.png",304,169 C,0,162828,,128,255,255 F,2,162828,163628,0.5,0 S,2,162828,163628,1,0.8 P,0,162828,163628,A
Sprite,Foreground,Centre,"sb\hl2.png",481,193 C,0,163004,,6,87,255 F,2,163004,163804,0.5,0 S,2,163004,163804,1,0.8 P,0,163004,163804,A
Sprite,Foreground,Centre,"sb\hl2.png",426,316 C,0,163180,,6,87,255 F,2,163180,163980,0.5,0 S,2,163180,163980,1,0.8 P,0,163180,163980,A
Sprite,Foreground,Centre,"sb\hl2.png",406,90 C,0,163357,,128,255,255 F,2,163357,164157,0.5,0 S,2,163357,164157,1,0.8 P,0,163357,164157,A
Sprite,Foreground,Centre,"sb\hl2.png",574,160 C,0,163533,,128,255,255 F,2,163533,164333,0.5,0 S,2,163533,164333,1,0.8 P,0,163533,164333,A
Sprite,Foreground,Centre,"sb\hl2.png",256,224 C,0,163710,,6,87,255 F,2,163710,164510,0.5,0 S,2,163710,164510,1,0.8 P,0,163710,164510,A
Sprite,Foreground,Centre,"sb\hl2.png",326,56 C,0,163886,,6,87,255 F,2,163886,164686,0.5,0 S,2,163886,164686,1,0.8 P,0,163886,164686,A
Sprite,Foreground,Centre,"sb\hl2.png",337,317 C,0,164063,,128,255,255 F,2,164063,164863,0.5,0 S,2,164063,164863,1,0.8 P,0,164063,164863,A
Sprite,Foreground,Centre,"sb\hl2.png",106,225 C,0,164239,,128,255,255 F,2,164239,165039,0.5,0 S,2,164239,165039,1,0.8 P,0,164239,165039,A
Sprite,Foreground,Centre,"sb\hl2.png",0,0 C,0,164416,,6,87,255 M,0,164416,164460,376,172,412.7718,164.6456 F,2,164416,165480,0.5,0 S,2,164416,165480,1,0.8 P,0,164416,165480,A M,0,164460,164504,412.7718,164.6456,449.5435,157.2913 M,0,164504,164548,449.5435,157.2913,445.5415,192.5987 M,0,164548,164592,445.5415,192.5987,439.858,229.6655 M,0,164592,164636,439.858,229.6655,434.1744,266.7322 M,0,164636,164680,434.1744,266.7322,428.4908,303.799
Sprite,Foreground,Centre,"sb\hl2.png",376,172 C,0,164460,,6,87,255 F,2,164460,165260,0.5,0 P,0,164460,165260,A
Sprite,Foreground,Centre,"sb\hl2.png",412.7718,164.6456 C,0,164504,,6,87,255 F,2,164504,165304,0.5,0 P,0,164504,165304,A
Sprite,Foreground,Centre,"sb\hl2.png",449.5435,157.2913 C,0,164548,,6,87,255 F,2,164548,165348,0.5,0 P,0,164548,165348,A
Sprite,Foreground,Centre,"sb\hl2.png",445.5415,192.5987 C,0,164592,,6,87,255 F,2,164592,165392,0.5,0 P,0,164592,165392,A
Sprite,Foreground,Centre,"sb\hl2.png",439.858,229.6655 C,0,164636,,6,87,255 F,2,164636,165436,0.5,0 P,0,164636,165436,A
Sprite,Foreground,Centre,"sb\hl2.png",434.1744,266.7322 C,0,164680,,6,87,255 F,2,164680,165480,0.5,0 P,0,164680,165480,A
Sprite,Foreground,Centre,"sb\hl2.png",433,320 C,0,164769,,228,228,228 F,2,164769,165569,0.5,0 S,2,164769,165569,1,0.8 P,0,164769,165569,A
Sprite,Foreground,Centre,"sb\hl2.png",532,261 C,0,164946,,228,228,228 F,2,164946,165746,0.5,0 S,2,164946,165746,1,0.8 P,0,164946,165746,A
Sprite,Foreground,Centre,"sb\hl2.png",0,0 C,0,165122,,136,136,136 M,0,165122,165166,295,244,270.2079,247.2173 F,2,165122,166098,0.5,0 S,2,165122,166098,1,0.8 P,0,165122,166098,A M,0,165166,165210,270.2079,247.2173,245.4158,250.4346 M,0,165210,165254,245.4158,250.4346,220.6237,253.6519 M,0,165254,165298,220.6237,253.6519,195.8315,256.8692
Sprite,Foreground,Centre,"sb\hl2.png",295,244 C,0,165166,,136,136,136 F,2,165166,165966,0.5,0 P,0,165166,165966,A
Sprite,Foreground,Centre,"sb\hl2.png",270.2079,247.2173 C,0,165210,,136,136,136 F,2,165210,166010,0.5,0 P,0,165210,166010,A
Sprite,Foreground,Centre,"sb\hl2.png",245.4158,250.4346 C,0,165254,,136,136,136 F,2,165254,166054,0.5,0 P,0,165254,166054,A
Sprite,Foreground,Centre,"sb\hl2.png",220.6237,253.6519 C,0,165298,,136,136,136 F,2,165298,166098,0.5,0 P,0,165298,166098,A
Sprite,Foreground,Centre,"sb\hl2.png",396,231 C,0,165475,,136,136,136 F,2,165475,166275,0.5,0 S,2,165475,166275,1,0.8 P,0,165475,166275,A
Sprite,Foreground,Centre,"sb\hl2.png",0,0 C,0,165652,,228,228,228 M,0,165652,165696,278,421,268.5526,397.8538 F,2,165652,166628,0.5,0 S,2,165652,166628,1,0.8 P,0,165652,166628,A M,0,165696,165740,268.5526,397.8538,259.1052,374.7076 M,0,165740,165784,259.1052,374.7076,265.1763,351.1235 M,0,165784,165828,265.1763,351.1235,273.3033,327.4813
Sprite,Foreground,Centre,"sb\hl2.png",278,421 C,0,165696,,228,228,228 F,2,165696,166496,0.5,0 P,0,165696,166496,A
Sprite,Foreground,Centre,"sb\hl2.png",268.5526,397.8538 C,0,165740,,228,228,228 F,2,165740,166540,0.5,0 P,0,165740,166540,A
Sprite,Foreground,Centre,"sb\hl2.png",259.1052,374.7076 C,0,165784,,228,228,228 F,2,165784,166584,0.5,0 P,0,165784,166584,A
Sprite,Foreground,Centre,"sb\hl2.png",265.1763,351.1235 C,0,165828,,228,228,228 F,2,165828,166628,0.5,0 P,0,165828,166628,A
Sprite,Foreground,Centre,"sb\hl2.png",426,373 C,0,166004,,228,228,228 F,2,166004,166804,0.5,0 S,2,166004,166804,1,0.8 P,0,166004,166804,A
Sprite,Foreground,Centre,"sb\hl2.png",0,0 C,0,166181,,136,136,136 M,0,166181,166225,178,364,153.2079,360.7827 F,2,166181,167157,0.5,0 S,2,166181,167157,1,0.8 P,0,166181,167157,A M,0,166225,166269,153.2079,360.7827,128.4158,357.5654 M,0,166269,166313,128.4158,357.5654,103.6236,354.3481 M,0,166313,166357,103.6236,354.3481,78.83154,351.1308
Sprite,Foreground,Centre,"sb\hl2.png",178,364 C,0,166225,,136,136,136 F,2,166225,167025,0.5,0 P,0,166225,167025,A
Sprite,Foreground,Centre,"sb\hl2.png",153.2079,360.7827 C,0,166269,,136,136,136 F,2,166269,167069,0.5,0 P,0,166269,167069,A
Sprite,Foreground,Centre,"sb\hl2.png",128.4158,357.5654 C,0,166313,,136,136,136 F,2,166313,167113,0.5,0 P,0,166313,167113,A
Sprite,Foreground,Centre,"sb\hl2.png",103.6236,354.3481 C,0,166357,,136,136,136 F,2,166357,167157,0.5,0 P,0,166357,167157,A
Sprite,Foreground,Centre,"sb\hl2.png",340,376 C,0,166534,,136,136,136 F,2,166534,167334,0.5,0 S,2,166534,167334,1,0.8 P,0,166534,167334,A
Sprite,Foreground,Centre,"sb\hl2.png",0,0 C,0,166710,,228,228,228 M,0,166710,166754,174,183,164.5526,206.1462 F,2,166710,167686,0.5,0 S,2,166710,167686,1,0.8 P,0,166710,167686,A M,0,166754,166798,164.5526,206.1462,155.1051,229.2924 M,0,166798,166842,155.1051,229.2924,161.1763,252.8765 M,0,166842,166886,161.1763,252.8765,169.3033,276.5187
Sprite,Foreground,Centre,"sb\hl2.png",174,183 C,0,166754,,228,228,228 F,2,166754,167554,0.5,0 P,0,166754,167554,A
Sprite,Foreground,Centre,"sb\hl2.png",164.5526,206.1462 C,0,166798,,228,228,228 F,2,166798,167598,0.5,0 P,0,166798,167598,A
Sprite,Foreground,Centre,"sb\hl2.png",155.1051,229.2924 C,0,166842,,228,228,228 F,2,166842,167642,0.5,0 P,0,166842,167642,A
Sprite,Foreground,Centre,"sb\hl2.png",161.1763,252.8765 C,0,166886,,228,228,228 F,2,166886,167686,0.5,0 P,0,166886,167686,A
Sprite,Foreground,Centre,"sb\hl2.png",382,272 C,0,167062,,228,228,228 F,2,167062,167862,0.5,0 S,2,167062,167862,1,0.8 P,0,167062,167862,A
Sprite,Foreground,Centre,"sb\hl2.png",247,87 C,0,167240,,228,228,228 F,2,167240,168040,0.5,0 S,2,167240,168040,1,0.8 P,0,167240,168040,A
Sprite,Foreground,Centre,"sb\hl2.png",0,0 C,0,167416,,255,128,128 M,0,167416,167460,412,183,387.1111,185.3544 F,2,167416,168568,0.5,0 S,2,167416,168568,1,0.8 P,0,167416,168568,A M,0,167460,167504,387.1111,185.3544,362.2222,187.7087 M,0,167504,167548,362.2222,187.7087,337.5877,190.5277 M,0,167548,167592,337.5877,190.5277,322.1966,210.2283 M,0,167592,167636,322.1966,210.2283,303.0071,223.1756 M,0,167636,167680,303.0071,223.1756,278.1784,226.0967 M,0,167680,167724,278.1784,226.0967,253.3496,229.0177 M,0,167724,167768,253.3496,229.0177,228.5208,231.9387
Sprite,Foreground,Centre,"sb\hl2.png",412,183 C,0,167460,,255,128,128 F,2,167460,168260,0.5,0 P,0,167460,168260,A
Sprite,Foreground,Centre,"sb\hl2.png",387.1111,185.3544 C,0,167504,,255,128,128 F,2,167504,168304,0.5,0 P,0,167504,168304,A
Sprite,Foreground,Centre,"sb\hl2.png",362.2222,187.7087 C,0,167548,,255,128,128 F,2,167548,168348,0.5,0 P,0,167548,168348,A
Sprite,Foreground,Centre,"sb\hl2.png",337.5877,190.5277 C,0,167592,,255,128,128 F,2,167592,168392,0.5,0 P,0,167592,168392,A
Sprite,Foreground,Centre,"sb\hl2.png",322.1966,210.2283 C,0,167636,,255,128,128 F,2,167636,168436,0.5,0 P,0,167636,168436,A
Sprite,Foreground,Centre,"sb\hl2.png",303.0071,223.1756 C,0,167680,,255,128,128 F,2,167680,168480,0.5,0 P,0,167680,168480,A
Sprite,Foreground,Centre,"sb\hl2.png",278.1784,226.0967 C,0,167724,,255,128,128 F,2,167724,168524,0.5,0 P,0,167724,168524,A
Sprite,Foreground,Centre,"sb\hl2.png",253.3496,229.0177 C,0,167768,,255,128,128 F,2,167768,168568,0.5,0 P,0,167768,168568,A
Sprite,Foreground,Centre,"sb\hl2.png",0,0 C,0,167946,,228,228,228 M,0,167946,167990,382,363,391.9681,340.0732 F,2,167946,168922,0.5,0 S,2,167946,168922,1,0.8 P,0,167946,168922,A M,0,167990,168034,391.9681,340.0732,401.9363,317.1465 M,0,168034,168078,401.9363,317.1465,391.5905,294.446 M,0,168078,168122,391.5905,294.446,381.114,271.7471
Sprite,Foreground,Centre,"sb\hl2.png",382,363 C,0,167990,,228,228,228 F,2,167990,168790,0.5,0 P,0,167990,168790,A
Sprite,Foreground,Centre,"sb\hl2.png",391.9681,340.0732 C,0,168034,,228,228,228 F,2,168034,168834,0.5,0 P,0,168034,168834,A
Sprite,Foreground,Centre,"sb\hl2.png",401.9363,317.1465 C,0,168078,,228,228,228 F,2,168078,168878,0.5,0 P,0,168078,168878,A
Sprite,Foreground,Centre,"sb\hl2.png",391.5905,294.446 C,0,168122,,228,228,228 F,2,168122,168922,0.5,0 P,0,168122,168922,A
Sprite,Foreground,Centre,"sb\hl2.png",265,417 C,0,168299,,228,228,228 F,2,168299,169099,0.5,0 S,2,168299,169099,1,0.8 P,0,168299,169099,A
Sprite,Foreground,Centre,"sb\hl2.png",0,0 C,0,168475,,136,136,136 M,0,168475,168519,477,320,501.8824,322.4222 F,2,168475,169451,0.5,0 S,2,168475,169451,1,0.8 P,0,168475,169451,A M,0,168519,168563,501.8824,322.4222,526.7648,324.8444 M,0,168563,168607,526.7648,324.8444,551.6472,327.2665 M,0,168607,168651,551.6472,327.2665,576.5295,329.6887
Sprite,Foreground,Centre,"sb\hl2.png",477,320 C,0,168519,,136,136,136 F,2,168519,169319,0.5,0 P,0,168519,169319,A
Sprite,Foreground,Centre,"sb\hl2.png",501.8824,322.4222 C,0,168563,,136,136,136 F,2,168563,169363,0.5,0 P,0,168563,169363,A
Sprite,Foreground,Centre,"sb\hl2.png",526.7648,324.8444 C,0,168607,,136,136,136 F,2,168607,169407,0.5,0 P,0,168607,169407,A
Sprite,Foreground,Centre,"sb\hl2.png",551.6472,327.2665 C,0,168651,,136,136,136 F,2,168651,169451,0.5,0 P,0,168651,169451,A
Sprite,Foreground,Centre,"sb\hl2.png",274,302 C,0,168828,,136,136,136 F,2,168828,169628,0.5,0 S,2,168828,169628,1,0.8 P,0,168828,169628,A
Sprite,Foreground,Centre,"sb\hl2.png",0,0 C,0,169004,,255,128,128 M,0,169004,169048,477,166,501.8824,163.5778 F,2,169004,169980,0.5,0 S,2,169004,169980,1,0.8 P,0,169004,169980,A M,0,169048,169092,501.8824,163.5778,526.7648,161.1556 M,0,169092,169136,526.7648,161.1556,551.6472,158.7335 M,0,169136,169180,551.6472,158.7335,576.5295,156.3113
Sprite,Foreground,Centre,"sb\hl2.png",477,166 C,0,169048,,255,128,128 F,2,169048,169848,0.5,0 P,0,169048,169848,A
Sprite,Foreground,Centre,"sb\hl2.png",501.8824,163.5778 C,0,169092,,255,128,128 F,2,169092,169892,0.5,0 P,0,169092,169892,A
Sprite,Foreground,Centre,"sb\hl2.png",526.7648,161.1556 C,0,169136,,255,128,128 F,2,169136,169936,0.5,0 P,0,169136,169936,A
Sprite,Foreground,Centre,"sb\hl2.png",551.6472,158.7335 C,0,169180,,255,128,128 F,2,169180,169980,0.5,0 P,0,169180,169980,A
Sprite,Foreground,Centre,"sb\hl2.png",231,187 C,0,169357,,255,128,128 F,2,169357,170157,0.5,0 S,2,169357,170157,1,0.8 P,0,169357,170157,A
Sprite,Foreground,Centre,"sb\hl2.png",404,301 C,0,169534,,255,128,128 F,2,169534,170334,0.5,0 S,2,169534,170334,1,0.8 P,0,169534,170334,A
Sprite,Foreground,Centre,"sb\hl2.png",388,72 C,0,169710,,255,128,128 F,2,169710,170510,0.5,0 S,2,169710,170510,1,0.8 P,0,169710,170510,A
Sprite,Foreground,Centre,"sb\hl2.png",389,102 C,0,169798,,255,128,128 F,2,169798,170598,0.5,0 S,2,169798,170598,1,0.8 P,0,169798,170598,A
Sprite,Foreground,Centre,"sb\hl2.png",392,132 C,0,169886,,255,128,128 F,2,169886,170686,0.5,0 S,2,169886,170686,1,0.8 P,0,169886,170686,A
Sprite,Foreground,Centre,"sb\hl2.png",223,74 C,0,170063,,255,128,128 F,2,170063,170863,0.5,0 S,2,170063,170863,1,0.8 P,0,170063,170863,A
Sprite,Foreground,Centre,"sb\hl2.png",548,120 C,0,170240,,255,6,6 F,2,170240,171040,0.5,0 S,2,170240,171040,1,0.8 P,0,170240,171040,A
Sprite,Foreground,Centre,"sb\hl2.png",0,0 C,0,173063,,128,255,255 M,0,173063,173107,64,274,70.64748,242.1871 F,2,173063,174127,0.5,0 S,2,173063,174127,1,0.8 P,0,173063,174127,A M,0,173107,173151,70.64748,242.1871,77.29494,210.3742 M,0,173151,173195,77.29494,210.3742,94.53722,183.1129 M,0,173195,173239,94.53722,183.1129,90.13021,151.6511 M,0,173239,173283,90.13021,151.6511,94.44571,119.4759 M,0,173283,173327,94.44571,119.4759,98.98413,87.29434
Sprite,Foreground,Centre,"sb\hl2.png",64,274 C,0,173107,,128,255,255 F,2,173107,173907,0.5,0 P,0,173107,173907,A
Sprite,Foreground,Centre,"sb\hl2.png",70.64748,242.1871 C,0,173151,,128,255,255 F,2,173151,173951,0.5,0 P,0,173151,173951,A
Sprite,Foreground,Centre,"sb\hl2.png",77.29494,210.3742 C,0,173195,,128,255,255 F,2,173195,173995,0.5,0 P,0,173195,173995,A
Sprite,Foreground,Centre,"sb\hl2.png",94.53722,183.1129 C,0,173239,,128,255,255 F,2,173239,174039,0.5,0 P,0,173239,174039,A
Sprite,Foreground,Centre,"sb\hl2.png",90.13021,151.6511 C,0,173283,,128,255,255 F,2,173283,174083,0.5,0 P,0,173283,174083,A
Sprite,Foreground,Centre,"sb\hl2.png",94.44571,119.4759 C,0,173327,,128,255,255 F,2,173327,174127,0.5,0 P,0,173327,174127,A
Sprite,Foreground,Centre,"sb\hl2.png",104,57 C,0,173416,,128,255,255 F,2,173416,174216,0.5,0 S,2,173416,174216,1,0.8 P,0,173416,174216,A
Sprite,Foreground,Centre,"sb\hl2.png",0,0 C,0,173593,,6,87,255 M,0,173593,173637,176,193,183.9773,143.6405 F,2,173593,174481,0.5,0 S,2,173593,174481,1,0.8 P,0,173593,174481,A M,0,173637,173681,183.9773,143.6405,191.9546,94.28094
Sprite,Foreground,Centre,"sb\hl2.png",176,193 C,0,173637,,6,87,255 F,2,173637,174437,0.5,0 P,0,173637,174437,A
Sprite,Foreground,Centre,"sb\hl2.png",183.9773,143.6405 C,0,173681,,6,87,255 F,2,173681,174481,0.5,0 P,0,173681,174481,A
Sprite,Foreground,Centre,"sb\hl2.png",247,240 C,0,173769,,6,87,255 F,2,173769,174569,0.5,0 S,2,173769,174569,1,0.8 P,0,173769,174569,A
Sprite,Foreground,Centre,"sb\hl2.png",0,0 C,0,173946,,128,255,255 M,0,173946,173990,247,240,254.9773,190.6405 F,2,173946,174834,0.5,0 S,2,173946,174834,1,0.8 P,0,173946,174834,A M,0,173990,174034,254.9773,190.6405,262.9546,141.2809
Sprite,Foreground,Centre,"sb\hl2.png",247,240 C,0,173990,,128,255,255 F,2,173990,174790,0.5,0 P,0,173990,174790,A
Sprite,Foreground,Centre,"sb\hl2.png",254.9773,190.6405 C,0,174034,,128,255,255 F,2,174034,174834,0.5,0 P,0,174034,174834,A
Sprite,Foreground,Centre,"sb\hl2.png",318,287 C,0,174122,,128,255,255 F,2,174122,174922,0.5,0 S,2,174122,174922,1,0.8 P,0,174122,174922,A
Sprite,Foreground,Centre,"sb\hl2.png",0,0 C,0,174299,,6,87,255 M,0,174299,174343,318,287,325.9773,237.6405 F,2,174299,175187,0.5,0 S,2,174299,175187,1,0.8 P,0,174299,175187,A M,0,174343,174387,325.9773,237.6405,333.9546,188.2809
Sprite,Foreground,Centre,"sb\hl2.png",318,287 C,0,174343,,6,87,255 F,2,174343,175143,0.5,0 P,0,174343,175143,A
Sprite,Foreground,Centre,"sb\hl2.png",325.9773,237.6405 C,0,174387,,6,87,255 F,2,174387,175187,0.5,0 P,0,174387,175187,A
Sprite,Foreground,Centre,"sb\hl2.png",389,334 C,0,174475,,6,87,255 F,2,174475,175275,0.5,0 S,2,174475,175275,1,0.8 P,0,174475,175275,A
Sprite,Foreground,Centre,"sb\hl2.png",0,0 C,0,174652,,128,255,255 M,0,174652,174696,389,334,396.9773,284.6405 F,2,174652,175540,0.5,0 S,2,174652,175540,1,0.8 P,0,174652,175540,A M,0,174696,174740,396.9773,284.6405,404.9546,235.2809
Sprite,Foreground,Centre,"sb\hl2.png",389,334 C,0,174696,,128,255,255 F,2,174696,175496,0.5,0 P,0,174696,175496,A
Sprite,Foreground,Centre,"sb\hl2.png",396.9773,284.6405 C,0,174740,,128,255,255 F,2,174740,175540,0.5,0 P,0,174740,175540,A
Sprite,Foreground,Centre,"sb\hl2.png",460,381 C,0,174828,,128,255,255 F,2,174828,175628,0.5,0 S,2,174828,175628,1,0.8 P,0,174828,175628,A
Sprite,Foreground,Centre,"sb\hl2.png",0,0 C,0,175004,,6,87,255 M,0,175004,175048,460,381,467.9773,331.6405 F,2,175004,175892,0.5,0 S,2,175004,175892,1,0.8 P,0,175004,175892,A M,0,175048,175092,467.9773,331.6405,475.9546,282.2809
Sprite,Foreground,Centre,"sb\hl2.png",460,381 C,0,175048,,6,87,255 F,2,175048,175848,0.5,0 P,0,175048,175848,A
Sprite,Foreground,Centre,"sb\hl2.png",467.9773,331.6405 C,0,175092,,6,87,255 F,2,175092,175892,0.5,0 P,0,175092,175892,A
Sprite,Foreground,Centre,"sb\hl2.png",531,428 C,0,175180,,6,87,255 F,2,175180,175980,0.5,0 S,2,175180,175980,1,0.8 P,0,175180,175980,A
Sprite,Foreground,Centre,"sb\hl2.png",477,282 C,0,175357,,128,255,255 F,2,175357,176157,0.5,0 S,2,175357,176157,1,0.8 P,0,175357,176157,A
Sprite,Foreground,Centre,"sb\hl2.png",368,440 C,0,175534,,128,255,255 F,2,175534,176334,0.5,0 S,2,175534,176334,1,0.8 P,0,175534,176334,A
Sprite,Foreground,Centre,"sb\hl2.png",576,326 C,0,175710,,128,255,255 F,2,175710,176510,0.5,0 S,2,175710,176510,1,0.8 P,0,175710,176510,A
Sprite,Foreground,Centre,"sb\hl2.png",0,0 C,0,175887,,6,87,255 M,0,175887,175931,324,273,291.9422,278.343 F,2,175887,176951,0.5,0 S,2,175887,176951,1,0.8 P,0,175887,176951,A M,0,175931,175975,291.9422,278.343,259.8844,283.6859 M,0,175975,176019,259.8844,283.6859,232.2297,298.2403 M,0,176019,176063,232.2297,298.2403,204.4703,312.8122 M,0,176063,176107,204.4703,312.8122,172.5625,318.9879 M,0,176107,176151,172.5625,318.9879,140.6547,325.1636
Sprite,Foreground,Centre,"sb\hl2.png",324,273 C,0,175931,,6,87,255 F,2,175931,176731,0.5,0 P,0,175931,176731,A
Sprite,Foreground,Centre,"sb\hl2.png",291.9422,278.343 C,0,175975,,6,87,255 F,2,175975,176775,0.5,0 P,0,175975,176775,A
Sprite,Foreground,Centre,"sb\hl2.png",259.8844,283.6859 C,0,176019,,6,87,255 F,2,176019,176819,0.5,0 P,0,176019,176819,A
Sprite,Foreground,Centre,"sb\hl2.png",232.2297,298.2403 C,0,176063,,6,87,255 F,2,176063,176863,0.5,0 P,0,176063,176863,A
Sprite,Foreground,Centre,"sb\hl2.png",204.4703,312.8122 C,0,176107,,6,87,255 F,2,176107,176907,0.5,0 P,0,176107,176907,A
Sprite,Foreground,Centre,"sb\hl2.png",172.5625,318.9879 C,0,176151,,6,87,255 F,2,176151,176951,0.5,0 P,0,176151,176951,A
Sprite,Foreground,Centre,"sb\hl2.png",117,332 C,0,176240,,6,87,255 F,2,176240,177040,0.5,0 S,2,176240,177040,1,0.8 P,0,176240,177040,A
Sprite,Foreground,Centre,"sb\hl2.png",0,0 C,0,176416,,6,87,255 M,0,176416,176460,79,97,99.17633,65.39042 F,2,176416,177480,0.5,0 S,2,176416,177480,1,0.8 P,0,176416,177480,A M,0,176460,176504,99.17633,65.39042,126.1901,58.62275 M,0,176504,176548,126.1901,58.62275,155.5151,81.75044 M,0,176548,176592,155.5151,81.75044,174.4658,113.7999 M,0,176592,176636,174.4658,113.7999,179.6405,150.7427 M,0,176636,176680,179.6405,150.7427,174.0302,187.7384
Sprite,Foreground,Centre,"sb\hl2.png",79,97 C,0,176460,,6,87,255 F,2,176460,177260,0.5,0 P,0,176460,177260,A
Sprite,Foreground,Centre,"sb\hl2.png",99.17633,65.39042 C,0,176504,,6,87,255 F,2,176504,177304,0.5,0 P,0,176504,177304,A
Sprite,Foreground,Centre,"sb\hl2.png",126.1901,58.62275 C,0,176548,,6,87,255 F,2,176548,177348,0.5,0 P,0,176548,177348,A
Sprite,Foreground,Centre,"sb\hl2.png",155.5151,81.75044 C,0,176592,,6,87,255 F,2,176592,177392,0.5,0 P,0,176592,177392,A
Sprite,Foreground,Centre,"sb\hl2.png",174.4658,113.7999 C,0,176636,,6,87,255 F,2,176636,177436,0.5,0 P,0,176636,177436,A
Sprite,Foreground,Centre,"sb\hl2.png",179.6405,150.7427 C,0,176680,,6,87,255 F,2,176680,177480,0.5,0 P,0,176680,177480,A
Sprite,Foreground,Centre,"sb\hl2.png",0,0 C,0,176769,,6,87,255 M,0,176769,176813,174,187,146.9597,192.0075 F,2,176769,177745,0.5,0 S,2,176769,177745,1,0.8 P,0,176769,177745,A M,0,176813,176857,146.9597,192.0075,119.9195,197.0149 M,0,176857,176901,119.9195,197.0149,92.87923,202.0224 M,0,176901,176945,92.87923,202.0224,66,207
Sprite,Foreground,Centre,"sb\hl2.png",174,187 C,0,176813,,6,87,255 F,2,176813,177613,0.5,0 P,0,176813,177613,A
Sprite,Foreground,Centre,"sb\hl2.png",146.9597,192.0075 C,0,176857,,6,87,255 F,2,176857,177657,0.5,0 P,0,176857,177657,A
Sprite,Foreground,Centre,"sb\hl2.png",119.9195,197.0149 C,0,176901,,6,87,255 F,2,176901,177701,0.5,0 P,0,176901,177701,A
Sprite,Foreground,Centre,"sb\hl2.png",92.87923,202.0224 C,0,176945,,6,87,255 F,2,176945,177745,0.5,0 P,0,176945,177745,A
Sprite,Foreground,Centre,"sb\hl2.png",250,75 C,0,177122,,6,87,255 F,2,177122,177922,0.5,0 S,2,177122,177922,1,0.8 P,0,177122,177922,A
Sprite,Foreground,Centre,"sb\hl2.png",0,0 C,0,177299,,128,255,255 M,0,177299,177343,402,305,373.7237,320.6548 F,2,177299,178363,0.5,0 S,2,177299,178363,1,0.8 P,0,177299,178363,A M,0,177343,177387,373.7237,320.6548,342.1193,327.1746 M,0,177387,177431,342.1193,327.1746,310.039,323.682 M,0,177431,177475,310.039,323.682,280.578,310.514 M,0,177475,177519,280.578,310.514,256.5789,288.9411 M,0,177519,177563,256.5789,288.9411,240.0678,261.1568
Sprite,Foreground,Centre,"sb\hl2.png",402,305 C,0,177343,,128,255,255 F,2,177343,178143,0.5,0 P,0,177343,178143,A
Sprite,Foreground,Centre,"sb\hl2.png",373.7237,320.6548 C,0,177387,,128,255,255 F,2,177387,178187,0.5,0 P,0,177387,178187,A
Sprite,Foreground,Centre,"sb\hl2.png",342.1193,327.1746 C,0,177431,,128,255,255 F,2,177431,178231,0.5,0 P,0,177431,178231,A
Sprite,Foreground,Centre,"sb\hl2.png",310.039,323.682 C,0,177475,,128,255,255 F,2,177475,178275,0.5,0 P,0,177475,178275,A
Sprite,Foreground,Centre,"sb\hl2.png",280.578,310.514 C,0,177519,,128,255,255 F,2,177519,178319,0.5,0 P,0,177519,178319,A
Sprite,Foreground,Centre,"sb\hl2.png",256.5789,288.9411 C,0,177563,,128,255,255 F,2,177563,178363,0.5,0 P,0,177563,178363,A
Sprite,Foreground,Centre,"sb\hl2.png",238,235 C,0,177652,,128,255,255 F,2,177652,178452,0.5,0 S,2,177652,178452,1,0.8 P,0,177652,178452,A
Sprite,Foreground,Centre,"sb\hl2.png",0,0 C,0,177828,,128,255,255 M,0,177828,177872,450,87,487.01,80.95755 F,2,177828,178892,0.5,0 S,2,177828,178892,1,0.8 P,0,177828,178892,A M,0,177872,177916,487.01,80.95755,494.5627,103.9599 M,0,177916,177960,494.5627,103.9599,487.9989,140.881 M,0,177960,178004,487.9989,140.881,481.4352,177.8021 M,0,178004,178048,481.4352,177.8021,474.3401,213.6774 M,0,178048,178092,474.3401,213.6774,440.6507,197.207
Sprite,Foreground,Centre,"sb\hl2.png",450,87 C,0,177872,,128,255,255 F,2,177872,178672,0.5,0 P,0,177872,178672,A
Sprite,Foreground,Centre,"sb\hl2.png",487.01,80.95755 C,0,177916,,128,255,255 F,2,177916,178716,0.5,0 P,0,177916,178716,A
Sprite,Foreground,Centre,"sb\hl2.png",494.5627,103.9599 C,0,177960,,128,255,255 F,2,177960,178760,0.5,0 P,0,177960,178760,A
Sprite,Foreground,Centre,"sb\hl2.png",487.9989,140.881 C,0,178004,,128,255,255 F,2,178004,178804,0.5,0 P,0,178004,178804,A
Sprite,Foreground,Centre,"sb\hl2.png",481.4352,177.8021 C,0,178048,,128,255,255 F,2,178048,178848,0.5,0 P,0,178048,178848,A
Sprite,Foreground,Centre,"sb\hl2.png",474.3401,213.6774 C,0,178092,,128,255,255 F,2,178092,178892,0.5,0 P,0,178092,178892,A
Sprite,Foreground,Centre,"sb\hl2.png",0,0 C,0,178181,,128,255,255 M,0,178181,178225,440,198,467.3177,194.8393 F,2,178181,179157,0.5,0 S,2,178181,179157,1,0.8 P,0,178181,179157,A M,0,178225,178269,467.3177,194.8393,494.6355,191.6785 M,0,178269,178313,494.6355,191.6785,521.9532,188.5178 M,0,178313,178357,521.9532,188.5178,549.271,185.3571
Sprite,Foreground,Centre,"sb\hl2.png",440,198 C,0,178225,,128,255,255 F,2,178225,179025,0.5,0 P,0,178225,179025,A
Sprite,Foreground,Centre,"sb\hl2.png",467.3177,194.8393 C,0,178269,,128,255,255 F,2,178269,179069,0.5,0 P,0,178269,179069,A
Sprite,Foreground,Centre,"sb\hl2.png",494.6355,191.6785 C,0,178313,,128,255,255 F,2,178313,179113,0.5,0 P,0,178313,179113,A
Sprite,Foreground,Centre,"sb\hl2.png",521.9532,188.5178 C,0,178357,,128,255,255 F,2,178357,179157,0.5,0 P,0,178357,179157,A
Sprite,Foreground,Centre,"sb\hl2.png",380,66 C,0,178534,,128,255,255 F,2,178534,179334,0.5,0 S,2,178534,179334,1,0.8 P,0,178534,179334,A
Sprite,Foreground,Centre,"sb\hl2.png",0,0 C,0,178710,,6,87,255 M,0,178710,178754,259,223,226.6466,224.402 F,2,178710,179774,0.5,0 S,2,178710,179774,1,0.8 P,0,178710,179774,A M,0,178754,178798,226.6466,224.402,195.956,214.4355 M,0,178798,178842,195.956,214.4355,171.758,193.0343 M,0,178842,178886,171.758,193.0343,145.8325,174.9366 M,0,178886,178930,145.8325,174.9366,113.7649,171.1976 M,0,178930,178974,113.7649,171.1976,82.18435,178.4175
Sprite,Foreground,Centre,"sb\hl2.png",259,223 C,0,178754,,6,87,255 F,2,178754,179554,0.5,0 P,0,178754,179554,A
Sprite,Foreground,Centre,"sb\hl2.png",226.6466,224.402 C,0,178798,,6,87,255 F,2,178798,179598,0.5,0 P,0,178798,179598,A
Sprite,Foreground,Centre,"sb\hl2.png",195.956,214.4355 C,0,178842,,6,87,255 F,2,178842,179642,0.5,0 P,0,178842,179642,A
Sprite,Foreground,Centre,"sb\hl2.png",171.758,193.0343 C,0,178886,,6,87,255 F,2,178886,179686,0.5,0 P,0,178886,179686,A
Sprite,Foreground,Centre,"sb\hl2.png",145.8325,174.9366 C,0,178930,,6,87,255 F,2,178930,179730,0.5,0 P,0,178930,179730,A
Sprite,Foreground,Centre,"sb\hl2.png",113.7649,171.1976 C,0,178974,,6,87,255 F,2,178974,179774,0.5,0 P,0,178974,179774,A
Sprite,Foreground,Centre,"sb\hl2.png",64,193 C,0,179063,,6,87,255 F,2,179063,179863,0.5,0 S,2,179063,179863,1,0.8 P,0,179063,179863,A
Sprite,Foreground,Centre,"sb\hl2.png",0,0 C,0,179240,,6,87,255 M,0,179240,179284,182,379,199.9164,346.0569 F,2,179240,180304,0.5,0 S,2,179240,180304,1,0.8 P,0,179240,180304,A M,0,179284,179328,199.9164,346.0569,222.9917,320.4224 M,0,179328,179372,222.9917,320.4224,260.0328,314.5738 M,0,179372,179416,260.0328,314.5738,297.0739,308.7252 M,0,179416,179460,297.0739,308.7252,331.9736,309.2104 M,0,179460,179504,331.9736,309.2104,357.8665,336.3363
Sprite,Foreground,Centre,"sb\hl2.png",182,379 C,0,179284,,6,87,255 F,2,179284,180084,0.5,0 P,0,179284,180084,A
Sprite,Foreground,Centre,"sb\hl2.png",199.9164,346.0569 C,0,179328,,6,87,255 F,2,179328,180128,0.5,0 P,0,179328,180128,A
Sprite,Foreground,Centre,"sb\hl2.png",222.9917,320.4224 C,0,179372,,6,87,255 F,2,179372,180172,0.5,0 P,0,179372,180172,A
Sprite,Foreground,Centre,"sb\hl2.png",260.0328,314.5738 C,0,179416,,6,87,255 F,2,179416,180216,0.5,0 P,0,179416,180216,A
Sprite,Foreground,Centre,"sb\hl2.png",297.0739,308.7252 C,0,179460,,6,87,255 F,2,179460,180260,0.5,0 P,0,179460,180260,A
Sprite,Foreground,Centre,"sb\hl2.png",331.9736,309.2104 C,0,179504,,6,87,255 F,2,179504,180304,0.5,0 P,0,179504,180304,A
Sprite,Foreground,Centre,"sb\hl2.png",371,355 C,0,179593,,6,87,255 F,2,179593,180393,0.5,0 S,2,179593,180393,1,0.8 P,0,179593,180393,A
Sprite,Foreground,Centre,"sb\hl2.png",259,223 C,0,179769,,6,87,255 F,2,179769,180569,0.5,0 S,2,179769,180569,1,0.8 P,0,179769,180569,A
Sprite,Foreground,Centre,"sb\hl2.png",259,223 C,0,179857,,6,87,255 F,2,179857,180657,0.5,0 S,2,179857,180657,1,0.8 P,0,179857,180657,A
Sprite,Foreground,Centre,"sb\hl2.png",259,223 C,0,179946,,191,128,255 F,2,179946,180746,0.5,0 S,2,179946,180746,1,0.8 P,0,179946,180746,A
Sprite,Foreground,Centre,"sb\hl2.png",282,408 C,0,180122,,191,128,255 F,2,180122,180922,0.5,0 S,2,180122,180922,1,0.8 P,0,180122,180922,A
Sprite,Foreground,Centre,"sb\hl2.png",416,201 C,0,180299,,191,128,255 F,2,180299,181099,0.5,0 S,2,180299,181099,1,0.8 P,0,180299,181099,A
Sprite,Foreground,Centre,"sb\hl2.png",271,313 C,0,180475,,191,128,255 F,2,180475,181275,0.5,0 S,2,180475,181275,1,0.8 P,0,180475,181275,A
Sprite,Foreground,Centre,"sb\hl2.png",428,114 C,0,180652,,191,128,255 F,2,180652,181452,0.5,0 S,2,180652,181452,1,0.8 P,0,180652,181452,A
Sprite,Foreground,Centre,"sb\hl2.png",405,299 C,0,180828,,191,128,255 F,2,180828,181628,0.5,0 S,2,180828,181628,1,0.8 P,0,180828,181628,A
Sprite,Foreground,Centre,"sb\hl2.png",328,151 C,0,181004,,133,11,255 F,2,181004,181804,0.5,0 S,2,181004,181804,1,0.8 P,0,181004,181804,A
Sprite,Foreground,Centre,"sb\hl2.png",483,261 C,0,181181,,133,11,255 F,2,181181,181981,0.5,0 S,2,181181,181981,1,0.8 P,0,181181,181981,A
Sprite,Foreground,Centre,"sb\hl2.png",561,246 C,0,181357,,133,11,255 F,2,181357,182157,0.5,0 S,2,181357,182157,1,0.8 P,0,181357,182157,A
Sprite,Foreground,Centre,"sb\hl2.png",0,0 C,0,181534,,128,255,255 M,0,181534,181578,505,440,472.5115,439.1336 F,2,181534,182598,0.5,0 S,2,181534,182598,1,0.8 P,0,181534,182598,A M,0,181578,181622,472.5115,439.1336,440.0231,438.2673 M,0,181622,181666,440.0231,438.2673,412.5437,423.8463 M,0,181666,181710,412.5437,423.8463,385.6655,407.7349 M,0,181710,181754,385.6655,407.7349,353.1867,406.561 M,0,181754,181798,353.1867,406.561,320.7079,405.387
Sprite,Foreground,Centre,"sb\hl2.png",505,440 C,0,181578,,128,255,255 F,2,181578,182378,0.5,0 P,0,181578,182378,A
Sprite,Foreground,Centre,"sb\hl2.png",472.5115,439.1336 C,0,181622,,128,255,255 F,2,181622,182422,0.5,0 P,0,181622,182422,A
Sprite,Foreground,Centre,"sb\hl2.png",440.0231,438.2673 C,0,181666,,128,255,255 F,2,181666,182466,0.5,0 P,0,181666,182466,A
Sprite,Foreground,Centre,"sb\hl2.png",412.5437,423.8463 C,0,181710,,128,255,255 F,2,181710,182510,0.5,0 P,0,181710,182510,A
Sprite,Foreground,Centre,"sb\hl2.png",385.6655,407.7349 C,0,181754,,128,255,255 F,2,181754,182554,0.5,0 P,0,181754,182554,A
Sprite,Foreground,Centre,"sb\hl2.png",353.1867,406.561 C,0,181798,,128,255,255 F,2,181798,182598,0.5,0 P,0,181798,182598,A
Sprite,Foreground,Centre,"sb\hl2.png",300,407 C,0,181887,,128,255,255 F,2,181887,182687,0.5,0 S,2,181887,182687,1,0.8 P,0,181887,182687,A
Sprite,Foreground,Centre,"sb\hl2.png",0,0 C,0,182063,,128,255,255 M,0,182063,182107,343,189,354.2924,153.2406 F,2,182063,183127,0.5,0 S,2,182063,183127,1,0.8 P,0,182063,183127,A M,0,182107,182151,354.2924,153.2406,383.3258,171.5867 M,0,182151,182195,383.3258,171.5867,402.6582,203.2956 M,0,182195,182239,402.6582,203.2956,405.5535,240.4079 M,0,182239,182283,405.5535,240.4079,396.2509,276.6379 M,0,182283,182327,396.2509,276.6379,380.2644,310.5239
Sprite,Foreground,Centre,"sb\hl2.png",343,189 C,0,182107,,128,255,255 F,2,182107,182907,0.5,0 P,0,182107,182907,A
Sprite,Foreground,Centre,"sb\hl2.png",354.2924,153.2406 C,0,182151,,128,255,255 F,2,182151,182951,0.5,0 P,0,182151,182951,A
Sprite,Foreground,Centre,"sb\hl2.png",383.3258,171.5867 C,0,182195,,128,255,255 F,2,182195,182995,0.5,0 P,0,182195,182995,A
Sprite,Foreground,Centre,"sb\hl2.png",402.6582,203.2956 C,0,182239,,128,255,255 F,2,182239,183039,0.5,0 P,0,182239,183039,A
Sprite,Foreground,Centre,"sb\hl2.png",405.5535,240.4079 C,0,182283,,128,255,255 F,2,182283,183083,0.5,0 P,0,182283,183083,A
Sprite,Foreground,Centre,"sb\hl2.png",396.2509,276.6379 C,0,182327,,128,255,255 F,2,182327,183127,0.5,0 P,0,182327,183127,A
Sprite,Foreground,Centre,"sb\hl2.png",368,328 C,0,182416,,128,255,255 F,2,182416,183216,0.5,0 S,2,182416,183216,1,0.8 P,0,182416,183216,A
Sprite,Foreground,Centre,"sb\hl2.png",205,278 C,0,182593,,128,255,255 F,2,182593,183393,0.5,0 S,2,182593,183393,1,0.8 P,0,182593,183393,A
Sprite,Foreground,Centre,"sb\hl2.png",294,269 C,0,182769,,128,255,255 F,2,182769,183569,0.5,0 S,2,182769,183569,1,0.8 P,0,182769,183569,A
Sprite,Foreground,Centre,"sb\hl2.png",0,0 C,0,182946,,6,87,255 M,0,182946,182990,64,139,95.31332,131.4553 F,2,182946,184010,0.5,0 S,2,182946,184010,1,0.8 P,0,182946,184010,A M,0,182990,183034,95.31332,131.4553,126.55,139.328 M,0,183034,183078,126.55,139.328,150.7018,159.9527 M,0,183078,183122,150.7018,159.9527,172.7631,183.5585 M,0,183122,183166,172.7631,183.5585,202.3291,196.4816 M,0,183166,183210,202.3291,196.4816,234.667,198.1212
Sprite,Foreground,Centre,"sb\hl2.png",64,139 C,0,182990,,6,87,255 F,2,182990,183790,0.5,0 P,0,182990,183790,A
Sprite,Foreground,Centre,"sb\hl2.png",95.31332,131.4553 C,0,183034,,6,87,255 F,2,183034,183834,0.5,0 P,0,183034,183834,A
Sprite,Foreground,Centre,"sb\hl2.png",126.55,139.328 C,0,183078,,6,87,255 F,2,183078,183878,0.5,0 P,0,183078,183878,A
Sprite,Foreground,Centre,"sb\hl2.png",150.7018,159.9527 C,0,183122,,6,87,255 F,2,183122,183922,0.5,0 P,0,183122,183922,A
Sprite,Foreground,Centre,"sb\hl2.png",172.7631,183.5585 C,0,183166,,6,87,255 F,2,183166,183966,0.5,0 P,0,183166,183966,A
Sprite,Foreground,Centre,"sb\hl2.png",202.3291,196.4816 C,0,183210,,6,87,255 F,2,183210,184010,0.5,0 P,0,183210,184010,A
Sprite,Foreground,Centre,"sb\hl2.png",251,190 C,0,183299,,6,87,255 F,2,183299,184099,0.5,0 S,2,183299,184099,1,0.8 P,0,183299,184099,A
Sprite,Foreground,Centre,"sb\hl2.png",0,0 C,0,183475,,6,87,255 M,0,183475,183519,438,100,407.8909,77.64625 F,2,183475,184539,0.5,0 S,2,183475,184539,1,0.8 P,0,183475,184539,A M,0,183519,183563,407.8909,77.64625,377.7817,55.2925 M,0,183563,183607,377.7817,55.2925,343.3855,60.96207 M,0,183607,183651,343.3855,60.96207,307.9704,73.29177 M,0,183651,183695,307.9704,73.29177,272.5554,85.62148 M,0,183695,183739,272.5554,85.62148,237.1402,97.95117
Sprite,Foreground,Centre,"sb\hl2.png",438,100 C,0,183519,,6,87,255 F,2,183519,184319,0.5,0 P,0,183519,184319,A
Sprite,Foreground,Centre,"sb\hl2.png",407.8909,77.64625 C,0,183563,,6,87,255 F,2,183563,184363,0.5,0 P,0,183563,184363,A
Sprite,Foreground,Centre,"sb\hl2.png",377.7817,55.2925 C,0,183607,,6,87,255 F,2,183607,184407,0.5,0 P,0,183607,184407,A
Sprite,Foreground,Centre,"sb\hl2.png",343.3855,60.96207 C,0,183651,,6,87,255 F,2,183651,184451,0.5,0 P,0,183651,184451,A
Sprite,Foreground,Centre,"sb\hl2.png",307.9704,73.29177 C,0,183695,,6,87,255 F,2,183695,184495,0.5,0 P,0,183695,184495,A
Sprite,Foreground,Centre,"sb\hl2.png",272.5554,85.62148 C,0,183739,,6,87,255 F,2,183739,184539,0.5,0 P,0,183739,184539,A
Sprite,Foreground,Centre,"sb\hl2.png",228,115 C,0,183828,,6,87,255 F,2,183828,184628,0.5,0 S,2,183828,184628,1,0.8 P,0,183828,184628,A
Sprite,Foreground,Centre,"sb\hl2.png",387,246 C,0,184004,,6,87,255 F,2,184004,184804,0.5,0 S,2,184004,184804,1,0.8 P,0,184004,184804,A
Sprite,Foreground,Centre,"sb\hl2.png",356,145 C,0,184181,,6,87,255 F,2,184181,184981,0.5,0 S,2,184181,184981,1,0.8 P,0,184181,184981,A
Sprite,Foreground,Centre,"sb\hl2.png",0,0 C,0,184357,,128,255,255 M,0,184357,184401,265,405,251.9914,375.3405 F,2,184357,185421,0.5,0 S,2,184357,185421,1,0.8 P,0,184357,185421,A M,0,184401,184445,251.9914,375.3405,248.9279,343.1396 M,0,184445,184489,248.9279,343.1396,256.1281,311.5639 M,0,184489,184533,256.1281,311.5639,271.5844,284.1608 M,0,184533,184577,271.5844,284.1608,301.8748,295.0117 M,0,184577,184621,301.8748,295.0117,323.7315,318.7208
Sprite,Foreground,Centre,"sb\hl2.png",265,405 C,0,184401,,128,255,255 F,2,184401,185201,0.5,0 P,0,184401,185201,A
Sprite,Foreground,Centre,"sb\hl2.png",251.9914,375.3405 C,0,184445,,128,255,255 F,2,184445,185245,0.5,0 P,0,184445,185245,A
Sprite,Foreground,Centre,"sb\hl2.png",248.9279,343.1396 C,0,184489,,128,255,255 F,2,184489,185289,0.5,0 P,0,184489,185289,A
Sprite,Foreground,Centre,"sb\hl2.png",256.1281,311.5639 C,0,184533,,128,255,255 F,2,184533,185333,0.5,0 P,0,184533,185333,A
Sprite,Foreground,Centre,"sb\hl2.png",271.5844,284.1608 C,0,184577,,128,255,255 F,2,184577,185377,0.5,0 P,0,184577,185377,A
Sprite,Foreground,Centre,"sb\hl2.png",301.8748,295.0117 C,0,184621,,128,255,255 F,2,184621,185421,0.5,0 P,0,184621,185421,A
Sprite,Foreground,Centre,"sb\hl2.png",333,339 C,0,184710,,128,255,255 F,2,184710,185510,0.5,0 S,2,184710,185510,1,0.8 P,0,184710,185510,A
Sprite,Foreground,Centre,"sb\hl2.png",483,395 C,0,184887,,191,128,255 F,2,184887,185687,0.5,0 S,2,184887,185687,1,0.8 P,0,184887,185687,A
Sprite,Foreground,Centre,"sb\hl2.png",471,397 C,0,184975,,191,128,255 F,2,184975,185775,0.5,0 S,2,184975,185775,1,0.8 P,0,184975,185775,A
Sprite,Foreground,Centre,"sb\hl2.png",459,399 C,0,185063,,191,128,255 F,2,185063,185863,0.5,0 S,2,185063,185863,1,0.8 P,0,185063,185863,A
Sprite,Foreground,Centre,"sb\hl2.png",551,300 C,0,185240,,133,11,255 F,2,185240,186040,0.5,0 S,2,185240,186040,1,0.8 P,0,185240,186040,A
Sprite,Foreground,Centre,"sb\hl2.png",563,302 C,0,185328,,133,11,255 F,2,185328,186128,0.5,0 S,2,185328,186128,1,0.8 P,0,185328,186128,A
Sprite,Foreground,Centre,"sb\hl2.png",575,304 C,0,185416,,133,11,255 F,2,185416,186216,0.5,0 S,2,185416,186216,1,0.8 P,0,185416,186216,A
Sprite,Foreground,Centre,"sb\hl2.png",459,201 C,0,185593,,191,128,255 F,2,185593,186393,0.5,0 S,2,185593,186393,1,0.8 P,0,185593,186393,A
Sprite,Foreground,Centre,"sb\hl2.png",447,203 C,0,185681,,191,128,255 F,2,185681,186481,0.5,0 S,2,185681,186481,1,0.8 P,0,185681,186481,A
Sprite,Foreground,Centre,"sb\hl2.png",435,205 C,0,185769,,191,128,255 F,2,185769,186569,0.5,0 S,2,185769,186569,1,0.8 P,0,185769,186569,A
Sprite,Foreground,Centre,"sb\hl2.png",551,102 C,0,185946,,133,11,255 F,2,185946,186746,0.5,0 S,2,185946,186746,1,0.8 P,0,185946,186746,A
Sprite,Foreground,Centre,"sb\hl2.png",563,104 C,0,186034,,133,11,255 F,2,186034,186834,0.5,0 S,2,186034,186834,1,0.8 P,0,186034,186834,A
Sprite,Foreground,Centre,"sb\hl2.png",575,106 C,0,186122,,133,11,255 F,2,186122,186922,0.5,0 S,2,186122,186922,1,0.8 P,0,186122,186922,A
Sprite,Foreground,Centre,"sb\hl2.png",459,201 C,0,186299,,191,128,255 F,2,186299,187099,0.5,0 S,2,186299,187099,1,0.8 P,0,186299,187099,A
Sprite,Foreground,Centre,"sb\hl2.png",447,203 C,0,186387,,191,128,255 F,2,186387,187187,0.5,0 S,2,186387,187187,1,0.8 P,0,186387,187187,A
Sprite,Foreground,Centre,"sb\hl2.png",435,205 C,0,186475,,191,128,255 F,2,186475,187275,0.5,0 S,2,186475,187275,1,0.8 P,0,186475,187275,A
Sprite,Foreground,Centre,"sb\hl2.png",299,110 C,0,186652,,133,11,255 F,2,186652,187452,0.5,0 S,2,186652,187452,1,0.8 P,0,186652,187452,A
Sprite,Foreground,Centre,"sb\hl2.png",326,113 C,0,186740,,133,11,255 F,2,186740,187540,0.5,0 S,2,186740,187540,1,0.8 P,0,186740,187540,A
Sprite,Foreground,Centre,"sb\hl2.png",353,116 C,0,186828,,133,11,255 F,2,186828,187628,0.5,0 S,2,186828,187628,1,0.8 P,0,186828,187628,A
Sprite,Foreground,Centre,"sb\hl2.png",432,124 C,0,187004,,133,11,255 F,2,187004,187804,0.5,0 S,2,187004,187804,1,0.8 P,0,187004,187804,A
Sprite,Foreground,Centre,"sb\hl2.png",0,0 C,0,187181,,128,255,255 M,0,187181,187225,187,246,192.7676,214.0159 F,2,187181,188245,0.5,0 S,2,187181,188245,1,0.8 P,0,187181,188245,A M,0,187225,187269,192.7676,214.0159,201.0056,185.2524 M,0,187269,187313,201.0056,185.2524,233.3916,187.9718 M,0,187313,187357,233.3916,187.9718,265.7776,190.6913 M,0,187357,187401,265.7776,190.6913,298.1636,193.4107 M,0,187401,187445,298.1636,193.4107,329,196
Sprite,Foreground,Centre,"sb\hl2.png",187,246 C,0,187225,,128,255,255 F,2,187225,188025,0.5,0 P,0,187225,188025,A
Sprite,Foreground,Centre,"sb\hl2.png",192.7676,214.0159 C,0,187269,,128,255,255 F,2,187269,188069,0.5,0 P,0,187269,188069,A
Sprite,Foreground,Centre,"sb\hl2.png",201.0056,185.2524 C,0,187313,,128,255,255 F,2,187313,188113,0.5,0 P,0,187313,188113,A
Sprite,Foreground,Centre,"sb\hl2.png",233.3916,187.9718 C,0,187357,,128,255,255 F,2,187357,188157,0.5,0 P,0,187357,188157,A
Sprite,Foreground,Centre,"sb\hl2.png",265.7776,190.6913 C,0,187401,,128,255,255 F,2,187401,188201,0.5,0 P,0,187401,188201,A
Sprite,Foreground,Centre,"sb\hl2.png",298.1636,193.4107 C,0,187445,,128,255,255 F,2,187445,188245,0.5,0 P,0,187445,188245,A
Sprite,Foreground,Centre,"sb\hl2.png",349,200 C,0,187534,,128,255,255 F,2,187534,188334,0.5,0 S,2,187534,188334,1,0.8 P,0,187534,188334,A
Sprite,Foreground,Centre,"sb\hl2.png",0,0 C,0,187710,,128,255,255 M,0,187710,187754,367,438,330.5601,445.1072 F,2,187710,188774,0.5,0 S,2,187710,188774,1,0.8 P,0,187710,188774,A M,0,187754,187798,330.5601,445.1072,294.4629,436.6094 M,0,187798,187842,294.4629,436.6094,265.2178,413.6783 M,0,187842,187886,265.2178,413.6783,248.8646,380.3503 M,0,187886,187930,248.8646,380.3503,247.6783,343.2884 M,0,187930,187974,247.6783,343.2884,262.1991,309.0806
Sprite,Foreground,Centre,"sb\hl2.png",367,438 C,0,187754,,128,255,255 F,2,187754,188554,0.5,0 P,0,187754,188554,A
Sprite,Foreground,Centre,"sb\hl2.png",330.5601,445.1072 C,0,187798,,128,255,255 F,2,187798,188598,0.5,0 P,0,187798,188598,A
Sprite,Foreground,Centre,"sb\hl2.png",294.4629,436.6094 C,0,187842,,128,255,255 F,2,187842,188642,0.5,0 P,0,187842,188642,A
Sprite,Foreground,Centre,"sb\hl2.png",265.2178,413.6783 C,0,187886,,128,255,255 F,2,187886,188686,0.5,0 P,0,187886,188686,A
Sprite,Foreground,Centre,"sb\hl2.png",248.8646,380.3503 C,0,187930,,128,255,255 F,2,187930,188730,0.5,0 P,0,187930,188730,A
Sprite,Foreground,Centre,"sb\hl2.png",247.6783,343.2884 C,0,187974,,128,255,255 F,2,187974,188774,0.5,0 P,0,187974,188774,A
Sprite,Foreground,Centre,"sb\hl2.png",277,297 C,0,188063,,128,255,255 F,2,188063,188863,0.5,0 S,2,188063,188863,1,0.8 P,0,188063,188863,A
Sprite,Foreground,Centre,"sb\hl2.png",432,340 C,0,188240,,128,255,255 F,2,188240,189040,0.5,0 S,2,188240,189040,1,0.8 P,0,188240,189040,A
Sprite,Foreground,Centre,"sb\hl2.png",334,359 C,0,188416,,128,255,255 F,2,188416,189216,0.5,0 S,2,188416,189216,1,0.8 P,0,188416,189216,A
Sprite,Foreground,Centre,"sb\hl2.png",0,0 C,0,188593,,6,87,255 M,0,188593,188637,570,246,537.5094,245.2171 F,2,188593,189657,0.5,0 S,2,188593,189657,1,0.8 P,0,188593,189657,A M,0,188637,188681,537.5094,245.2171,505.0189,244.4342 M,0,188681,188725,505.0189,244.4342,475.2754,235.5097 M,0,188725,188769,475.2754,235.5097,446.8327,222.7173 M,0,188769,188813,446.8327,222.7173,414.3431,221.8948 M,0,188813,188857,414.3431,221.8948,381.8535,221.0722
Sprite,Foreground,Centre,"sb\hl2.png",570,246 C,0,188637,,6,87,255 F,2,188637,189437,0.5,0 P,0,188637,189437,A
Sprite,Foreground,Centre,"sb\hl2.png",537.5094,245.2171 C,0,188681,,6,87,255 F,2,188681,189481,0.5,0 P,0,188681,189481,A
Sprite,Foreground,Centre,"sb\hl2.png",505.0189,244.4342 C,0,188725,,6,87,255 F,2,188725,189525,0.5,0 P,0,188725,189525,A
Sprite,Foreground,Centre,"sb\hl2.png",475.2754,235.5097 C,0,188769,,6,87,255 F,2,188769,189569,0.5,0 P,0,188769,189569,A
Sprite,Foreground,Centre,"sb\hl2.png",446.8327,222.7173 C,0,188813,,6,87,255 F,2,188813,189613,0.5,0 P,0,188813,189613,A
Sprite,Foreground,Centre,"sb\hl2.png",414.3431,221.8948 C,0,188857,,6,87,255 F,2,188857,189657,0.5,0 P,0,188857,189657,A
Sprite,Foreground,Centre,"sb\hl2.png",359,221 C,0,188946,,6,87,255 F,2,188946,189746,0.5,0 S,2,188946,189746,1,0.8 P,0,188946,189746,A
Sprite,Foreground,Centre,"sb\hl2.png",0,0 C,0,189122,,6,87,255 M,0,189122,189166,152,318,145.9576,355.01 F,2,189122,190186,0.5,0 S,2,189122,190186,1,0.8 P,0,189122,190186,A M,0,189166,189210,145.9576,355.01,168.9599,362.5627 M,0,189210,189254,168.9599,362.5627,205.881,355.9989 M,0,189254,189298,205.881,355.9989,242.8021,349.4352 M,0,189298,189342,242.8021,349.4352,278.6774,342.3401 M,0,189342,189386,278.6774,342.3401,262.207,308.6507
Sprite,Foreground,Centre,"sb\hl2.png",152,318 C,0,189166,,6,87,255 F,2,189166,189966,0.5,0 P,0,189166,189966,A
Sprite,Foreground,Centre,"sb\hl2.png",145.9576,355.01 C,0,189210,,6,87,255 F,2,189210,190010,0.5,0 P,0,189210,190010,A
Sprite,Foreground,Centre,"sb\hl2.png",168.9599,362.5627 C,0,189254,,6,87,255 F,2,189254,190054,0.5,0 P,0,189254,190054,A
Sprite,Foreground,Centre,"sb\hl2.png",205.881,355.9989 C,0,189298,,6,87,255 F,2,189298,190098,0.5,0 P,0,189298,190098,A
Sprite,Foreground,Centre,"sb\hl2.png",242.8021,349.4352 C,0,189342,,6,87,255 F,2,189342,190142,0.5,0 P,0,189342,190142,A
Sprite,Foreground,Centre,"sb\hl2.png",278.6774,342.3401 C,0,189386,,6,87,255 F,2,189386,190186,0.5,0 P,0,189386,190186,A
Sprite,Foreground,Centre,"sb\hl2.png",257,294 C,0,189475,,6,87,255 F,2,189475,190275,0.5,0 S,2,189475,190275,1,0.8 P,0,189475,190275,A
Sprite,Foreground,Centre,"sb\hl2.png",81,246 C,0,189652,,6,87,255 F,2,189652,190452,0.5,0 S,2,189652,190452,1,0.8 P,0,189652,190452,A
Sprite,Foreground,Centre,"sb\hl2.png",152,318 C,0,189828,,6,87,255 F,2,189828,190628,0.5,0 S,2,189828,190628,1,0.8 P,0,189828,190628,A
Sprite,Foreground,Centre,"sb\hl2.png",0,0 C,0,190004,,128,255,255 M,0,190004,190048,190,60,203.0086,89.65955 F,2,190004,191068,0.5,0 S,2,190004,191068,1,0.8 P,0,190004,191068,A M,0,190048,190092,203.0086,89.65955,206.0721,121.8604 M,0,190092,190136,206.0721,121.8604,198.872,153.4361 M,0,190136,190180,198.872,153.4361,183.4157,180.8391 M,0,190180,190224,183.4157,180.8391,153.1252,169.9883 M,0,190224,190268,153.1252,169.9883,131.2685,146.2792
Sprite,Foreground,Centre,"sb\hl2.png",190,60 C,0,190048,,128,255,255 F,2,190048,190848,0.5,0 P,0,190048,190848,A
Sprite,Foreground,Centre,"sb\hl2.png",203.0086,89.65955 C,0,190092,,128,255,255 F,2,190092,190892,0.5,0 P,0,190092,190892,A
Sprite,Foreground,Centre,"sb\hl2.png",206.0721,121.8604 C,0,190136,,128,255,255 F,2,190136,190936,0.5,0 P,0,190136,190936,A
Sprite,Foreground,Centre,"sb\hl2.png",198.872,153.4361 C,0,190180,,128,255,255 F,2,190180,190980,0.5,0 P,0,190180,190980,A
Sprite,Foreground,Centre,"sb\hl2.png",183.4157,180.8391 C,0,190224,,128,255,255 F,2,190224,191024,0.5,0 P,0,190224,191024,A
Sprite,Foreground,Centre,"sb\hl2.png",153.1252,169.9883 C,0,190268,,128,255,255 F,2,190268,191068,0.5,0 P,0,190268,191068,A
Sprite,Foreground,Centre,"sb\hl2.png",122,126 C,0,190357,,128,255,255 F,2,190357,191157,0.5,0 S,2,190357,191157,1,0.8 P,0,190357,191157,A
Sprite,Foreground,Centre,"sb\hl2.png",292,118 C,0,190534,,191,128,255 F,2,190534,191334,0.5,0 S,2,190534,191334,1,0.8 P,0,190534,191334,A
Sprite,Foreground,Centre,"sb\hl2.png",304,120 C,0,190622,,191,128,255 F,2,190622,191422,0.5,0 S,2,190622,191422,1,0.8 P,0,190622,191422,A
Sprite,Foreground,Centre,"sb\hl2.png",316,122 C,0,190710,,191,128,255 F,2,190710,191510,0.5,0 S,2,190710,191510,1,0.8 P,0,190710,191510,A
Sprite,Foreground,Centre,"sb\hl2.png",405,204 C,0,190887,,133,11,255 F,2,190887,191687,0.5,0 S,2,190887,191687,1,0.8 P,0,190887,191687,A
Sprite,Foreground,Centre,"sb\hl2.png",417,202 C,0,190975,,133,11,255 F,2,190975,191775,0.5,0 S,2,190975,191775,1,0.8 P,0,190975,191775,A
Sprite,Foreground,Centre,"sb\hl2.png",429,200 C,0,191063,,133,11,255 F,2,191063,191863,0.5,0 S,2,191063,191863,1,0.8 P,0,191063,191863,A
Sprite,Foreground,Centre,"sb\hl2.png",271,225 C,0,191240,,191,128,255 F,2,191240,192040,0.5,0 S,2,191240,192040,1,0.8 P,0,191240,192040,A
Sprite,Foreground,Centre,"sb\hl2.png",283,227 C,0,191328,,191,128,255 F,2,191328,192128,0.5,0 S,2,191328,192128,1,0.8 P,0,191328,192128,A
Sprite,Foreground,Centre,"sb\hl2.png",295,229 C,0,191416,,191,128,255 F,2,191416,192216,0.5,0 S,2,191416,192216,1,0.8 P,0,191416,192216,A
Sprite,Foreground,Centre,"sb\hl2.png",384,311 C,0,191593,,133,11,255 F,2,191593,192393,0.5,0 S,2,191593,192393,1,0.8 P,0,191593,192393,A
Sprite,Foreground,Centre,"sb\hl2.png",396,309 C,0,191681,,133,11,255 F,2,191681,192481,0.5,0 S,2,191681,192481,1,0.8 P,0,191681,192481,A
Sprite,Foreground,Centre,"sb\hl2.png",408,307 C,0,191769,,133,11,255 F,2,191769,192569,0.5,0 S,2,191769,192569,1,0.8 P,0,191769,192569,A
Sprite,Foreground,Centre,"sb\hl2.png",250,332 C,0,191946,,191,128,255 F,2,191946,192746,0.5,0 S,2,191946,192746,1,0.8 P,0,191946,192746,A
Sprite,Foreground,Centre,"sb\hl2.png",262,334 C,0,192034,,191,128,255 F,2,192034,192834,0.5,0 S,2,192034,192834,1,0.8 P,0,192034,192834,A
Sprite,Foreground,Centre,"sb\hl2.png",274,336 C,0,192122,,191,128,255 F,2,192122,192922,0.5,0 S,2,192122,192922,1,0.8 P,0,192122,192922,A
Sprite,Foreground,Centre,"sb\hl2.png",414,411 C,0,192299,,133,11,255 F,2,192299,193099,0.5,0 S,2,192299,193099,1,0.8 P,0,192299,193099,A
Sprite,Foreground,Centre,"sb\hl2.png",387,414 C,0,192387,,133,11,255 F,2,192387,193187,0.5,0 S,2,192387,193187,1,0.8 P,0,192387,193187,A
Sprite,Foreground,Centre,"sb\hl2.png",360,417 C,0,192475,,133,11,255 F,2,192475,193275,0.5,0 S,2,192475,193275,1,0.8 P,0,192475,193275,A
Sprite,Foreground,Centre,"sb\hl2.png",282,422 C,0,192652,,133,11,255 F,2,192652,193452,0.5,0 S,2,192652,193452,1,0.8 P,0,192652,193452,A
Sprite,Foreground,Centre,"sb\hl2.png",0,0 C,0,192828,,255,128,128 M,0,192828,192872,511,220,507.2654,249.6756 F,2,192828,194069,0.5,0 S,2,192828,194069,1,0.8 P,0,192828,194069,A M,0,192872,192916,507.2654,249.6756,494.4022,276.5917 M,0,192916,192960,494.4022,276.5917,472.6599,297.0334 M,0,192960,193004,472.6599,297.0334,445.728,310.0709 M,0,193004,193048,445.728,310.0709,421.351,317.2267 M,0,193048,193092,421.351,317.2267,450.6202,323.4873 M,0,193092,193136,450.6202,323.4873,476.7089,337.9673 M,0,193136,193180,476.7089,337.9673,495.1617,361.3554 M,0,193180,193225,495.1617,361.3554,504.1606,389.8529 M,0,193225,193269,504.1606,389.8529,506.0352,419.7491
Sprite,Foreground,Centre,"sb\hl2.png",511,220 C,0,192872,,255,128,128 F,2,192872,193672,0.5,0 P,0,192872,193672,A
Sprite,Foreground,Centre,"sb\hl2.png",507.2654,249.6756 C,0,192916,,255,128,128 F,2,192916,193716,0.5,0 P,0,192916,193716,A
Sprite,Foreground,Centre,"sb\hl2.png",494.4022,276.5917 C,0,192960,,255,128,128 F,2,192960,193760,0.5,0 P,0,192960,193760,A
Sprite,Foreground,Centre,"sb\hl2.png",472.6599,297.0334 C,0,193004,,255,128,128 F,2,193004,193804,0.5,0 P,0,193004,193804,A
Sprite,Foreground,Centre,"sb\hl2.png",445.728,310.0709 C,0,193048,,255,128,128 F,2,193048,193848,0.5,0 P,0,193048,193848,A
Sprite,Foreground,Centre,"sb\hl2.png",421.351,317.2267 C,0,193092,,255,128,128 F,2,193092,193892,0.5,0 P,0,193092,193892,A
Sprite,Foreground,Centre,"sb\hl2.png",450.6202,323.4873 C,0,193136,,255,128,128 F,2,193136,193936,0.5,0 P,0,193136,193936,A
Sprite,Foreground,Centre,"sb\hl2.png",476.7089,337.9673 C,0,193180,,255,128,128 F,2,193180,193980,0.5,0 P,0,193180,193980,A
Sprite,Foreground,Centre,"sb\hl2.png",495.1617,361.3554 C,0,193225,,255,128,128 F,2,193225,194025,0.5,0 P,0,193225,194025,A
Sprite,Foreground,Centre,"sb\hl2.png",504.1606,389.8529 C,0,193269,,255,128,128 F,2,193269,194069,0.5,0 P,0,193269,194069,A
Sprite,Foreground,Centre,"sb\hl2.png",506,420 C,0,195122,,255,6,6 F,2,195122,195922,0.5,0 S,2,195122,195922,1,0.8 P,0,195122,195922,A
Sprite,Foreground,Centre,"sb\hl2.png",376,341 C,0,195299,,255,6,6 F,2,195299,196099,0.5,0 S,2,195299,196099,1,0.8 P,0,195299,196099,A
Sprite,Foreground,Centre,"sb\hl2.png",559,280 C,0,195475,,255,6,6 F,2,195475,196275,0.5,0 S,2,195475,196275,1,0.8 P,0,195475,196275,A
Sprite,Foreground,Centre,"sb\hl2.png",0,0 C,0,195652,,6,87,255 M,0,195652,195696,237,284,213.3015,291.1263 F,2,195652,197510,0.5,0 S,2,195652,197510,1,0.8 P,0,195652,197510,A M,0,195696,195740,213.3015,291.1263,193.8609,306.7146 M,0,195740,195784,193.8609,306.7146,178.0563,326.0533 M,0,195784,195828,178.0563,326.0533,191.6678,334.0974 M,0,195828,195872,191.6678,334.0974,216.6044,333.1226 M,0,195872,195916,216.6044,333.1226,240.6579,326.5412 M,0,195916,195960,240.6579,326.5412,262.4906,314.4674 M,0,195960,196004,262.4906,314.4674,281.7803,298.5967 M,0,196004,196049,281.7803,298.5967,299.5985,281.0629 M,0,196049,196093,299.5985,281.0629,317.8328,263.9727 M,0,196093,196137,317.8328,263.9727,338.6479,250.2511 M,0,196137,196181,338.6479,250.2511,362.7025,244.0182 M,0,196181,196225,362.7025,244.0182,386.8831,238.3072 M,0,196225,196269,386.8831,238.3072,407.8767,224.8699 M,0,196269,196313,407.8767,224.8699,426.2174,207.8953 M,0,196313,196357,426.2174,207.8953,444.0859,190.4126 M,0,196357,196402,444.0859,190.4126,463.3939,174.5635 M,0,196402,196446,463.3939,174.5635,485.2271,162.4899 M,0,196446,196490,485.2271,162.4899,509.2762,155.8922 M,0,196490,196534,509.2762,155.8922,534.2119,154.8959 M,0,196534,196578,534.2119,154.8959,548.0105,162.8463 M,0,196578,196622,548.0105,162.8463,532.1676,182.1523 M,0,196622,196666,532.1676,182.1523,512.6681,197.6679 M,0,196666,196710,512.6681,197.6679,488.9961,204.9592
Sprite,Foreground,Centre,"sb\hl2.png",237,284 C,0,195696,,6,87,255 F,2,195696,196496,0.5,0 P,0,195696,196496,A
Sprite,Foreground,Centre,"sb\hl2.png",213.3015,291.1263 C,0,195740,,6,87,255 F,2,195740,196540,0.5,0 P,0,195740,196540,A
Sprite,Foreground,Centre,"sb\hl2.png",193.8609,306.7146 C,0,195784,,6,87,255 F,2,195784,196584,0.5,0 P,0,195784,196584,A
Sprite,Foreground,Centre,"sb\hl2.png",178.0563,326.0533 C,0,195828,,6,87,255 F,2,195828,196628,0.5,0 P,0,195828,196628,A
Sprite,Foreground,Centre,"sb\hl2.png",191.6678,334.0974 C,0,195872,,6,87,255 F,2,195872,196672,0.5,0 P,0,195872,196672,A
Sprite,Foreground,Centre,"sb\hl2.png",216.6044,333.1226 C,0,195916,,6,87,255 F,2,195916,196716,0.5,0 P,0,195916,196716,A
Sprite,Foreground,Centre,"sb\hl2.png",240.6579,326.5412 C,0,195960,,6,87,255 F,2,195960,196760,0.5,0 P,0,195960,196760,A
Sprite,Foreground,Centre,"sb\hl2.png",262.4906,314.4674 C,0,196004,,6,87,255 F,2,196004,196804,0.5,0 P,0,196004,196804,A
Sprite,Foreground,Centre,"sb\hl2.png",281.7803,298.5967 C,0,196049,,6,87,255 F,2,196049,196849,0.5,0 P,0,196049,196849,A
Sprite,Foreground,Centre,"sb\hl2.png",299.5985,281.0629 C,0,196093,,6,87,255 F,2,196093,196893,0.5,0 P,0,196093,196893,A
Sprite,Foreground,Centre,"sb\hl2.png",317.8328,263.9727 C,0,196137,,6,87,255 F,2,196137,196937,0.5,0 P,0,196137,196937,A
Sprite,Foreground,Centre,"sb\hl2.png",338.6479,250.2511 C,0,196181,,6,87,255 F,2,196181,196981,0.5,0 P,0,196181,196981,A
Sprite,Foreground,Centre,"sb\hl2.png",362.7025,244.0182 C,0,196225,,6,87,255 F,2,196225,197025,0.5,0 P,0,196225,197025,A
Sprite,Foreground,Centre,"sb\hl2.png",386.8831,238.3072 C,0,196269,,6,87,255 F,2,196269,197069,0.5,0 P,0,196269,197069,A
Sprite,Foreground,Centre,"sb\hl2.png",407.8767,224.8699 C,0,196313,,6,87,255 F,2,196313,197113,0.5,0 P,0,196313,197113,A
Sprite,Foreground,Centre,"sb\hl2.png",426.2174,207.8953 C,0,196357,,6,87,255 F,2,196357,197157,0.5,0 P,0,196357,197157,A
Sprite,Foreground,Centre,"sb\hl2.png",444.0859,190.4126 C,0,196402,,6,87,255 F,2,196402,197202,0.5,0 P,0,196402,197202,A
Sprite,Foreground,Centre,"sb\hl2.png",463.3939,174.5635 C,0,196446,,6,87,255 F,2,196446,197246,0.5,0 P,0,196446,197246,A
Sprite,Foreground,Centre,"sb\hl2.png",485.2271,162.4899 C,0,196490,,6,87,255 F,2,196490,197290,0.5,0 P,0,196490,197290,A
Sprite,Foreground,Centre,"sb\hl2.png",509.2762,155.8922 C,0,196534,,6,87,255 F,2,196534,197334,0.5,0 P,0,196534,197334,A
Sprite,Foreground,Centre,"sb\hl2.png",534.2119,154.8959 C,0,196578,,6,87,255 F,2,196578,197378,0.5,0 P,0,196578,197378,A
Sprite,Foreground,Centre,"sb\hl2.png",548.0105,162.8463 C,0,196622,,6,87,255 F,2,196622,197422,0.5,0 P,0,196622,197422,A
Sprite,Foreground,Centre,"sb\hl2.png",532.1676,182.1523 C,0,196666,,6,87,255 F,2,196666,197466,0.5,0 P,0,196666,197466,A
Sprite,Foreground,Centre,"sb\hl2.png",512.6681,197.6679 C,0,196710,,6,87,255 F,2,196710,197510,0.5,0 P,0,196710,197510,A
//Storyboard Layer 4 (Overlay)
//Storyboard Sound Samples

[TimingPoints]
123,352.941176470588,4,3,1,80,1,0
123,-133.333333333333,4,3,1,80,0,0
474,-133.333333333333,4,3,1,5,0,0
828,-57.1428571428571,4,3,1,80,0,0
1005,352.941176470588,4,3,1,80,1,0
1005,-66.6666666666667,4,3,1,80,0,0
1092,-66.6666666666667,4,3,1,5,0,0
1180,-66.6666666666667,4,3,1,80,0,0
3651,-83.3333333333333,4,3,1,80,0,0
3915,-100,4,3,1,5,0,0
4004,-66.6666666666667,4,3,1,80,0,0
6475,-83.3333333333333,4,3,1,80,0,0
6739,-100,4,3,1,5,0,0
6828,-66.6666666666667,4,3,1,80,0,0
9299,-83.3333333333333,4,3,1,80,0,0
9562,-100,4,3,1,5,0,0
9652,-66.6666666666667,4,3,1,80,0,0
12121,-71.4285714285714,4,3,1,80,0,0
12386,-100,4,3,1,5,0,0
12474,-66.6666666666667,4,3,1,80,0,0
14945,-83.3333333333333,4,3,1,80,0,0
15209,-100,4,3,1,5,0,0
15298,-66.6666666666667,4,3,1,80,0,0
17768,-71.4285714285714,4,3,1,80,0,0
18033,-100,4,3,1,5,0,0
18121,-66.6666666666667,4,3,1,80,0,0
20592,-83.3333333333333,4,3,1,80,0,0
20856,-100,4,3,1,5,0,0
20945,-76.9230769230769,4,3,1,80,0,0
23063,-133.333333333333,4,3,1,60,0,0
23239,-57.1428571428571,4,3,1,60,0,0
23503,-40,4,3,1,5,0,0
23592,-100,4,3,1,60,0,0
23593,-100,4,3,1,60,0,0
24122,-66.6666666666667,4,3,1,60,0,0
24209,-100,4,3,1,5,0,0
24298,-66.6666666666667,4,3,1,60,0,0
24562,-100,4,3,1,5,0,0
24651,-66.6666666666667,4,3,1,60,0,0
24915,-100,4,3,1,5,0,0
25003,-66.6666666666667,4,3,1,60,0,0
27033,-100,4,3,1,5,0,0
27121,-66.6666666666667,4,3,1,60,0,0
27386,-100,4,3,1,5,0,0
27474,-66.6666666666667,4,3,1,60,0,0
27651,-90.9090909090909,4,3,1,60,0,0
28357,-83.3333333333333,4,3,1,60,0,0
28887,-66.6666666666667,4,3,1,60,0,0
29239,-66.6666666666667,4,3,1,60,0,0
29856,-66.6666666666667,4,3,1,5,0,0
29945,-66.6666666666667,4,3,1,60,0,0
30209,-66.6666666666667,4,3,1,5,0,0
30298,-66.6666666666667,4,3,1,60,0,0
30562,-66.6666666666667,4,3,1,5,0,0
30651,-66.6666666666667,4,3,1,60,0,0
32680,-66.6666666666667,4,3,1,5,0,0
32768,-66.6666666666667,4,3,1,60,0,0
33033,-66.6666666666667,4,3,1,5,0,0
33121,-66.6666666666667,4,3,1,60,0,0
33298,-83.3333333333333,4,3,1,60,0,0
34886,-66.6666666666667,4,3,1,60,0,0
35503,-66.6666666666667,4,3,1,5,0,0
35592,-66.6666666666667,4,3,1,60,0,0
35856,-66.6666666666667,4,3,1,5,0,0
35945,-66.6666666666667,4,3,1,60,0,0
36209,-66.6666666666667,4,3,1,5,0,0
36298,-66.6666666666667,4,3,1,60,0,0
38327,-66.6666666666667,4,3,1,5,0,0
38415,-66.6666666666667,4,3,1,60,0,0
38680,-66.6666666666667,4,3,1,5,0,0
38768,-66.6666666666667,4,3,1,60,0,0
38945,-90.9090909090909,4,3,1,60,0,0
39652,-83.3333333333333,4,3,1,60,0,0
40533,-66.6666666666667,4,3,1,60,0,0
41151,-66.6666666666667,4,3,1,5,0,0
41239,-66.6666666666667,4,3,1,60,0,0
41503,-66.6666666666667,4,3,1,5,0,0
41592,-66.6666666666667,4,3,1,60,0,0
41856,-66.6666666666667,4,3,1,5,0,0
41945,-66.6666666666667,4,3,1,60,0,0
43974,-66.6666666666667,4,3,1,5,0,0
44062,-66.6666666666667,4,3,1,60,0,0
44327,-66.6666666666667,4,3,1,5,0,0
44415,-66.6666666666667,4,3,1,60,0,0
44592,-50,4,3,1,60,0,0
46004,-76.9230769230769,4,3,1,90,0,1
46268,-76.9230769230769,4,3,1,5,0,1
46356,-66.6666666666667,4,3,1,90,0,1
46621,-50,4,3,1,5,0,1
46887,-90.9090909090909,4,3,1,90,0,1
47415,-76.9230769230769,4,3,1,90,0,1
47680,-50,4,3,1,5,0,1
47768,-66.6666666666667,4,3,1,90,0,1
48033,-50,4,3,1,5,0,1
48299,-90.9090909090909,4,3,1,90,0,1
48827,-76.9230769230769,4,3,1,90,0,1
49092,-50,4,3,1,5,0,1
49180,-62.5,4,3,1,90,0,1
49445,-62.5,4,3,1,5,0,1
49533,-62.5,4,3,1,90,0,1
49798,-62.5,4,3,1,5,0,1
49886,-62.5,4,3,1,90,0,1
50151,-62.5,4,3,1,5,0,1
50239,-62.5,4,3,1,90,0,1
50503,-62.5,4,3,1,5,0,1
50592,-62.5,4,3,1,90,0,1
50856,-62.5,4,3,1,5,0,1
50945,-62.5,4,3,1,90,0,1
51651,-76.9230769230769,4,3,1,90,0,1
51915,-50,4,3,1,5,0,1
52003,-66.6666666666667,4,3,1,90,0,1
52268,-50,4,3,1,5,0,1
52534,-90.9090909090909,4,3,1,90,0,1
53062,-76.9230769230769,4,3,1,90,0,1
53327,-50,4,3,1,5,0,1
53415,-66.6666666666667,4,3,1,90,0,1
53680,-50,4,3,1,5,0,1
53946,-90.9090909090909,4,3,1,90,0,1
54474,-76.9230769230769,4,3,1,90,0,1
54739,-50,4,3,1,5,0,1
54827,-62.5,4,3,1,90,0,1
55092,-62.5,4,3,1,5,0,1
55180,-62.5,4,3,1,90,0,1
55445,-62.5,4,3,1,5,0,1
55533,-62.5,4,3,1,90,0,1
55798,-62.5,4,3,1,5,0,1
55886,-62.5,4,3,1,90,0,1
56151,-62.5,4,3,1,5,0,1
56239,-62.5,4,3,1,90,0,1
56503,-62.5,4,3,1,5,0,1
56592,-50,4,3,1,90,0,1
57298,-76.9230769230769,4,3,1,90,0,1
57562,-50,4,3,1,5,0,1
57651,-66.6666666666667,4,3,1,90,0,1
57915,-50,4,3,1,5,0,1
58181,-90.9090909090909,4,3,1,90,0,1
58709,-76.9230769230769,4,3,1,90,0,1
58974,-50,4,3,1,5,0,1
59062,-66.6666666666667,4,3,1,90,0,1
59327,-50,4,3,1,5,0,1
59593,-90.9090909090909,4,3,1,90,0,1
60121,-76.9230769230769,4,3,1,90,0,1
60386,-50,4,3,1,5,0,1
60474,-62.5,4,3,1,90,0,1
60739,-62.5,4,3,1,5,0,1
60827,-62.5,4,3,1,90,0,1
61092,-62.5,4,3,1,5,0,1
61180,-62.5,4,3,1,90,0,1
61445,-62.5,4,3,1,5,0,1
61533,-62.5,4,3,1,90,0,1
61798,-62.5,4,3,1,5,0,1
61886,-62.5,4,3,1,90,0,1
62151,-62.5,4,3,1,5,0,1
62239,-50,4,3,1,90,0,1
62945,-76.9230769230769,4,3,1,90,0,1
63209,-50,4,3,1,5,0,1
63298,-66.6666666666667,4,3,1,90,0,1
63562,-50,4,3,1,5,0,1
63828,-90.9090909090909,4,3,1,90,0,1
64356,-76.9230769230769,4,3,1,90,0,1
64621,-50,4,3,1,5,0,1
64709,-66.6666666666667,4,3,1,90,0,1
64974,-50,4,3,1,5,0,1
65240,-90.9090909090909,4,3,1,90,0,1
65768,-76.9230769230769,4,3,1,90,0,1
66033,-50,4,3,1,5,0,1
66121,-50,4,3,1,90,0,1
67357,-100,4,3,1,80,0,0
68503,-100,4,3,1,5,0,0
68592,-66.6666666666667,4,3,1,80,0,0
68856,-66.6666666666667,4,3,1,5,0,0
68945,-66.6666666666667,4,3,1,80,0,0
71415,-83.3333333333333,4,3,1,80,0,0
71680,-100,4,3,1,5,0,0
71768,-66.6666666666667,4,3,1,80,0,0
74239,-83.3333333333333,4,3,1,80,0,0
74503,-100,4,3,1,5,0,0
74592,-66.6666666666667,4,3,1,80,0,0
77062,-83.3333333333333,4,3,1,80,0,0
77327,-100,4,3,1,5,0,0
77415,-66.6666666666667,4,3,1,80,0,0
79886,-83.3333333333333,4,3,1,80,0,0
80151,-100,4,3,1,5,0,0
80239,-166.666666666667,4,3,1,80,0,0
82709,-100,4,3,1,80,0,0
85533,-83.3333333333333,4,3,1,80,0,0
85798,-166.666666666667,4,3,1,5,0,0
85887,-166.666666666667,4,3,1,80,0,0
86416,-100,4,3,1,80,0,0
87828,-166.666666666667,4,3,1,80,0,0
88534,-100,4,3,1,80,0,0
91357,-76.9230769230769,4,3,1,60,0,0
91887,-66.6666666666667,4,3,1,60,0,0
91974,-66.6666666666667,4,3,1,5,0,0
92062,-66.6666666666667,4,3,1,60,0,0
92327,-66.6666666666667,4,3,1,5,0,0
92415,-66.6666666666667,4,3,1,60,0,0
92680,-66.6666666666667,4,3,1,5,0,0
92768,-66.6666666666667,4,3,1,60,0,0
94798,-100,4,3,1,5,0,0
94886,-66.6666666666667,4,3,1,60,0,0
95151,-100,4,3,1,5,0,0
95239,-100,4,3,1,60,0,0
95415,-90.9090909090909,4,3,1,60,0,0
97003,-66.6666666666667,4,3,1,60,0,0
97621,-66.6666666666667,4,3,1,5,0,0
97709,-66.6666666666667,4,3,1,60,0,0
97974,-66.6666666666667,4,3,1,5,0,0
98062,-66.6666666666667,4,3,1,60,0,0
98327,-66.6666666666667,4,3,1,5,0,0
98415,-66.6666666666667,4,3,1,60,0,0
100445,-100,4,3,1,5,0,0
100533,-66.6666666666667,4,3,1,60,0,0
100798,-100,4,3,1,5,0,0
100886,-100,4,3,1,60,0,0
101062,-76.9230769230769,4,3,1,60,0,0
102475,-76.9230769230769,4,3,1,90,0,1
102739,-50,4,3,1,5,0,1
102827,-66.6666666666667,4,3,1,90,0,1
103092,-50,4,3,1,5,0,1
103357,-90.9090909090909,4,3,1,90,0,1
103886,-76.9230769230769,4,3,1,90,0,1
104151,-50,4,3,1,5,0,1
104239,-66.6666666666667,4,3,1,90,0,1
104503,-50,4,3,1,5,0,1
104769,-90.9090909090909,4,3,1,90,0,1
105298,-76.9230769230769,4,3,1,90,0,1
105562,-66.6666666666667,4,3,1,5,0,1
105651,-66.6666666666667,4,3,1,90,0,1
105915,-66.6666666666667,4,3,1,5,0,1
106003,-66.6666666666667,4,3,1,90,0,1
106268,-66.6666666666667,4,3,1,5,0,1
106356,-66.6666666666667,4,3,1,90,0,1
106621,-66.6666666666667,4,3,1,5,0,1
106709,-66.6666666666667,4,3,1,90,0,1
106974,-66.6666666666667,4,3,1,5,0,1
107062,-66.6666666666667,4,3,1,90,0,1
107327,-66.6666666666667,4,3,1,5,0,1
107415,-66.6666666666667,4,3,1,90,0,1
108121,-76.9230769230769,4,3,1,90,0,1
108386,-50,4,3,1,5,0,1
108474,-66.6666666666667,4,3,1,90,0,1
108739,-50,4,3,1,5,0,1
109004,-90.9090909090909,4,3,1,90,0,1
109533,-76.9230769230769,4,3,1,90,0,1
109798,-50,4,3,1,5,0,1
109886,-66.6666666666667,4,3,1,90,0,1
110151,-50,4,3,1,5,0,1
110416,-90.9090909090909,4,3,1,90,0,1
110945,-76.9230769230769,4,3,1,90,0,1
111209,-66.6666666666667,4,3,1,5,0,1
111298,-66.6666666666667,4,3,1,90,0,1
111562,-66.6666666666667,4,3,1,5,0,1
111651,-66.6666666666667,4,3,1,90,0,1
111915,-66.6666666666667,4,3,1,5,0,1
112003,-66.6666666666667,4,3,1,90,0,1
112268,-66.6666666666667,4,3,1,5,0,1
112356,-66.6666666666667,4,3,1,90,0,1
112621,-66.6666666666667,4,3,1,5,0,1
112709,-66.6666666666667,4,3,1,90,0,1
113768,-76.9230769230769,4,3,1,90,0,1
114033,-50,4,3,1,5,0,1
114121,-66.6666666666667,4,3,1,90,0,1
114386,-50,4,3,1,5,0,1
114652,-50,4,3,1,90,0,1
114915,-50,4,3,1,5,0,1
115003,-50,4,3,1,90,0,1
115092,-50,4,3,1,5,0,1
115180,-76.9230769230769,4,3,1,90,0,1
115445,-50,4,3,1,5,0,1
115533,-66.6666666666667,4,3,1,90,0,1
115798,-50,4,3,1,5,0,1
115886,-50,4,3,1,90,0,1
116327,-50,4,3,1,5,0,1
116415,-50,4,3,1,90,0,1
116503,-50,4,3,1,5,0,1
116592,-76.9230769230769,4,3,1,90,0,1
116856,-76.9230769230769,4,3,1,5,0,1
116946,-76.9230769230769,4,3,1,60,0,0
119416,-66.6666666666667,4,3,1,90,0,1
119680,-62.5,4,3,1,5,0,1
119768,-62.5,4,3,1,90,0,1
120033,-62.5,4,3,1,5,0,1
120121,-62.5,4,3,1,90,0,1
120562,-62.5,4,3,1,5,0,1
120651,-62.5,4,3,1,90,0,1
120739,-62.5,4,3,1,5,0,1
120827,-66.6666666666667,4,3,1,90,0,1
121092,-62.5,4,3,1,5,0,1
121180,-62.5,4,3,1,90,0,1
121445,-62.5,4,3,1,5,0,1
121533,-62.5,4,3,1,90,0,1
121974,-62.5,4,3,1,5,0,1
122062,-62.5,4,3,1,90,0,1
122151,-62.5,4,3,1,5,0,1
122239,-66.6666666666667,4,3,1,90,0,1
122503,-66.6666666666667,4,3,1,5,0,1
122593,-100,4,3,1,60,0,0
124886,-83.3333333333333,4,3,1,60,0,0
124974,-83.3333333333333,4,3,1,5,0,0
125062,-83.3333333333333,4,3,1,60,0,0
125151,-83.3333333333333,4,3,1,5,0,0
125239,-111.111111111111,4,3,1,50,0,0
125680,-111.111111111111,4,3,1,5,0,0
125768,-111.111111111111,4,3,1,50,0,0
125856,-111.111111111111,4,3,1,5,0,0
125945,-111.111111111111,4,3,1,50,0,0
127798,-111.111111111111,4,3,1,5,0,0
127886,-111.111111111111,4,3,1,50,0,0
127974,-111.111111111111,4,3,1,5,0,0
128062,-111.111111111111,4,3,1,50,0,0
129915,-111.111111111111,4,3,1,5,0,0
130003,-111.111111111111,4,3,1,50,0,0
130092,-111.111111111111,4,3,1,5,0,0
130180,-111.111111111111,4,3,1,50,0,0
130621,-111.111111111111,4,3,1,5,0,0
130709,-111.111111111111,4,3,1,50,0,0
130798,-111.111111111111,4,3,1,5,0,0
130886,-111.111111111111,4,3,1,50,0,0
131327,-111.111111111111,4,3,1,5,0,0
131415,-111.111111111111,4,3,1,50,0,0
131503,-111.111111111111,4,3,1,5,0,0
131592,-111.111111111111,4,3,1,50,0,0
133445,-111.111111111111,4,3,1,5,0,0
133533,-111.111111111111,4,3,1,50,0,0
133621,-111.111111111111,4,3,1,5,0,0
133709,-111.111111111111,4,3,1,50,0,0
135562,-111.111111111111,4,3,1,5,0,0
135651,-111.111111111111,4,3,1,50,0,0
135739,-111.111111111111,4,3,1,5,0,0
135827,-111.111111111111,4,3,1,50,0,0
136268,-111.111111111111,4,3,1,5,0,0
136356,-111.111111111111,4,3,1,50,0,0
136445,-111.111111111111,4,3,1,5,0,0
136533,-111.111111111111,4,3,1,50,0,0
136974,-111.111111111111,4,3,1,5,0,0
137062,-111.111111111111,4,3,1,50,0,0
137151,-111.111111111111,4,3,1,5,0,0
137239,-111.111111111111,4,3,1,50,0,0
139092,-111.111111111111,4,3,1,5,0,0
139180,-111.111111111111,4,3,1,50,0,0
139268,-111.111111111111,4,3,1,5,0,0
139356,-111.111111111111,4,3,1,50,0,0
141209,-111.111111111111,4,3,1,5,0,0
141298,-111.111111111111,4,3,1,50,0,0
141386,-111.111111111111,4,3,1,5,0,0
141474,-111.111111111111,4,3,1,50,0,0
141915,-111.111111111111,4,3,1,5,0,0
142003,-111.111111111111,4,3,1,50,0,0
142092,-111.111111111111,4,3,1,5,0,0
142180,-111.111111111111,4,3,1,50,0,0
142621,-111.111111111111,4,3,1,5,0,0
142709,-111.111111111111,4,3,1,50,0,0
142798,-111.111111111111,4,3,1,5,0,0
142886,-111.111111111111,4,3,1,50,0,0
144739,-111.111111111111,4,3,1,5,0,0
144827,-111.111111111111,4,3,1,50,0,0
144915,-111.111111111111,4,3,1,5,0,0
145003,-111.111111111111,4,3,1,50,0,0
147827,-66.6666666666667,4,3,1,70,0,0
149062,-66.6666666666667,4,3,1,70,0,0
149240,-90.9090909090909,4,3,1,70,0,0
151710,-66.6666666666667,4,3,1,70,0,0
152152,-66.6666666666667,4,3,1,5,0,0
152239,-100,4,3,1,70,0,0
153474,-80,4,3,1,90,0,0
159299,-60.6060606060606,4,3,1,80,0,0
159739,-57.1428571428571,4,3,1,5,0,0
159827,-74.0740740740741,4,3,1,80,0,0
164415,-66.6666666666667,4,3,1,80,0,0
164680,-66.6666666666667,4,3,1,5,0,0
164768,-100,4,3,1,70,0,0
170239,-200,4,3,1,70,0,0
170415,-100,4,3,1,70,0,0
173063,-76.9230769230769,4,3,1,90,0,1
173327,-76.9230769230769,4,3,1,5,0,1
173415,-50,4,3,1,90,0,1
173680,-50,4,3,1,5,0,1
173768,-50,4,3,1,90,0,1
174033,-50,4,3,1,5,0,1
174121,-50,4,3,1,90,0,1
174386,-50,4,3,1,5,0,1
174474,-50,4,3,1,90,0,1
174739,-50,4,3,1,5,0,1
174827,-50,4,3,1,90,0,1
175092,-50,4,3,1,5,0,1
175180,-50,4,3,1,90,0,1
175886,-76.9230769230769,4,3,1,90,0,1
176151,-76.9230769230769,4,3,1,5,0,1
176239,-66.6666666666667,4,3,1,90,0,1
176503,-50,4,3,1,5,0,1
176769,-90.9090909090909,4,3,1,90,0,1
177298,-76.9230769230769,4,3,1,90,0,1
177562,-50,4,3,1,5,0,1
177651,-66.6666666666667,4,3,1,90,0,1
177915,-50,4,3,1,5,0,1
178181,-90.9090909090909,4,3,1,90,0,1
178709,-76.9230769230769,4,3,1,90,0,1
178974,-50,4,3,1,5,0,1
179062,-66.6666666666667,4,3,1,90,0,1
179327,-50,4,3,1,5,0,1
179593,-50,4,3,1,90,0,1
179680,-50,4,3,1,5,0,1
179768,-50,4,3,1,90,0,1
180033,-50,4,3,1,5,0,1
180121,-50,4,3,1,90,0,1
181533,-76.9230769230769,4,3,1,90,0,1
181798,-76.9230769230769,4,3,1,5,0,1
181886,-66.6666666666667,4,3,1,90,0,1
182151,-50,4,3,1,5,0,1
182416,-90.9090909090909,4,3,1,90,0,1
182680,-50,4,3,1,5,0,1
182768,-50,4,3,1,90,0,1
182856,-50,4,3,1,5,0,1
182945,-76.9230769230769,4,3,1,90,0,1
183209,-76.9230769230769,4,3,1,5,0,1
183298,-66.6666666666667,4,3,1,90,0,1
183562,-50,4,3,1,5,0,1
183828,-50,4,3,1,90,0,1
184092,-50,4,3,1,5,0,1
184180,-50,4,3,1,90,0,1
184268,-50,4,3,1,5,0,1
184356,-76.9230769230769,4,3,1,90,0,1
184621,-200,4,3,1,5,0,1
184710,-200,4,3,1,90,0,0
187181,-76.9230769230769,4,3,1,90,0,1
187445,-76.9230769230769,4,3,1,5,0,1
187533,-66.6666666666667,4,3,1,90,0,1
187798,-50,4,3,1,5,0,1
188063,-50,4,3,1,90,0,1
188327,-50,4,3,1,5,0,1
188415,-50,4,3,1,90,0,1
188503,-50,4,3,1,5,0,1
188592,-76.9230769230769,4,3,1,90,0,1
188856,-50,4,3,1,5,0,1
188945,-66.6666666666667,4,3,1,90,0,1
189209,-50,4,3,1,5,0,1
189475,-50,4,3,1,90,0,1
189739,-50,4,3,1,5,0,1
189827,-50,4,3,1,90,0,1
189915,-50,4,3,1,5,0,1
190003,-76.9230769230769,4,3,1,90,0,1
190268,-200,4,3,1,5,0,1
190357,-200,4,3,1,80,0,0
192827,-83.3333333333333,4,3,1,80,0,0
193268,-50,4,3,1,5,0,0
193356,-50,4,3,1,80,0,0
195209,-50,4,3,1,5,0,0
195298,-50,4,3,1,80,0,0
195386,-50,4,3,1,5,0,0
195474,-50,4,3,1,80,0,0
195562,-50,4,3,1,5,0,0
195651,-100,4,3,1,80,0,0

[Colours]
Combo1 : 136,136,136
Combo2 : 255,128,128
Combo3 : 255,6,6
Combo4 : 191,128,255
Combo5 : 133,11,255
Combo6 : 128,255,255
Combo7 : 6,87,255
Combo8 : 228,228,228

[HitObjects]
211,152,123,6,0,B|276:86|254:-2|213:-15|170:-8|133:25|149:71,1,262.500010013581,0|0,0:0|0:0,0:0:0:0:
91,179,828,6,0,B|163:209|213:151|213:151|218:225|291:244,1,262.500002503395,6|0,0:0|0:0,0:0:0:0:
317,157,1181,1,2,0:0:0:0:
310,160,1269,1,0,0:0:0:0:
302,161,1357,2,0,B|272:206|272:206|303:316,1,150.000005722046,2|0,0:0|0:0,0:0:0:0:
376,239,1622,1,0,0:0:0:0:
379,232,1710,2,0,L|217:256,1,150.000005722046,8|0,0:0|0:0,0:0:0:0:
276,336,1975,1,0,0:0:0:0:
279,342,2063,1,0,0:0:0:0:
282,348,2152,1,0,0:0:0:0:
285,354,2240,102,0,L|123:330,1,150.000005722046,0|2,0:0|0:0,0:0:0:0:
74,256,2504,1,0,0:0:0:0:
67,252,2593,2,0,L|148:265,2,75.0000028610231,0|0|0,0:0|0:0|0:0,0:0:0:0:
205,179,2857,1,0,0:0:0:0:
211,175,2946,2,0,L|130:188,1,75.0000028610231,2|0,0:0|0:0,0:0:0:0:
48,81,3122,6,0,L|129:94,1,75.0000028610231,8|0,0:0|0:0,0:0:0:0:
213,25,3299,2,0,L|228:105,1,75.0000028610231,2|0,0:0|0:0,0:0:0:0:
307,176,3475,2,0,L|236:218,1,75.0000028610231,8|0,0:0|0:0,0:0:0:0:
290,354,3652,102,0,B|215:338|215:338|194:320|194:320|112:303,1,179.999994506836,6|0,0:3|0:0,0:0:0:0:
48,355,4004,1,2,0:0:0:0:
54,359,4093,1,0,0:0:0:0:
60,362,4181,2,0,B|82:261|82:261|43:212,1,150.000005722046,2|0,0:0|0:0,0:0:0:0:
136,172,4446,1,0,0:0:0:0:
129,174,4534,2,0,B|107:73|107:73|146:24,1,150.000005722046,8|0,0:0|0:0,0:0:0:0:
260,83,4799,1,0,0:0:0:0:
264,88,4887,1,0,0:0:0:0:
265,95,4975,1,0,0:0:0:0:
263,102,5063,2,0,L|173:95,1,75.0000028610231,0|0,0:0|0:0,0:0:0:0:
2,128,5240,5,2,0:0:0:0:
107,290,5416,1,2,0:0:0:0:
180,270,5593,1,2,0:0:0:0:
250,248,5769,1,2,0:0:0:0:
478,322,5946,101,10,0:0:0:0:
410,353,6122,1,2,0:0:0:0:
419,278,6299,1,8,0:0:0:0:
230,35,6475,6,0,B|278:21|278:21|257:154,1,179.999994506836,6|0,0:3|0:0,0:0:0:0:
178,193,6828,1,2,0:0:0:0:
176,185,6916,1,0,0:0:0:0:
174,177,7004,2,0,B|230:187|230:187|252:216|252:216|338:232,1,150.000005722046,2|0,0:0|0:0,0:0:0:0:
357,285,7269,1,0,0:0:0:0:
363,289,7357,2,0,B|329:259|329:259|356:138,1,150.000005722046,8|0,0:0|0:0,0:0:0:0:
256,134,7622,1,0,0:0:0:0:
249,137,7710,1,0,0:0:0:0:
242,140,7799,1,0,0:0:0:0:
235,143,7887,102,0,B|269:113|269:113|242:-8,1,150.000005722046,0|2,0:0|0:0,0:0:0:0:
117,96,8152,1,0,0:0:0:0:
112,101,8240,2,0,L|188:87,2,75.0000028610231,0|0|0,0:0|0:0|0:0,0:0:0:0:
76,210,8504,1,0,0:0:0:0:
79,216,8592,2,0,L|3:202,1,75.0000028610231,2|0,0:0|0:0,0:0:0:0:
131,325,8769,6,0,L|207:311,1,75.0000028610231,8|0,0:0|0:0,0:0:0:0:
302,369,8946,2,0,L|314:292,1,75.0000028610231,2|0,0:0|0:0,0:0:0:0:
392,214,9122,2,0,L|324:175,1,75.0000028610231,8|0,0:0|0:0,0:0:0:0:
248,41,9299,102,0,B|200:74|200:74|231:205,1,179.999994506836,6|0,0:3|0:0,0:0:0:0:
241,285,9652,1,2,0:0:0:0:
244,278,9740,1,0,0:0:0:0:
247,271,9828,2,0,B|212:273|191:261|191:261|173:245|173:245|127:233|84:278,1,150.000005722046,2|0,0:0|0:0,0:0:0:0:
142,338,10093,1,0,0:0:0:0:
148,334,10181,2,0,L|121:156,1,150.000005722046,8|0,0:0|0:0,0:0:0:0:
238,163,10446,1,0,0:0:0:0:
230,164,10534,1,0,0:0:0:0:
222,165,10622,1,0,0:0:0:0:
214,164,10710,2,0,L|235:31,1,75.0000028610231,0|0,0:0|0:0,0:0:0:0:
129,20,10887,5,2,0:0:0:0:
0,95,11063,1,2,0:0:0:0:
98,177,11240,1,2,0:0:0:0:
25,248,11416,1,2,0:0:0:0:
122,299,11593,101,10,0:0:0:0:
85,98,11769,1,2,0:0:0:0:
229,286,11946,1,10,0:0:0:0:
226,300,12034,1,10,0:0:0:0:
223,313,12122,6,0,B|306:328|334:249|334:249|354:296|317:337,1,209.999993591309,6|0,0:0|0:0,0:0:0:0:
253,221,12475,1,2,0:0:0:0:
255,214,12563,1,0,0:0:0:0:
257,206,12652,2,0,B|262:161|231:139|231:139|213:91|260:55,1,150.000005722046,2|0,0:0|0:0,0:0:0:0:
337,47,12916,1,0,0:0:0:0:
332,53,13004,2,0,B|353:86|353:86|216:65,1,150.000005722046,8|0,0:0|0:0,0:0:0:0:
159,23,13269,1,0,0:0:0:0:
157,30,13357,1,0,0:0:0:0:
155,37,13446,1,0,0:0:0:0:
151,43,13534,102,0,B|172:10|172:10|35:31,1,150.000005722046,0|2,0:0|0:0,0:0:0:0:
19,111,13799,1,0,0:0:0:0:
13,116,13887,2,0,B|4:155|4:155|21:196,2,75.0000028610231,0|0|0,0:0|0:0|0:0,0:0:0:0:
152,191,14152,1,0,0:0:0:0:
149,183,14240,2,0,B|119:155|119:155|75:149,1,75.0000028610231,2|0,0:0|0:0,0:0:0:0:
26,272,14416,6,0,B|64:260|64:260|91:225,1,75.0000028610231,8|0,0:0|0:0,0:0:0:0:
143,364,14593,2,0,B|145:324|145:324|121:286,1,75.0000028610231,2|0,0:0|0:0,0:0:0:0:
279,287,14769,2,0,B|242:271|242:271|198:280,1,75.0000028610231,8|0,0:0|0:0,0:0:0:0:
303,181,14946,102,0,L|334:376,1,179.999994506836,6|0,0:0|0:0,0:0:0:0:
406,300,15299,1,2,0:0:0:0:
403,292,15387,1,0,0:0:0:0:
399,285,15475,2,0,L|236:316,1,150.000005722046,2|0,0:0|0:0,0:0:0:0:
255,223,15740,1,0,0:0:0:0:
252,230,15828,2,0,L|89:199,1,150.000005722046,8|0,0:0|0:0,0:0:0:0:
0,216,16093,1,0,0:0:0:0:
6,219,16181,1,0,0:0:0:0:
12,222,16269,1,0,0:0:0:0:
19,224,16357,2,0,B|33:184|33:184|15:124,1,75.0000028610231,0|0,0:0|0:0,0:0:0:0:
0,59,16534,5,2,0:0:0:0:
209,18,16710,1,2,0:0:0:0:
195,92,16887,1,2,0:0:0:0:
180,165,17063,1,2,0:0:0:0:
453,243,17240,101,10,0:0:0:0:
410,180,17416,1,2,0:0:0:0:
485,176,17593,1,10,0:0:0:0:
266,276,17769,6,0,B|221:267|221:267|187:276|187:276|158:309|158:309|123:322|123:322|59:311,1,209.999993591309,6|0,0:0|0:0,0:0:0:0:
4,356,18122,1,2,0:0:0:0:
10,359,18211,1,0,0:0:0:0:
17,361,18299,2,0,B|39:260|39:260|0:211,1,150.000005722046,2|0,0:0|0:0,0:0:0:0:
109,180,18564,1,0,0:0:0:0:
102,182,18652,2,0,B|80:81|80:81|119:32,1,150.000005722046,8|0,0:0|0:0,0:0:0:0:
198,83,18916,1,0,0:0:0:0:
201,89,19004,1,0,0:0:0:0:
203,96,19093,1,0,0:0:0:0:
206,102,19181,102,0,B|267:87|267:87|290:67|290:67|381:48,1,150.000005722046,0|2,0:0|0:0,0:0:0:0:
428,89,19446,1,0,0:0:0:0:
433,84,19534,6,0,L|420:165,2,75.0000028610231,0|0|0,0:0|0:0|0:0,0:0:0:0:
331,180,19799,1,0,0:0:0:0:
324,175,19887,2,0,L|337:256,1,75.0000028610231,2|0,0:0|0:0,0:0:0:0:
437,272,20063,102,0,L|424:353,1,75.0000028610231,8|0,0:0|0:0,0:0:0:0:
428,153,20240,2,0,L|499:192,1,75.0000028610231,2|0,0:0|0:0,0:0:0:0:
332,68,20416,2,0,L|394:14,1,75.0000028610231,8|0,0:0|0:0,0:0:0:0:
264,162,20593,6,0,B|189:146|189:146|168:128|168:128|86:111,1,179.999994506836,6|0,0:0|0:0,0:0:0:0:
57,48,20946,101,8,0:0:0:0:
27,82,21034,1,8,0:0:0:0:
26,127,21123,1,8,0:0:0:0:
47,167,21211,1,8,0:0:0:0:
73,195,21299,5,8,1:0:0:0:
81,232,21387,1,8,1:0:0:0:
71,270,21476,1,8,1:0:0:0:
48,301,21564,1,8,1:0:0:0:
20,317,21652,101,2,0:0:0:0:
0,293,21740,1,2,0:0:0:0:
0,260,21828,1,2,0:0:0:0:
19,235,21916,1,2,0:0:0:0:
45,232,22005,5,2,0:0:0:0:
68,243,22093,1,2,0:0:0:0:
79,266,22181,1,12,0:0:0:0:
79,266,23063,102,0,L|65:329,1,37.5000014305115,2|0,0:0|0:0,0:0:0:0:
6,328,23240,6,0,B|67:296|119:328|88:381|171:398|225:374|240:304,1,262.500002503395,8|8,0:0|0:0,0:0:0:0:
164,299,23593,5,6,0:0:0:0:
250,231,23769,1,2,0:0:0:0:
148,165,23946,1,10,0:0:0:0:
239,5,24122,6,0,L|328:17,1,75.0000028610231,2|0,0:0|0:0,0:0:0:0:
390,26,24299,1,2,0:0:0:0:
194,86,24475,102,0,L|283:98,1,75.0000028610231,2|0,0:0|0:0,0:0:0:0:
345,107,24652,1,10,0:0:0:0:
148,165,24828,6,0,L|237:177,1,75.0000028610231,2|0,0:0|0:0,0:0:0:0:
299,186,25005,1,2,0:0:0:0:
206,295,25181,1,2,0:0:0:0:
404,353,25357,101,10,0:0:0:0:
314,267,25534,1,2,0:0:0:0:
298,384,25710,1,2,0:0:0:0:
300,365,25798,1,2,0:0:0:0:
303,346,25886,1,2,0:0:0:0:
391,183,26063,1,10,0:0:0:0:
393,202,26151,1,2,0:0:0:0:
396,221,26239,1,2,0:0:0:0:
312,144,26416,5,6,0:0:0:0:
475,101,26593,1,2,0:0:0:0:
296,147,26769,1,10,0:0:0:0:
360,14,26946,102,0,B|381:47|381:47|368:99,1,75.0000028610231,2|0,0:0|0:0,0:0:0:0:
298,59,27123,1,2,0:0:0:0:
432,180,27299,6,0,B|411:213|411:213|424:265,1,75.0000028610231,2|0,0:0|0:0,0:0:0:0:
493,228,27476,1,10,0:0:0:0:
296,147,27652,102,0,B|216:154|216:154|191:186|191:186|76:199,1,220.000006713867,2|2,0:0|0:0,0:0:0:0:
142,97,28181,1,10,0:0:0:0:
320,374,28357,2,0,B|325:329|309:299|309:299|316:293|316:293|305:263|341:209|341:209|306:236|251:220,1,239.999992675781,2|2,0:0|0:0,0:0:0:0:
68,252,28887,1,10,0:0:0:0:
208,286,29063,1,2,0:0:0:0:
65,384,29240,5,6,0:0:0:0:
63,365,29328,1,0,0:0:0:0:
60,346,29416,1,2,0:0:0:0:
163,207,29593,1,10,0:0:0:0:
0,99,29769,102,0,L|12:188,1,75.0000028610231,2|0,0:0|0:0,0:0:0:0:
21,250,29946,1,2,0:0:0:0:
81,54,30122,6,0,L|93:143,1,75.0000028610231,2|0,0:0|0:0,0:0:0:0:
102,205,30299,1,10,0:0:0:0:
160,8,30475,102,0,L|172:97,1,75.0000028610231,2|0,0:0|0:0,0:0:0:0:
181,159,30652,1,2,0:0:0:0:
278,57,30828,1,2,0:0:0:0:
204,242,31004,5,10,0:0:0:0:
170,82,31181,1,2,0:0:0:0:
310,167,31357,1,2,0:0:0:0:
328,164,31445,1,2,0:0:0:0:
347,160,31533,1,2,0:0:0:0:
415,287,31710,1,10,0:0:0:0:
397,284,31798,1,2,0:0:0:0:
378,280,31886,1,2,0:0:0:0:
500,193,32063,101,6,0:0:0:0:
473,341,32240,1,2,0:0:0:0:
418,163,32416,1,10,0:0:0:0:
327,349,32593,6,0,L|245:338,1,75.0000028610231,2|0,0:0|0:0,0:0:0:0:
176,328,32769,1,2,0:0:0:0:
0,224,32946,102,0,L|82:213,1,75.0000028610231,2|0,0:0|0:0,0:0:0:0:
151,203,33122,1,8,0:0:0:0:
243,135,33299,6,0,B|220:116|209:80|209:80|190:116|219:148|219:148|215:157|215:157|241:204|214:260,1,239.999992675781,2|2,0:0|0:0,0:0:0:0:
151,203,33828,101,10,0:0:0:0:
337,228,34005,1,2,0:0:0:0:
209,77,34181,1,2,0:0:0:0:
198,71,34269,1,8,0:0:0:0:
180,73,34357,1,8,0:0:0:0:
158,83,34446,1,8,0:0:0:0:
136,104,34534,1,8,1:0:0:0:
102,116,34622,1,8,1:0:0:0:
61,104,34710,1,8,1:0:0:0:
37,61,34799,1,8,1:0:0:0:
51,9,34887,5,6,0:0:0:0:
153,176,35063,1,2,0:0:0:0:
196,0,35240,1,10,0:0:0:0:
151,197,35416,102,0,L|62:185,1,75.0000028610231,2|0,0:0|0:0,0:0:0:0:
0,176,35593,1,2,0:0:0:0:
171,286,35769,6,0,L|82:274,1,75.0000028610231,2|0,0:0|0:0,0:0:0:0:
20,265,35946,1,10,0:0:0:0:
194,374,36122,102,0,L|105:362,1,75.0000028610231,2|0,0:0|0:0,0:0:0:0:
43,353,36299,1,2,0:0:0:0:
85,211,36475,1,2,0:0:0:0:
41,366,36652,5,10,0:0:0:0:
88,195,36828,1,2,0:0:0:0:
194,374,37004,1,2,0:0:0:0:
212,377,37092,1,2,0:0:0:0:
231,381,37180,1,2,0:0:0:0:
303,245,37357,1,10,0:0:0:0:
285,248,37445,1,2,0:0:0:0:
266,252,37533,1,2,0:0:0:0:
387,281,37710,101,6,0:0:0:0:
283,168,37887,1,2,0:0:0:0:
292,346,38063,1,10,0:0:0:0:
450,233,38240,6,0,B|429:200|429:200|442:148,1,75.0000028610231,2|0,0:0|0:0,0:0:0:0:
512,188,38417,1,2,0:0:0:0:
378,67,38593,102,0,B|399:34|399:34|386:-18,1,75.0000028610231,2|0,0:0|0:0,0:0:0:0:
317,19,38770,1,10,0:0:0:0:
283,168,38946,6,0,B|250:208|204:208|204:208|184:219|184:219|168:202|168:202|115:189|99:104,1,220.000006713867,2|2,0:0|0:0,0:0:0:0:
175,298,39475,1,10,0:0:0:0:
204,125,39652,2,0,B|232:73|204:27|204:27|167:27|149:54|149:54|116:17|77:26,1,239.999992675781,2|2,0:0|0:0,0:0:0:0:
0,204,40181,1,10,0:0:0:0:
86,100,40357,1,2,0:0:0:0:
122,268,40534,101,6,0:0:0:0:
119,286,40622,1,0,0:0:0:0:
115,305,40710,1,2,0:0:0:0:
102,183,40887,1,10,0:0:0:0:
221,266,41063,6,0,P|263:261|299:236,1,75.0000028610231,2|0,0:0|0:0,0:0:0:0:
329,178,41240,1,2,0:0:0:0:
456,356,41416,102,0,P|451:313|426:277,1,75.0000028610231,2|0,0:0|0:0,0:0:0:0:
368,248,41593,1,10,0:0:0:0:
512,88,41769,6,0,P|469:92|433:117,1,75.0000028610231,2|0,0:0|0:0,0:0:0:0:
404,176,41946,1,2,0:0:0:0:
512,224,42122,1,2,0:0:0:0:
334,321,42299,101,10,0:0:0:0:
444,282,42475,1,2,0:0:0:0:
263,228,42652,1,2,0:0:0:0:
245,231,42740,1,2,0:0:0:0:
226,235,42828,1,2,0:0:0:0:
110,356,43004,1,10,0:0:0:0:
92,353,43092,1,2,0:0:0:0:
73,349,43180,1,2,0:0:0:0:
187,355,43357,5,6,0:0:0:0:
134,222,43534,1,2,0:0:0:0:
191,367,43710,1,10,0:0:0:0:
192,170,43887,102,0,L|174:64,1,75.0000028610231,2|0,0:0|0:0,0:0:0:0:
166,15,44063,1,2,0:0:0:0:
33,206,44240,6,0,L|51:100,1,75.0000028610231,2|0,0:0|0:0,0:0:0:0:
59,51,44416,1,10,0:0:0:0:
249,121,44593,101,2,0:0:0:0:
134,222,44769,1,2,0:0:0:0:
263,42,44946,1,8,0:0:0:0:
256,81,45034,1,8,0:0:0:0:
249,121,45122,1,8,0:0:0:0:
145,59,45299,1,2,0:0:0:0:
348,115,45475,1,2,0:0:0:0:
257,247,45652,1,8,1:0:0:0:
336,230,45828,1,8,1:0:0:0:
411,209,46004,22,0,B|356:198|356:198|392:356,1,194.999991073609,6|0,0:0|0:0,0:0:0:0:
394,354,46357,1,2,0:0:0:0:
280,148,46534,2,0,B|227:141|227:141|194:153|194:153|168:188|168:188|134:204|134:204|69:199,1,225.000008583069,10|0,0:0|0:0,0:0:0:0:
78,199,46887,2,0,B|57:148|57:148|77:96,1,110.000003356934,2|2,0:0|0:0,0:0:0:0:
203,16,47240,1,10,0:0:0:0:
240,216,47416,6,0,B|264:349|264:349|197:383,1,194.999991073609,6|0,0:0|0:0,0:0:0:0:
189,367,47769,1,2,0:0:0:0:
337,189,47946,2,0,B|309:30|309:30|385:94,1,225.000008583069,10|0,0:0|0:0,0:0:0:0:
357,70,48299,2,0,L|486:50,1,110.000003356934,2|2,0:0|0:0,0:0:0:0:
205,119,48652,1,10,0:0:0:0:
314,283,48828,102,0,B|371:295|371:295|408:285|408:285|435:309|435:309|496:320,1,194.999991073609,6|0,0:0|0:0,0:0:0:0:
512,328,49181,1,2,0:0:0:0:
425,208,49357,6,0,B|446:112,1,80,10|0,0:0|0:0,0:0:0:0:
337,18,49534,1,0,0:0:0:0:
337,18,49710,102,0,B|354:96,1,80,2|0,0:0|0:0,0:0:0:0:
241,193,49887,1,0,0:0:0:0:
241,193,50063,6,0,B|262:97,1,80,10|0,0:0|0:0,0:0:0:0:
141,21,50240,1,0,0:0:0:0:
141,21,50416,102,0,B|158:99,1,80,2|0,0:0|0:0,0:0:0:0:
65,221,50593,1,0,0:0:0:0:
65,221,50769,6,0,B|82:142,1,80,10|0,0:0|0:0,0:0:0:0:
10,12,50946,1,0,0:0:0:0:
141,21,51122,101,2,0:0:0:0:
0,123,51299,1,10,0:0:0:0:
175,211,51475,1,10,0:0:0:0:
71,342,51652,6,0,B|106:285|66:221|66:221|22:225|3:275,1,194.999991073609,6|0,0:0|0:0,0:0:0:0:
3,276,52005,1,2,0:0:0:0:
219,364,52181,2,0,B|267:346|309:353|309:353|341:312|341:312|384:328|462:295,1,225.000008583069,10|0,0:0|0:0,0:0:0:0:
420,309,52534,2,0,P|436:254|412:185,1,110.000003356934,2|2,0:0|0:0,0:0:0:0:
285,77,52887,1,10,0:0:0:0:
143,259,53063,102,0,P|227:270|283:174,1,194.999991073609,6|0,0:0|0:0,0:0:0:0:
283,164,53416,1,2,0:0:0:0:
99,7,53593,2,0,B|50:-1|50:-1|74:134|74:134|119:112,1,225.000008583069,10|0,0:0|0:0,0:0:0:0:
109,118,53946,2,0,L|-12:104,1,110.000003356934,2|2,0:0|0:0,0:0:0:0:
185,0,54299,1,10,0:0:0:0:
283,164,54475,6,0,B|344:175|376:126|376:126|420:96|483:130,1,194.999991073609,6|0,0:0|0:0,0:0:0:0:
478,134,54828,1,2,0:0:0:0:
497,301,55004,102,0,L|513:384,1,80,10|0,0:0|0:0,0:0:0:0:
412,264,55181,1,0,0:0:0:0:
412,264,55357,6,0,L|428:347,1,80,2|0,0:0|0:0,0:0:0:0:
327,227,55534,1,0,0:0:0:0:
327,227,55710,102,0,L|343:310,1,80,10|0,0:0|0:0,0:0:0:0:
242,190,55887,1,0,0:0:0:0:
242,190,56063,6,0,L|258:273,1,80,2|0,0:0|0:0,0:0:0:0:
157,153,56240,1,0,0:0:0:0:
157,153,56416,102,0,L|173:236,1,80,10|0,0:0|0:0,0:0:0:0:
72,116,56593,1,0,0:0:0:0:
172,231,56769,5,8,0:0:0:0:
1,188,56946,1,8,1:0:0:0:
141,59,57122,1,8,1:0:0:0:
81,365,57299,102,0,B|116:308|76:244|76:244|32:248|13:298,1,194.999991073609,6|0,0:0|0:0,0:0:0:0:
10,298,57652,1,2,0:0:0:0:
157,153,57828,2,0,B|212:132|251:169|251:169|253:157|253:157|304:196|377:151,1,225.000008583069,10|0,0:0|0:0,0:0:0:0:
358,161,58181,2,0,P|344:98|334:40,1,110.000003356934,2|2,0:0|0:0,0:0:0:0:
413,252,58534,1,10,0:0:0:0:
190,218,58710,6,0,B|176:282|167:336|167:336|216:377|273:329,1,194.999991073609,6|0,0:0|0:0,0:0:0:0:
254,336,59063,1,2,0:0:0:0:
214,83,59240,2,0,B|83:45|127:150|-22:99,1,225.000008583069,10|0,0:0|0:0,0:0:0:0:
0,105,59593,2,0,P|-10:39|11:-9,1,110.000003356934,2|2,0:0|0:0,0:0:0:0:
113,179,59946,1,10,0:0:0:0:
291,49,60122,102,0,B|361:35|361:35|342:160,1,194.999991073609,6|0,0:0|0:0,0:0:0:0:
337,187,60475,1,2,0:0:0:0:
138,260,60652,6,0,P|85:257|38:222,1,80,10|0,0:0|0:0,0:0:0:0:
220,260,60828,1,0,0:0:0:0:
220,260,61004,102,0,P|199:308|150:340,1,80,2|0,0:0|0:0,0:0:0:0:
248,182,61180,1,0,0:0:0:0:
248,182,61357,6,0,P|286:218|299:274,1,80,10|0,0:3|0:3,0:0:0:0:
184,129,61533,1,0,0:3:0:0:
184,129,61710,102,0,P|231:105|288:111,1,80,2|0,0:3|0:3,0:0:0:0:
112,171,61886,1,0,0:0:0:0:
112,171,62063,6,0,P|105:118|131:66,1,80,10|0,0:3|0:3,0:0:0:0:
126,253,62239,1,0,0:3:0:0:
248,182,62416,101,2,0:0:0:0:
50,262,62593,1,10,0:0:0:0:
203,330,62769,1,10,0:0:0:0:
248,182,62946,6,0,B|268:55|268:55|240:27|181:52,1,194.999991073609,6|0,0:0|0:0,0:0:0:0:
184,53,63299,1,2,0:0:0:0:
317,260,63475,2,0,B|346:256|378:223|378:223|342:304|382:369,1,225.000008583069,10|0,0:0|0:0,0:0:0:0:
381,368,63828,2,0,P|437:370|487:342,1,110.000003356934,2|2,0:0|0:0,0:0:0:0:
439,142,64181,1,10,0:0:0:0:
254,306,64357,102,0,B|122:321|122:321|83:255,1,194.999991073609,6|0,0:0|0:0,0:0:0:0:
95,246,64710,1,2,0:0:0:0:
169,42,64887,2,0,B|244:27|244:27|221:177,1,225.000008583069,10|0,0:0|0:0,0:0:0:0:
222,173,65240,2,0,L|341:162,1,110.000003356934,2|2,0:0|0:0,0:0:0:0:
98,132,65593,1,10,0:0:0:0:
244,283,65769,6,0,B|301:295|301:295|338:285|338:285|365:309|365:309|426:320,1,194.999991073609,6|0,0:0|0:0,0:0:0:0:
442,328,66122,1,8,0:0:0:0:
360,192,66299,1,8,0:0:0:0:
328,367,66475,1,2,0:0:0:0:
451,166,66652,1,10,0:0:0:0:
269,213,66828,1,2,0:0:0:0:
428,80,67004,1,8,1:0:0:0:
466,248,67181,1,8,1:0:0:0:
211,36,67357,101,6,0:0:0:0:
0,307,68593,54,0,B|83:310|83:310|108:296|108:296|221:302,1,225.000008583069,6|0,0:0|0:0,0:0:0:0:
238,384,68946,1,0,0:0:0:0:
227,380,69034,1,0,0:0:0:0:
217,376,69122,2,0,L|227:195,1,150.000005722046,0|0,0:0|0:0,0:0:0:0:
306,275,69387,1,0,0:0:0:0:
308,288,69475,2,0,B|355:305|355:305|403:287|403:287|427:239,1,150.000005722046,10|0,0:0|0:0,0:0:0:0:
512,270,69740,1,0,0:0:0:0:
512,259,69828,1,0,0:0:0:0:
512,248,69916,1,0,0:0:0:0:
512,237,70004,2,0,B|503:187|503:187|463:155|463:155|410:158,1,150.000005722046,0|2,0:0|0:0,0:0:0:0:
352,221,70269,1,0,0:0:0:0:
344,211,70357,6,0,L|331:125,2,75.0000028610231
264,60,70622,1,0,0:0:0:0:
256,70,70710,2,0,L|243:156,1,75.0000028610231
155,223,70887,102,0,L|142:137,1,75.0000028610231,10|0,0:0|0:0,0:0:0:0:
262,287,71063,2,0,L|249:201,1,75.0000028610231,2|0,0:0|0:0,0:0:0:0:
387,336,71240,2,0,L|374:250,1,75.0000028610231,10|0,0:0|0:0,0:0:0:0:
461,103,71416,6,0,B|468:171|468:171|478:184|478:184|471:201|471:201|478:278,1,179.999994506836,6|0,0:0|0:0,0:0:0:0:
489,375,71769,1,0,0:0:0:0:
493,365,71857,1,0,0:0:0:0:
497,354,71946,2,0,B|473:314|473:314|334:348,1,150.000005722046,0|0,0:0|0:0,0:0:0:0:
316,264,72210,1,0,0:0:0:0:
320,275,72299,2,0,B|296:315|296:315|157:281,1,150.000005722046,10|0,0:0|0:0,0:0:0:0:
74,361,72563,1,0,0:0:0:0:
85,361,72651,1,0,0:0:0:0:
96,361,72740,1,0,0:0:0:0:
107,361,72828,2,0,L|78:272,1,75.0000028610231
30,106,73004,101,2,0:0:0:0:
139,181,73181,1,2,0:0:0:0:
209,174,73357,1,2,0:0:0:0:
279,167,73534,1,2,0:0:0:0:
473,37,73710,5,10,0:0:0:0:
401,29,73886,1,2,0:0:0:0:
430,96,74063,1,10,0:0:0:0:
334,359,74240,102,0,B|303:378|303:378|326:232,1,179.999994506836,6|0,0:0|0:0,0:0:0:0:
396,178,74593,1,0,0:0:0:0:
394,191,74681,1,0,0:0:0:0:
391,203,74769,2,0,B|327:232|327:232|233:213,1,150.000005722046,0|0,0:0|0:0,0:0:0:0:
190,287,75034,1,0,0:0:0:0:
187,275,75122,2,0,B|123:246|123:246|29:265,1,150.000005722046,10|0,0:0|0:0,0:0:0:0:
99,363,75387,1,0,0:0:0:0:
103,355,75475,1,0,0:0:0:0:
107,347,75563,1,0,0:0:0:0:
111,339,75652,2,0,L|130:190,1,150.000005722046,0|2,0:0|0:0,0:0:0:0:
41,167,75916,1,0,0:0:0:0:
32,159,76004,6,0,L|24:80,2,75.0000028610231
75,17,76269,1,0,0:0:0:0:
83,8,76357,2,0,L|162:0,1,75.0000028610231
234,59,76534,102,0,L|242:138,1,75.0000028610231,10|0,0:0|0:0,0:0:0:0:
334,9,76710,2,0,L|342:88,1,75.0000028610231,2|0,0:0|0:0,0:0:0:0:
323,183,76887,2,0,L|331:262,1,75.0000028610231,10|0,0:0|0:0,0:0:0:0:
448,31,77063,6,0,B|456:94|456:94|423:136|423:136|429:199,1,179.999994506836,6|0,0:0|0:0,0:0:0:0:
472,288,77416,1,0,0:0:0:0:
475,276,77504,1,0,0:0:0:0:
478,264,77593,2,0,B|424:245|424:245|337:276,1,150.000005722046
314,351,77857,1,0,0:0:0:0:
317,363,77946,2,0,B|263:382|263:382|176:351,1,150.000005722046,10|0,0:0|0:0,0:0:0:0:
84,293,78210,1,0,0:0:0:0:
94,287,78298,1,0,0:0:0:0:
104,288,78387,1,0,0:0:0:0:
109,296,78475,2,0,L|93:384,1,75.0000028610231
0,258,78652,101,2,0:0:0:0:
202,208,78828,1,2,0:0:0:0:
82,140,79004,1,2,0:0:0:0:
146,68,79181,1,2,0:0:0:0:
59,0,79357,5,10,0:0:0:0:
101,233,79534,1,2,0:0:0:0:
0,90,79710,1,10,0:0:0:0:
0,90,79799,1,10,0:0:0:0:
0,90,79887,102,0,B|45:116|96:91|96:91|137:60|206:77,1,179.999994506836,6|0,0:0|0:0,0:0:0:0:
245,93,80240,1,2,0:0:0:0:
272,122,80328,1,2,0:0:0:0:
284,159,80416,5,2,0:0:0:0:
298,121,80504,1,2,0:0:0:0:
328,94,80593,1,2,0:0:0:0:
365,79,80681,1,2,0:0:0:0:
404,75,80769,101,10,0:0:0:0:
420,111,80857,1,2,0:0:0:0:
426,150,80946,1,2,0:0:0:0:
421,189,81034,1,2,0:0:0:0:
399,222,81122,1,2,0:0:0:0:
381,257,81210,1,2,0:0:0:0:
375,296,81299,1,2,0:0:0:0:
381,335,81387,1,2,0:0:0:0:
408,363,81475,6,0,L|450:368,7,29.9999990844727,10|2|2|2|2|2|2|2,0:0|0:0|0:0|0:0|0:0|0:0|0:0|0:0,0:0:0:0:
483,275,82181,2,0,L|525:270,7,29.9999990844727,10|0|2|2|2|2|2|0,0:0|0:0|0:0|0:0|0:0|0:0|0:0|0:0,0:0:0:0:
420,193,82887,101,8,0:0:0:0:
385,172,82975,1,0,0:0:0:0:
346,163,83063,1,2,0:0:0:0:
306,172,83152,1,2,0:0:0:0:
275,197,83240,1,2,0:0:0:0:
249,227,83328,1,2,0:0:0:0:
211,240,83416,1,2,0:0:0:0:
171,238,83504,1,2,0:0:0:0:
135,218,83593,5,10,0:0:0:0:
171,201,83681,1,2,0:0:0:0:
193,168,83769,1,2,0:0:0:0:
198,128,83857,1,2,0:0:0:0:
182,90,83946,1,2,0:0:0:0:
148,68,84034,1,2,0:0:0:0:
108,68,84122,1,2,0:0:0:0:
74,88,84210,1,0,0:0:0:0:
59,125,84299,101,10,0:0:0:0:
237,44,84475,1,2,0:0:0:0:
308,56,84652,1,2,0:0:0:0:
235,52,84828,1,2,0:0:0:0:
14,0,85004,5,10,0:0:0:0:
53,38,85093,1,10,0:0:0:0:
69,85,85181,1,8,1:0:0:0:
59,125,85269,1,8,1:0:0:0:
35,150,85357,1,8,1:0:0:0:
19,170,85446,1,2,0:0:0:0:
9,193,85534,102,0,B|-6:242|1:264|1:264|32:302|106:300,1,179.999994506836,6|0,0:0|0:0,0:0:0:0:
193,300,85887,1,2,0:0:0:0:
231,290,85975,1,2,0:0:0:0:
267,306,86063,6,0,L|276:352,3,29.9999990844727,2|2|2|2,0:0|0:0|0:0|0:0,0:0:0:0:
356,265,86416,101,10,0:0:0:0:
379,232,86504,1,2,0:0:0:0:
385,192,86593,1,2,0:0:0:0:
374,153,86681,1,2,0:0:0:0:
344,126,86769,1,2,0:0:0:0:
319,94,86857,1,2,0:0:0:0:
315,53,86946,1,2,0:0:0:0:
331,16,87034,1,2,0:0:0:0:
367,0,87122,5,10,0:0:0:0:
350,31,87210,1,2,0:0:0:0:
315,53,87299,1,2,0:0:0:0:
275,60,87387,1,2,0:0:0:0:
236,51,87475,1,2,0:0:0:0:
202,29,87563,1,2,0:0:0:0:
165,12,87652,1,2,0:0:0:0:
125,7,87740,1,2,0:0:0:0:
85,12,87828,102,0,L|40:17,7,29.9999990844727,10|2|2|2|2|2|6|0,0:0|0:0|0:0|0:0|0:0|0:0|0:0|0:0,0:0:0:0:
134,94,88534,5,8,0:0:0:0:
157,125,88622,1,0,0:0:0:0:
161,164,88710,1,2,0:0:0:0:
145,201,88799,1,2,0:0:0:0:
114,226,88887,1,2,0:0:0:0:
84,253,88975,1,2,0:0:0:0:
68,289,89063,1,2,0:0:0:0:
63,329,89152,1,2,0:0:0:0:
81,364,89240,101,10,0:0:0:0:
108,334,89328,1,2,0:0:0:0:
144,318,89416,1,2,0:0:0:0:
183,312,89504,1,2,0:0:0:0:
221,322,89593,1,2,0:0:0:0:
251,347,89681,1,2,0:0:0:0:
288,365,89769,1,2,0:0:0:0:
329,365,89857,1,0,0:0:0:0:
369,354,89946,5,8,0:0:0:0:
388,321,90034,2,0,L|384:260,1,50,8|8,0:0|0:0,0:0:0:0:
497,358,90210,2,0,L|493:297,1,50,8|8,0:0|0:0,0:0:0:0:
509,226,90387,1,8,1:0:0:0:
510,218,90475,1,8,1:0:0:0:
511,210,90563,2,0,L|507:149,1,50,8|8,0:0|0:0,0:0:0:0:
430,188,90740,2,0,L|426:127,1,50,8|8,0:0|0:0,0:0:0:0:
349,166,90916,2,0,L|345:105,1,50,8|8,0:0|0:0,0:0:0:0:
440,4,91093,1,8,1:0:0:0:
440,15,91181,1,8,1:0:0:0:
439,29,91269,1,8,1:0:0:0:
439,39,91357,5,6,0:0:0:0:
315,0,91534,1,2,0:0:0:0:
277,135,91710,1,10,0:0:0:0:
1,63,91887,6,0,L|76:53,1,75.0000028610231,2|0,0:0|0:0,0:0:0:0:
153,43,92063,1,2,0:0:0:0:
47,142,92240,102,0,L|122:132,1,75.0000028610231,2|0,0:0|0:0,0:0:0:0:
199,122,92416,1,10,0:0:0:0:
92,223,92593,6,0,L|167:213,1,75.0000028610231,2|0,0:0|0:0,0:0:0:0:
244,203,92769,1,2,0:0:0:0:
144,337,92946,1,2,0:0:0:0:
47,142,93122,101,10,0:0:0:0:
166,213,93299,1,2,0:0:0:0:
8,285,93475,1,2,0:0:0:0:
20,283,93563,1,2,0:0:0:0:
32,281,93652,1,2,0:0:0:0:
168,341,93828,1,10,0:0:0:0:
156,339,93916,1,2,0:0:0:0:
144,337,94005,1,2,0:0:0:0:
320,191,94181,5,6,0:0:0:0:
251,353,94357,1,2,0:0:0:0:
198,147,94534,1,10,0:0:0:0:
390,224,94710,102,0,B|425:235|425:235|468:222,1,75.0000028610231,2|0,0:0|0:0,0:0:0:0:
426,155,94887,1,2,0:0:0:0:
287,284,95063,6,0,B|252:273|252:273|209:286,1,75.0000028610231,2|0,0:0|0:0,0:0:0:0:
251,353,95240,1,10,0:0:0:0:
342,153,95416,102,0,B|362:0|362:0|456:11,1,220.000006713867,2|2,0:0|0:0,0:0:0:0:
475,80,95946,1,10,0:0:0:0:
260,98,96122,2,0,B|191:104|191:104|159:88|159:88|124:109|124:109|28:118,1,220.000006713867,2|2,0:0|0:0,0:0:0:0:
170,295,96652,1,10,0:0:0:0:
161,176,96828,1,2,0:0:0:0:
0,343,97004,5,6,0:0:0:0:
107,248,97181,1,2,0:0:0:0:
165,371,97357,1,10,0:0:0:0:
324,168,97534,102,0,L|249:178,1,75.0000028610231,2|0,0:0|0:0,0:0:0:0:
172,188,97710,1,2,0:0:0:0:
370,247,97887,6,0,L|295:257,1,75.0000028610231,2|0,0:0|0:0,0:0:0:0:
218,267,98063,1,10,0:0:0:0:
415,328,98240,102,0,L|340:338,1,75.0000028610231,2|0,0:0|0:0,0:0:0:0:
263,348,98416,1,2,0:0:0:0:
324,168,98593,1,2,0:0:0:0:
99,193,98769,5,10,0:0:0:0:
218,267,98946,1,2,0:0:0:0:
210,114,99122,1,2,0:0:0:0:
210,128,99211,1,2,0:0:0:0:
210,142,99299,1,2,0:0:0:0:
131,293,99475,1,10,0:0:0:0:
131,279,99564,1,2,0:0:0:0:
131,265,99652,1,2,0:0:0:0:
37,51,99828,101,6,0:0:0:0:
99,193,100004,1,2,0:0:0:0:
168,12,100181,1,10,0:0:0:0:
80,211,100357,6,0,B|43:198|43:198|8:210,1,75.0000028610231,2|0,0:0|0:0,0:0:0:0:
44,274,100534,1,2,0:0:0:0:
210,142,100710,102,0,B|246:154|246:154|281:142,1,75.0000028610231,2|0,0:0|0:0,0:0:0:0:
246,79,100887,1,10,0:0:0:0:
120,276,101063,6,0,B|114:317|89:335|89:335|156:303|245:317,1,194.999991073609,2|0,0:0|0:0,0:0:0:0:
281,349,101416,1,8,0:0:0:0:
330,357,101504,1,8,0:0:0:0:
364,347,101593,1,8,0:0:0:0:
512,267,101769,1,8,1:0:0:0:
473,269,101857,1,8,1:0:0:0:
440,259,101946,1,8,1:0:0:0:
313,115,102122,1,8,1:0:0:0:
316,193,102299,1,8,1:0:0:0:
319,271,102475,6,0,B|350:229|350:229|289:210|189:246,1,194.999991073609,6|0,0:0|0:0,0:0:0:0:
195,252,102828,1,2,0:0:0:0:
440,259,103004,2,0,B|447:206|447:206|435:173|435:173|400:147|400:147|384:113|384:113|389:48,1,225.000008583069,10|0,0:0|0:0,0:0:0:0:
388,58,103357,2,0,B|439:37|439:37|491:57,1,110.000003356934,2|2,0:0|0:0,0:0:0:0:
375,218,103710,1,10,0:0:0:0:
247,59,103887,6,0,B|154:9|154:9|56:51,1,194.999991073609,6|0,0:0|0:0,0:0:0:0:
49,59,104240,1,2,0:0:0:0:
248,155,104416,2,0,B|138:203|138:203|45:153,1,225.000008583069,10|0,0:0|0:0,0:0:0:0:
45,153,104769,2,0,B|163:100,1,110.000003356934,2|2,0:0|0:0,0:0:0:0:
26,307,105122,1,10,0:0:0:0:
241,321,105299,102,0,B|320:322|320:322|342:346|342:346|446:350,1,194.999991073609,6|0,0:0|0:0,0:0:0:0:
458,349,105652,1,2,0:0:0:0:
462,176,105828,6,0,P|471:144|467:87,1,75.0000028610231,10|0,0:0|0:0,0:0:0:0:
440,254,106004,1,0,0:0:0:0:
440,254,106181,102,0,P|473:252|526:231,1,75.0000028610231,2|0,0:0|0:0,0:0:0:0:
359,257,106357,1,0,0:0:0:0:
359,257,106534,6,0,P|370:288|406:331,1,75.0000028610231,10|0,0:0|0:0,0:0:0:0:
330,180,106710,1,0,0:0:0:0:
330,180,106887,102,0,P|303:200|273:248,1,75.0000028610231,2|0,0:0|0:0,0:0:0:0:
393,129,107063,1,0,0:0:0:0:
393,129,107240,6,0,P|365:110|310:96,1,75.0000028610231,10|0,0:0|0:0,0:0:0:0:
460,173,107416,1,0,0:0:0:0:
358,256,107593,101,2,0:0:0:0:
461,88,107769,1,10,0:0:0:0:
512,234,107946,1,10,0:0:0:0:
283,266,108122,6,0,B|228:257|187:295|187:295|143:318|95:296,1,194.999991073609,6|0,0:0|0:0,0:0:0:0:
72,280,108475,1,2,0:0:0:0:
106,47,108652,2,0,B|173:62|173:62|140:214,1,225.000008583069,10|0,0:0|0:0,0:0:0:0:
140,214,109004,2,0,P|93:187|35:194,1,110.000003356934,2|2,0:0|0:0,0:0:0:0:
193,309,109357,1,10,0:0:0:0:
296,123,109534,102,0,B|366:118|366:118|388:101|388:101|413:114|413:114|481:107,1,194.999991073609,6|0,0:0|0:0,0:0:0:0:
509,103,109887,1,2,0:0:0:0:
462,382,110063,2,0,B|402:355|402:355|394:195,1,225.000008583069,10|0,0:0|0:0,0:0:0:0:
395,196,110416,2,0,B|504:184,1,110.000003356934,2|2,0:0|0:0,0:0:0:0:
319,329,110769,1,10,0:0:0:0:
216,123,110946,6,0,B|146:118|146:118|124:101|124:101|99:114|99:114|31:107,1,194.999991073609,6|0,0:0|0:0,0:0:0:0:
3,103,111299,1,2,0:0:0:0:
106,191,111475,102,0,B|86:284,1,75.0000028610231,10|0,0:0|0:0,0:0:0:0:
194,381,111652,1,0,0:0:0:0:
194,381,111828,6,0,B|178:306,1,75.0000028610231,2|0,0:0|0:0,0:0:0:0:
290,206,112005,1,0,0:0:0:0:
290,206,112181,102,0,B|271:297,1,75.0000028610231,10|0,0:0|0:0,0:0:0:0:
390,378,112358,1,0,0:0:0:0:
390,378,112534,6,0,B|374:304,1,75.0000028610231,2|0,0:0|0:0,0:0:0:0:
466,178,112711,1,8,0:0:0:0:
468,320,112887,1,8,0:0:0:0:
417,84,113063,1,8,0:0:0:0:
372,299,113240,1,8,0:0:0:0:
235,191,113416,1,8,1:0:0:0:
248,270,113593,1,8,1:0:0:0:
261,349,113769,102,0,B|272:294|272:294|114:330,1,194.999991073609,6|0,0:0|0:0,0:0:0:0:
116,332,114122,1,8,1:0:0:0:
332,211,114299,2,0,B|391:183|391:183|427:92|364:33,1,225.000008583069,2|0,0:0|0:0,0:0:0:0:
340,30,114652,1,10,0:0:0:0:
196,133,114828,1,2,0:0:0:0:
297,117,115004,1,10,0:0:0:0:
25,24,115181,6,0,B|101:26|101:26|127:53|127:53|208:54,1,194.999991073609,6|0,0:0|0:0,0:0:0:0:
236,55,115534,1,8,1:0:0:0:
149,207,115710,2,0,L|-24:204,1,150.000005722046,2|2,0:0|0:0,0:0:0:0:
196,133,116063,1,10,0:0:0:0:
145,294,116240,1,2,0:0:0:0:
44,116,116416,1,10,0:0:0:0:
53,373,116593,102,0,B|-13:393|-27:338|-27:338|-20:287|48:277,1,194.999991073609,6|0,0:0|0:0,0:0:0:0:
53,287,116946,1,0,0:0:0:0:
264,286,117123,85,0,0:0:0:0:
278,274,117211,1,0,0:0:0:0:
281,260,117299,1,0,0:0:0:0:
318,80,117475,5,10,0:0:0:0:
303,91,117563,1,0,0:0:0:0:
300,105,117651,1,0,0:0:0:0:
360,266,117828,101,0,0:0:0:0:
366,248,117916,1,0,0:0:0:0:
361,234,118004,1,0,0:0:0:0:
215,108,118181,5,2,0:0:0:0:
218,126,118269,1,0,0:0:0:0:
228,136,118357,1,0,0:0:0:0:
393,155,118534,101,0,0:0:0:0:
376,147,118622,1,0,0:0:0:0:
363,152,118710,1,0,0:0:0:0:
146,205,118887,5,8,0:0:0:0:
182,213,118975,1,8,0:0:0:0:
220,210,119063,1,8,0:0:0:0:
291,183,119240,1,8,0:0:0:0:
15,184,119416,6,0,B|44:180|76:147|76:147|40:228|80:293,1,225.000008583069,6|0,0:0|0:0,0:0:0:0:
99,300,119769,1,10,0:0:0:0:
291,183,119946,2,0,P|250:169|192:182,1,80,2|0,0:0|0:0,0:0:0:0:
146,205,120122,1,2,0:0:0:0:
304,344,120299,1,10,0:0:0:0:
397,171,120475,2,0,L|386:81,1,80,2|0,0:0|0:0,0:0:0:0:
378,4,120652,1,10,0:0:0:0:
504,194,120828,6,0,B|445:205|445:205|398:192|398:192|363:223|363:223|285:237,1,225.000008583069,6|0,0:0|0:0,0:0:0:0:
271,238,121181,1,10,0:0:0:0:
426,367,121357,2,0,B|439:329|439:329|423:286,1,80,2|0,0:0|0:0,0:0:0:0:
356,329,121534,1,2,0:0:0:0:
504,194,121710,1,10,0:0:0:0:
352,25,121887,2,0,B|339:63|339:63|355:106,1,80,2|0,0:0|0:0,0:0:0:0:
422,63,122064,1,10,0:0:0:0:
226,150,122240,102,0,B|143:158|143:158|118:190|118:190|4:202,1,225.000008583069,6|0,0:0|0:0,0:0:0:0:
0,187,122593,1,0,0:0:0:0:
199,266,122769,85,0,0:0:0:0:
204,252,122857,1,0,0:0:0:0:
201,237,122946,1,0,0:0:0:0:
95,319,123122,5,10,0:0:0:0:
104,330,123210,1,0,0:0:0:0:
119,335,123299,1,0,0:0:0:0:
106,201,123475,101,0,0:0:0:0:
91,203,123563,1,0,0:0:0:0:
80,213,123652,1,0,0:0:0:0:
221,378,123828,5,2,0:0:0:0:
235,374,123916,1,0,0:0:0:0:
249,371,124004,2,0,L|237:305,1,50,8|8,0:0|0:0,0:0:0:0:
307,234,124181,1,8,0:0:0:0:
303,248,124269,1,0,0:0:0:0:
300,262,124357,1,8,0:0:0:0:
416,371,124534,1,8,0:0:0:0:
412,357,124622,1,0,0:0:0:0:
409,343,124710,1,8,1:0:0:0:
512,180,124887,102,0,P|478:184|453:194,1,59.9999981689454,8|0,1:0|0:0,0:0:0:0:
331,86,125063,2,0,P|362:99|389:103,1,59.9999981689454,8|0,1:0|0:0,0:0:0:0:
382,218,125240,85,2,0:0:0:0:
379,203,125328,1,2,0:0:0:0:
376,189,125416,1,2,0:0:0:0:
274,13,125593,86,0,L|201:23,1,44.999998626709,2|0,0:0|0:0,0:0:0:0:
158,32,125769,2,0,L|85:42,1,44.999998626709,2|0,0:0|0:0,0:0:0:0:
44,52,125946,1,0,0:0:0:0:
100,164,126122,2,0,B|115:206|115:206|99:256,2,89.9999972534181,0|0|2,0:0|0:0|0:0,0:0:0:0:
203,341,126652,2,0,B|188:299|188:299|204:249,2,89.9999972534181,8|0|0,0:0|0:0|0:0,0:0:0:0:
27,203,127181,21,2,0:0:0:0:
222,141,127357,1,2,0:0:0:0:
220,156,127445,1,2,0:0:0:0:
218,170,127533,1,2,0:0:0:0:
276,366,127710,86,0,L|348:355,1,44.999998626709,2|0,0:0|0:0,0:0:0:0:
391,343,127887,2,0,L|467:327,1,44.999998626709,2|0,0:0|0:0,0:0:0:0:
504,315,128063,6,0,B|515:271|515:271|494:223,1,89.9999972534181,0|0,0:0|0:0,0:0:0:0:
332,182,128416,2,0,B|363:213|363:213|415:219,2,89.9999972534181,0|2|2,0:0|0:0|0:0,0:0:0:0:
512,81,128946,2,0,B|474:105|474:105|457:155,2,89.9999972534181,0|0|2,0:0|0:0|0:0,0:0:0:0:
334,69,129475,5,14,0:0:0:0:
332,54,129563,1,2,0:0:0:0:
330,40,129651,1,2,0:0:0:0:
259,170,129828,6,0,L|186:160,1,44.999998626709,2|0,0:0|0:0,0:0:0:0:
143,151,130004,2,0,L|70:141,1,44.999998626709,2|0,0:0|0:0,0:0:0:0:
29,131,130181,1,14,0:0:0:0:
14,129,130269,1,2,0:0:0:0:
0,127,130357,1,2,0:0:0:0:
162,35,130534,102,0,L|152:107,1,44.999998626709,2|0,0:0|0:0,0:0:0:0:
143,151,130710,2,0,L|133:223,1,44.999998626709,2|0,0:0|0:0,0:0:0:0:
123,265,130887,1,6,0:0:0:0:
121,280,130975,1,2,0:0:0:0:
119,294,131063,1,2,0:0:0:0:
259,170,131240,86,0,L|332:160,1,44.999998626709,2|0,0:0|0:0,0:0:0:0:
375,151,131416,2,0,L|448:141,1,44.999998626709,2|0,0:0|0:0,0:0:0:0:
491,132,131593,1,0,0:0:0:0:
433,263,131769,2,0,B|419:306|419:306|434:348,2,89.9999972534181,0|0|2,0:0|0:0|0:0,0:0:0:0:
375,151,132299,2,0,B|389:108|389:108|374:66,2,89.9999972534181,8|0|0,0:0|0:0|0:0,0:0:0:0:
433,263,132828,21,0,0:0:0:0:
294,109,133004,1,2,0:0:0:0:
279,111,133092,1,2,0:0:0:0:
265,113,133180,1,2,0:0:0:0:
238,287,133357,102,0,L|165:277,1,44.999998626709,2|0,0:0|0:0,0:0:0:0:
122,268,133533,2,0,L|49:258,1,44.999998626709,2|0,0:0|0:0,0:0:0:0:
8,248,133710,102,0,B|-3:204|-3:204|18:156,1,89.9999972534181
180,115,134063,2,0,B|149:146|149:146|97:152,2,89.9999972534181,0|2|2,0:0|0:0|0:0,0:0:0:0:
0,14,134593,2,0,B|38:38|38:38|55:88,2,89.9999972534181,0|0|2,0:0|0:0|0:0,0:0:0:0:
126,239,135122,21,14,0:0:0:0:
124,254,135210,1,2,0:0:0:0:
122,268,135298,1,2,0:0:0:0:
277,371,135475,6,0,L|267:298,1,44.999998626709,2|0,0:0|0:0,0:0:0:0:
258,255,135651,2,0,L|248:182,1,44.999998626709,2|0,0:0|0:0,0:0:0:0:
238,141,135828,1,14,0:0:0:0:
236,126,135916,1,2,0:0:0:0:
234,112,136004,1,2,0:0:0:0:
418,280,136181,102,0,L|346:270,1,44.999998626709,2|0,0:0|0:0,0:0:0:0:
302,261,136357,2,0,L|230:251,1,44.999998626709,2|0,0:0|0:0,0:0:0:0:
188,241,136534,1,6,0:0:0:0:
173,239,136622,1,2,0:0:0:0:
159,237,136710,1,2,0:0:0:0:
0,79,136887,102,0,L|73:69,1,44.999998626709,2|0,0:0|0:0,0:0:0:0:
116,60,137063,2,0,L|189:50,1,44.999998626709,2|0,0:0|0:0,0:0:0:0:
232,41,137240,1,0,0:0:0:0:
337,144,137416,2,0,B|352:186|352:186|336:236,2,89.9999972534181,0|0|2,0:0|0:0|0:0,0:0:0:0:
438,329,137946,2,0,B|423:287|423:287|439:237,2,89.9999972534181,8|0|0,0:0|0:0|0:0,0:0:0:0:
263,187,138475,5,2,0:0:0:0:
415,74,138652,1,2,0:0:0:0:
431,72,138740,1,2,0:0:0:0:
447,70,138828,1,2,0:0:0:0:
251,98,139004,86,0,L|178:108,1,44.999998626709,2|0,0:0|0:0,0:0:0:0:
135,117,139180,2,0,L|62:127,1,44.999998626709,2|0,0:0|0:0,0:0:0:0:
21,137,139357,6,0,B|10:181|10:181|31:229,1,89.9999972534181,0|0,0:0|0:0,0:0:0:0:
193,270,139710,2,0,B|162:239|162:239|110:233,2,89.9999972534181,0|2|2,0:0|0:0|0:0,0:0:0:0:
13,371,140240,2,0,B|51:347|51:347|68:297,2,89.9999972534181,0|0|2,0:0|0:0|0:0,0:0:0:0:
139,148,140769,5,14,0:0:0:0:
137,133,140857,1,2,0:0:0:0:
135,119,140945,1,2,0:0:0:0:
290,21,141122,6,0,L|280:94,1,44.999998626709,2|0,0:0|0:0,0:0:0:0:
271,137,141298,2,0,L|261:210,1,44.999998626709,2|0,0:0|0:0,0:0:0:0:
251,251,141475,1,14,0:0:0:0:
249,266,141563,1,2,0:0:0:0:
247,280,141651,1,2,0:0:0:0:
431,112,141828,102,0,L|359:122,1,44.999998626709,2|0,0:0|0:0,0:0:0:0:
315,131,142004,2,0,L|243:141,1,44.999998626709,2|0,0:0|0:0,0:0:0:0:
201,151,142181,1,6,0:0:0:0:
186,153,142269,1,2,0:0:0:0:
172,155,142357,1,2,0:0:0:0:
340,291,142534,86,0,L|330:218,1,44.999998626709,2|0,0:0|0:0,0:0:0:0:
321,175,142710,2,0,L|311:102,1,44.999998626709,2|0,0:0|0:0,0:0:0:0:
302,59,142887,1,0,0:0:0:0:
439,124,143063,2,0,L|424:221,2,89.9999972534181,8|8|8,1:0|1:0|1:0,0:0:0:0:
491,373,143593,2,0,L|476:276,2,89.9999972534181,8|0|0,0:0|0:0|0:0,0:0:0:0:
434,122,144122,1,2,0:0:0:0:
324,291,144299,21,2,0:0:0:0:
300,289,144387,1,2,0:0:0:0:
276,288,144475,1,2,0:0:0:0:
89,371,144652,102,0,L|79:298,1,44.999998626709,2|0,0:0|0:0,0:0:0:0:
70,255,144828,2,0,L|60:182,1,44.999998626709,2|0,0:0|0:0,0:0:0:0:
51,139,145004,102,0,P|95:137|158:124,1,89.9999972534181
276,288,145357,2,0,P|252:250|209:202,2,89.9999972534181,0|2|2,0:0|0:0|0:0,0:0:0:0:
260,10,145887,2,0,P|239:49|218:110,2,89.9999972534181,0|0|2,0:0|0:0|0:0,0:0:0:0:
146,225,146416,101,12,0:0:0:0:
312,121,146593,1,8,0:0:0:0:
327,123,146681,1,8,0:0:0:0:
341,125,146769,1,8,0:0:0:0:
262,298,146946,1,8,1:0:0:0:
247,300,147034,1,8,1:0:0:0:
233,303,147122,1,8,1:0:0:0:
7,171,147299,53,8,1:0:0:0:
27,166,147387,1,8,1:0:0:0:
47,161,147475,1,2,0:0:0:0:
67,156,147563,1,2,0:0:0:0:
88,152,147651,1,2,0:0:0:0:
108,147,147740,1,0,0:0:0:0:
125,142,147828,38,0,B|158:98|139:46|139:46|181:91|137:143|137:143|144:152|144:152|95:229|144:286|144:286|200:277|211:222,1,450.000017166138,14|2,0:0|0:0,0:0:0:0:
71,86,148534,1,10,0:0:0:0:
288,248,148710,2,0,B|356:241|372:186|372:186|420:228|493:205,1,225.000008583069,2|0,0:0|0:0,0:0:0:0:
491,192,149063,1,2,0:0:0:0:
295,46,149240,6,0,B|268:94|268:94|290:164,1,110.000003356934,8|2,0:0|0:0,0:0:0:0:
385,378,149593,2,0,B|412:330|412:330|390:260,1,110.000003356934,0|2,0:0|0:0,0:0:0:0:
161,256,149946,1,10,0:0:0:0:
324,320,150122,1,2,0:0:0:0:
129,364,150299,1,0,0:0:0:0:
251,166,150475,1,2,0:0:0:0:
254,192,150563,1,2,0:0:0:0:
258,219,150652,101,14,0:0:0:0:
62,272,150828,1,2,0:0:0:0:
238,359,151004,1,0,0:0:0:0:
60,165,151181,5,2,0:0:0:0:
136,211,151357,1,10,0:0:0:0:
62,272,151534,1,2,0:0:0:0:
145,359,151710,101,0,0:0:0:0:
203,73,151887,2,0,B|278:58|278:58|255:208,1,225.000008583069,2|0,0:0|0:0,0:0:0:0:
255,204,152240,6,0,B|333:213|333:213|358:245|358:245|473:258,1,200,2|2,0:0|0:0,0:0:0:0:
290,374,152769,2,0,B|266:329|266:329|292:268,1,100,10|0,0:0|0:0,0:0:0:0:
375,130,153122,1,0,0:0:0:0:
178,49,153299,1,2,0:0:0:0:
167,52,153387,1,0,0:0:0:0:
155,55,153475,70,0,L|145:-19,2,41.6666666666667,14|0|0,0:0|0:0|0:0,0:0:0:0:
99,108,153652,2,0,L|35:68,2,41.6666666666667,2|0|0,0:0|0:0|0:0,0:0:0:0:
106,182,153828,2,0,L|34:204,2,41.6666666666667,0|0|0,0:0|0:0|0:0,0:0:0:0:
161,233,154004,2,0,L|132:302,2,41.6666666666667,2|0|0,0:0|0:0|0:0,0:0:0:0:
235,216,154181,6,0,L|269:282,2,41.6666666666667,10|0|0,0:0|0:0|0:0,0:0:0:0:
261,145,154357,2,0,L|327:111,2,41.6666666666667,2|0|0,0:0|0:0|0:0,0:0:0:0:
191,113,154534,2,0,L|157:47,2,41.6666666666667,0|0|0,0:0|0:0|0:0,0:0:0:0:
161,182,154710,2,0,L|95:216,2,41.6666666666667,2|0|0,0:0|0:0|0:0,0:0:0:0:
235,216,154887,70,0,L|269:282,2,41.6666666666667,10|0|0,0:0|0:0|0:0,0:0:0:0:
310,211,155063,2,0,L|281:279,2,41.6666666666667,2|0|0,0:0|0:0|0:0,0:0:0:0:
357,271,155240,2,0,L|286:293,2,41.6666666666667,0|0|0,0:0|0:0|0:0,0:0:0:0:
324,338,155416,2,0,L|261:297,2,41.6666666666667,2|0|0,0:0|0:0|0:0,0:0:0:0:
249,354,155593,6,0,L|239:280,2,41.6666666666667,10|0|0,0:0|0:0|0:0,0:0:0:0:
178,328,155769,2,0,L|168:254,2,41.6666666666667,2|0|0,0:0|0:0|0:0,0:0:0:0:
105,302,155946,2,0,L|95:228,2,41.6666666666667,0|0|0,0:0|0:0|0:0,0:0:0:0:
34,276,156122,2,0,L|24:202,2,41.6666666666667,2|2|2,0:0|0:0|0:0,0:0:0:0:
91,186,156299,6,0,L|101:112,2,41.6666666666667,14|0|0,0:0|0:0|0:0,0:0:0:0:
162,160,156475,2,0,L|172:86,2,41.6666666666667,2|0|0,0:0|0:0|0:0,0:0:0:0:
235,134,156652,2,0,L|245:60,2,41.6666666666667,0|0|0,0:0|0:0|0:0,0:0:0:0:
306,108,156828,2,0,L|316:34,2,41.6666666666667,2|0|0,0:0|0:0|0:0,0:0:0:0:
351,167,157004,6,0,L|337:240,2,41.6666666666667,10|0|0,0:0|0:0|0:0,0:0:0:0:
413,114,157181,2,0,L|454:121,2,41.6666666666667,2|0|0,0:0|0:0|0:0,0:0:0:0:
364,57,157357,2,0,L|377:-16,2,41.6666666666667
306,108,157534,2,0,L|264:100,2,41.6666666666667,2|0|0,0:0|0:0|0:0,0:0:0:0:
351,167,157710,70,0,L|337:240,2,41.6666666666667,10|0|0,0:0|0:0|0:0,0:0:0:0:
407,218,157887,2,0,L|342:254,2,41.6666666666667,2|0|0,0:0|0:0|0:0,0:0:0:0:
407,293,158063,2,0,L|337:267,2,41.6666666666667
339,329,158240,2,0,L|313:259,2,41.6666666666667,2|2|0,0:0|0:0|0:0,0:0:0:0:
269,300,158416,6,0,L|306:235,2,41.6666666666667,10|0|0,0:0|0:0|0:0,0:0:0:0:
215,245,158593,2,0,L|189:175,2,41.6666666666667,2|0|0,0:0|0:0|0:0,0:0:0:0:
172,307,158769,2,0,L|186:346,2,41.6666666666667,10|0|0,0:0|0:0|0:0,0:0:0:0:
106,267,158946,2,0,L|85:302,2,41.6666666666667,2|0|0,0:0|0:0|0:0,0:0:0:0:
91,193,159122,1,10,0:0:0:0:
216,39,159299,38,0,B|275:15|327:57|327:57|339:-20|405:-29|458:-24|528:51|455:160|378:145|342:79,1,412.500003933907,6|0,0:0|0:0,0:0:0:0:
386,116,159828,1,10,0:0:0:0:
220,144,160004,1,0,0:0:0:0:
475,242,160181,1,2,0:0:0:0:
307,340,160357,6,0,B|235:267|264:186|305:173|344:180|386:211|367:261,1,270.000001029968,2|2,0:0|0:0,0:0:0:0:
365,259,160799,1,0,0:0:0:0:
358,271,160887,2,0,P|323:266|290:255,1,67.5000002574921,2|0,0:0|0:0,0:0:0:0:
210,363,161063,2,0,P|175:368|142:379,1,67.5000002574921,2|0,0:0|0:0,0:0:0:0:
34,273,161240,101,10,0:0:0:0:
144,152,161416,1,0,0:0:0:0:
144,377,161593,1,2,0:0:0:0:
53,79,161769,6,0,B|76:60|90:18|90:18|111:58|79:93|79:93|83:103|83:103|52:152|84:216,1,270.000001029968,6|2,0:0|0:0,0:0:0:0:
89,213,162210,1,2,0:0:0:0:
97,223,162299,2,0,P|132:226|178:213,1,67.5000002574921,2|0,0:0|0:0,0:0:0:0:
248,317,162475,2,0,P|262:285|266:237,1,67.5000002574921,2|0,0:0|0:0,0:0:0:0:
330,157,162652,101,10,0:0:0:0:
240,113,162828,1,2,0:0:0:0:
417,137,163004,5,2,0:0:0:0:
362,260,163180,1,2,0:0:0:0:
342,34,163357,101,10,0:0:0:0:
510,104,163533,1,2,0:0:0:0:
192,168,163710,5,2,0:0:0:0:
262,0,163886,1,2,0:0:0:0:
273,261,164063,101,10,0:0:0:0:
42,169,164239,1,2,0:0:0:0:
312,116,164416,6,0,B|387:101|387:101|364:251,1,225.000008583069,2|0,0:0|0:0,0:0:0:0:
369,264,164769,5,14,0:0:0:0:
468,205,164946,1,2,0:0:0:0:
231,188,165122,6,0,L|100:205,1,100,2|2,0:0|0:0,0:0:0:0:
332,175,165475,1,10,0:0:0:0:
214,365,165652,102,0,B|194:316|194:316|216:252,1,100,2|2,0:0|0:0,0:0:0:0:
362,317,166004,1,2,0:0:0:0:
114,308,166181,6,0,L|-17:291,1,100,10|2,0:0|0:0,0:0:0:0:
276,320,166534,1,2,0:0:0:0:
110,127,166710,102,0,B|90:176|90:176|112:240,1,100,2|10,0:0|0:0,0:0:0:0:
318,216,167062,1,2,0:0:0:0:
183,31,167240,1,2,0:0:0:0:
348,127,167416,22,0,B|274:134|274:134|249:166|249:166|164:176,1,200,2|2,0:0|0:0,0:0:0:0:
318,307,167946,86,0,B|338:261|338:261|314:209,1,100,2|2,0:0|0:0,0:0:0:0:
201,361,168299,1,10,0:0:0:0:
413,264,168475,6,0,L|526:275,1,100,2|2,0:0|0:0,0:0:0:0:
210,246,168828,1,2,0:0:0:0:
413,110,169004,6,0,L|526:99,1,100,10|2,0:0|0:0,0:0:0:0:
167,131,169357,1,10,0:0:0:0:
340,245,169534,1,2,0:0:0:0:
324,16,169710,1,8,0:0:0:0:
325,46,169798,1,8,0:0:0:0:
328,76,169886,1,8,0:0:0:0:
159,18,170063,1,8,0:0:0:0:
484,64,170240,5,6,0:0:0:0:
0,218,173063,38,0,B|14:151|14:151|32:125|32:125|26:95|26:95|37:17,1,194.999991073609,6|0,0:0|0:0,0:0:0:0:
40,1,173416,1,2,0:0:0:0:
112,137,173593,6,0,L|128:38,1,100,10|0,0:0|0:0,0:0:0:0:
183,184,173769,1,0,0:0:0:0:
183,184,173946,102,0,L|199:85,1,100,2|0,0:0|0:0,0:0:0:0:
254,231,174122,1,0,0:0:0:0:
254,231,174299,6,0,L|270:132,1,100,10|0,0:0|0:0,0:0:0:0:
325,278,174475,1,0,0:0:0:0:
325,278,174652,102,0,L|341:179,1,100,2|0,0:0|0:0,0:0:0:0:
396,325,174828,1,0,0:0:0:0:
396,325,175004,6,0,L|412:226,1,100,10|0,0:0|0:0,0:0:0:0:
467,372,175180,1,0,0:0:0:0:
413,226,175357,101,8,0:0:0:0:
304,384,175534,1,8,1:0:0:0:
512,270,175710,1,8,1:0:0:0:
260,217,175887,6,0,B|182:230|182:230|155:254|155:254|62:272,1,194.999991073609,6|0,0:0|0:0,0:0:0:0:
53,276,176240,1,2,0:0:0:0:
15,41,176416,2,0,B|45:-6|45:-6|139:35|108:139,1,225.000008583069,10|0,0:0|0:0,0:0:0:0:
110,131,176769,2,0,B|2:151,1,110.000003356934,2|2,0:0|0:0,0:0:0:0:
186,19,177122,1,10,0:0:0:0:
338,249,177299,102,0,P|246:268|176:205,1,194.999991073609,6|0,0:0|0:0,0:0:0:0:
174,179,177652,1,2,0:0:0:0:
386,31,177828,2,0,B|435:23|435:23|411:158|411:158|366:136,1,225.000008583069,10|0,0:0|0:0,0:0:0:0:
376,142,178181,2,0,L|497:128,1,110.000003356934,2|2,0:0|0:0,0:0:0:0:
316,10,178534,1,10,0:0:0:0:
195,167,178710,6,0,B|134:178|102:129|102:129|58:99|-5:133,1,194.999991073609,6|0,0:0|0:0,0:0:0:0:
0,137,179063,1,2,0:0:0:0:
118,323,179240,2,0,B|149:266|149:266|263:248|263:248|305:292,1,225.000008583069,10|0,0:0|0:0,0:0:0:0:
307,299,179593,1,2,0:0:0:0:
195,167,179769,1,8,0:0:0:0:
195,167,179857,1,8,0:0:0:0:
195,167,179946,69,8,0:0:0:0:
218,352,180122,1,8,0:0:0:0:
352,145,180299,1,8,0:0:0:0:
207,257,180475,1,8,1:0:0:0:
364,58,180652,1,8,1:0:0:0:
341,243,180828,1,8,1:0:0:0:
264,95,181004,5,2,0:0:0:0:
419,205,181181,1,2,0:0:0:0:
497,190,181357,1,2,0:0:0:0:
441,384,181534,6,0,B|366:382|366:382|329:352|329:352|246:349,1,194.999991073609,6|0,0:0|0:0,0:0:0:0:
236,351,181887,1,10,0:0:0:0:
279,133,182063,2,0,B|291:95|291:95|379:142|316:255,1,225.000008583069,2|0,0:0|0:0,0:0:0:0:
304,272,182416,1,10,0:0:0:0:
141,222,182593,1,2,0:0:0:0:
230,213,182769,1,10,0:0:0:0:
0,83,182946,6,0,B|41:63|82:96|82:96|110:148|172:142,1,194.999991073609,6|0,0:0|0:0,0:0:0:0:
187,134,183299,1,8,1:0:0:0:
374,44,183475,2,0,B|308:-5|308:-5|173:42,1,225.000008583069,2|0,0:0|0:0,0:0:0:0:
164,59,183828,1,10,0:0:0:0:
323,190,184004,1,2,0:0:0:0:
292,89,184181,1,10,0:0:0:0:
201,349,184357,102,0,B|166:292|206:228|206:228|250:232|269:282,1,194.999991073609,6|0,0:0|0:0,0:0:0:0:
269,283,184710,1,0,0:0:0:0:
419,339,184887,85,2,0:0:0:0:
407,341,184975,1,0,0:0:0:0:
395,343,185063,1,0,0:0:0:0:
487,244,185240,5,10,0:0:0:0:
499,246,185328,1,0,0:0:0:0:
511,248,185416,1,0,0:0:0:0:
395,145,185593,101,2,0:0:0:0:
383,147,185681,1,0,0:0:0:0:
371,149,185769,1,0,0:0:0:0:
487,46,185946,5,2,0:0:0:0:
499,48,186034,1,0,0:0:0:0:
511,50,186122,1,0,0:0:0:0:
395,145,186299,101,2,0:0:0:0:
383,147,186387,1,0,0:0:0:0:
371,149,186475,1,0,0:0:0:0:
235,54,186652,5,8,0:0:0:0:
262,57,186740,1,8,0:0:0:0:
289,60,186828,1,8,0:0:0:0:
368,68,187004,1,8,0:0:0:0:
123,190,187181,6,0,B|134:129|134:129|265:140,1,194.999991073609,6|0,0:0|0:0,0:0:0:0:
285,144,187534,1,10,0:0:0:0:
303,382,187710,2,0,P|195:349|203:247,1,225.000008583069,2|0,0:0|0:0,0:0:0:0:
213,241,188063,1,10,0:0:0:0:
368,284,188240,1,2,0:0:0:0:
270,303,188416,1,10,0:0:0:0:
506,190,188593,6,0,B|423:188|423:188|394:167|394:167|315:165,1,194.999991073609,6|0,0:0|0:0,0:0:0:0:
295,165,188946,1,10,0:0:0:0:
88,262,189122,2,0,B|80:311|80:311|215:287|215:287|193:242,1,225.000008583069,2|0,0:0|0:0,0:0:0:0:
193,238,189475,1,10,0:0:0:0:
17,190,189652,1,2,0:0:0:0:
88,262,189828,1,10,0:0:0:0:
126,4,190004,102,0,B|161:61|121:125|121:125|77:121|58:71,1,194.999991073609,6|0,0:0|0:0,0:0:0:0:
58,70,190357,1,0,0:0:0:0:
228,62,190534,85,2,0:0:0:0:
240,64,190622,1,0,0:0:0:0:
252,66,190710,1,0,0:0:0:0:
341,148,190887,5,10,0:0:0:0:
353,146,190975,1,0,0:0:0:0:
365,144,191063,1,0,0:0:0:0:
207,169,191240,101,2,0:0:0:0:
219,171,191328,1,0,0:0:0:0:
231,173,191416,1,0,0:0:0:0:
320,255,191593,5,2,0:0:0:0:
332,253,191681,1,0,0:0:0:0:
344,251,191769,1,0,0:0:0:0:
186,276,191946,101,2,0:0:0:0:
198,278,192034,1,0,0:0:0:0:
210,280,192122,1,0,0:0:0:0:
350,355,192299,5,8,0:0:0:0:
323,358,192387,1,8,0:0:0:0:
296,361,192475,1,8,0:0:0:0:
218,366,192652,1,8,0:0:0:0:
447,164,192828,70,0,B|447:244|355:261|355:261|445:269|442:365,1,299.999990844727,6|0,0:0|0:0,0:0:0:0:
442,364,195122,5,10,0:0:0:0:
312,285,195299,1,10,0:0:0:0:
495,224,195475,1,10,0:0:0:0:
173,228,195652,54,0,B|141:229|110:276|110:276|219:295|231:192|299:188|299:188|367:185|379:82|488:101|488:101|457:148|424:149,1,600,6|0,0:0|0:0,0:0:0:0:
