osu file format v14

[General]
AudioFilename: audio.mp3
AudioLeadIn: 0
PreviewTime: 22181
Countdown: 0
SampleSet: Drum
StackLeniency: 0.3
Mode: 0
LetterboxInBreaks: 0
EpilepsyWarning: 1
WidescreenStoryboard: 1

[Editor]
Bookmarks: 123,828,23593,46004,67357,91357,102475,125240,147828,170416,192828,196887
DistanceSpacing: 1
BeatDivisor: 4
GridSize: 4
TimelineZoom: 1.9

[Metadata]
Title:In Due Time
TitleUnicode:In Due Time
Artist:Killswitch Engage
ArtistUnicode:Killswitch Engage
Creator:K4L1
Version:Normal
Source:
Tags:Kalindraz Dada yShadowXOP_ ChuuritsuTv Sakura Airi Metalcore Disarm the Descent
BeatmapID:1968082
BeatmapSetID:941053

[Difficulty]
HPDrainRate:4
CircleSize:3
OverallDifficulty:5
ApproachRate:6
SliderMultiplier:1.2
SliderTickRate:1

[Events]
//Background and Video events
0,0,"T3N1e1A0cjNEM19wNFAzbF9tVF8zUGlDMF9NM3VfNG0xRzB9.jpg",0,0
//Break Periods
//Storyboard Layer 0 (Background)
//Storyboard Layer 1 (Fail)
//Storyboard Layer 2 (Pass)
//Storyboard Layer 3 (Foreground)
Sprite,Foreground,Centre,"sb/hl2.png",320,248 S,2,147828,150746,1,0.8 F,2,147828,150746,0.5,0 P,0,147828,150746,A C,0,147828,,136,136,136
Sprite,Foreground,Centre,"sb/hl2.png",0,0 S,2,150652,152157,1,0.8 F,2,150652,152157,0.5,0 P,0,150652,152157,A C,0,150652,,128,255,255 M,0,150652,150696,369,166,379.1494,177.0449 M,0,150696,150740,379.1494,177.0449,389.2988,188.0898 M,0,150740,150784,389.2988,188.0898,399.4482,199.1347 M,0,150784,150828,399.4482,199.1347,405.0666,212.5291 M,0,150828,150872,405.0666,212.5291,408.2457,227.1884 M,0,150872,150916,408.2457,227.1884,411.4248,241.8476 M,0,150916,150960,411.4248,241.8476,414.6039,256.5068 M,0,150960,151004,414.6039,256.5068,417.783,271.1661 M,0,151004,151049,417.783,271.1661,414.6039,256.5068 M,0,151049,151093,414.6039,256.5068,411.4248,241.8476 M,0,151093,151137,411.4248,241.8476,408.2457,227.1884 M,0,151137,151181,408.2457,227.1884,405.0666,212.5291 M,0,151181,151225,405.0666,212.5291,399.4482,199.1347 M,0,151225,151269,399.4482,199.1347,389.2988,188.0898 M,0,151269,151313,389.2988,188.0898,379.1494,177.0449 M,0,151313,151357,379.1494,177.0449,369,166
Sprite,Foreground,Centre,"sb/hl2.png",369,166 F,2,150696,151496,0.5,0 P,0,150696,151496,A C,0,150696,,128,255,255
Sprite,Foreground,Centre,"sb/hl2.png",379.1494,177.0449 F,2,150740,151540,0.5,0 P,0,150740,151540,A C,0,150740,,128,255,255
Sprite,Foreground,Centre,"sb/hl2.png",389.2988,188.0898 F,2,150784,151584,0.5,0 P,0,150784,151584,A C,0,150784,,128,255,255
Sprite,Foreground,Centre,"sb/hl2.png",399.4482,199.1347 F,2,150828,151628,0.5,0 P,0,150828,151628,A C,0,150828,,128,255,255
Sprite,Foreground,Centre,"sb/hl2.png",405.0666,212.5291 F,2,150872,151672,0.5,0 P,0,150872,151672,A C,0,150872,,128,255,255
Sprite,Foreground,Centre,"sb/hl2.png",408.2457,227.1884 F,2,150916,151716,0.5,0 P,0,150916,151716,A C,0,150916,,128,255,255
Sprite,Foreground,Centre,"sb/hl2.png",411.4248,241.8476 F,2,150960,151760,0.5,0 P,0,150960,151760,A C,0,150960,,128,255,255
Sprite,Foreground,Centre,"sb/hl2.png",414.6039,256.5068 F,2,151004,151804,0.5,0 P,0,151004,151804,A C,0,151004,,128,255,255
Sprite,Foreground,Centre,"sb/hl2.png",417.783,271.1661 F,2,151049,151849,0.5,0 P,0,151049,151849,A C,0,151049,,128,255,255
Sprite,Foreground,Centre,"sb/hl2.png",414.6039,256.5068 F,2,151093,151893,0.5,0 P,0,151093,151893,A C,0,151093,,128,255,255
Sprite,Foreground,Centre,"sb/hl2.png",411.4248,241.8476 F,2,151137,151937,0.5,0 P,0,151137,151937,A C,0,151137,,128,255,255
Sprite,Foreground,Centre,"sb/hl2.png",408.2457,227.1884 F,2,151181,151981,0.5,0 P,0,151181,151981,A C,0,151181,,128,255,255
Sprite,Foreground,Centre,"sb/hl2.png",405.0666,212.5291 F,2,151225,152025,0.5,0 P,0,151225,152025,A C,0,151225,,128,255,255
Sprite,Foreground,Centre,"sb/hl2.png",399.4482,199.1347 F,2,151269,152069,0.5,0 P,0,151269,152069,A C,0,151269,,128,255,255
Sprite,Foreground,Centre,"sb/hl2.png",389.2988,188.0898 F,2,151313,152113,0.5,0 P,0,151313,152113,A C,0,151313,,128,255,255
Sprite,Foreground,Centre,"sb/hl2.png",379.1494,177.0449 F,2,151357,152157,0.5,0 P,0,151357,152157,A C,0,151357,,128,255,255
Sprite,Foreground,Centre,"sb/hl2.png",324,143 S,2,151534,152334,1,0.8 F,2,151534,152334,0.5,0 P,0,151534,152334,A C,0,151534,,128,255,255
Sprite,Foreground,Centre,"sb/hl2.png",0,0 S,2,151710,152862,1,0.8 F,2,151710,152862,0.5,0 P,0,151710,152862,A C,0,151710,,128,255,255 M,0,151710,151754,324,143,310.2742,149.0257 M,0,151754,151798,310.2742,149.0257,296.205,154.1817 M,0,151798,151842,296.205,154.1817,281.7908,158.2845 M,0,151842,151886,281.7908,158.2845,267.109,161.3116 M,0,151886,151930,267.109,161.3116,252.2232,163.071 M,0,151930,151974,252.2232,163.071,237.2596,163.8307 M,0,151974,152018,237.2596,163.8307,222.2795,163.4824 M,0,152018,152062,222.2795,163.4824,207.3634,162.0277
Sprite,Foreground,Centre,"sb/hl2.png",324,143 F,2,151754,152554,0.5,0 P,0,151754,152554,A C,0,151754,,128,255,255
Sprite,Foreground,Centre,"sb/hl2.png",310.2742,149.0257 F,2,151798,152598,0.5,0 P,0,151798,152598,A C,0,151798,,128,255,255
Sprite,Foreground,Centre,"sb/hl2.png",296.205,154.1817 F,2,151842,152642,0.5,0 P,0,151842,152642,A C,0,151842,,128,255,255
Sprite,Foreground,Centre,"sb/hl2.png",281.7908,158.2845 F,2,151886,152686,0.5,0 P,0,151886,152686,A C,0,151886,,128,255,255
Sprite,Foreground,Centre,"sb/hl2.png",267.109,161.3116 F,2,151930,152730,0.5,0 P,0,151930,152730,A C,0,151930,,128,255,255
Sprite,Foreground,Centre,"sb/hl2.png",252.2232,163.071 F,2,151974,152774,0.5,0 P,0,151974,152774,A C,0,151974,,128,255,255
Sprite,Foreground,Centre,"sb/hl2.png",237.2596,163.8307 F,2,152018,152818,0.5,0 P,0,152018,152818,A C,0,152018,,128,255,255
Sprite,Foreground,Centre,"sb/hl2.png",222.2795,163.4824 F,2,152062,152862,0.5,0 P,0,152062,152862,A C,0,152062,,128,255,255
Sprite,Foreground,Centre,"sb/hl2.png",0,0 S,2,152240,153392,1,0.8 F,2,152240,153392,0.5,0 P,0,152240,153392,A C,0,152240,,128,255,255 M,0,152240,152284,158,126,154.4306,140.5589 M,0,152284,152328,154.4306,140.5589,151.8092,155.3112 M,0,152328,152372,151.8092,155.3112,150.3159,170.222 M,0,152372,152416,150.3159,170.222,149.9597,185.2058 M,0,152416,152460,149.9597,185.2058,150.7432,200.1772 M,0,152460,152504,150.7432,200.1772,152.842,215.019 M,0,152504,152548,152.842,215.019,155.9406,229.6777 M,0,152548,152592,155.9406,229.6777,160.0423,244.0956
Sprite,Foreground,Centre,"sb/hl2.png",158,126 F,2,152284,153084,0.5,0 P,0,152284,153084,A C,0,152284,,128,255,255
Sprite,Foreground,Centre,"sb/hl2.png",154.4306,140.5589 F,2,152328,153128,0.5,0 P,0,152328,153128,A C,0,152328,,128,255,255
Sprite,Foreground,Centre,"sb/hl2.png",151.8092,155.3112 F,2,152372,153172,0.5,0 P,0,152372,153172,A C,0,152372,,128,255,255
Sprite,Foreground,Centre,"sb/hl2.png",150.3159,170.222 F,2,152416,153216,0.5,0 P,0,152416,153216,A C,0,152416,,128,255,255
Sprite,Foreground,Centre,"sb/hl2.png",149.9597,185.2058 F,2,152460,153260,0.5,0 P,0,152460,153260,A C,0,152460,,128,255,255
Sprite,Foreground,Centre,"sb/hl2.png",150.7432,200.1772 F,2,152504,153304,0.5,0 P,0,152504,153304,A C,0,152504,,128,255,255
Sprite,Foreground,Centre,"sb/hl2.png",152.842,215.019 F,2,152548,153348,0.5,0 P,0,152548,153348,A C,0,152548,,128,255,255
Sprite,Foreground,Centre,"sb/hl2.png",155.9406,229.6777 F,2,152592,153392,0.5,0 P,0,152592,153392,A C,0,152592,,128,255,255
Sprite,Foreground,Centre,"sb/hl2.png",0,0 S,2,152769,153921,1,0.8 F,2,152769,153921,0.5,0 P,0,152769,153921,A C,0,152769,,128,255,255 M,0,152769,152813,128,295,142.8724,296.8594 M,0,152813,152857,142.8724,296.8594,157.8287,297.725 M,0,152857,152901,157.8287,297.725,172.8113,297.3974 M,0,152901,152945,172.8113,297.3974,187.7273,295.8776 M,0,152945,152989,187.7273,295.8776,202.4178,292.9069 M,0,152989,153033,202.4178,292.9069,216.8672,288.952 M,0,153033,153077,216.8672,288.952,230.96,283.8581 M,0,153077,153121,230.96,283.8581,244,278
Sprite,Foreground,Centre,"sb/hl2.png",128,295 F,2,152813,153613,0.5,0 P,0,152813,153613,A C,0,152813,,128,255,255
Sprite,Foreground,Centre,"sb/hl2.png",142.8724,296.8594 F,2,152857,153657,0.5,0 P,0,152857,153657,A C,0,152857,,128,255,255
Sprite,Foreground,Centre,"sb/hl2.png",157.8287,297.725 F,2,152901,153701,0.5,0 P,0,152901,153701,A C,0,152901,,128,255,255
Sprite,Foreground,Centre,"sb/hl2.png",172.8113,297.3974 F,2,152945,153745,0.5,0 P,0,152945,153745,A C,0,152945,,128,255,255
Sprite,Foreground,Centre,"sb/hl2.png",187.7273,295.8776 F,2,152989,153789,0.5,0 P,0,152989,153789,A C,0,152989,,128,255,255
Sprite,Foreground,Centre,"sb/hl2.png",202.4178,292.9069 F,2,153033,153833,0.5,0 P,0,153033,153833,A C,0,153033,,128,255,255
Sprite,Foreground,Centre,"sb/hl2.png",216.8672,288.952 F,2,153077,153877,0.5,0 P,0,153077,153877,A C,0,153077,,128,255,255
Sprite,Foreground,Centre,"sb/hl2.png",230.96,283.8581 F,2,153121,153921,0.5,0 P,0,153121,153921,A C,0,153121,,128,255,255
Sprite,Foreground,Centre,"sb/hl2.png",0,0 S,2,153475,154627,1,0.8 F,2,153475,154627,0.5,0 P,0,153475,154627,A C,0,153475,,191,128,255 M,0,153475,153519,272,395,286.9792,394.2116 M,0,153519,153563,286.9792,394.2116,301.9585,393.4232 M,0,153563,153607,301.9585,393.4232,316.74,394.685 M,0,153607,153651,316.74,394.685,331.2921,398.323 M,0,153651,153695,331.2921,398.323,345.9343,400.5279 M,0,153695,153739,345.9343,400.5279,360.8275,398.7407 M,0,153739,153783,360.8275,398.7407,375.7206,396.9535 M,0,153783,153827,375.7206,396.9535,390.6138,395.1664
Sprite,Foreground,Centre,"sb/hl2.png",272,395 F,2,153519,154319,0.5,0 P,0,153519,154319,A C,0,153519,,191,128,255
Sprite,Foreground,Centre,"sb/hl2.png",286.9792,394.2116 F,2,153563,154363,0.5,0 P,0,153563,154363,A C,0,153563,,191,128,255
Sprite,Foreground,Centre,"sb/hl2.png",301.9585,393.4232 F,2,153607,154407,0.5,0 P,0,153607,154407,A C,0,153607,,191,128,255
Sprite,Foreground,Centre,"sb/hl2.png",316.74,394.685 F,2,153651,154451,0.5,0 P,0,153651,154451,A C,0,153651,,191,128,255
Sprite,Foreground,Centre,"sb/hl2.png",331.2921,398.323 F,2,153695,154495,0.5,0 P,0,153695,154495,A C,0,153695,,191,128,255
Sprite,Foreground,Centre,"sb/hl2.png",345.9343,400.5279 F,2,153739,154539,0.5,0 P,0,153739,154539,A C,0,153739,,191,128,255
Sprite,Foreground,Centre,"sb/hl2.png",360.8275,398.7407 F,2,153783,154583,0.5,0 P,0,153783,154583,A C,0,153783,,191,128,255
Sprite,Foreground,Centre,"sb/hl2.png",375.7206,396.9535 F,2,153827,154627,0.5,0 P,0,153827,154627,A C,0,153827,,191,128,255
Sprite,Foreground,Centre,"sb/hl2.png",0,0 S,2,154181,155333,1,0.8 F,2,154181,155333,0.5,0 P,0,154181,155333,A C,0,154181,,191,128,255 M,0,154181,154225,476,310,461.0709,311.4565 M,0,154225,154269,461.0709,311.4565,446.1418,312.913 M,0,154269,154313,446.1418,312.913,431.2853,313.1745 M,0,154313,154357,431.2853,313.1745,416.6425,309.9205 M,0,154357,154401,416.6425,309.9205,401.9997,306.6666 M,0,154401,154445,401.9997,306.6666,387.0762,306.2839 M,0,154445,154489,387.0762,306.2839,372.0805,306.6409 M,0,154489,154533,372.0805,306.6409,357.0847,306.998
Sprite,Foreground,Centre,"sb/hl2.png",476,310 F,2,154225,155025,0.5,0 P,0,154225,155025,A C,0,154225,,191,128,255
Sprite,Foreground,Centre,"sb/hl2.png",461.0709,311.4565 F,2,154269,155069,0.5,0 P,0,154269,155069,A C,0,154269,,191,128,255
Sprite,Foreground,Centre,"sb/hl2.png",446.1418,312.913 F,2,154313,155113,0.5,0 P,0,154313,155113,A C,0,154313,,191,128,255
Sprite,Foreground,Centre,"sb/hl2.png",431.2853,313.1745 F,2,154357,155157,0.5,0 P,0,154357,155157,A C,0,154357,,191,128,255
Sprite,Foreground,Centre,"sb/hl2.png",416.6425,309.9205 F,2,154401,155201,0.5,0 P,0,154401,155201,A C,0,154401,,191,128,255
Sprite,Foreground,Centre,"sb/hl2.png",401.9997,306.6666 F,2,154445,155245,0.5,0 P,0,154445,155245,A C,0,154445,,191,128,255
Sprite,Foreground,Centre,"sb/hl2.png",387.0762,306.2839 F,2,154489,155289,0.5,0 P,0,154489,155289,A C,0,154489,,191,128,255
Sprite,Foreground,Centre,"sb/hl2.png",372.0805,306.6409 F,2,154533,155333,0.5,0 P,0,154533,155333,A C,0,154533,,191,128,255
Sprite,Foreground,Centre,"sb/hl2.png",0,0 S,2,154887,156039,1,0.8 F,2,154887,156039,0.5,0 P,0,154887,156039,A C,0,154887,,191,128,255 M,0,154887,154931,280,215,294.983,214.2865 M,0,154931,154975,294.983,214.2865,309.9661,213.573 M,0,154975,155019,309.9661,213.573,324.8687,213.6978 M,0,155019,155063,324.8687,213.6978,339.4438,217.2431 M,0,155063,155107,339.4438,217.2431,354.0188,220.7884 M,0,155107,155151,354.0188,220.7884,368.8043,220.8328 M,0,155151,155195,368.8043,220.8328,383.6991,219.0596 M,0,155195,155239,383.6991,219.0596,398.594,217.2864
Sprite,Foreground,Centre,"sb/hl2.png",280,215 F,2,154931,155731,0.5,0 P,0,154931,155731,A C,0,154931,,191,128,255
Sprite,Foreground,Centre,"sb/hl2.png",294.983,214.2865 F,2,154975,155775,0.5,0 P,0,154975,155775,A C,0,154975,,191,128,255
Sprite,Foreground,Centre,"sb/hl2.png",309.9661,213.573 F,2,155019,155819,0.5,0 P,0,155019,155819,A C,0,155019,,191,128,255
Sprite,Foreground,Centre,"sb/hl2.png",324.8687,213.6978 F,2,155063,155863,0.5,0 P,0,155063,155863,A C,0,155063,,191,128,255
Sprite,Foreground,Centre,"sb/hl2.png",339.4438,217.2431 F,2,155107,155907,0.5,0 P,0,155107,155907,A C,0,155107,,191,128,255
Sprite,Foreground,Centre,"sb/hl2.png",354.0188,220.7884 F,2,155151,155951,0.5,0 P,0,155151,155951,A C,0,155151,,191,128,255
Sprite,Foreground,Centre,"sb/hl2.png",368.8043,220.8328 F,2,155195,155995,0.5,0 P,0,155195,155995,A C,0,155195,,191,128,255
Sprite,Foreground,Centre,"sb/hl2.png",383.6991,219.0596 F,2,155239,156039,0.5,0 P,0,155239,156039,A C,0,155239,,191,128,255
Sprite,Foreground,Centre,"sb/hl2.png",0,0 S,2,155593,156745,1,0.8 F,2,155593,156745,0.5,0 P,0,155593,156745,A C,0,155593,,191,128,255 M,0,155593,155637,486,135,471.166,137.2251 M,0,155637,155681,471.166,137.2251,456.3319,139.4502 M,0,155681,155725,456.3319,139.4502,441.5765,139.924 M,0,155725,155769,441.5765,139.924,427.0015,136.3787 M,0,155769,155813,427.0015,136.3787,412.4265,132.8335 M,0,155813,155857,412.4265,132.8335,397.5296,132.2731 M,0,155857,155901,397.5296,132.2731,382.5339,132.6302 M,0,155901,155945,382.5339,132.6302,367.5381,132.9872
Sprite,Foreground,Centre,"sb/hl2.png",486,135 F,2,155637,156437,0.5,0 P,0,155637,156437,A C,0,155637,,191,128,255
Sprite,Foreground,Centre,"sb/hl2.png",471.166,137.2251 F,2,155681,156481,0.5,0 P,0,155681,156481,A C,0,155681,,191,128,255
Sprite,Foreground,Centre,"sb/hl2.png",456.3319,139.4502 F,2,155725,156525,0.5,0 P,0,155725,156525,A C,0,155725,,191,128,255
Sprite,Foreground,Centre,"sb/hl2.png",441.5765,139.924 F,2,155769,156569,0.5,0 P,0,155769,156569,A C,0,155769,,191,128,255
Sprite,Foreground,Centre,"sb/hl2.png",427.0015,136.3787 F,2,155813,156613,0.5,0 P,0,155813,156613,A C,0,155813,,191,128,255
Sprite,Foreground,Centre,"sb/hl2.png",412.4265,132.8335 F,2,155857,156657,0.5,0 P,0,155857,156657,A C,0,155857,,191,128,255
Sprite,Foreground,Centre,"sb/hl2.png",397.5296,132.2731 F,2,155901,156701,0.5,0 P,0,155901,156701,A C,0,155901,,191,128,255
Sprite,Foreground,Centre,"sb/hl2.png",382.5339,132.6302 F,2,155945,156745,0.5,0 P,0,155945,156745,A C,0,155945,,191,128,255
Sprite,Foreground,Centre,"sb/hl2.png",0,0 S,2,156299,157451,1,0.8 F,2,156299,157451,0.5,0 P,0,156299,157451,A C,0,156299,,255,128,128 M,0,156299,156343,252,98,240.8179,107.984 M,0,156343,156387,240.8179,107.984,230.9232,119.2459 M,0,156387,156431,230.9232,119.2459,222.2445,131.4742 M,0,156431,156475,222.2445,131.4742,214.3283,144.2144 M,0,156475,156519,214.3283,144.2144,206.4045,156.9497 M,0,156519,156563,206.4045,156.9497,197.6168,169.0976 M,0,156563,156607,197.6168,169.0976,187.37,180.0334 M,0,156607,156651,187.37,180.0334,176,189
Sprite,Foreground,Centre,"sb/hl2.png",252,98 F,2,156343,157143,0.5,0 P,0,156343,157143,A C,0,156343,,255,128,128
Sprite,Foreground,Centre,"sb/hl2.png",240.8179,107.984 F,2,156387,157187,0.5,0 P,0,156387,157187,A C,0,156387,,255,128,128
Sprite,Foreground,Centre,"sb/hl2.png",230.9232,119.2459 F,2,156431,157231,0.5,0 P,0,156431,157231,A C,0,156431,,255,128,128
Sprite,Foreground,Centre,"sb/hl2.png",222.2445,131.4742 F,2,156475,157275,0.5,0 P,0,156475,157275,A C,0,156475,,255,128,128
Sprite,Foreground,Centre,"sb/hl2.png",214.3283,144.2144 F,2,156519,157319,0.5,0 P,0,156519,157319,A C,0,156519,,255,128,128
Sprite,Foreground,Centre,"sb/hl2.png",206.4045,156.9497 F,2,156563,157363,0.5,0 P,0,156563,157363,A C,0,156563,,255,128,128
Sprite,Foreground,Centre,"sb/hl2.png",197.6168,169.0976 F,2,156607,157407,0.5,0 P,0,156607,157407,A C,0,156607,,255,128,128
Sprite,Foreground,Centre,"sb/hl2.png",187.37,180.0334 F,2,156651,157451,0.5,0 P,0,156651,157451,A C,0,156651,,255,128,128
Sprite,Foreground,Centre,"sb/hl2.png",0,0 S,2,157004,158156,1,0.8 F,2,157004,158156,0.5,0 P,0,157004,158156,A C,0,157004,,255,128,128 M,0,157004,157048,64,233,74.3002,243.8905 M,0,157048,157092,74.3002,243.8905,85.85072,253.447 M,0,157092,157136,85.85072,253.447,98.29932,261.8082 M,0,157136,157180,98.29932,261.8082,111.173,269.506 M,0,157180,157224,111.173,269.506,123.9531,277.3563 M,0,157224,157268,123.9531,277.3563,136.0594,286.1989 M,0,157268,157312,136.0594,286.1989,146.8782,296.5677 M,0,157312,157356,146.8782,296.5677,155,307
Sprite,Foreground,Centre,"sb/hl2.png",64,233 F,2,157048,157848,0.5,0 P,0,157048,157848,A C,0,157048,,255,128,128
Sprite,Foreground,Centre,"sb/hl2.png",74.3002,243.8905 F,2,157092,157892,0.5,0 P,0,157092,157892,A C,0,157092,,255,128,128
Sprite,Foreground,Centre,"sb/hl2.png",85.85072,253.447 F,2,157136,157936,0.5,0 P,0,157136,157936,A C,0,157136,,255,128,128
Sprite,Foreground,Centre,"sb/hl2.png",98.29932,261.8082 F,2,157180,157980,0.5,0 P,0,157180,157980,A C,0,157180,,255,128,128
Sprite,Foreground,Centre,"sb/hl2.png",111.173,269.506 F,2,157224,158024,0.5,0 P,0,157224,158024,A C,0,157224,,255,128,128
Sprite,Foreground,Centre,"sb/hl2.png",123.9531,277.3563 F,2,157268,158068,0.5,0 P,0,157268,158068,A C,0,157268,,255,128,128
Sprite,Foreground,Centre,"sb/hl2.png",136.0594,286.1989 F,2,157312,158112,0.5,0 P,0,157312,158112,A C,0,157312,,255,128,128
Sprite,Foreground,Centre,"sb/hl2.png",146.8782,296.5677 F,2,157356,158156,0.5,0 P,0,157356,158156,A C,0,157356,,255,128,128
Sprite,Foreground,Centre,"sb/hl2.png",0,0 S,2,157710,158862,1,0.8 F,2,157710,158862,0.5,0 P,0,157710,158862,A C,0,157710,,255,128,128 M,0,157710,157754,201,419,211.4747,408.2743 M,0,157754,157798,211.4747,408.2743,220.7294,396.4781 M,0,157798,157842,220.7294,396.4781,228.9344,383.9248 M,0,157842,157886,228.9344,383.9248,236.5776,371.0184 M,0,157886,157930,236.5776,371.0184,244.3968,358.2192 M,0,157930,157974,244.3968,358.2192,253.1707,346.062 M,0,157974,158018,253.1707,346.062,263.4247,335.1331 M,0,158018,158062,263.4247,335.1331,275,326
Sprite,Foreground,Centre,"sb/hl2.png",201,419 F,2,157754,158554,0.5,0 P,0,157754,158554,A C,0,157754,,255,128,128
Sprite,Foreground,Centre,"sb/hl2.png",211.4747,408.2743 F,2,157798,158598,0.5,0 P,0,157798,158598,A C,0,157798,,255,128,128
Sprite,Foreground,Centre,"sb/hl2.png",220.7294,396.4781 F,2,157842,158642,0.5,0 P,0,157842,158642,A C,0,157842,,255,128,128
Sprite,Foreground,Centre,"sb/hl2.png",228.9344,383.9248 F,2,157886,158686,0.5,0 P,0,157886,158686,A C,0,157886,,255,128,128
Sprite,Foreground,Centre,"sb/hl2.png",236.5776,371.0184 F,2,157930,158730,0.5,0 P,0,157930,158730,A C,0,157930,,255,128,128
Sprite,Foreground,Centre,"sb/hl2.png",244.3968,358.2192 F,2,157974,158774,0.5,0 P,0,157974,158774,A C,0,157974,,255,128,128
Sprite,Foreground,Centre,"sb/hl2.png",253.1707,346.062 F,2,158018,158818,0.5,0 P,0,158018,158818,A C,0,158018,,255,128,128
Sprite,Foreground,Centre,"sb/hl2.png",263.4247,335.1331 F,2,158062,158862,0.5,0 P,0,158062,158862,A C,0,158062,,255,128,128
Sprite,Foreground,Centre,"sb/hl2.png",0,0 S,2,158416,159568,1,0.8 F,2,158416,159568,0.5,0 P,0,158416,159568,A C,0,158416,,255,128,128 M,0,158416,158460,388,284,377.7271,273.0814 M,0,158460,158504,377.7271,273.0814,366.284,263.3948 M,0,158504,158548,366.284,263.3948,353.966,254.8424 M,0,158548,158592,353.966,254.8424,341.187,246.9888 M,0,158592,158636,341.187,246.9888,328.4199,239.1163 M,0,158636,158680,328.4199,239.1163,316.2065,230.4187 M,0,158680,158724,316.2065,230.4187,305.1559,220.2951 M,0,158724,158768,305.1559,220.2951,296,209
Sprite,Foreground,Centre,"sb/hl2.png",388,284 F,2,158460,159260,0.5,0 P,0,158460,159260,A C,0,158460,,255,128,128
Sprite,Foreground,Centre,"sb/hl2.png",377.7271,273.0814 F,2,158504,159304,0.5,0 P,0,158504,159304,A C,0,158504,,255,128,128
Sprite,Foreground,Centre,"sb/hl2.png",366.284,263.3948 F,2,158548,159348,0.5,0 P,0,158548,159348,A C,0,158548,,255,128,128
Sprite,Foreground,Centre,"sb/hl2.png",353.966,254.8424 F,2,158592,159392,0.5,0 P,0,158592,159392,A C,0,158592,,255,128,128
Sprite,Foreground,Centre,"sb/hl2.png",341.187,246.9888 F,2,158636,159436,0.5,0 P,0,158636,159436,A C,0,158636,,255,128,128
Sprite,Foreground,Centre,"sb/hl2.png",328.4199,239.1163 F,2,158680,159480,0.5,0 P,0,158680,159480,A C,0,158680,,255,128,128
Sprite,Foreground,Centre,"sb/hl2.png",316.2065,230.4187 F,2,158724,159524,0.5,0 P,0,158724,159524,A C,0,158724,,255,128,128
Sprite,Foreground,Centre,"sb/hl2.png",305.1559,220.2951 F,2,158768,159568,0.5,0 P,0,158768,159568,A C,0,158768,,255,128,128
Sprite,Foreground,Centre,"sb/hl2.png",273,152 S,2,158946,159746,1,0.8 F,2,158946,159746,0.5,0 P,0,158946,159746,A C,0,158946,,255,128,128
Sprite,Foreground,Centre,"sb/hl2.png",0,0 S,2,159299,160451,1,0.8 F,2,159299,160451,0.5,0 P,0,159299,160451,A C,0,159299,,128,255,255 M,0,159299,159343,392,160,406.313,164.3613 M,0,159343,159387,406.313,164.3613,419.9687,170.42 M,0,159387,159431,419.9687,170.42,432.6182,178.3876 M,0,159431,159475,432.6182,178.3876,443.9998,188.1042 M,0,159475,159519,443.9998,188.1042,453.5921,199.5838 M,0,159519,159563,453.5921,199.5838,461.5987,212.1908 M,0,159563,159607,461.5987,212.1908,467.709,225.8243 M,0,159607,159651,467.709,225.8243,471.795,240.206
Sprite,Foreground,Centre,"sb/hl2.png",392,160 F,2,159343,160143,0.5,0 P,0,159343,160143,A C,0,159343,,128,255,255
Sprite,Foreground,Centre,"sb/hl2.png",406.313,164.3613 F,2,159387,160187,0.5,0 P,0,159387,160187,A C,0,159387,,128,255,255
Sprite,Foreground,Centre,"sb/hl2.png",419.9687,170.42 F,2,159431,160231,0.5,0 P,0,159431,160231,A C,0,159431,,128,255,255
Sprite,Foreground,Centre,"sb/hl2.png",432.6182,178.3876 F,2,159475,160275,0.5,0 P,0,159475,160275,A C,0,159475,,128,255,255
Sprite,Foreground,Centre,"sb/hl2.png",443.9998,188.1042 F,2,159519,160319,0.5,0 P,0,159519,160319,A C,0,159519,,128,255,255
Sprite,Foreground,Centre,"sb/hl2.png",453.5921,199.5838 F,2,159563,160363,0.5,0 P,0,159563,160363,A C,0,159563,,128,255,255
Sprite,Foreground,Centre,"sb/hl2.png",461.5987,212.1908 F,2,159607,160407,0.5,0 P,0,159607,160407,A C,0,159607,,128,255,255
Sprite,Foreground,Centre,"sb/hl2.png",467.709,225.8243 F,2,159651,160451,0.5,0 P,0,159651,160451,A C,0,159651,,128,255,255
Sprite,Foreground,Centre,"sb/hl2.png",0,0 S,2,159828,160980,1,0.8 F,2,159828,160980,0.5,0 P,0,159828,160980,A C,0,159828,,128,255,255 M,0,159828,159872,476,300,475.8113,314.9711 M,0,159872,159916,475.8113,314.9711,477.2709,329.8528 M,0,159916,159960,477.2709,329.8528,480.6357,344.4258 M,0,159960,160004,480.6357,344.4258,485.8512,358.4489 M,0,160004,160048,485.8512,358.4489,492.8326,371.6892 M,0,160048,160092,492.8326,371.6892,501.4662,383.9268 M,0,160092,160136,501.4662,383.9268,511.6113,394.9575 M,0,160136,160180,511.6113,394.9575,523.3042,404.3083
Sprite,Foreground,Centre,"sb/hl2.png",476,300 F,2,159872,160672,0.5,0 P,0,159872,160672,A C,0,159872,,128,255,255
Sprite,Foreground,Centre,"sb/hl2.png",475.8113,314.9711 F,2,159916,160716,0.5,0 P,0,159916,160716,A C,0,159916,,128,255,255
Sprite,Foreground,Centre,"sb/hl2.png",477.2709,329.8528 F,2,159960,160760,0.5,0 P,0,159960,160760,A C,0,159960,,128,255,255
Sprite,Foreground,Centre,"sb/hl2.png",480.6357,344.4258 F,2,160004,160804,0.5,0 P,0,160004,160804,A C,0,160004,,128,255,255
Sprite,Foreground,Centre,"sb/hl2.png",485.8512,358.4489 F,2,160048,160848,0.5,0 P,0,160048,160848,A C,0,160048,,128,255,255
Sprite,Foreground,Centre,"sb/hl2.png",492.8326,371.6892 F,2,160092,160892,0.5,0 P,0,160092,160892,A C,0,160092,,128,255,255
Sprite,Foreground,Centre,"sb/hl2.png",501.4662,383.9268 F,2,160136,160936,0.5,0 P,0,160136,160936,A C,0,160136,,128,255,255
Sprite,Foreground,Centre,"sb/hl2.png",511.6113,394.9575 F,2,160180,160980,0.5,0 P,0,160180,160980,A C,0,160180,,128,255,255
Sprite,Foreground,Centre,"sb/hl2.png",0,0 S,2,160357,161509,1,0.8 F,2,160357,161509,0.5,0 P,0,160357,161509,A C,0,160357,,128,255,255 M,0,160357,160401,463,404,448.0503,405.2272 M,0,160401,160445,448.0503,405.2272,433.1006,406.4544 M,0,160445,160489,433.1006,406.4544,418.1508,407.6816 M,0,160489,160533,418.1508,407.6816,403.2011,408.9089 M,0,160533,160577,403.2011,408.9089,388.2514,410.1361 M,0,160577,160621,388.2514,410.1361,373.3017,411.3633 M,0,160621,160665,373.3017,411.3633,358.352,412.5905 M,0,160665,160709,358.352,412.5905,343.4023,413.8177
Sprite,Foreground,Centre,"sb/hl2.png",463,404 F,2,160401,161201,0.5,0 P,0,160401,161201,A C,0,160401,,128,255,255
Sprite,Foreground,Centre,"sb/hl2.png",448.0503,405.2272 F,2,160445,161245,0.5,0 P,0,160445,161245,A C,0,160445,,128,255,255
Sprite,Foreground,Centre,"sb/hl2.png",433.1006,406.4544 F,2,160489,161289,0.5,0 P,0,160489,161289,A C,0,160489,,128,255,255
Sprite,Foreground,Centre,"sb/hl2.png",418.1508,407.6816 F,2,160533,161333,0.5,0 P,0,160533,161333,A C,0,160533,,128,255,255
Sprite,Foreground,Centre,"sb/hl2.png",403.2011,408.9089 F,2,160577,161377,0.5,0 P,0,160577,161377,A C,0,160577,,128,255,255
Sprite,Foreground,Centre,"sb/hl2.png",388.2514,410.1361 F,2,160621,161421,0.5,0 P,0,160621,161421,A C,0,160621,,128,255,255
Sprite,Foreground,Centre,"sb/hl2.png",373.3017,411.3633 F,2,160665,161465,0.5,0 P,0,160665,161465,A C,0,160665,,128,255,255
Sprite,Foreground,Centre,"sb/hl2.png",358.352,412.5905 F,2,160709,161509,0.5,0 P,0,160709,161509,A C,0,160709,,128,255,255
Sprite,Foreground,Centre,"sb/hl2.png",293,379 S,2,160887,161687,1,0.8 F,2,160887,161687,0.5,0 P,0,160887,161687,A C,0,160887,,128,255,255
Sprite,Foreground,Centre,"sb/hl2.png",0,0 S,2,161063,162392,1,0.8 F,2,161063,162392,0.5,0 P,0,161063,162392,A C,0,161063,,128,255,255 M,0,161063,161107,293,379,278.0745,377.5074 M,0,161107,161151,278.0745,377.5074,263.1489,376.0149 M,0,161151,161195,263.1489,376.0149,248.2233,374.5223 M,0,161195,161239,248.2233,374.5223,233.2978,373.0298 M,0,161239,161283,233.2978,373.0298,218.5524,375.704 M,0,161283,161327,218.5524,375.704,203.6645,377.5104 M,0,161327,161371,203.6645,377.5104,188.6872,378.2751 M,0,161371,161415,188.6872,378.2751,173.6948,377.9324 M,0,161415,161460,173.6948,377.9324,158.7734,376.4371 M,0,161460,161504,158.7734,376.4371,144.0174,373.7649 M,0,161504,161548,144.0174,373.7649,129.5212,369.9259 M,0,161548,161592,129.5212,369.9259,115.3725,364.956
Sprite,Foreground,Centre,"sb/hl2.png",293,379 F,2,161107,161907,0.5,0 P,0,161107,161907,A C,0,161107,,128,255,255
Sprite,Foreground,Centre,"sb/hl2.png",278.0745,377.5074 F,2,161151,161951,0.5,0 P,0,161151,161951,A C,0,161151,,128,255,255
Sprite,Foreground,Centre,"sb/hl2.png",263.1489,376.0149 F,2,161195,161995,0.5,0 P,0,161195,161995,A C,0,161195,,128,255,255
Sprite,Foreground,Centre,"sb/hl2.png",248.2233,374.5223 F,2,161239,162039,0.5,0 P,0,161239,162039,A C,0,161239,,128,255,255
Sprite,Foreground,Centre,"sb/hl2.png",233.2978,373.0298 F,2,161283,162083,0.5,0 P,0,161283,162083,A C,0,161283,,128,255,255
Sprite,Foreground,Centre,"sb/hl2.png",218.5524,375.704 F,2,161327,162127,0.5,0 P,0,161327,162127,A C,0,161327,,128,255,255
Sprite,Foreground,Centre,"sb/hl2.png",203.6645,377.5104 F,2,161371,162171,0.5,0 P,0,161371,162171,A C,0,161371,,128,255,255
Sprite,Foreground,Centre,"sb/hl2.png",188.6872,378.2751 F,2,161415,162215,0.5,0 P,0,161415,162215,A C,0,161415,,128,255,255
Sprite,Foreground,Centre,"sb/hl2.png",173.6948,377.9324 F,2,161460,162260,0.5,0 P,0,161460,162260,A C,0,161460,,128,255,255
Sprite,Foreground,Centre,"sb/hl2.png",158.7734,376.4371 F,2,161504,162304,0.5,0 P,0,161504,162304,A C,0,161504,,128,255,255
Sprite,Foreground,Centre,"sb/hl2.png",144.0174,373.7649 F,2,161548,162348,0.5,0 P,0,161548,162348,A C,0,161548,,128,255,255
Sprite,Foreground,Centre,"sb/hl2.png",129.5212,369.9259 F,2,161592,162392,0.5,0 P,0,161592,162392,A C,0,161592,,128,255,255
Sprite,Foreground,Centre,"sb/hl2.png",0,0 S,2,161769,162921,1,0.8 F,2,161769,162921,0.5,0 P,0,161769,162921,A C,0,161769,,191,128,255 M,0,161769,161813,92,311,91.91736,296.0257 M,0,161813,161857,91.91736,296.0257,93.42928,281.1455 M,0,161857,161901,93.42928,281.1455,96.77939,266.5663 M,0,161901,161945,96.77939,266.5663,101.9168,252.513 M,0,161945,161989,101.9168,252.513,108.7634,239.2029 M,0,161989,162033,108.7634,239.2029,117.2148,226.8419 M,0,162033,162077,117.2148,226.8419,127.142,215.6219 M,0,162077,162121,127.142,215.6219,138.5606,205.9359
Sprite,Foreground,Centre,"sb/hl2.png",92,311 F,2,161813,162613,0.5,0 P,0,161813,162613,A C,0,161813,,191,128,255
Sprite,Foreground,Centre,"sb/hl2.png",91.91736,296.0257 F,2,161857,162657,0.5,0 P,0,161857,162657,A C,0,161857,,191,128,255
Sprite,Foreground,Centre,"sb/hl2.png",93.42928,281.1455 F,2,161901,162701,0.5,0 P,0,161901,162701,A C,0,161901,,191,128,255
Sprite,Foreground,Centre,"sb/hl2.png",96.77939,266.5663 F,2,161945,162745,0.5,0 P,0,161945,162745,A C,0,161945,,191,128,255
Sprite,Foreground,Centre,"sb/hl2.png",101.9168,252.513 F,2,161989,162789,0.5,0 P,0,161989,162789,A C,0,161989,,191,128,255
Sprite,Foreground,Centre,"sb/hl2.png",108.7634,239.2029 F,2,162033,162833,0.5,0 P,0,162033,162833,A C,0,162033,,191,128,255
Sprite,Foreground,Centre,"sb/hl2.png",117.2148,226.8419 F,2,162077,162877,0.5,0 P,0,162077,162877,A C,0,162077,,191,128,255
Sprite,Foreground,Centre,"sb/hl2.png",127.142,215.6219 F,2,162121,162921,0.5,0 P,0,162121,162921,A C,0,162121,,191,128,255
Sprite,Foreground,Centre,"sb/hl2.png",0,0 S,2,162299,163275,1,0.8 F,2,162299,163275,0.5,0 P,0,162299,163275,A C,0,162299,,191,128,255 M,0,162299,162343,191,182,195.4863,196.3134 M,0,162343,162387,195.4863,196.3134,199.9726,210.6268 M,0,162387,162431,199.9726,210.6268,204.4589,224.9402 M,0,162431,162475,204.4589,224.9402,208.9451,239.2536
Sprite,Foreground,Centre,"sb/hl2.png",191,182 F,2,162343,163143,0.5,0 P,0,162343,163143,A C,0,162343,,191,128,255
Sprite,Foreground,Centre,"sb/hl2.png",195.4863,196.3134 F,2,162387,163187,0.5,0 P,0,162387,163187,A C,0,162387,,191,128,255
Sprite,Foreground,Centre,"sb/hl2.png",199.9726,210.6268 F,2,162431,163231,0.5,0 P,0,162431,163231,A C,0,162431,,191,128,255
Sprite,Foreground,Centre,"sb/hl2.png",204.4589,224.9402 F,2,162475,163275,0.5,0 P,0,162475,163275,A C,0,162475,,191,128,255
Sprite,Foreground,Centre,"sb/hl2.png",207,299 S,2,162652,163452,1,0.8 F,2,162652,163452,0.5,0 P,0,162652,163452,A C,0,162652,,191,128,255
Sprite,Foreground,Centre,"sb/hl2.png",324,324 S,2,163004,163804,1,0.8 F,2,163004,163804,0.5,0 P,0,163004,163804,A C,0,163004,,191,128,255
Sprite,Foreground,Centre,"sb/hl2.png",376,216 S,2,163357,164157,1,0.8 F,2,163357,164157,0.5,0 P,0,163357,164157,A C,0,163357,,191,128,255
Sprite,Foreground,Centre,"sb/hl2.png",303,120 S,2,163710,164510,1,0.8 F,2,163710,164510,0.5,0 P,0,163710,164510,A C,0,163710,,191,128,255
Sprite,Foreground,Centre,"sb/hl2.png",0,0 S,2,164063,165039,1,0.8 F,2,164063,165039,0.5,0 P,0,164063,165039,A C,0,164063,,191,128,255 M,0,164063,164107,195,173,180.3095,169.9686 M,0,164107,164151,180.3095,169.9686,165.619,166.9373 M,0,164151,164195,165.619,166.9373,150.9285,163.9059 M,0,164195,164239,150.9285,163.9059,136.238,160.8745
Sprite,Foreground,Centre,"sb/hl2.png",195,173 F,2,164107,164907,0.5,0 P,0,164107,164907,A C,0,164107,,191,128,255
Sprite,Foreground,Centre,"sb/hl2.png",180.3095,169.9686 F,2,164151,164951,0.5,0 P,0,164151,164951,A C,0,164151,,191,128,255
Sprite,Foreground,Centre,"sb/hl2.png",165.619,166.9373 F,2,164195,164995,0.5,0 P,0,164195,164995,A C,0,164195,,191,128,255
Sprite,Foreground,Centre,"sb/hl2.png",150.9285,163.9059 F,2,164239,165039,0.5,0 P,0,164239,165039,A C,0,164239,,191,128,255
Sprite,Foreground,Centre,"sb/hl2.png",92,119 S,2,164416,165216,1,0.8 F,2,164416,165216,0.5,0 P,0,164416,165216,A C,0,164416,,191,128,255
Sprite,Foreground,Centre,"sb/hl2.png",0,0 S,2,164769,166274,1,0.8 F,2,164769,166274,0.5,0 P,0,164769,166274,A C,0,164769,,228,228,228 M,0,164769,164813,78,238,92.64281,241.254 M,0,164813,164857,92.64281,241.254,107.2856,244.5079 M,0,164857,164901,107.2856,244.5079,121.9284,247.7619 M,0,164901,164945,121.9284,247.7619,136.5712,251.0158 M,0,164945,164989,136.5712,251.0158,151.214,254.2698 M,0,164989,165033,151.214,254.2698,165.8568,257.5237 M,0,165033,165077,165.8568,257.5237,180.4996,260.7777 M,0,165077,165121,180.4996,260.7777,195,264 M,0,165121,165166,195,264,180.4996,260.7777 M,0,165166,165210,180.4996,260.7777,165.8568,257.5237 M,0,165210,165254,165.8568,257.5237,151.214,254.2698 M,0,165254,165298,151.214,254.2698,136.5712,251.0158 M,0,165298,165342,136.5712,251.0158,121.9284,247.7619 M,0,165342,165386,121.9284,247.7619,107.2856,244.5079 M,0,165386,165430,107.2856,244.5079,92.64281,241.254 M,0,165430,165474,92.64281,241.254,78,238
Sprite,Foreground,Centre,"sb/hl2.png",78,238 F,2,164813,165613,0.5,0 P,0,164813,165613,A C,0,164813,,228,228,228
Sprite,Foreground,Centre,"sb/hl2.png",92.64281,241.254 F,2,164857,165657,0.5,0 P,0,164857,165657,A C,0,164857,,228,228,228
Sprite,Foreground,Centre,"sb/hl2.png",107.2856,244.5079 F,2,164901,165701,0.5,0 P,0,164901,165701,A C,0,164901,,228,228,228
Sprite,Foreground,Centre,"sb/hl2.png",121.9284,247.7619 F,2,164945,165745,0.5,0 P,0,164945,165745,A C,0,164945,,228,228,228
Sprite,Foreground,Centre,"sb/hl2.png",136.5712,251.0158 F,2,164989,165789,0.5,0 P,0,164989,165789,A C,0,164989,,228,228,228
Sprite,Foreground,Centre,"sb/hl2.png",151.214,254.2698 F,2,165033,165833,0.5,0 P,0,165033,165833,A C,0,165033,,228,228,228
Sprite,Foreground,Centre,"sb/hl2.png",165.8568,257.5237 F,2,165077,165877,0.5,0 P,0,165077,165877,A C,0,165077,,228,228,228
Sprite,Foreground,Centre,"sb/hl2.png",180.4996,260.7777 F,2,165121,165921,0.5,0 P,0,165121,165921,A C,0,165121,,228,228,228
Sprite,Foreground,Centre,"sb/hl2.png",195,264 F,2,165166,165966,0.5,0 P,0,165166,165966,A C,0,165166,,228,228,228
Sprite,Foreground,Centre,"sb/hl2.png",180.4996,260.7777 F,2,165210,166010,0.5,0 P,0,165210,166010,A C,0,165210,,228,228,228
Sprite,Foreground,Centre,"sb/hl2.png",165.8568,257.5237 F,2,165254,166054,0.5,0 P,0,165254,166054,A C,0,165254,,228,228,228
Sprite,Foreground,Centre,"sb/hl2.png",151.214,254.2698 F,2,165298,166098,0.5,0 P,0,165298,166098,A C,0,165298,,228,228,228
Sprite,Foreground,Centre,"sb/hl2.png",136.5712,251.0158 F,2,165342,166142,0.5,0 P,0,165342,166142,A C,0,165342,,228,228,228
Sprite,Foreground,Centre,"sb/hl2.png",121.9284,247.7619 F,2,165386,166186,0.5,0 P,0,165386,166186,A C,0,165386,,228,228,228
Sprite,Foreground,Centre,"sb/hl2.png",107.2856,244.5079 F,2,165430,166230,0.5,0 P,0,165430,166230,A C,0,165430,,228,228,228
Sprite,Foreground,Centre,"sb/hl2.png",92.64281,241.254 F,2,165474,166274,0.5,0 P,0,165474,166274,A C,0,165474,,228,228,228
Sprite,Foreground,Centre,"sb/hl2.png",113,352 S,2,165828,166628,1,0.8 F,2,165828,166628,0.5,0 P,0,165828,166628,A C,0,165828,,228,228,228
Sprite,Foreground,Centre,"sb/hl2.png",0,0 S,2,166181,167333,1,0.8 F,2,166181,167333,0.5,0 P,0,166181,167333,A C,0,166181,,228,228,228 M,0,166181,166225,229,379,242.8695,373.3643 M,0,166225,166269,242.8695,373.3643,256.0646,366.3267 M,0,166269,166313,256.0646,366.3267,268.2921,357.696 M,0,166313,166357,268.2921,357.696,279.3648,347.5991 M,0,166357,166401,279.3648,347.5991,288.7422,335.9295 M,0,166401,166445,288.7422,335.9295,296.8376,323.3566 M,0,166445,166489,296.8376,323.3566,303.3119,309.864 M,0,166489,166533,303.3119,309.864,308,296
Sprite,Foreground,Centre,"sb/hl2.png",229,379 F,2,166225,167025,0.5,0 P,0,166225,167025,A C,0,166225,,228,228,228
Sprite,Foreground,Centre,"sb/hl2.png",242.8695,373.3643 F,2,166269,167069,0.5,0 P,0,166269,167069,A C,0,166269,,228,228,228
Sprite,Foreground,Centre,"sb/hl2.png",256.0646,366.3267 F,2,166313,167113,0.5,0 P,0,166313,167113,A C,0,166313,,228,228,228
Sprite,Foreground,Centre,"sb/hl2.png",268.2921,357.696 F,2,166357,167157,0.5,0 P,0,166357,167157,A C,0,166357,,228,228,228
Sprite,Foreground,Centre,"sb/hl2.png",279.3648,347.5991 F,2,166401,167201,0.5,0 P,0,166401,167201,A C,0,166401,,228,228,228
Sprite,Foreground,Centre,"sb/hl2.png",288.7422,335.9295 F,2,166445,167245,0.5,0 P,0,166445,167245,A C,0,166445,,228,228,228
Sprite,Foreground,Centre,"sb/hl2.png",296.8376,323.3566 F,2,166489,167289,0.5,0 P,0,166489,167289,A C,0,166489,,228,228,228
Sprite,Foreground,Centre,"sb/hl2.png",303.3119,309.864 F,2,166533,167333,0.5,0 P,0,166533,167333,A C,0,166533,,228,228,228
Sprite,Foreground,Centre,"sb/hl2.png",0,0 S,2,166887,168039,1,0.8 F,2,166887,168039,0.5,0 P,0,166887,168039,A C,0,166887,,228,228,228 M,0,166887,166931,345,181,349.929,195.136 M,0,166931,166975,349.929,195.136,356.2951,208.6675 M,0,166975,167019,356.2951,208.6675,364.3044,221.3107 M,0,167019,167063,364.3044,221.3107,373.8391,232.8712 M,0,167063,167107,373.8391,232.8712,385.0329,242.8115 M,0,167107,167151,385.0329,242.8115,397.1934,251.5139 M,0,167151,167195,397.1934,251.5139,410.354,258.6387 M,0,167195,167239,410.354,258.6387,424,264
Sprite,Foreground,Centre,"sb/hl2.png",345,181 F,2,166931,167731,0.5,0 P,0,166931,167731,A C,0,166931,,228,228,228
Sprite,Foreground,Centre,"sb/hl2.png",349.929,195.136 F,2,166975,167775,0.5,0 P,0,166975,167775,A C,0,166975,,228,228,228
Sprite,Foreground,Centre,"sb/hl2.png",356.2951,208.6675 F,2,167019,167819,0.5,0 P,0,167019,167819,A C,0,167019,,228,228,228
Sprite,Foreground,Centre,"sb/hl2.png",364.3044,221.3107 F,2,167063,167863,0.5,0 P,0,167063,167863,A C,0,167063,,228,228,228
Sprite,Foreground,Centre,"sb/hl2.png",373.8391,232.8712 F,2,167107,167907,0.5,0 P,0,167107,167907,A C,0,167107,,228,228,228
Sprite,Foreground,Centre,"sb/hl2.png",385.0329,242.8115 F,2,167151,167951,0.5,0 P,0,167151,167951,A C,0,167151,,228,228,228
Sprite,Foreground,Centre,"sb/hl2.png",397.1934,251.5139 F,2,167195,167995,0.5,0 P,0,167195,167995,A C,0,167195,,228,228,228
Sprite,Foreground,Centre,"sb/hl2.png",410.354,258.6387 F,2,167239,168039,0.5,0 P,0,167239,168039,A C,0,167239,,228,228,228
Sprite,Foreground,Centre,"sb/hl2.png",0,0 S,2,167593,169098,1,0.8 F,2,167593,169098,0.5,0 P,0,167593,169098,A C,0,167593,,191,128,255 M,0,167593,167637,459,149,473.6159,145.6271 M,0,167637,167681,473.6159,145.6271,488.2318,142.2542 M,0,167681,167725,488.2318,142.2542,502.8476,138.8813 M,0,167725,167769,502.8476,138.8813,517.4635,135.5084 M,0,167769,167813,517.4635,135.5084,532.0793,132.1355 M,0,167813,167857,532.0793,132.1355,546.6952,128.7626 M,0,167857,167901,546.6952,128.7626,561.3111,125.3898 M,0,167901,167945,561.3111,125.3898,575.9269,122.0169 M,0,167945,167990,575.9269,122.0169,561.3111,125.3898 M,0,167990,168034,561.3111,125.3898,546.6952,128.7626 M,0,168034,168078,546.6952,128.7626,532.0793,132.1355 M,0,168078,168122,532.0793,132.1355,517.4635,135.5084 M,0,168122,168166,517.4635,135.5084,502.8476,138.8813 M,0,168166,168210,502.8476,138.8813,488.2318,142.2542 M,0,168210,168254,488.2318,142.2542,473.6159,145.6271 M,0,168254,168298,473.6159,145.6271,459,149
Sprite,Foreground,Centre,"sb/hl2.png",459,149 F,2,167637,168437,0.5,0 P,0,167637,168437,A C,0,167637,,191,128,255
Sprite,Foreground,Centre,"sb/hl2.png",473.6159,145.6271 F,2,167681,168481,0.5,0 P,0,167681,168481,A C,0,167681,,191,128,255
Sprite,Foreground,Centre,"sb/hl2.png",488.2318,142.2542 F,2,167725,168525,0.5,0 P,0,167725,168525,A C,0,167725,,191,128,255
Sprite,Foreground,Centre,"sb/hl2.png",502.8476,138.8813 F,2,167769,168569,0.5,0 P,0,167769,168569,A C,0,167769,,191,128,255
Sprite,Foreground,Centre,"sb/hl2.png",517.4635,135.5084 F,2,167813,168613,0.5,0 P,0,167813,168613,A C,0,167813,,191,128,255
Sprite,Foreground,Centre,"sb/hl2.png",532.0793,132.1355 F,2,167857,168657,0.5,0 P,0,167857,168657,A C,0,167857,,191,128,255
Sprite,Foreground,Centre,"sb/hl2.png",546.6952,128.7626 F,2,167901,168701,0.5,0 P,0,167901,168701,A C,0,167901,,191,128,255
Sprite,Foreground,Centre,"sb/hl2.png",561.3111,125.3898 F,2,167945,168745,0.5,0 P,0,167945,168745,A C,0,167945,,191,128,255
Sprite,Foreground,Centre,"sb/hl2.png",575.9269,122.0169 F,2,167990,168790,0.5,0 P,0,167990,168790,A C,0,167990,,191,128,255
Sprite,Foreground,Centre,"sb/hl2.png",561.3111,125.3898 F,2,168034,168834,0.5,0 P,0,168034,168834,A C,0,168034,,191,128,255
Sprite,Foreground,Centre,"sb/hl2.png",546.6952,128.7626 F,2,168078,168878,0.5,0 P,0,168078,168878,A C,0,168078,,191,128,255
Sprite,Foreground,Centre,"sb/hl2.png",532.0793,132.1355 F,2,168122,168922,0.5,0 P,0,168122,168922,A C,0,168122,,191,128,255
Sprite,Foreground,Centre,"sb/hl2.png",517.4635,135.5084 F,2,168166,168966,0.5,0 P,0,168166,168966,A C,0,168166,,191,128,255
Sprite,Foreground,Centre,"sb/hl2.png",502.8476,138.8813 F,2,168210,169010,0.5,0 P,0,168210,169010,A C,0,168210,,191,128,255
Sprite,Foreground,Centre,"sb/hl2.png",488.2318,142.2542 F,2,168254,169054,0.5,0 P,0,168254,169054,A C,0,168254,,191,128,255
Sprite,Foreground,Centre,"sb/hl2.png",473.6159,145.6271 F,2,168298,169098,0.5,0 P,0,168298,169098,A C,0,168298,,191,128,255
Sprite,Foreground,Centre,"sb/hl2.png",373,63 S,2,168652,169452,1,0.8 F,2,168652,169452,0.5,0 P,0,168652,169452,A C,0,168652,,191,128,255
Sprite,Foreground,Centre,"sb/hl2.png",0,0 S,2,169004,170156,1,0.8 F,2,169004,170156,0.5,0 P,0,169004,170156,A C,0,169004,,191,128,255 M,0,169004,169048,258,99,254.8183,113.6587 M,0,169048,169092,254.8183,113.6587,251.6366,128.3173 M,0,169092,169136,251.6366,128.3173,248.4548,142.976 M,0,169136,169180,248.4548,142.976,245.2731,157.6347 M,0,169180,169224,245.2731,157.6347,242.0914,172.2934 M,0,169224,169268,242.0914,172.2934,238.9096,186.952 M,0,169268,169312,238.9096,186.952,235.7279,201.6107 M,0,169312,169356,235.7279,201.6107,232.5462,216.2694
Sprite,Foreground,Centre,"sb/hl2.png",258,99 F,2,169048,169848,0.5,0 P,0,169048,169848,A C,0,169048,,191,128,255
Sprite,Foreground,Centre,"sb/hl2.png",254.8183,113.6587 F,2,169092,169892,0.5,0 P,0,169092,169892,A C,0,169092,,191,128,255
Sprite,Foreground,Centre,"sb/hl2.png",251.6366,128.3173 F,2,169136,169936,0.5,0 P,0,169136,169936,A C,0,169136,,191,128,255
Sprite,Foreground,Centre,"sb/hl2.png",248.4548,142.976 F,2,169180,169980,0.5,0 P,0,169180,169980,A C,0,169180,,191,128,255
Sprite,Foreground,Centre,"sb/hl2.png",245.2731,157.6347 F,2,169224,170024,0.5,0 P,0,169224,170024,A C,0,169224,,191,128,255
Sprite,Foreground,Centre,"sb/hl2.png",242.0914,172.2934 F,2,169268,170068,0.5,0 P,0,169268,170068,A C,0,169268,,191,128,255
Sprite,Foreground,Centre,"sb/hl2.png",238.9096,186.952 F,2,169312,170112,0.5,0 P,0,169312,170112,A C,0,169312,,191,128,255
Sprite,Foreground,Centre,"sb/hl2.png",235.7279,201.6107 F,2,169356,170156,0.5,0 P,0,169356,170156,A C,0,169356,,191,128,255
Sprite,Foreground,Centre,"sb/hl2.png",0,0 S,2,169710,170862,1,0.8 F,2,169710,170862,0.5,0 P,0,169710,170862,A C,0,169710,,191,128,255 M,0,169710,169754,204,333,189.306,336.0142 M,0,169754,169798,189.306,336.0142,174.6119,339.0283 M,0,169798,169842,174.6119,339.0283,159.9179,342.0425 M,0,169842,169886,159.9179,342.0425,145.2238,345.0566 M,0,169886,169930,145.2238,345.0566,159.9179,342.0425 M,0,169930,169974,159.9179,342.0425,174.6119,339.0283 M,0,169974,170018,174.6119,339.0283,189.306,336.0142 M,0,170018,170062,189.306,336.0142,204,333
Sprite,Foreground,Centre,"sb/hl2.png",204,333 F,2,169754,170554,0.5,0 P,0,169754,170554,A C,0,169754,,191,128,255
Sprite,Foreground,Centre,"sb/hl2.png",189.306,336.0142 F,2,169798,170598,0.5,0 P,0,169798,170598,A C,0,169798,,191,128,255
Sprite,Foreground,Centre,"sb/hl2.png",174.6119,339.0283 F,2,169842,170642,0.5,0 P,0,169842,170642,A C,0,169842,,191,128,255
Sprite,Foreground,Centre,"sb/hl2.png",159.9179,342.0425 F,2,169886,170686,0.5,0 P,0,169886,170686,A C,0,169886,,191,128,255
Sprite,Foreground,Centre,"sb/hl2.png",145.2238,345.0566 F,2,169930,170730,0.5,0 P,0,169930,170730,A C,0,169930,,191,128,255
Sprite,Foreground,Centre,"sb/hl2.png",159.9179,342.0425 F,2,169974,170774,0.5,0 P,0,169974,170774,A C,0,169974,,191,128,255
Sprite,Foreground,Centre,"sb/hl2.png",174.6119,339.0283 F,2,170018,170818,0.5,0 P,0,170018,170818,A C,0,170018,,191,128,255
Sprite,Foreground,Centre,"sb/hl2.png",189.306,336.0142 F,2,170062,170862,0.5,0 P,0,170062,170862,A C,0,170062,,191,128,255
Sprite,Foreground,Centre,"sb/hl2.png",262,350 S,2,170240,171040,1,0.8 F,2,170240,171040,0.5,0 P,0,170240,171040,A C,0,170240,,191,128,255
Sprite,Foreground,Centre,"sb/hl2.png",0,0 S,2,171122,172627,1,0.8 F,2,171122,172627,0.5,0 P,0,171122,172627,A C,0,171122,,255,6,6 M,0,171122,171166,501,162,486.0938,160.3251 M,0,171166,171210,486.0938,160.3251,471.1876,158.6503 M,0,171210,171254,471.1876,158.6503,456.2814,156.9754 M,0,171254,171298,456.2814,156.9754,441.3752,155.3006 M,0,171298,171342,441.3752,155.3006,426.469,153.6257 M,0,171342,171386,426.469,153.6257,411.5873,152.1526 M,0,171386,171430,411.5873,152.1526,397.5188,157.3561 M,0,171430,171474,397.5188,157.3561,383.4503,162.5595 M,0,171474,171519,383.4503,162.5595,369.3817,167.7629 M,0,171519,171563,369.3817,167.7629,355.3131,172.9664 M,0,171563,171607,355.3131,172.9664,341.2446,178.1698 M,0,171607,171651,341.2446,178.1698,326.4572,177.7316 M,0,171651,171695,326.4572,177.7316,311.5333,176.2225 M,0,171695,171739,311.5333,176.2225,296.6094,174.7133 M,0,171739,171783,296.6094,174.7133,281.6855,173.2041 M,0,171783,171827,281.6855,173.2041,266.7616,171.695
Sprite,Foreground,Centre,"sb/hl2.png",501,162 F,2,171166,171966,0.5,0 P,0,171166,171966,A C,0,171166,,255,6,6
Sprite,Foreground,Centre,"sb/hl2.png",486.0938,160.3251 F,2,171210,172010,0.5,0 P,0,171210,172010,A C,0,171210,,255,6,6
Sprite,Foreground,Centre,"sb/hl2.png",471.1876,158.6503 F,2,171254,172054,0.5,0 P,0,171254,172054,A C,0,171254,,255,6,6
Sprite,Foreground,Centre,"sb/hl2.png",456.2814,156.9754 F,2,171298,172098,0.5,0 P,0,171298,172098,A C,0,171298,,255,6,6
Sprite,Foreground,Centre,"sb/hl2.png",441.3752,155.3006 F,2,171342,172142,0.5,0 P,0,171342,172142,A C,0,171342,,255,6,6
Sprite,Foreground,Centre,"sb/hl2.png",426.469,153.6257 F,2,171386,172186,0.5,0 P,0,171386,172186,A C,0,171386,,255,6,6
Sprite,Foreground,Centre,"sb/hl2.png",411.5873,152.1526 F,2,171430,172230,0.5,0 P,0,171430,172230,A C,0,171430,,255,6,6
Sprite,Foreground,Centre,"sb/hl2.png",397.5188,157.3561 F,2,171474,172274,0.5,0 P,0,171474,172274,A C,0,171474,,255,6,6
Sprite,Foreground,Centre,"sb/hl2.png",383.4503,162.5595 F,2,171519,172319,0.5,0 P,0,171519,172319,A C,0,171519,,255,6,6
Sprite,Foreground,Centre,"sb/hl2.png",369.3817,167.7629 F,2,171563,172363,0.5,0 P,0,171563,172363,A C,0,171563,,255,6,6
Sprite,Foreground,Centre,"sb/hl2.png",355.3131,172.9664 F,2,171607,172407,0.5,0 P,0,171607,172407,A C,0,171607,,255,6,6
Sprite,Foreground,Centre,"sb/hl2.png",341.2446,178.1698 F,2,171651,172451,0.5,0 P,0,171651,172451,A C,0,171651,,255,6,6
Sprite,Foreground,Centre,"sb/hl2.png",326.4572,177.7316 F,2,171695,172495,0.5,0 P,0,171695,172495,A C,0,171695,,255,6,6
Sprite,Foreground,Centre,"sb/hl2.png",311.5333,176.2225 F,2,171739,172539,0.5,0 P,0,171739,172539,A C,0,171739,,255,6,6
Sprite,Foreground,Centre,"sb/hl2.png",296.6094,174.7133 F,2,171783,172583,0.5,0 P,0,171783,172583,A C,0,171783,,255,6,6
Sprite,Foreground,Centre,"sb/hl2.png",281.6855,173.2041 F,2,171827,172627,0.5,0 P,0,171827,172627,A C,0,171827,,255,6,6
Sprite,Foreground,Centre,"sb/hl2.png",67,305 S,2,172534,173334,1,0.8 F,2,172534,173334,0.5,0 P,0,172534,173334,A C,0,172534,,255,6,6
Sprite,Foreground,Centre,"sb/hl2.png",0,0 S,2,173063,174215,1,0.8 F,2,173063,174215,0.5,0 P,0,173063,174215,A C,0,173063,,128,255,255 M,0,173063,173107,243,258,257.9053,259.6829 M,0,173107,173151,257.9053,259.6829,272.8106,261.3657 M,0,173151,173195,272.8106,261.3657,287.7159,263.0486 M,0,173195,173239,287.7159,263.0486,302.6212,264.7314 M,0,173239,173283,302.6212,264.7314,316.4274,270.3224 M,0,173283,173327,316.4274,270.3224,330.0249,276.6555 M,0,173327,173371,330.0249,276.6555,343.6224,282.9885 M,0,173371,173415,343.6224,282.9885,357.2199,289.3216
Sprite,Foreground,Centre,"sb/hl2.png",243,258 F,2,173107,173907,0.5,0 P,0,173107,173907,A C,0,173107,,128,255,255
Sprite,Foreground,Centre,"sb/hl2.png",257.9053,259.6829 F,2,173151,173951,0.5,0 P,0,173151,173951,A C,0,173151,,128,255,255
Sprite,Foreground,Centre,"sb/hl2.png",272.8106,261.3657 F,2,173195,173995,0.5,0 P,0,173195,173995,A C,0,173195,,128,255,255
Sprite,Foreground,Centre,"sb/hl2.png",287.7159,263.0486 F,2,173239,174039,0.5,0 P,0,173239,174039,A C,0,173239,,128,255,255
Sprite,Foreground,Centre,"sb/hl2.png",302.6212,264.7314 F,2,173283,174083,0.5,0 P,0,173283,174083,A C,0,173283,,128,255,255
Sprite,Foreground,Centre,"sb/hl2.png",316.4274,270.3224 F,2,173327,174127,0.5,0 P,0,173327,174127,A C,0,173327,,128,255,255
Sprite,Foreground,Centre,"sb/hl2.png",330.0249,276.6555 F,2,173371,174171,0.5,0 P,0,173371,174171,A C,0,173371,,128,255,255
Sprite,Foreground,Centre,"sb/hl2.png",343.6224,282.9885 F,2,173415,174215,0.5,0 P,0,173415,174215,A C,0,173415,,128,255,255
Sprite,Foreground,Centre,"sb/hl2.png",407,323 S,2,173592,174392,1,0.8 F,2,173592,174392,0.5,0 P,0,173592,174392,A C,0,173592,,128,255,255
Sprite,Foreground,Centre,"sb/hl2.png",527,318 S,2,173945,174745,1,0.8 F,2,173945,174745,0.5,0 P,0,173945,174745,A C,0,173945,,128,255,255
Sprite,Foreground,Centre,"sb/hl2.png",562,203 S,2,174298,175098,1,0.8 F,2,174298,175098,0.5,0 P,0,174298,175098,A C,0,174298,,128,255,255
Sprite,Foreground,Centre,"sb/hl2.png",458,143 S,2,174651,175451,1,0.8 F,2,174651,175451,0.5,0 P,0,174651,175451,A C,0,174651,,128,255,255
Sprite,Foreground,Centre,"sb/hl2.png",358,208 S,2,175004,175804,1,0.8 F,2,175004,175804,0.5,0 P,0,175004,175804,A C,0,175004,,128,255,255
Sprite,Foreground,Centre,"sb/hl2.png",0,0 S,2,175357,176509,1,0.8 F,2,175357,176509,0.5,0 P,0,175357,176509,A C,0,175357,,128,255,255 M,0,175357,175401,402,319,404.6068,333.7718 M,0,175401,175445,404.6068,333.7718,407.2136,348.5435 M,0,175445,175489,407.2136,348.5435,409.8203,363.3152 M,0,175489,175533,409.8203,363.3152,412.4271,378.087 M,0,175533,175577,412.4271,378.087,409.8203,363.3152 M,0,175577,175621,409.8203,363.3152,407.2136,348.5435 M,0,175621,175665,407.2136,348.5435,404.6068,333.7718 M,0,175665,175709,404.6068,333.7718,402,319
Sprite,Foreground,Centre,"sb/hl2.png",402,319 F,2,175401,176201,0.5,0 P,0,175401,176201,A C,0,175401,,128,255,255
Sprite,Foreground,Centre,"sb/hl2.png",404.6068,333.7718 F,2,175445,176245,0.5,0 P,0,175445,176245,A C,0,175445,,128,255,255
Sprite,Foreground,Centre,"sb/hl2.png",407.2136,348.5435 F,2,175489,176289,0.5,0 P,0,175489,176289,A C,0,175489,,128,255,255
Sprite,Foreground,Centre,"sb/hl2.png",409.8203,363.3152 F,2,175533,176333,0.5,0 P,0,175533,176333,A C,0,175533,,128,255,255
Sprite,Foreground,Centre,"sb/hl2.png",412.4271,378.087 F,2,175577,176377,0.5,0 P,0,175577,176377,A C,0,175577,,128,255,255
Sprite,Foreground,Centre,"sb/hl2.png",409.8203,363.3152 F,2,175621,176421,0.5,0 P,0,175621,176421,A C,0,175621,,128,255,255
Sprite,Foreground,Centre,"sb/hl2.png",407.2136,348.5435 F,2,175665,176465,0.5,0 P,0,175665,176465,A C,0,175665,,128,255,255
Sprite,Foreground,Centre,"sb/hl2.png",404.6068,333.7718 F,2,175709,176509,0.5,0 P,0,175709,176509,A C,0,175709,,128,255,255
Sprite,Foreground,Centre,"sb/hl2.png",0,0 S,2,175887,177039,1,0.8 F,2,175887,177039,0.5,0 P,0,175887,177039,A C,0,175887,,6,87,255 M,0,175887,175931,346,296,331.0932,297.6696 M,0,175931,175975,331.0932,297.6696,316.1864,299.3391 M,0,175975,176019,316.1864,299.3391,301.2796,301.0087 M,0,176019,176063,301.2796,301.0087,286.3728,302.6782 M,0,176063,176107,286.3728,302.6782,271.466,304.3478 M,0,176107,176151,271.466,304.3478,256.5592,306.0174 M,0,176151,176195,256.5592,306.0174,241.6524,307.6869 M,0,176195,176239,241.6524,307.6869,226.7456,309.3565
Sprite,Foreground,Centre,"sb/hl2.png",346,296 F,2,175931,176731,0.5,0 P,0,175931,176731,A C,0,175931,,6,87,255
Sprite,Foreground,Centre,"sb/hl2.png",331.0932,297.6696 F,2,175975,176775,0.5,0 P,0,175975,176775,A C,0,175975,,6,87,255
Sprite,Foreground,Centre,"sb/hl2.png",316.1864,299.3391 F,2,176019,176819,0.5,0 P,0,176019,176819,A C,0,176019,,6,87,255
Sprite,Foreground,Centre,"sb/hl2.png",301.2796,301.0087 F,2,176063,176863,0.5,0 P,0,176063,176863,A C,0,176063,,6,87,255
Sprite,Foreground,Centre,"sb/hl2.png",286.3728,302.6782 F,2,176107,176907,0.5,0 P,0,176107,176907,A C,0,176107,,6,87,255
Sprite,Foreground,Centre,"sb/hl2.png",271.466,304.3478 F,2,176151,176951,0.5,0 P,0,176151,176951,A C,0,176151,,6,87,255
Sprite,Foreground,Centre,"sb/hl2.png",256.5592,306.0174 F,2,176195,176995,0.5,0 P,0,176195,176995,A C,0,176195,,6,87,255
Sprite,Foreground,Centre,"sb/hl2.png",241.6524,307.6869 F,2,176239,177039,0.5,0 P,0,176239,177039,A C,0,176239,,6,87,255
Sprite,Foreground,Centre,"sb/hl2.png",169,295 S,2,176416,177216,1,0.8 F,2,176416,177216,0.5,0 P,0,176416,177216,A C,0,176416,,6,87,255
Sprite,Foreground,Centre,"sb/hl2.png",117,187 S,2,176769,177569,1,0.8 F,2,176769,177569,0.5,0 P,0,176769,177569,A C,0,176769,,6,87,255
Sprite,Foreground,Centre,"sb/hl2.png",234,160 S,2,177122,177922,1,0.8 F,2,177122,177922,0.5,0 P,0,177122,177922,A C,0,177122,,6,87,255
Sprite,Foreground,Centre,"sb/hl2.png",0,0 S,2,177299,178451,1,0.8 F,2,177299,178451,0.5,0 P,0,177299,178451,A C,0,177299,,6,87,255 M,0,177299,177343,293,147,307.9128,148.6155 M,0,177343,177387,307.9128,148.6155,322.8255,150.2311 M,0,177387,177431,322.8255,150.2311,337.7383,151.8466 M,0,177431,177475,337.7383,151.8466,352.651,153.4622 M,0,177475,177519,352.651,153.4622,367.5637,155.0777 M,0,177519,177563,367.5637,155.0777,382.4765,156.6933 M,0,177563,177607,382.4765,156.6933,397.3892,158.3088 M,0,177607,177651,397.3892,158.3088,412.302,159.9244
Sprite,Foreground,Centre,"sb/hl2.png",293,147 F,2,177343,178143,0.5,0 P,0,177343,178143,A C,0,177343,,6,87,255
Sprite,Foreground,Centre,"sb/hl2.png",307.9128,148.6155 F,2,177387,178187,0.5,0 P,0,177387,178187,A C,0,177387,,6,87,255
Sprite,Foreground,Centre,"sb/hl2.png",322.8255,150.2311 F,2,177431,178231,0.5,0 P,0,177431,178231,A C,0,177431,,6,87,255
Sprite,Foreground,Centre,"sb/hl2.png",337.7383,151.8466 F,2,177475,178275,0.5,0 P,0,177475,178275,A C,0,177475,,6,87,255
Sprite,Foreground,Centre,"sb/hl2.png",352.651,153.4622 F,2,177519,178319,0.5,0 P,0,177519,178319,A C,0,177519,,6,87,255
Sprite,Foreground,Centre,"sb/hl2.png",367.5637,155.0777 F,2,177563,178363,0.5,0 P,0,177563,178363,A C,0,177563,,6,87,255
Sprite,Foreground,Centre,"sb/hl2.png",382.4765,156.6933 F,2,177607,178407,0.5,0 P,0,177607,178407,A C,0,177607,,6,87,255
Sprite,Foreground,Centre,"sb/hl2.png",397.3892,158.3088 F,2,177651,178451,0.5,0 P,0,177651,178451,A C,0,177651,,6,87,255
Sprite,Foreground,Centre,"sb/hl2.png",471,174 S,2,177827,178627,1,0.8 F,2,177827,178627,0.5,0 P,0,177827,178627,A C,0,177827,,6,87,255
Sprite,Foreground,Centre,"sb/hl2.png",530,278 S,2,178180,178980,1,0.8 F,2,178180,178980,0.5,0 P,0,178180,178980,A C,0,178180,,6,87,255
Sprite,Foreground,Centre,"sb/hl2.png",458,374 S,2,178534,179334,1,0.8 F,2,178534,179334,0.5,0 P,0,178534,179334,A C,0,178534,,6,87,255
Sprite,Foreground,Centre,"sb/hl2.png",0,0 S,2,178710,179862,1,0.8 F,2,178710,179862,0.5,0 P,0,178710,179862,A C,0,178710,,128,255,255 M,0,178710,178754,421,421,413.4049,408.0851 M,0,178754,178798,413.4049,408.0851,406.9759,394.5652 M,0,178798,178842,406.9759,394.5652,401.9634,380.4567 M,0,178842,178886,401.9634,380.4567,398.4204,365.9067 M,0,178886,178930,398.4204,365.9067,396.3844,351.0668 M,0,178930,178974,396.3844,351.0668,395.8776,336.0919 M,0,178974,179018,395.8776,336.0919,396.9065,321.1383 M,0,179018,179062,396.9065,321.1383,399.7028,306.4194
Sprite,Foreground,Centre,"sb/hl2.png",421,421 F,2,178754,179554,0.5,0 P,0,178754,179554,A C,0,178754,,128,255,255
Sprite,Foreground,Centre,"sb/hl2.png",413.4049,408.0851 F,2,178798,179598,0.5,0 P,0,178798,179598,A C,0,178798,,128,255,255
Sprite,Foreground,Centre,"sb/hl2.png",406.9759,394.5652 F,2,178842,179642,0.5,0 P,0,178842,179642,A C,0,178842,,128,255,255
Sprite,Foreground,Centre,"sb/hl2.png",401.9634,380.4567 F,2,178886,179686,0.5,0 P,0,178886,179686,A C,0,178886,,128,255,255
Sprite,Foreground,Centre,"sb/hl2.png",398.4204,365.9067 F,2,178930,179730,0.5,0 P,0,178930,179730,A C,0,178930,,128,255,255
Sprite,Foreground,Centre,"sb/hl2.png",396.3844,351.0668 F,2,178974,179774,0.5,0 P,0,178974,179774,A C,0,178974,,128,255,255
Sprite,Foreground,Centre,"sb/hl2.png",395.8776,336.0919 F,2,179018,179818,0.5,0 P,0,179018,179818,A C,0,179018,,128,255,255
Sprite,Foreground,Centre,"sb/hl2.png",396.9065,321.1383 F,2,179062,179862,0.5,0 P,0,179062,179862,A C,0,179062,,128,255,255
Sprite,Foreground,Centre,"sb/hl2.png",439,260 S,2,179239,180039,1,0.8 F,2,179239,180039,0.5,0 P,0,179239,180039,A C,0,179239,,128,255,255
Sprite,Foreground,Centre,"sb/hl2.png",534,186 S,2,179592,180392,1,0.8 F,2,179592,180392,0.5,0 P,0,179592,180392,A C,0,179592,,128,255,255
Sprite,Foreground,Centre,"sb/hl2.png",494,73 S,2,179945,180745,1,0.8 F,2,179945,180745,0.5,0 P,0,179945,180745,A C,0,179945,,128,255,255
Sprite,Foreground,Centre,"sb/hl2.png",375,82 S,2,180298,181098,1,0.8 F,2,180298,181098,0.5,0 P,0,180298,181098,A C,0,180298,,128,255,255
Sprite,Foreground,Centre,"sb/hl2.png",332,193 S,2,180651,181451,1,0.8 F,2,180651,181451,0.5,0 P,0,180651,181451,A C,0,180651,,128,255,255
Sprite,Foreground,Centre,"sb/hl2.png",0,0 S,2,181004,182156,1,0.8 F,2,181004,182156,0.5,0 P,0,181004,182156,A C,0,181004,,128,255,255 M,0,181004,181048,288,304,288.4053,318.9945 M,0,181048,181092,288.4053,318.9945,288.8105,333.989 M,0,181092,181136,288.8105,333.989,289.2158,348.9836 M,0,181136,181180,289.2158,348.9836,289.621,363.9781 M,0,181180,181224,289.621,363.9781,289.2158,348.9836 M,0,181224,181268,289.2158,348.9836,288.8105,333.989 M,0,181268,181312,288.8105,333.989,288.4053,318.9945 M,0,181312,181356,288.4053,318.9945,288,304
Sprite,Foreground,Centre,"sb/hl2.png",288,304 F,2,181048,181848,0.5,0 P,0,181048,181848,A C,0,181048,,128,255,255
Sprite,Foreground,Centre,"sb/hl2.png",288.4053,318.9945 F,2,181092,181892,0.5,0 P,0,181092,181892,A C,0,181092,,128,255,255
Sprite,Foreground,Centre,"sb/hl2.png",288.8105,333.989 F,2,181136,181936,0.5,0 P,0,181136,181936,A C,0,181136,,128,255,255
Sprite,Foreground,Centre,"sb/hl2.png",289.2158,348.9836 F,2,181180,181980,0.5,0 P,0,181180,181980,A C,0,181180,,128,255,255
Sprite,Foreground,Centre,"sb/hl2.png",289.621,363.9781 F,2,181224,182024,0.5,0 P,0,181224,182024,A C,0,181224,,128,255,255
Sprite,Foreground,Centre,"sb/hl2.png",289.2158,348.9836 F,2,181268,182068,0.5,0 P,0,181268,182068,A C,0,181268,,128,255,255
Sprite,Foreground,Centre,"sb/hl2.png",288.8105,333.989 F,2,181312,182112,0.5,0 P,0,181312,182112,A C,0,181312,,128,255,255
Sprite,Foreground,Centre,"sb/hl2.png",288.4053,318.9945 F,2,181356,182156,0.5,0 P,0,181356,182156,A C,0,181356,,128,255,255
Sprite,Foreground,Centre,"sb/hl2.png",0,0 S,2,181534,182686,1,0.8 F,2,181534,182686,0.5,0 P,0,181534,182686,A C,0,181534,,6,87,255 M,0,181534,181578,260,250,248.2184,240.7501 M,0,181578,181622,248.2184,240.7501,235.6478,232.6294 M,0,181622,181666,235.6478,232.6294,222.263,225.9228 M,0,181666,181710,222.263,225.9228,208.2198,220.7103 M,0,181710,181754,208.2198,220.7103,193.6818,217.0551 M,0,181754,181798,193.6818,217.0551,178.7993,215.3585 M,0,181798,181842,178.7993,215.3585,163.8373,215.0384 M,0,181842,181886,163.8373,215.0384,148.9051,216.2478
Sprite,Foreground,Centre,"sb/hl2.png",260,250 F,2,181578,182378,0.5,0 P,0,181578,182378,A C,0,181578,,6,87,255
Sprite,Foreground,Centre,"sb/hl2.png",248.2184,240.7501 F,2,181622,182422,0.5,0 P,0,181622,182422,A C,0,181622,,6,87,255
Sprite,Foreground,Centre,"sb/hl2.png",235.6478,232.6294 F,2,181666,182466,0.5,0 P,0,181666,182466,A C,0,181666,,6,87,255
Sprite,Foreground,Centre,"sb/hl2.png",222.263,225.9228 F,2,181710,182510,0.5,0 P,0,181710,182510,A C,0,181710,,6,87,255
Sprite,Foreground,Centre,"sb/hl2.png",208.2198,220.7103 F,2,181754,182554,0.5,0 P,0,181754,182554,A C,0,181754,,6,87,255
Sprite,Foreground,Centre,"sb/hl2.png",193.6818,217.0551 F,2,181798,182598,0.5,0 P,0,181798,182598,A C,0,181798,,6,87,255
Sprite,Foreground,Centre,"sb/hl2.png",178.7993,215.3585 F,2,181842,182642,0.5,0 P,0,181842,182642,A C,0,181842,,6,87,255
Sprite,Foreground,Centre,"sb/hl2.png",163.8373,215.0384 F,2,181886,182686,0.5,0 P,0,181886,182686,A C,0,181886,,6,87,255
Sprite,Foreground,Centre,"sb/hl2.png",0,0 S,2,182063,183039,1,0.8 F,2,182063,183039,0.5,0 P,0,182063,183039,A C,0,182063,,6,87,255 M,0,182063,182107,90,231,86.09705,245.4204 M,0,182107,182151,86.09705,245.4204,84.43537,260.2309 M,0,182151,182195,84.43537,260.2309,85.48323,275.1185 M,0,182195,182239,85.48323,275.1185,89.21755,289.6006
Sprite,Foreground,Centre,"sb/hl2.png",90,231 F,2,182107,182907,0.5,0 P,0,182107,182907,A C,0,182107,,6,87,255
Sprite,Foreground,Centre,"sb/hl2.png",86.09705,245.4204 F,2,182151,182951,0.5,0 P,0,182151,182951,A C,0,182151,,6,87,255
Sprite,Foreground,Centre,"sb/hl2.png",84.43537,260.2309 F,2,182195,182995,0.5,0 P,0,182195,182995,A C,0,182195,,6,87,255
Sprite,Foreground,Centre,"sb/hl2.png",85.48323,275.1185 F,2,182239,183039,0.5,0 P,0,182239,183039,A C,0,182239,,6,87,255
Sprite,Foreground,Centre,"sb/hl2.png",115,344 S,2,182416,183216,1,0.8 F,2,182416,183216,0.5,0 P,0,182416,183216,A C,0,182416,,6,87,255
Sprite,Foreground,Centre,"sb/hl2.png",204,424 S,2,182768,183568,1,0.8 F,2,182768,183568,0.5,0 P,0,182768,183568,A C,0,182768,,6,87,255
Sprite,Foreground,Centre,"sb/hl2.png",0,0 S,2,182946,184098,1,0.8 F,2,182946,184098,0.5,0 P,0,182946,184098,A C,0,182946,,6,87,255 M,0,182946,182990,204,424,218.7765,421.42 M,0,182990,183034,218.7765,421.42,233.5529,418.84 M,0,183034,183078,233.5529,418.84,248.3294,416.2599 M,0,183078,183122,248.3294,416.2599,263.1058,413.6799 M,0,183122,183166,263.1058,413.6799,277.8823,411.0999 M,0,183166,183210,277.8823,411.0999,292.6587,408.5199 M,0,183210,183254,292.6587,408.5199,307.4352,405.9399 M,0,183254,183298,307.4352,405.9399,322.2116,403.3599
Sprite,Foreground,Centre,"sb/hl2.png",204,424 F,2,182990,183790,0.5,0 P,0,182990,183790,A C,0,182990,,6,87,255
Sprite,Foreground,Centre,"sb/hl2.png",218.7765,421.42 F,2,183034,183834,0.5,0 P,0,183034,183834,A C,0,183034,,6,87,255
Sprite,Foreground,Centre,"sb/hl2.png",233.5529,418.84 F,2,183078,183878,0.5,0 P,0,183078,183878,A C,0,183078,,6,87,255
Sprite,Foreground,Centre,"sb/hl2.png",248.3294,416.2599 F,2,183122,183922,0.5,0 P,0,183122,183922,A C,0,183122,,6,87,255
Sprite,Foreground,Centre,"sb/hl2.png",263.1058,413.6799 F,2,183166,183966,0.5,0 P,0,183166,183966,A C,0,183166,,6,87,255
Sprite,Foreground,Centre,"sb/hl2.png",277.8823,411.0999 F,2,183210,184010,0.5,0 P,0,183210,184010,A C,0,183210,,6,87,255
Sprite,Foreground,Centre,"sb/hl2.png",292.6587,408.5199 F,2,183254,184054,0.5,0 P,0,183254,184054,A C,0,183254,,6,87,255
Sprite,Foreground,Centre,"sb/hl2.png",307.4352,405.9399 F,2,183298,184098,0.5,0 P,0,183298,184098,A C,0,183298,,6,87,255
Sprite,Foreground,Centre,"sb/hl2.png",381,395 S,2,183475,184275,1,0.8 F,2,183475,184275,0.5,0 P,0,183475,184275,A C,0,183475,,6,87,255
Sprite,Foreground,Centre,"sb/hl2.png",0,0 S,2,183827,184803,1,0.8 F,2,183827,184803,0.5,0 P,0,183827,184803,A C,0,183827,,6,87,255 M,0,183827,183871,498,371,495.8079,356.161 M,0,183871,183915,495.8079,356.161,493.6158,341.3221 M,0,183915,183959,493.6158,341.3221,491.4236,326.4831 M,0,183959,184003,491.4236,326.4831,489.2315,311.6442
Sprite,Foreground,Centre,"sb/hl2.png",498,371 F,2,183871,184671,0.5,0 P,0,183871,184671,A C,0,183871,,6,87,255
Sprite,Foreground,Centre,"sb/hl2.png",495.8079,356.161 F,2,183915,184715,0.5,0 P,0,183915,184715,A C,0,183915,,6,87,255
Sprite,Foreground,Centre,"sb/hl2.png",493.6158,341.3221 F,2,183959,184759,0.5,0 P,0,183959,184759,A C,0,183959,,6,87,255
Sprite,Foreground,Centre,"sb/hl2.png",491.4236,326.4831 F,2,184003,184803,0.5,0 P,0,184003,184803,A C,0,184003,,6,87,255
Sprite,Foreground,Centre,"sb/hl2.png",482,258 S,2,184180,184980,1,0.8 F,2,184180,184980,0.5,0 P,0,184180,184980,A C,0,184180,,6,87,255
Sprite,Foreground,Centre,"sb/hl2.png",0,0 S,2,184357,185509,1,0.8 F,2,184357,185509,0.5,0 P,0,184357,185509,A C,0,184357,,6,87,255 M,0,184357,184401,482,258,467.2381,255.338 M,0,184401,184445,467.2381,255.338,452.4762,252.676 M,0,184445,184489,452.4762,252.676,437.7143,250.0141 M,0,184489,184533,437.7143,250.0141,422.9524,247.3521 M,0,184533,184577,422.9524,247.3521,408.1905,244.6901 M,0,184577,184621,408.1905,244.6901,393.4286,242.0281 M,0,184621,184665,393.4286,242.0281,378.6667,239.3661 M,0,184665,184709,378.6667,239.3661,363.9048,236.7041
Sprite,Foreground,Centre,"sb/hl2.png",482,258 F,2,184401,185201,0.5,0 P,0,184401,185201,A C,0,184401,,6,87,255
Sprite,Foreground,Centre,"sb/hl2.png",467.2381,255.338 F,2,184445,185245,0.5,0 P,0,184445,185245,A C,0,184445,,6,87,255
Sprite,Foreground,Centre,"sb/hl2.png",452.4762,252.676 F,2,184489,185289,0.5,0 P,0,184489,185289,A C,0,184489,,6,87,255
Sprite,Foreground,Centre,"sb/hl2.png",437.7143,250.0141 F,2,184533,185333,0.5,0 P,0,184533,185333,A C,0,184533,,6,87,255
Sprite,Foreground,Centre,"sb/hl2.png",422.9524,247.3521 F,2,184577,185377,0.5,0 P,0,184577,185377,A C,0,184577,,6,87,255
Sprite,Foreground,Centre,"sb/hl2.png",408.1905,244.6901 F,2,184621,185421,0.5,0 P,0,184621,185421,A C,0,184621,,6,87,255
Sprite,Foreground,Centre,"sb/hl2.png",393.4286,242.0281 F,2,184665,185465,0.5,0 P,0,184665,185465,A C,0,184665,,6,87,255
Sprite,Foreground,Centre,"sb/hl2.png",378.6667,239.3661 F,2,184709,185509,0.5,0 P,0,184709,185509,A C,0,184709,,6,87,255
Sprite,Foreground,Centre,"sb/hl2.png",0,0 S,2,184887,186392,1,0.8 F,2,184887,186392,0.5,0 P,0,184887,186392,A C,0,184887,,191,128,255 M,0,184887,184931,303,228,290.3956,236.0303 M,0,184931,184975,290.3956,236.0303,279.2279,245.9042 M,0,184975,185019,279.2279,245.9042,270.0393,257.6492 M,0,185019,185063,270.0393,257.6492,263.1372,270.8771 M,0,185063,185107,263.1372,270.8771,258.7538,285.1505 M,0,185107,185151,258.7538,285.1505,257.0394,299.9966 M,0,185151,185195,257.0394,299.9966,258.0567,314.923 M,0,185195,185239,258.0567,314.923,262.1672,329.2896 M,0,185239,185284,262.1672,329.2896,258.0567,314.923 M,0,185284,185328,258.0567,314.923,257.0394,299.9966 M,0,185328,185372,257.0394,299.9966,258.7538,285.1505 M,0,185372,185416,258.7538,285.1505,263.1372,270.8771 M,0,185416,185460,263.1372,270.8771,270.0393,257.6492 M,0,185460,185504,270.0393,257.6492,279.2279,245.9042 M,0,185504,185548,279.2279,245.9042,290.3956,236.0303 M,0,185548,185592,290.3956,236.0303,303,228
Sprite,Foreground,Centre,"sb/hl2.png",303,228 F,2,184931,185731,0.5,0 P,0,184931,185731,A C,0,184931,,191,128,255
Sprite,Foreground,Centre,"sb/hl2.png",290.3956,236.0303 F,2,184975,185775,0.5,0 P,0,184975,185775,A C,0,184975,,191,128,255
Sprite,Foreground,Centre,"sb/hl2.png",279.2279,245.9042 F,2,185019,185819,0.5,0 P,0,185019,185819,A C,0,185019,,191,128,255
Sprite,Foreground,Centre,"sb/hl2.png",270.0393,257.6492 F,2,185063,185863,0.5,0 P,0,185063,185863,A C,0,185063,,191,128,255
Sprite,Foreground,Centre,"sb/hl2.png",263.1372,270.8771 F,2,185107,185907,0.5,0 P,0,185107,185907,A C,0,185107,,191,128,255
Sprite,Foreground,Centre,"sb/hl2.png",258.7538,285.1505 F,2,185151,185951,0.5,0 P,0,185151,185951,A C,0,185151,,191,128,255
Sprite,Foreground,Centre,"sb/hl2.png",257.0394,299.9966 F,2,185195,185995,0.5,0 P,0,185195,185995,A C,0,185195,,191,128,255
Sprite,Foreground,Centre,"sb/hl2.png",258.0567,314.923 F,2,185239,186039,0.5,0 P,0,185239,186039,A C,0,185239,,191,128,255
Sprite,Foreground,Centre,"sb/hl2.png",262.1672,329.2896 F,2,185284,186084,0.5,0 P,0,185284,186084,A C,0,185284,,191,128,255
Sprite,Foreground,Centre,"sb/hl2.png",258.0567,314.923 F,2,185328,186128,0.5,0 P,0,185328,186128,A C,0,185328,,191,128,255
Sprite,Foreground,Centre,"sb/hl2.png",257.0394,299.9966 F,2,185372,186172,0.5,0 P,0,185372,186172,A C,0,185372,,191,128,255
Sprite,Foreground,Centre,"sb/hl2.png",258.7538,285.1505 F,2,185416,186216,0.5,0 P,0,185416,186216,A C,0,185416,,191,128,255
Sprite,Foreground,Centre,"sb/hl2.png",263.1372,270.8771 F,2,185460,186260,0.5,0 P,0,185460,186260,A C,0,185460,,191,128,255
Sprite,Foreground,Centre,"sb/hl2.png",270.0393,257.6492 F,2,185504,186304,0.5,0 P,0,185504,186304,A C,0,185504,,191,128,255
Sprite,Foreground,Centre,"sb/hl2.png",279.2279,245.9042 F,2,185548,186348,0.5,0 P,0,185548,186348,A C,0,185548,,191,128,255
Sprite,Foreground,Centre,"sb/hl2.png",290.3956,236.0303 F,2,185592,186392,0.5,0 P,0,185592,186392,A C,0,185592,,191,128,255
Sprite,Foreground,Centre,"sb/hl2.png",0,0 S,2,185946,187098,1,0.8 F,2,185946,187098,0.5,0 P,0,185946,187098,A C,0,185946,,191,128,255 M,0,185946,185990,357,120,342.0164,120.7024 M,0,185990,186034,342.0164,120.7024,327.0329,121.4047 M,0,186034,186078,327.0329,121.4047,312.0494,122.1071 M,0,186078,186122,312.0494,122.1071,297.0658,122.8094 M,0,186122,186166,297.0658,122.8094,282.0823,123.5118 M,0,186166,186210,282.0823,123.5118,267.0987,124.2141 M,0,186210,186254,267.0987,124.2141,252.1152,124.9165 M,0,186254,186298,252.1152,124.9165,237.1316,125.6188
Sprite,Foreground,Centre,"sb/hl2.png",357,120 F,2,185990,186790,0.5,0 P,0,185990,186790,A C,0,185990,,191,128,255
Sprite,Foreground,Centre,"sb/hl2.png",342.0164,120.7024 F,2,186034,186834,0.5,0 P,0,186034,186834,A C,0,186034,,191,128,255
Sprite,Foreground,Centre,"sb/hl2.png",327.0329,121.4047 F,2,186078,186878,0.5,0 P,0,186078,186878,A C,0,186078,,191,128,255
Sprite,Foreground,Centre,"sb/hl2.png",312.0494,122.1071 F,2,186122,186922,0.5,0 P,0,186122,186922,A C,0,186122,,191,128,255
Sprite,Foreground,Centre,"sb/hl2.png",297.0658,122.8094 F,2,186166,186966,0.5,0 P,0,186166,186966,A C,0,186166,,191,128,255
Sprite,Foreground,Centre,"sb/hl2.png",282.0823,123.5118 F,2,186210,187010,0.5,0 P,0,186210,187010,A C,0,186210,,191,128,255
Sprite,Foreground,Centre,"sb/hl2.png",267.0987,124.2141 F,2,186254,187054,0.5,0 P,0,186254,187054,A C,0,186254,,191,128,255
Sprite,Foreground,Centre,"sb/hl2.png",252.1152,124.9165 F,2,186298,187098,0.5,0 P,0,186298,187098,A C,0,186298,,191,128,255
Sprite,Foreground,Centre,"sb/hl2.png",169,223 S,2,186652,187452,1,0.8 F,2,186652,187452,0.5,0 P,0,186652,187452,A C,0,186652,,191,128,255
Sprite,Foreground,Centre,"sb/hl2.png",236,323 S,2,187004,187804,1,0.8 F,2,187004,187804,0.5,0 P,0,187004,187804,A C,0,187004,,191,128,255
Sprite,Foreground,Centre,"sb/hl2.png",0,0 S,2,187181,188333,1,0.8 F,2,187181,188333,0.5,0 P,0,187181,188333,A C,0,187181,,128,255,255 M,0,187181,187225,236,323,248.4147,331.3955 M,0,187225,187269,248.4147,331.3955,261.3994,338.8624 M,0,187269,187313,261.3994,338.8624,274.9808,345.1869 M,0,187313,187357,274.9808,345.1869,289.0601,350.3221 M,0,187357,187401,289.0601,350.3221,303.5347,354.2296 M,0,187401,187445,303.5347,354.2296,318.3298,356.6186 M,0,187445,187489,318.3298,356.6186,333.2521,357.9111 M,0,187489,187533,333.2521,357.9111,348.2332,357.9162
Sprite,Foreground,Centre,"sb/hl2.png",236,323 F,2,187225,188025,0.5,0 P,0,187225,188025,A C,0,187225,,128,255,255
Sprite,Foreground,Centre,"sb/hl2.png",248.4147,331.3955 F,2,187269,188069,0.5,0 P,0,187269,188069,A C,0,187269,,128,255,255
Sprite,Foreground,Centre,"sb/hl2.png",261.3994,338.8624 F,2,187313,188113,0.5,0 P,0,187313,188113,A C,0,187313,,128,255,255
Sprite,Foreground,Centre,"sb/hl2.png",274.9808,345.1869 F,2,187357,188157,0.5,0 P,0,187357,188157,A C,0,187357,,128,255,255
Sprite,Foreground,Centre,"sb/hl2.png",289.0601,350.3221 F,2,187401,188201,0.5,0 P,0,187401,188201,A C,0,187401,,128,255,255
Sprite,Foreground,Centre,"sb/hl2.png",303.5347,354.2296 F,2,187445,188245,0.5,0 P,0,187445,188245,A C,0,187445,,128,255,255
Sprite,Foreground,Centre,"sb/hl2.png",318.3298,356.6186 F,2,187489,188289,0.5,0 P,0,187489,188289,A C,0,187489,,128,255,255
Sprite,Foreground,Centre,"sb/hl2.png",333.2521,357.9111 F,2,187533,188333,0.5,0 P,0,187533,188333,A C,0,187533,,128,255,255
Sprite,Foreground,Centre,"sb/hl2.png",0,0 S,2,187710,188686,1,0.8 F,2,187710,188686,0.5,0 P,0,187710,188686,A C,0,187710,,128,255,255 M,0,187710,187754,408,345,422.4277,341.0966 M,0,187754,187798,422.4277,341.0966,437.2287,339.2287 M,0,187798,187842,437.2287,339.2287,452.1604,339.8487 M,0,187842,187886,452.1604,339.8487,466.6747,343.3944
Sprite,Foreground,Centre,"sb/hl2.png",408,345 F,2,187754,188554,0.5,0 P,0,187754,188554,A C,0,187754,,128,255,255
Sprite,Foreground,Centre,"sb/hl2.png",422.4277,341.0966 F,2,187798,188598,0.5,0 P,0,187798,188598,A C,0,187798,,128,255,255
Sprite,Foreground,Centre,"sb/hl2.png",437.2287,339.2287 F,2,187842,188642,0.5,0 P,0,187842,188642,A C,0,187842,,128,255,255
Sprite,Foreground,Centre,"sb/hl2.png",452.1604,339.8487 F,2,187886,188686,0.5,0 P,0,187886,188686,A C,0,187886,,128,255,255
Sprite,Foreground,Centre,"sb/hl2.png",522,368 S,2,188063,188863,1,0.8 F,2,188063,188863,0.5,0 P,0,188063,188863,A C,0,188063,,128,255,255
Sprite,Foreground,Centre,"sb/hl2.png",574,259 S,2,188416,189216,1,0.8 F,2,188416,189216,0.5,0 P,0,188416,189216,A C,0,188416,,128,255,255
Sprite,Foreground,Centre,"sb/hl2.png",0,0 S,2,188593,189745,1,0.8 F,2,188593,189745,0.5,0 P,0,188593,189745,A C,0,188593,,128,255,255 M,0,188593,188637,574,259,560.2371,253.0522 M,0,188637,188681,560.2371,253.0522,546.1826,247.8433 M,0,188681,188725,546.1826,247.8433,531.8282,243.5236 M,0,188725,188769,531.8282,243.5236,517.2294,240.1102 M,0,188769,188813,517.2294,240.1102,502.4425,237.6165 M,0,188813,188857,502.4425,237.6165,487.5136,236.2322 M,0,188857,188901,487.5136,236.2322,472.5363,235.6594 M,0,188901,188945,472.5363,235.6594,457.5511,236.025
Sprite,Foreground,Centre,"sb/hl2.png",574,259 F,2,188637,189437,0.5,0 P,0,188637,189437,A C,0,188637,,128,255,255
Sprite,Foreground,Centre,"sb/hl2.png",560.2371,253.0522 F,2,188681,189481,0.5,0 P,0,188681,189481,A C,0,188681,,128,255,255
Sprite,Foreground,Centre,"sb/hl2.png",546.1826,247.8433 F,2,188725,189525,0.5,0 P,0,188725,189525,A C,0,188725,,128,255,255
Sprite,Foreground,Centre,"sb/hl2.png",531.8282,243.5236 F,2,188769,189569,0.5,0 P,0,188769,189569,A C,0,188769,,128,255,255
Sprite,Foreground,Centre,"sb/hl2.png",517.2294,240.1102 F,2,188813,189613,0.5,0 P,0,188813,189613,A C,0,188813,,128,255,255
Sprite,Foreground,Centre,"sb/hl2.png",502.4425,237.6165 F,2,188857,189657,0.5,0 P,0,188857,189657,A C,0,188857,,128,255,255
Sprite,Foreground,Centre,"sb/hl2.png",487.5136,236.2322 F,2,188901,189701,0.5,0 P,0,188901,189701,A C,0,188901,,128,255,255
Sprite,Foreground,Centre,"sb/hl2.png",472.5363,235.6594 F,2,188945,189745,0.5,0 P,0,188945,189745,A C,0,188945,,128,255,255
Sprite,Foreground,Centre,"sb/hl2.png",0,0 S,2,189122,190098,1,0.8 F,2,189122,190098,0.5,0 P,0,189122,190098,A C,0,189122,,128,255,255 M,0,189122,189166,400,253,385.1686,255.0797 M,0,189166,189210,385.1686,255.0797,370.2216,255.8304 M,0,189210,189254,370.2216,255.8304,355.266,254.9596 M,0,189254,189298,355.266,254.9596,340.5097,252.326
Sprite,Foreground,Centre,"sb/hl2.png",400,253 F,2,189166,189966,0.5,0 P,0,189166,189966,A C,0,189166,,128,255,255
Sprite,Foreground,Centre,"sb/hl2.png",385.1686,255.0797 F,2,189210,190010,0.5,0 P,0,189210,190010,A C,0,189210,,128,255,255
Sprite,Foreground,Centre,"sb/hl2.png",370.2216,255.8304 F,2,189254,190054,0.5,0 P,0,189254,190054,A C,0,189254,,128,255,255
Sprite,Foreground,Centre,"sb/hl2.png",355.266,254.9596 F,2,189298,190098,0.5,0 P,0,189298,190098,A C,0,189298,,128,255,255
Sprite,Foreground,Centre,"sb/hl2.png",284,232 S,2,189474,190274,1,0.8 F,2,189474,190274,0.5,0 P,0,189474,190274,A C,0,189474,,128,255,255
Sprite,Foreground,Centre,"sb/hl2.png",192,155 S,2,189827,190627,1,0.8 F,2,189827,190627,0.5,0 P,0,189827,190627,A C,0,189827,,128,255,255
Sprite,Foreground,Centre,"sb/hl2.png",0,0 S,2,190004,191156,1,0.8 F,2,190004,191156,0.5,0 P,0,190004,191156,A C,0,190004,,128,255,255 M,0,190004,190048,192,155,185.1342,168.3194 M,0,190048,190092,185.1342,168.3194,179.3078,182.1154 M,0,190092,190136,179.3078,182.1154,174.757,196.3884 M,0,190136,190180,174.757,196.3884,171.5198,211.023 M,0,190180,190224,171.5198,211.023,169.8893,225.9181 M,0,190224,190268,169.8893,225.9181,169.4503,240.8859 M,0,190268,190312,169.4503,240.8859,170.3726,255.8354 M,0,190312,190356,170.3726,255.8354,172.6012,270.6577
Sprite,Foreground,Centre,"sb/hl2.png",192,155 F,2,190048,190848,0.5,0 P,0,190048,190848,A C,0,190048,,128,255,255
Sprite,Foreground,Centre,"sb/hl2.png",185.1342,168.3194 F,2,190092,190892,0.5,0 P,0,190092,190892,A C,0,190092,,128,255,255
Sprite,Foreground,Centre,"sb/hl2.png",179.3078,182.1154 F,2,190136,190936,0.5,0 P,0,190136,190936,A C,0,190136,,128,255,255
Sprite,Foreground,Centre,"sb/hl2.png",174.757,196.3884 F,2,190180,190980,0.5,0 P,0,190180,190980,A C,0,190180,,128,255,255
Sprite,Foreground,Centre,"sb/hl2.png",171.5198,211.023 F,2,190224,191024,0.5,0 P,0,190224,191024,A C,0,190224,,128,255,255
Sprite,Foreground,Centre,"sb/hl2.png",169.8893,225.9181 F,2,190268,191068,0.5,0 P,0,190268,191068,A C,0,190268,,128,255,255
Sprite,Foreground,Centre,"sb/hl2.png",169.4503,240.8859 F,2,190312,191112,0.5,0 P,0,190312,191112,A C,0,190312,,128,255,255
Sprite,Foreground,Centre,"sb/hl2.png",170.3726,255.8354 F,2,190356,191156,0.5,0 P,0,190356,191156,A C,0,190356,,128,255,255
Sprite,Foreground,Centre,"sb/hl2.png",0,0 S,2,190534,192039,1,0.8 F,2,190534,192039,0.5,0 P,0,190534,192039,A C,0,190534,,133,11,255 M,0,190534,190578,203,322,188.153,324.1371 M,0,190578,190622,188.153,324.1371,173.306,326.2741 M,0,190622,190666,173.306,326.2741,158.459,328.4112 M,0,190666,190710,158.459,328.4112,143.6121,330.5483 M,0,190710,190754,143.6121,330.5483,128.7651,332.6853 M,0,190754,190798,128.7651,332.6853,113.9181,334.8224 M,0,190798,190842,113.9181,334.8224,99.07111,336.9595 M,0,190842,190886,99.07111,336.9595,84.22413,339.0965 M,0,190886,190931,84.22413,339.0965,99.07111,336.9595 M,0,190931,190975,99.07111,336.9595,113.9181,334.8224 M,0,190975,191019,113.9181,334.8224,128.7651,332.6853 M,0,191019,191063,128.7651,332.6853,143.6121,330.5483 M,0,191063,191107,143.6121,330.5483,158.459,328.4112 M,0,191107,191151,158.459,328.4112,173.306,326.2741 M,0,191151,191195,173.306,326.2741,188.153,324.1371 M,0,191195,191239,188.153,324.1371,203,322
Sprite,Foreground,Centre,"sb/hl2.png",203,322 F,2,190578,191378,0.5,0 P,0,190578,191378,A C,0,190578,,133,11,255
Sprite,Foreground,Centre,"sb/hl2.png",188.153,324.1371 F,2,190622,191422,0.5,0 P,0,190622,191422,A C,0,190622,,133,11,255
Sprite,Foreground,Centre,"sb/hl2.png",173.306,326.2741 F,2,190666,191466,0.5,0 P,0,190666,191466,A C,0,190666,,133,11,255
Sprite,Foreground,Centre,"sb/hl2.png",158.459,328.4112 F,2,190710,191510,0.5,0 P,0,190710,191510,A C,0,190710,,133,11,255
Sprite,Foreground,Centre,"sb/hl2.png",143.6121,330.5483 F,2,190754,191554,0.5,0 P,0,190754,191554,A C,0,190754,,133,11,255
Sprite,Foreground,Centre,"sb/hl2.png",128.7651,332.6853 F,2,190798,191598,0.5,0 P,0,190798,191598,A C,0,190798,,133,11,255
Sprite,Foreground,Centre,"sb/hl2.png",113.9181,334.8224 F,2,190842,191642,0.5,0 P,0,190842,191642,A C,0,190842,,133,11,255
Sprite,Foreground,Centre,"sb/hl2.png",99.07111,336.9595 F,2,190886,191686,0.5,0 P,0,190886,191686,A C,0,190886,,133,11,255
Sprite,Foreground,Centre,"sb/hl2.png",84.22413,339.0965 F,2,190931,191731,0.5,0 P,0,190931,191731,A C,0,190931,,133,11,255
Sprite,Foreground,Centre,"sb/hl2.png",99.07111,336.9595 F,2,190975,191775,0.5,0 P,0,190975,191775,A C,0,190975,,133,11,255
Sprite,Foreground,Centre,"sb/hl2.png",113.9181,334.8224 F,2,191019,191819,0.5,0 P,0,191019,191819,A C,0,191019,,133,11,255
Sprite,Foreground,Centre,"sb/hl2.png",128.7651,332.6853 F,2,191063,191863,0.5,0 P,0,191063,191863,A C,0,191063,,133,11,255
Sprite,Foreground,Centre,"sb/hl2.png",143.6121,330.5483 F,2,191107,191907,0.5,0 P,0,191107,191907,A C,0,191107,,133,11,255
Sprite,Foreground,Centre,"sb/hl2.png",158.459,328.4112 F,2,191151,191951,0.5,0 P,0,191151,191951,A C,0,191151,,133,11,255
Sprite,Foreground,Centre,"sb/hl2.png",173.306,326.2741 F,2,191195,191995,0.5,0 P,0,191195,191995,A C,0,191195,,133,11,255
Sprite,Foreground,Centre,"sb/hl2.png",188.153,324.1371 F,2,191239,192039,0.5,0 P,0,191239,192039,A C,0,191239,,133,11,255
Sprite,Foreground,Centre,"sb/hl2.png",300,250 S,2,191593,192393,1,0.8 F,2,191593,192393,0.5,0 P,0,191593,192393,A C,0,191593,,133,11,255
Sprite,Foreground,Centre,"sb/hl2.png",418,275 S,2,191946,192746,1,0.8 F,2,191946,192746,0.5,0 P,0,191946,192746,A C,0,191946,,133,11,255
Sprite,Foreground,Centre,"sb/hl2.png",434,390 S,2,192298,193098,1,0.8 F,2,192298,193098,0.5,0 P,0,192298,193098,A C,0,192298,,133,11,255
Sprite,Foreground,Centre,"sb/hl2.png",319,355 S,2,192651,193451,1,0.8 F,2,192651,193451,0.5,0 P,0,192651,193451,A C,0,192651,,133,11,255
Sprite,Foreground,Centre,"sb/hl2.png",0,0 S,2,192828,193980,1,0.8 F,2,192828,193980,0.5,0 P,0,192828,193980,A C,0,192828,,6,87,255 M,0,192828,192872,319,355,304.4218,351.4961 M,0,192872,192916,304.4218,351.4961,289.6812,348.7798 M,0,192916,192960,289.6812,348.7798,274.798,346.9956 M,0,192960,193004,274.798,346.9956,259.8307,346.1508 M,0,193004,193048,259.8307,346.1508,244.838,346.2488 M,0,193048,193092,244.838,346.2488,229.8787,347.2896 M,0,193092,193136,229.8787,347.2896,215.0382,349.4232 M,0,193136,193180,215.0382,349.4232,200.343,352.3733
Sprite,Foreground,Centre,"sb/hl2.png",319,355 F,2,192872,193672,0.5,0 P,0,192872,193672,A C,0,192872,,6,87,255
Sprite,Foreground,Centre,"sb/hl2.png",304.4218,351.4961 F,2,192916,193716,0.5,0 P,0,192916,193716,A C,0,192916,,6,87,255
Sprite,Foreground,Centre,"sb/hl2.png",289.6812,348.7798 F,2,192960,193760,0.5,0 P,0,192960,193760,A C,0,192960,,6,87,255
Sprite,Foreground,Centre,"sb/hl2.png",274.798,346.9956 F,2,193004,193804,0.5,0 P,0,193004,193804,A C,0,193004,,6,87,255
Sprite,Foreground,Centre,"sb/hl2.png",259.8307,346.1508 F,2,193048,193848,0.5,0 P,0,193048,193848,A C,0,193048,,6,87,255
Sprite,Foreground,Centre,"sb/hl2.png",244.838,346.2488 F,2,193092,193892,0.5,0 P,0,193092,193892,A C,0,193092,,6,87,255
Sprite,Foreground,Centre,"sb/hl2.png",229.8787,347.2896 F,2,193136,193936,0.5,0 P,0,193136,193936,A C,0,193136,,6,87,255
Sprite,Foreground,Centre,"sb/hl2.png",215.0382,349.4232 F,2,193180,193980,0.5,0 P,0,193180,193980,A C,0,193180,,6,87,255
Sprite,Foreground,Centre,"sb/hl2.png",0,0 S,2,195122,196274,1,0.8 F,2,195122,196274,0.5,0 P,0,195122,196274,A C,0,195122,,255,6,6 M,0,195122,195166,201,352,203.6833,337.2419 M,0,195166,195210,203.6833,337.2419,206.3666,322.4839 M,0,195210,195254,206.3666,322.4839,209.0499,307.7259 M,0,195254,195298,209.0499,307.7259,211.7331,292.9678 M,0,195298,195342,211.7331,292.9678,211.9632,278.1502 M,0,195342,195386,211.9632,278.1502,209.9992,263.2794 M,0,195386,195430,209.9992,263.2794,208.0351,248.4085 M,0,195430,195474,208.0351,248.4085,206.071,233.5376
Sprite,Foreground,Centre,"sb/hl2.png",201,352 F,2,195166,195966,0.5,0 P,0,195166,195966,A C,0,195166,,255,6,6
Sprite,Foreground,Centre,"sb/hl2.png",203.6833,337.2419 F,2,195210,196010,0.5,0 P,0,195210,196010,A C,0,195210,,255,6,6
Sprite,Foreground,Centre,"sb/hl2.png",206.3666,322.4839 F,2,195254,196054,0.5,0 P,0,195254,196054,A C,0,195254,,255,6,6
Sprite,Foreground,Centre,"sb/hl2.png",209.0499,307.7259 F,2,195298,196098,0.5,0 P,0,195298,196098,A C,0,195298,,255,6,6
Sprite,Foreground,Centre,"sb/hl2.png",211.7331,292.9678 F,2,195342,196142,0.5,0 P,0,195342,196142,A C,0,195342,,255,6,6
Sprite,Foreground,Centre,"sb/hl2.png",211.9632,278.1502 F,2,195386,196186,0.5,0 P,0,195386,196186,A C,0,195386,,255,6,6
Sprite,Foreground,Centre,"sb/hl2.png",209.9992,263.2794 F,2,195430,196230,0.5,0 P,0,195430,196230,A C,0,195430,,255,6,6
Sprite,Foreground,Centre,"sb/hl2.png",208.0351,248.4085 F,2,195474,196274,0.5,0 P,0,195474,196274,A C,0,195474,,255,6,6
Sprite,Foreground,Centre,"sb/hl2.png",193,174 S,2,195652,196452,1,0.8 F,2,195652,196452,0.5,0 P,0,195652,196452,A C,0,195652,,255,6,6
//Storyboard Sound Samples

[TimingPoints]
123,352.941176470588,4,3,1,80,1,0
1005,352.941176470588,4,3,1,80,1,0
23593,-100,4,3,1,60,0,0
46004,-100,4,3,1,90,0,1
67357,-100,4,3,1,60,0,0
68593,-100,4,3,1,80,0,0
91357,-100,4,3,1,60,0,0
102475,-100,4,3,1,90,0,1
116946,-100,4,3,1,60,0,0
119416,-100,4,3,1,90,0,1
122593,-100,4,3,1,60,0,0
125240,-100,4,3,1,60,0,0
135122,-100,4,3,1,60,0,0
147828,-100,4,3,1,70,0,0
153475,-100,4,3,1,60,0,1
159122,-100,4,3,1,80,0,0
164769,-100,4,3,1,70,0,0
170416,-100,4,3,1,60,0,0
173063,-100,4,3,1,90,0,1
184710,-100,4,3,1,60,0,0
187181,-100,4,3,1,90,0,1
190357,-100,4,3,1,60,0,0
192828,-100,4,3,1,60,0,0
195122,-100,4,3,1,80,0,0

[Colours]
Combo1 : 136,136,136
Combo2 : 255,128,128
Combo3 : 255,6,6
Combo4 : 191,128,255
Combo5 : 133,11,255
Combo6 : 128,255,255
Combo7 : 6,87,255
Combo8 : 228,228,228

[HitObjects]
54,334,828,6,0,P|112:350|173:335,1,120,6|2,0:0|0:0,0:0:0:0:
219,303,1357,1,2,0:0:0:0:
327,355,1710,1,8,0:0:0:0:
497,297,2240,1,0,0:0:0:0:
387,247,2593,1,0,0:0:0:0:
219,303,3122,2,0,L|194:174,1,120,8|8,0:0|0:0,0:0:0:0:
186,125,3652,1,6,0:3:0:0:
45,13,4181,5,2,0:0:0:0:
66,131,4534,1,8,0:0:0:0:
190,1,5063,1,0,0:0:0:0:
232,43,5240,2,0,L|358:28,2,120,2|2|10,0:0|0:0|0:0,0:0:0:0:
210,161,6299,1,8,0:0:0:0:
194,218,6475,2,0,L|67:200,1,120,6|2,0:3|0:0,0:0:0:0:
15,194,7004,101,2,0:0:0:0:
58,305,7357,1,8,0:0:0:0:
235,335,7887,1,0,0:0:0:0:
317,248,8240,1,0,0:0:0:0:
486,186,8769,2,0,P|503:248|489:305,1,120,8|8,0:0|0:0,0:0:0:0:
445,341,9299,1,6,0:3:0:0:
295,240,9828,5,2,0:0:0:0:
359,138,10181,1,8,0:0:0:0:
351,317,10710,1,0,0:0:0:0:
294,336,10887,2,0,P|236:321|197:276,2,120,2|2|10,0:0|0:0|0:0,0:0:0:0:
303,216,11946,1,10,0:0:0:0:
296,156,12122,2,0,P|267:111|200:81,1,120,6|2,0:0|0:0,0:0:0:0:
153,106,12652,101,2,0:0:0:0:
84,203,13004,1,8,0:0:0:0:
61,24,13534,1,0,0:0:0:0:
153,106,13887,1,0,0:0:0:0:
172,284,14416,2,0,P|186:331|252:375,1,120,8|8,0:0|0:0,0:0:0:0:
301,377,14946,1,6,0:0:0:0:
450,277,15475,5,2,0:0:0:0:
331,256,15828,1,8,0:0:0:0:
152,231,16357,1,0,0:0:0:0:
91,231,16534,2,0,P|60:196|55:110,2,120,2|2|10,0:0|0:0|0:0,0:0:0:0:
174,144,17593,1,10,0:0:0:0:
221,107,17769,2,0,P|269:98|338:128,1,120,6|2,0:0|0:0,0:0:0:0:
354,181,18299,101,2,0:0:0:0:
251,242,18652,1,8,0:0:0:0:
426,279,19181,1,0,0:0:0:0:
483,173,19534,1,0,0:0:0:0:
320,95,20063,2,0,L|189:80,1,120,8|8,0:0|0:0,0:0:0:0:
140,77,20593,1,6,0:0:0:0:
1,191,21122,5,8,0:0:0:0:
120,197,21475,1,8,1:0:0:0:
359,206,22181,1,12,0:0:0:0:
359,206,23593,6,0,P|409:248|438:310,1,120,6|8,0:0|0:0,0:0:0:0:
438,355,24122,1,10,0:0:0:0:
326,310,24475,2,0,L|264:285,1,60,2|8,0:0|0:0,0:0:0:0:
217,258,24828,2,0,P|160:265|103:305,1,120,10|2,0:0|0:0,0:0:0:0:
91,360,25357,1,10,0:0:0:0:
91,360,25534,1,10,0:0:0:0:
91,360,25710,1,2,0:0:0:0:
9,271,26063,1,10,0:0:0:0:
76,171,26416,6,0,L|213:185,1,120,6|8,0:0|0:0,0:0:0:0:
255,191,26946,1,10,0:0:0:0:
374,202,27299,2,0,L|452:210,1,60,2|8,0:0|0:0,0:0:0:0:
493,214,27652,2,0,L|511:342,2,120,10|2|10,0:0|0:0|0:0,0:0:0:0:
475,95,28710,1,2,0:0:0:0:
417,76,28887,2,0,L|334:58,1,60,10|10,0:0|0:0,0:0:0:0:
300,79,29240,102,0,P|236:76|176:51,1,120,6|8,0:0|0:0,0:0:0:0:
141,14,29769,1,10,0:0:0:0:
154,133,30122,2,0,L|165:199,1,60,2|8,0:0|0:0,0:0:0:0:
175,247,30475,2,0,P|224:258|294:301,1,120,10|2,0:0|0:0,0:0:0:0:
323,349,31004,1,10,0:0:0:0:
323,349,31181,1,10,0:0:0:0:
323,349,31357,1,2,0:0:0:0:
408,264,31710,1,10,0:0:0:0:
490,177,32063,6,0,L|464:53,1,120,6|8,0:0|0:0,0:0:0:0:
477,0,32593,1,10,0:0:0:0:
363,38,32946,2,0,L|291:57,1,60,2|8,0:0|0:0,0:0:0:0:
246,68,33299,2,0,B|204:55|204:55|116:71,2,120,10|2|10,0:0|0:0|0:0,0:0:0:0:
288,111,34181,1,2,0:0:0:0:
378,183,34534,1,8,1:0:0:0:
378,183,34710,1,8,1:0:0:0:
378,183,34887,102,0,B|360:224|360:224|283:248,1,120,6|8,0:0|0:0,0:0:0:0:
256,297,35416,1,10,0:0:0:0:
154,235,35769,2,0,L|81:258,1,60,2|8,0:0|0:0,0:0:0:0:
41,276,36122,2,0,P|73:324|140:356,1,120,10|2,0:0|0:0,0:0:0:0:
193,370,36652,1,10,0:0:0:0:
193,370,36828,1,10,0:0:0:0:
193,370,37004,1,2,0:0:0:0:
292,302,37357,1,10,0:0:0:0:
409,325,37710,6,0,B|455:312|455:312|499:255,1,120,6|8,0:0|0:0,0:0:0:0:
503,197,38240,1,10,0:0:0:0:
389,157,38593,2,0,L|310:130,1,60,2|8,0:0|0:0,0:0:0:0:
274,120,38946,2,0,B|238:154|238:154|229:244,2,120,10|2|10,0:0|0:0|0:0,0:0:0:0:
356,32,40004,1,2,0:0:0:0:
408,62,40181,2,0,L|403:126,1,60,10|10,0:0|0:0,0:0:0:0:
365,169,40534,102,0,L|383:292,1,120,6|8,0:0|0:0,0:0:0:0:
410,337,41063,1,10,0:0:0:0:
294,302,41416,2,0,L|227:281,1,60,2|8,0:0|0:0,0:0:0:0:
179,266,41769,2,0,P|130:255|51:288,1,120,10|2,0:0|0:0,0:0:0:0:
26,322,42299,1,10,0:0:0:0:
26,322,42475,1,10,0:0:0:0:
26,322,42652,1,2,0:0:0:0:
133,374,43004,1,10,0:0:0:0:
179,266,43357,6,0,L|97:149,1,120,6|8,0:0|0:0,0:0:0:0:
73,119,43887,1,10,0:0:0:0:
192,122,44240,2,0,L|237:183,1,60,2|8,0:0|0:0,0:0:0:0:
267,215,44593,2,0,B|394:231,2,120,10|8|10,0:0|0:0|0:0,0:0:0:0:
207,222,45475,1,2,0:0:0:0:
162,110,45828,1,8,1:0:0:0:
162,54,46004,6,0,P|218:22|296:27,1,120,6|2,0:0|0:0,0:0:0:0:
326,46,46534,1,10,0:0:0:0:
380,153,46887,1,2,0:0:0:0:
430,261,47240,1,8,0:0:0:0:
456,315,47416,2,0,P|400:322|336:284,1,120,6|2,0:0|0:0,0:0:0:0:
305,248,47946,1,10,0:0:0:0:
198,193,48299,1,2,0:0:0:0:
98,260,48652,1,8,0:0:0:0:
52,299,48828,6,0,B|102:312|102:312|186:305,1,120,6|2,0:0|0:0,0:0:0:0:
229,297,49357,1,10,0:0:0:0:
348,286,49710,1,2,0:0:0:0:
467,271,50063,1,10,0:0:0:0:
505,157,50416,1,2,0:0:0:0:
421,71,50769,1,10,0:0:0:0:
305,105,51122,2,0,L|296:167,2,60,2|10|10,0:0|0:0|0:0,0:0:0:0:
311,44,51652,102,0,B|273:14|273:14|191:13,1,120,6|2,0:0|0:0,0:0:0:0:
142,23,52181,1,10,0:0:0:0:
22,33,52534,1,2,0:0:0:0:
23,153,52887,1,8,0:0:0:0:
26,212,53063,2,0,B|64:242|64:242|158:237,1,120,6|2,0:0|0:0,0:0:0:0:
194,228,53592,1,10,0:0:0:0:
313,216,53945,1,2,0:0:0:0:
391,124,54299,1,8,0:0:0:0:
430,79,54475,6,0,L|429:204,1,120,6|2,0:0|0:0,0:0:0:0:
426,259,55004,1,10,0:0:0:0:
359,359,55357,1,2,0:0:0:0:
244,322,55710,1,10,0:0:0:0:
206,207,56063,1,2,0:0:0:0:
288,120,56416,1,10,0:0:0:0:
401,158,56769,2,0,B|399:224,2,60,8|8|8,0:0|1:0|1:0,0:0:0:0:
401,97,57299,102,0,P|374:44|322:9,1,120,6|2,0:0|0:0,0:0:0:0:
265,17,57828,1,10,0:0:0:0:
146,36,58181,1,2,0:0:0:0:
74,132,58534,1,8,0:0:0:0:
37,179,58710,2,0,P|83:196|163:178,1,120,6|2,0:0|0:0,0:0:0:0:
206,159,59240,1,10,0:0:0:0:
260,52,59593,1,2,0:0:0:0:
378,33,59946,1,8,0:0:0:0:
437,25,60122,6,0,B|448:51|448:51|453:146,1,120,6|2,0:0|0:0,0:0:0:0:
451,203,60652,1,10,0:0:0:0:
384,302,61004,1,2,0:0:0:0:
264,307,61357,1,10,0:3:0:0:
168,234,61710,1,2,0:3:0:0:
162,114,62063,1,10,0:3:0:0:
252,35,62416,2,0,L|267:111,2,60,2|10|10,0:0|0:0|0:0,0:0:0:0:
198,6,62946,102,0,P|130:7|70:38,1,120,6|2,0:0|0:0,0:0:0:0:
48,76,63475,1,10,0:0:0:0:
162,114,63828,1,2,0:0:0:0:
275,153,64181,1,8,0:0:0:0:
332,172,64357,2,0,P|324:238|284:292,1,120,6|2,0:0|0:0,0:0:0:0:
248,319,64887,1,10,0:0:0:0:
133,355,65240,1,2,0:0:0:0:
42,275,65593,1,8,0:0:0:0:
0,232,65769,6,0,L|142:250,1,120,6|8,0:0|0:0,0:0:0:0:
178,255,66299,1,8,0:0:0:0:
283,197,66652,1,10,0:0:0:0:
381,265,67004,1,8,1:0:0:0:
485,205,67357,1,6,0:0:0:0:
485,205,68593,38,0,P|426:195|374:165,1,120,6|0,0:0|0:0,0:0:0:0:
334,120,69122,1,0,0:0:0:0:
258,26,69475,1,10,0:0:0:0:
77,29,70005,1,0,0:0:0:0:
169,105,70358,1,0,0:0:0:0:
348,108,70887,2,0,L|365:233,1,120,10|10,0:0|0:0,0:0:0:0:
374,286,71417,1,6,0:0:0:0:
222,382,71946,5,0,0:0:0:0:
250,265,72299,1,10,0:0:0:0:
98,361,72828,1,0,0:0:0:0:
53,320,73005,2,0,B|35:191,2,120,2|2|10,0:0|0:0|0:0,0:0:0:0:
173,316,74064,1,10,0:0:0:0:
225,287,74240,2,0,P|275:287|355:319,1,120,6|0,0:0|0:0,0:0:0:0:
377,357,74769,101,0,0:0:0:0:
489,315,75122,1,10,0:0:0:0:
429,144,75652,1,0,0:0:0:0:
412,262,76005,1,0,0:0:0:0:
308,114,76534,2,0,L|182:103,1,120,10|10,0:0|0:0,0:0:0:0:
128,100,77064,1,6,0:0:0:0:
3,230,77593,5,0,0:0:0:0:
122,217,77946,1,10,0:0:0:0:
300,195,78475,1,0,0:0:0:0:
359,183,78652,2,0,P|376:232|358:309,2,120,2|2|10,0:0|0:0|0:0,0:0:0:0:
269,102,79711,1,10,0:0:0:0:
211,118,79887,2,0,L|195:253,1,120,6|2,0:0|0:0,0:0:0:0:
187,296,80417,101,2,0:0:0:0:
273,378,80769,1,10,0:0:0:0:
316,203,81299,1,2,0:0:0:0:
401,286,81652,1,2,0:0:0:0:
368,109,82181,2,0,P|309:99|237:130,1,120,10|2,0:0|0:0,0:0:0:0:
210,160,82711,1,2,0:0:0:0:
44,89,83240,5,2,0:0:0:0:
79,203,83593,1,10,0:0:0:0:
128,376,84122,1,2,0:0:0:0:
173,337,84299,2,0,P|230:320|289:325,2,120,10|2|10,0:0|0:0|0:0,0:0:0:0:
55,310,85358,1,8,1:0:0:0:
92,263,85534,2,0,P|148:236|225:230,1,120,6|2,0:0|0:0,0:0:0:0:
264,235,86064,101,2,0:0:0:0:
375,280,86417,1,10,0:0:0:0:
306,113,86946,1,2,0:0:0:0:
415,162,87299,1,2,0:0:0:0:
249,233,87828,2,0,L|128:223,1,120,10|2,0:0|0:0,0:0:0:0:
69,216,88357,1,6,0:0:0:0:
3,48,88887,5,2,0:0:0:0:
101,117,89240,1,10,0:0:0:0:
256,192,89593,12,2,90652,0:0:0:0:
512,44,91357,6,0,L|371:78,1,120,6|8,0:0|0:0,0:0:0:0:
338,90,91886,1,10,0:0:0:0:
221,117,92240,2,0,L|139:133,1,60,2|8,0:0|0:0,0:0:0:0:
104,147,92593,2,0,L|95:271,1,120,10|2,0:0|0:0,0:0:0:0:
96,330,93121,1,10,0:0:0:0:
96,330,93298,1,10,0:0:0:0:
96,330,93474,1,2,0:0:0:0:
210,366,93827,1,10,0:0:0:0:
299,283,94181,6,0,P|361:296|417:332,1,120,6|8,0:0|0:0,0:0:0:0:
435,379,94710,1,10,0:0:0:0:
461,262,95063,2,0,P|453:214|434:186,1,60,2|8,0:0|0:0,0:0:0:0:
402,165,95416,2,0,L|260:139,2,120,10|2|10,0:0|0:0|0:0,0:0:0:0:
482,76,96474,1,2,0:0:0:0:
428,46,96651,2,0,L|345:28,1,60,10|10,0:0|0:0,0:0:0:0:
309,38,97004,102,0,P|245:34|189:14,1,120,6|8,0:0|0:0,0:0:0:0:
137,0,97533,1,10,0:0:0:0:
114,117,97887,2,0,L|99:197,1,60,2|8,0:0|0:0,0:0:0:0:
92,235,98240,2,0,P|139:258|224:266,1,120,10|2,0:0|0:0,0:0:0:0:
268,260,98768,1,10,0:0:0:0:
268,260,98945,1,10,0:0:0:0:
268,260,99121,1,2,0:0:0:0:
373,316,99474,1,10,0:0:0:0:
452,225,99828,6,0,P|426:164|382:125,1,120,6|8,0:0|0:0,0:0:0:0:
332,107,100357,1,10,0:0:0:0:
215,135,100710,2,0,L|136:151,1,60,2|8,0:0|0:0,0:0:0:0:
97,161,101063,2,0,B|71:197|71:197|70:279,2,120,10|8|8,0:0|0:0|1:0,0:0:0:0:
119,105,101945,1,8,1:0:0:0:
215,32,102299,1,8,1:0:0:0:
274,30,102475,6,0,P|285:79|267:150,1,120,6|2,0:0|0:0,0:0:0:0:
233,193,103005,1,10,0:0:0:0:
184,302,103358,1,2,0:0:0:0:
281,233,103710,1,8,0:0:0:0:
333,202,103887,2,0,L|463:192,1,120,6|2,0:0|0:0,0:0:0:0:
512,186,104416,1,10,0:0:0:0:
486,303,104770,1,2,0:0:0:0:
385,238,105122,1,8,0:0:0:0:
336,202,105299,6,0,B|274:209|274:209|201:243,1,120,6|2,0:0|0:0,0:0:0:0:
172,267,105828,1,10,0:0:0:0:
52,262,106181,1,2,0:0:0:0:
17,147,106534,1,10,0:0:0:0:
121,87,106887,1,2,0:0:0:0:
221,152,107240,1,10,0:0:0:0:
177,263,107593,2,0,L|165:331,2,60,2|10|10,0:0|0:0|0:0,0:0:0:0:
233,240,108123,102,0,B|358:254,1,120,6|2,0:0|0:0,0:0:0:0:
410,239,108652,1,10,0:0:0:0:
462,131,109005,1,2,0:0:0:0:
345,102,109357,1,8,0:0:0:0:
286,91,109534,2,0,B|166:104,1,120,6|2,0:0|0:0,0:0:0:0:
108,118,110063,1,10,0:0:0:0:
49,222,110416,1,2,0:0:0:0:
116,321,110769,1,8,0:0:0:0:
158,365,110946,6,0,P|182:302|172:227,1,120,6|2,0:0|0:0,0:0:0:0:
140,204,111475,1,10,0:0:0:0:
45,130,111828,1,2,0:0:0:0:
85,17,112181,1,10,0:0:0:0:
204,26,112534,1,2,0:0:0:0:
247,137,112887,1,8,0:0:0:0:
291,248,113240,2,0,B|289:322,2,60,8|8|8,0:0|1:0|1:0,0:0:0:0:
319,194,113769,102,0,P|361:168|435:161,1,120,6|8,0:0|1:0,0:0:0:0:
489,175,114299,2,0,P|492:227|478:255,1,60,2|2,0:0|0:0,0:0:0:0:
464,288,114652,1,10,0:0:0:0:
375,368,115004,1,10,0:0:0:0:
375,368,115181,2,0,L|249:346,1,120,6|8,0:0|1:0,0:0:0:0:
196,340,115710,1,2,0:0:0:0:
78,315,116063,2,0,L|91:227,1,60,10|2,0:0|0:0,0:0:0:0:
105,198,116416,1,10,0:0:0:0:
105,198,116593,2,0,B|227:176,1,120,6|0,0:0|0:0,0:0:0:0:
282,168,117122,86,0,P|323:213|320:277,2,120,0|10|0,0:0|0:0|0:0,0:0:0:0:
225,61,118181,2,0,L|353:67,1,120,2|0,0:0|0:0,0:0:0:0:
410,167,118887,1,8,0:0:0:0:
343,267,119240,1,8,0:0:0:0:
343,267,119416,22,0,P|288:295|218:301,1,120,6|10,0:0|0:0,0:0:0:0:
171,289,119946,2,0,P|134:283|96:294,1,60,2|2,0:0|0:0,0:0:0:0:
57,312,120299,1,10,0:0:0:0:
5,203,120652,1,10,0:0:0:0:
5,203,120828,2,0,P|62:184|142:182,1,120,6|10,0:0|0:0,0:0:0:0:
179,197,121357,2,0,P|210:200|240:196,1,60,2|2,0:0|0:0,0:0:0:0:
295,176,121710,1,2,0:0:0:0:
387,99,122063,1,10,0:0:0:0:
387,99,122240,2,0,P|408:158|405:221,1,120,6|0,0:0|0:0,0:0:0:0:
376,266,122769,102,0,L|508:285,2,120,0|10|0,0:0|0:0|0:0,0:0:0:0:
279,194,123828,1,2,0:0:0:0:
161,219,124181,1,8,0:0:0:0:
145,334,124534,1,8,0:0:0:0:
260,299,124887,1,8,1:0:0:0:
260,299,125063,1,8,1:0:0:0:
260,299,125240,38,0,P|324:290|396:301,1,120,2|2,0:0|0:0,0:0:0:0:
486,342,125946,1,0,0:0:0:0:
465,223,126299,1,0,0:0:0:0:
439,105,126652,2,0,L|352:114,1,60,8|0,0:0|0:0,0:0:0:0:
282,40,127181,2,0,P|260:124|314:213,1,180,2|2,0:0|0:0,0:0:0:0:
379,111,128063,5,0,0:0:0:0:
282,40,128416,2,0,P|215:33|158:46,1,120,0|2,0:0|0:0,0:0:0:0:
74,124,129122,1,0,0:0:0:0:
42,239,129475,2,0,L|184:256,1,120,14|2,0:0|0:0,0:0:0:0:
232,350,130181,2,0,L|356:336,1,120,14|2,0:0|0:0,0:0:0:0:
470,317,130887,101,6,0:0:0:0:
503,201,131240,2,0,B|438:217|438:217|395:257,1,120,2|0,0:0|0:0,0:0:0:0:
344,360,131946,1,0,0:0:0:0:
224,347,132299,2,0,L|138:336,1,60,8|0,0:0|0:0,0:0:0:0:
50,377,132828,2,0,P|52:298|131:222,1,180,2|2,0:0|0:0,0:0:0:0:
237,231,133710,5,0,0:0:0:0:
356,237,134063,2,0,L|381:99,1,120,0|2,0:0|0:0,0:0:0:0:
401,1,134769,1,0,0:0:0:0:
284,28,135122,2,0,P|252:79|251:147,1,120,14|2,0:0|0:0,0:0:0:0:
255,197,135652,2,0,P|192:206|126:180,1,120,2|2,0:0|0:0,0:0:0:0:
107,153,136181,1,2,0:0:0:0:
107,153,136357,1,2,0:0:0:0:
107,153,136534,1,6,0:0:0:0:
19,234,136887,102,0,P|75:264|138:273,1,120,2|0,0:0|0:0,0:0:0:0:
243,232,137593,1,0,0:0:0:0:
356,191,137946,2,0,L|354:254,1,60,8|0,0:0|0:0,0:0:0:0:
269,336,138475,2,0,P|335:369|437:337,1,180,2|2,0:0|0:0,0:0:0:0:
471,227,139357,5,0,0:0:0:0:
354,250,139710,2,0,L|227:227,1,120,0|2,0:0|0:0,0:0:0:0:
117,207,140416,1,0,0:0:0:0:
61,100,140769,2,0,B|110:99|110:99|195:119,1,120,14|2,0:0|0:0,0:0:0:0:
235,137,141299,2,0,B|283:148|283:148|362:143,1,120,2|2,0:0|0:0,0:0:0:0:
412,127,141828,1,2,0:0:0:0:
412,127,142004,1,2,0:0:0:0:
412,127,142181,1,6,0:0:0:0:
498,43,142534,102,0,B|508:92|508:92|501:184,1,120,2|0,0:0|0:0,0:0:0:0:
508,281,143240,1,8,1:0:0:0:
394,254,143593,2,0,B|361:250|361:250|271:271,1,120,8|0,0:0|0:0,0:0:0:0:
240,318,144122,2,0,B|141:339|141:339|53:328,1,180,2|2,0:0|0:0,0:0:0:0:
10,312,144828,1,2,0:0:0:0:
10,312,145004,1,0,0:0:0:0:
9,190,145357,6,0,P|54:144|124:125,1,120,0|2,0:0|0:0,0:0:0:0:
115,245,146063,1,0,0:0:0:0:
115,365,146416,2,0,P|176:345|227:288,1,120,12|8,0:0|0:0,0:0:0:0:
225,187,147122,2,0,L|224:49,1,120,8|2,1:0|0:0,0:0:0:0:
256,192,147828,12,10,149946,0:0:0:0:
305,110,150652,70,0,B|339:147|339:147|357:230,2,120,14|0|10,0:0|0:0|0:0,0:0:0:0:
260,87,151534,1,2,0:0:0:0:
260,87,151710,2,0,P|173:108|122:102,1,120,0|10,0:0|0:0,0:0:0:0:
94,70,152240,2,0,P|86:118|97:191,1,120,2|2,0:0|0:0,0:0:0:0:
64,239,152769,2,0,P|123:240|180:222,1,120,10|0,0:0|0:0,0:0:0:0:
208,339,153475,86,0,B|246:337|246:337|278:345|278:345|328:339,1,120,14|0,0:0|0:0,0:0:0:0:
412,254,154181,2,0,B|371:258|371:258|335:250|335:250|293:251,1,120,10|0,0:0|0:0,0:0:0:0:
216,159,154887,2,0,B|258:157|258:157|295:166|295:166|337:161,1,120,10|0,0:0|0:0,0:0:0:0:
422,79,155593,2,0,B|382:85|382:85|345:76|345:76|303:77,1,120,10|0,0:0|0:0,0:0:0:0:
188,42,156299,86,0,B|150:72|149:108|112:133,1,120,14|0,0:0|0:0,0:0:0:0:
0,177,157004,2,0,B|30:213|66:214|91:251,1,120,10|0,0:0|0:0,0:0:0:0:
137,363,157710,2,0,B|172:331|174:295|211:270,1,120,10|0,0:0|0:0,0:0:0:0:
324,228,158416,2,0,B|293:191|257:189|232:153,1,120,10|10,0:0|0:0,0:0:0:0:
209,96,158946,1,2,0:0:0:0:
328,104,159299,54,0,P|395:151|410:206,1,120,6|0,0:0|0:0,0:0:0:0:
412,244,159828,2,0,P|421:301|481:361,1,120,10|2,0:0|0:0,0:0:0:0:
399,348,160357,2,0,B|265:359,1,120,2|2,0:0|0:0,0:0:0:0:
229,323,160887,1,2,0:0:0:0:
229,323,161063,2,0,B|169:317|169:317|105:331|49:308,1,180,2|2,0:0|0:0,0:0:0:0:
28,255,161769,86,0,P|34:206|81:145,1,120,6|2,0:0|0:0,0:0:0:0:
127,126,162299,2,0,L|148:193,1,60,2|0,0:0|0:0,0:0:0:0:
143,243,162652,1,10,0:0:0:0:
260,268,163004,1,2,0:0:0:0:
312,160,163357,1,10,0:0:0:0:
239,64,163710,1,2,0:0:0:0:
131,117,164063,2,0,L|68:104,1,60,10|2,0:0|0:0,0:0:0:0:
28,63,164416,1,0,0:0:0:0:
14,182,164769,54,0,L|131:208,2,120,14|2|10,0:0|0:0|0:0,0:0:0:0:
49,296,165828,1,2,0:0:0:0:
165,323,166181,2,0,P|215:292|244:240,1,120,10|2,0:0|0:0,0:0:0:0:
281,125,166887,2,0,P|309:176|360:208,1,120,10|2,0:0|0:0,0:0:0:0:
395,93,167593,54,0,L|512:66,2,120,10|2|10,0:0|0:0|0:0,0:0:0:0:
309,7,168652,1,2,0:0:0:0:
194,43,169004,2,0,L|166:172,1,120,10|10,0:0|0:0,0:0:0:0:
140,277,169710,2,0,L|62:293,2,60,8|8|8,0:0|0:0|0:0,0:0:0:0:
198,294,170240,1,6,0:0:0:0:
437,106,171122,102,0,B|348:96|348:96|275:123|275:123|186:114,1,240
3,249,172534,1,0,0:0:0:0:
179,202,173063,38,0,B|241:209|241:209|314:243,1,120,6|2,0:0|0:0,0:0:0:0:
343,267,173592,1,10,0:0:0:0:
463,262,173945,1,2,0:0:0:0:
498,147,174298,1,10,0:0:0:0:
394,87,174651,1,2,0:0:0:0:
294,152,175004,1,10,0:0:0:0:
338,263,175357,2,0,L|350:331,2,60,2|10|10,0:0|0:0|0:0,0:0:0:0:
282,240,175887,6,0,B|157:254,1,120,6|2,0:0|0:0,0:0:0:0:
105,239,176416,1,10,0:0:0:0:
53,131,176769,1,2,0:0:0:0:
170,104,177122,1,8,0:0:0:0:
229,91,177299,2,0,B|349:104,1,120,6|2,0:0|0:0,0:0:0:0:
407,118,177827,1,10,0:0:0:0:
466,222,178180,1,2,0:0:0:0:
394,318,178534,1,8,0:0:0:0:
357,365,178710,102,0,P|333:302|343:227,1,120,6|2,0:0|0:0,0:0:0:0:
375,204,179239,1,10,0:0:0:0:
470,130,179592,1,2,0:0:0:0:
430,17,179945,1,10,0:0:0:0:
311,26,180298,1,2,0:0:0:0:
268,137,180651,1,8,0:0:0:0:
224,248,181004,2,0,B|226:322,2,60,8|8|8,0:0|1:0|1:0,0:0:0:0:
196,194,181534,6,0,P|154:168|80:161,1,120,6|8,0:0|1:0,0:0:0:0:
26,175,182063,2,0,P|23:227|37:255,1,60,2|2,0:0|0:0,0:0:0:0:
51,288,182416,1,10,0:0:0:0:
140,368,182768,1,10,0:0:0:0:
140,368,182946,2,0,L|266:346,1,120,6|8,0:0|1:0,0:0:0:0:
317,339,183475,1,2,0:0:0:0:
434,315,183827,2,0,L|421:227,1,60,10|2,0:0|0:0,0:0:0:0:
418,202,184180,1,10,0:0:0:0:
418,202,184357,2,0,B|296:180,1,120,6|0,0:0|0:0,0:0:0:0:
239,172,184887,70,0,P|198:217|201:281,2,120,0|10|0,0:0|0:0|0:0,0:0:0:0:
293,64,185946,2,0,L|165:70,1,120,2|0,0:0|0:0,0:0:0:0:
105,167,186652,1,8,0:0:0:0:
172,267,187004,1,8,0:0:0:0:
172,267,187181,22,0,P|227:295|297:301,1,120,6|10,0:0|0:0,0:0:0:0:
344,289,187710,2,0,P|381:283|419:294,1,60,2|2,0:0|0:0,0:0:0:0:
458,312,188063,1,10,0:0:0:0:
510,203,188416,1,10,0:0:0:0:
510,203,188593,2,0,P|453:184|373:182,1,120,6|10,0:0|0:0,0:0:0:0:
336,197,189122,2,0,P|305:200|275:196,1,60,2|2,0:0|0:0,0:0:0:0:
220,176,189474,1,2,0:0:0:0:
128,99,189827,1,10,0:0:0:0:
128,99,190004,2,0,P|107:158|110:221,1,120,6|0,0:0|0:0,0:0:0:0:
139,266,190534,102,0,L|7:285,2,120,0|10|0,0:0|0:0|0:0,0:0:0:0:
236,194,191593,1,2,0:0:0:0:
354,219,191946,1,8,0:0:0:0:
370,334,192298,1,8,0:0:0:0:
255,299,192651,1,8,1:0:0:0:
255,299,192828,22,0,P|191:290|119:301,1,120,2|2,0:0|0:0,0:0:0:0:
137,296,195122,54,0,B|149:230|149:230|142:177,1,120,10|10,0:0|0:0,0:0:0:0:
129,118,195652,1,6,0:0:0:0:
