osu file format v14

[General]
AudioFilename: audio.mp3
AudioLeadIn: 0
PreviewTime: 22181
Countdown: 0
SampleSet: Drum
StackLeniency: 0.6
Mode: 0
LetterboxInBreaks: 0
EpilepsyWarning: 1
WidescreenStoryboard: 1

[Editor]
Bookmarks: 123,828,23593,46004,67357,91357,102475,125240,147828,170240,192828,196887
DistanceSpacing: 0.5
BeatDivisor: 4
GridSize: 32
TimelineZoom: 1.2

[Metadata]
Title:In Due Time
TitleUnicode:In Due Time
Artist:Killswitch Engage
ArtistUnicode:Killswitch Engage
Creator:K4L1
Version:Dada's Insane
Source:
Tags:Kalindraz Dada yShadowXOP_ ChuuritsuTv Sakura Airi Metalcore Disarm the Descent
BeatmapID:2103163
BeatmapSetID:941053

[Difficulty]
HPDrainRate:6
CircleSize:3
OverallDifficulty:8
ApproachRate:9
SliderMultiplier:2
SliderTickRate:1

[Events]
//Background and Video events
0,0,"T3N1e1A0cjNEM19wNFAzbF9tVF8zUGlDMF9NM3VfNG0xRzB9.jpg",0,0
//Break Periods
2,171122,172463
//Storyboard Layer 0 (Background)
//Storyboard Layer 1 (Fail)
//Storyboard Layer 2 (Pass)
//Storyboard Layer 3 (Foreground)
Sprite,Foreground,Centre,"sb\hl2.png",172,126 C,0,147828,,128,255,255 F,2,147828,148628,0.5,0 S,2,147828,148628,1,0.8 P,0,147828,148628,A
Sprite,Foreground,Centre,"sb\hl2.png",0,0 C,0,148004,,128,255,255 M,0,148004,148048,343,89,365.0718,100.7403 F,2,148004,149156,0.5,0 S,2,148004,149156,1,0.8 P,0,148004,149156,A M,0,148048,148092,365.0718,100.7403,387.1436,112.4807 M,0,148092,148136,387.1436,112.4807,408.3599,102.3354 M,0,148136,148180,408.3599,102.3354,431.131,92.091 M,0,148180,148224,431.131,92.091,455.4109,86.3258 M,0,148224,148268,455.4109,86.3258,480.3551,85.94354 M,0,148268,148312,480.3551,85.94354,504.7879,91.01276 M,0,148312,148356,504.7879,91.01276,527.795,100.711
Sprite,Foreground,Centre,"sb\hl2.png",343,89 C,0,148048,,128,255,255 F,2,148048,148848,0.5,0 P,0,148048,148848,A
Sprite,Foreground,Centre,"sb\hl2.png",365.0718,100.7403 C,0,148092,,128,255,255 F,2,148092,148892,0.5,0 P,0,148092,148892,A
Sprite,Foreground,Centre,"sb\hl2.png",387.1436,112.4807 C,0,148136,,128,255,255 F,2,148136,148936,0.5,0 P,0,148136,148936,A
Sprite,Foreground,Centre,"sb\hl2.png",408.3599,102.3354 C,0,148180,,128,255,255 F,2,148180,148980,0.5,0 P,0,148180,148980,A
Sprite,Foreground,Centre,"sb\hl2.png",431.131,92.091 C,0,148224,,128,255,255 F,2,148224,149024,0.5,0 P,0,148224,149024,A
Sprite,Foreground,Centre,"sb\hl2.png",455.4109,86.3258 C,0,148268,,128,255,255 F,2,148268,149068,0.5,0 P,0,148268,149068,A
Sprite,Foreground,Centre,"sb\hl2.png",480.3551,85.94354 C,0,148312,,128,255,255 F,2,148312,149112,0.5,0 P,0,148312,149112,A
Sprite,Foreground,Centre,"sb\hl2.png",504.7879,91.01276 C,0,148356,,128,255,255 F,2,148356,149156,0.5,0 P,0,148356,149156,A
Sprite,Foreground,Centre,"sb\hl2.png",469,206 C,0,148534,,6,87,255 F,2,148534,149334,0.5,0 S,2,148534,149334,1,0.8 P,0,148534,149334,A
Sprite,Foreground,Centre,"sb\hl2.png",0,0 C,0,148710,,6,87,255 M,0,148710,148754,297,169,274.7756,179.9039 F,2,148710,149862,0.5,0 S,2,148710,149862,1,0.8 P,0,148710,149862,A M,0,148754,148798,274.7756,179.9039,268.7038,197.219 M,0,148798,148842,268.7038,197.219,288.8349,211.9717 M,0,148842,148886,288.8349,211.9717,305.1986,230.7913 M,0,148886,148930,305.1986,230.7913,298.0258,254.1262 M,0,148930,148974,298.0258,254.1262,294.3282,278.8017 M,0,148974,149018,294.3282,278.8017,296.1492,303.6836 M,0,149018,149062,296.1492,303.6836,303.166,327.636
Sprite,Foreground,Centre,"sb\hl2.png",297,169 C,0,148754,,6,87,255 F,2,148754,149554,0.5,0 P,0,148754,149554,A
Sprite,Foreground,Centre,"sb\hl2.png",274.7756,179.9039 C,0,148798,,6,87,255 F,2,148798,149598,0.5,0 P,0,148798,149598,A
Sprite,Foreground,Centre,"sb\hl2.png",268.7038,197.219 C,0,148842,,6,87,255 F,2,148842,149642,0.5,0 P,0,148842,149642,A
Sprite,Foreground,Centre,"sb\hl2.png",288.8349,211.9717 C,0,148886,,6,87,255 F,2,148886,149686,0.5,0 P,0,148886,149686,A
Sprite,Foreground,Centre,"sb\hl2.png",305.1986,230.7913 C,0,148930,,6,87,255 F,2,148930,149730,0.5,0 P,0,148930,149730,A
Sprite,Foreground,Centre,"sb\hl2.png",298.0258,254.1262 C,0,148974,,6,87,255 F,2,148974,149774,0.5,0 P,0,148974,149774,A
Sprite,Foreground,Centre,"sb\hl2.png",294.3282,278.8017 C,0,149018,,6,87,255 F,2,149018,149818,0.5,0 P,0,149018,149818,A
Sprite,Foreground,Centre,"sb\hl2.png",296.1492,303.6836 C,0,149062,,6,87,255 F,2,149062,149862,0.5,0 P,0,149062,149862,A
Sprite,Foreground,Centre,"sb\hl2.png",403,283 C,0,149240,,128,255,255 F,2,149240,150040,0.5,0 S,2,149240,150040,1,0.8 P,0,149240,150040,A
Sprite,Foreground,Centre,"sb\hl2.png",0,0 C,0,149416,,128,255,255 M,0,149416,149460,329,413,304.1641,415.6042 F,2,149416,150568,0.5,0 S,2,149416,150568,1,0.8 P,0,149416,150568,A M,0,149460,149504,304.1641,415.6042,279.39,412.8928 M,0,149504,149548,279.39,412.8928,256.7203,402.6411 M,0,149548,149592,256.7203,402.6411,237.4309,386.7805 M,0,149592,149636,237.4309,386.7805,218.2444,370.7893 M,0,149636,149680,218.2444,370.7893,195.7023,360.2625 M,0,149680,149724,195.7023,360.2625,170.951,357.3852 M,0,149724,149768,170.951,357.3852,146.115,359.9795
Sprite,Foreground,Centre,"sb\hl2.png",329,413 C,0,149460,,128,255,255 F,2,149460,150260,0.5,0 P,0,149460,150260,A
Sprite,Foreground,Centre,"sb\hl2.png",304.1641,415.6042 C,0,149504,,128,255,255 F,2,149504,150304,0.5,0 P,0,149504,150304,A
Sprite,Foreground,Centre,"sb\hl2.png",279.39,412.8928 C,0,149548,,128,255,255 F,2,149548,150348,0.5,0 P,0,149548,150348,A
Sprite,Foreground,Centre,"sb\hl2.png",256.7203,402.6411 C,0,149592,,128,255,255 F,2,149592,150392,0.5,0 P,0,149592,150392,A
Sprite,Foreground,Centre,"sb\hl2.png",237.4309,386.7805 C,0,149636,,128,255,255 F,2,149636,150436,0.5,0 P,0,149636,150436,A
Sprite,Foreground,Centre,"sb\hl2.png",218.2444,370.7893 C,0,149680,,128,255,255 F,2,149680,150480,0.5,0 P,0,149680,150480,A
Sprite,Foreground,Centre,"sb\hl2.png",195.7023,360.2625 C,0,149724,,128,255,255 F,2,149724,150524,0.5,0 P,0,149724,150524,A
Sprite,Foreground,Centre,"sb\hl2.png",170.951,357.3852 C,0,149768,,128,255,255 F,2,149768,150568,0.5,0 P,0,149768,150568,A
Sprite,Foreground,Centre,"sb\hl2.png",86,233 C,0,149946,,6,87,255 F,2,149946,150746,0.5,0 S,2,149946,150746,1,0.8 P,0,149946,150746,A
Sprite,Foreground,Centre,"sb\hl2.png",213,260 C,0,150122,,6,87,255 F,2,150122,150922,0.5,0 S,2,150122,150922,1,0.8 P,0,150122,150922,A
Sprite,Foreground,Centre,"sb\hl2.png",240,133 C,0,150299,,6,87,255 F,2,150299,151099,0.5,0 S,2,150299,151099,1,0.8 P,0,150299,151099,A
Sprite,Foreground,Centre,"sb\hl2.png",121,114 C,0,150475,,6,87,255 F,2,150475,151275,0.5,0 S,2,150475,151275,1,0.8 P,0,150475,151275,A
Sprite,Foreground,Centre,"sb\hl2.png",121,114 C,0,150563,,6,87,255 F,2,150563,151363,0.5,0 S,2,150563,151363,1,0.8 P,0,150563,151363,A
Sprite,Foreground,Centre,"sb\hl2.png",121,114 C,0,150652,,128,255,255 F,2,150652,151452,0.5,0 S,2,150652,151452,1,0.8 P,0,150652,151452,A
Sprite,Foreground,Centre,"sb\hl2.png",0,0 C,0,150828,,128,255,255 M,0,150828,150872,295,69,313.5863,85.6095 F,2,150828,151980,0.5,0 S,2,150828,151980,1,0.8 P,0,150828,151980,A M,0,150872,150916,313.5863,85.6095,327.3235,106.4227 M,0,150916,150960,327.3235,106.4227,327.6536,129.705 M,0,150960,151004,327.6536,129.705,322.1159,154.0611 M,0,151004,151048,322.1159,154.0611,320.4533,178.9766 M,0,151048,151092,320.4533,178.9766,323.0868,203.8048 M,0,151092,151136,323.0868,203.8048,329.9839,227.803 M,0,151136,151180,329.9839,227.803,340.6511,250.3865
Sprite,Foreground,Centre,"sb\hl2.png",295,69 C,0,150872,,128,255,255 F,2,150872,151672,0.5,0 P,0,150872,151672,A
Sprite,Foreground,Centre,"sb\hl2.png",313.5863,85.6095 C,0,150916,,128,255,255 F,2,150916,151716,0.5,0 P,0,150916,151716,A
Sprite,Foreground,Centre,"sb\hl2.png",327.3235,106.4227 C,0,150960,,128,255,255 F,2,150960,151760,0.5,0 P,0,150960,151760,A
Sprite,Foreground,Centre,"sb\hl2.png",327.6536,129.705 C,0,151004,,128,255,255 F,2,151004,151804,0.5,0 P,0,151004,151804,A
Sprite,Foreground,Centre,"sb\hl2.png",322.1159,154.0611 C,0,151048,,128,255,255 F,2,151048,151848,0.5,0 P,0,151048,151848,A
Sprite,Foreground,Centre,"sb\hl2.png",320.4533,178.9766 C,0,151092,,128,255,255 F,2,151092,151892,0.5,0 P,0,151092,151892,A
Sprite,Foreground,Centre,"sb\hl2.png",323.0868,203.8048 C,0,151136,,128,255,255 F,2,151136,151936,0.5,0 P,0,151136,151936,A
Sprite,Foreground,Centre,"sb\hl2.png",329.9839,227.803 C,0,151180,,128,255,255 F,2,151180,151980,0.5,0 P,0,151180,151980,A
Sprite,Foreground,Centre,"sb\hl2.png",457,320 C,0,151357,,6,87,255 F,2,151357,152157,0.5,0 S,2,151357,152157,1,0.8 P,0,151357,152157,A
Sprite,Foreground,Centre,"sb\hl2.png",537,204 C,0,151534,,6,87,255 F,2,151534,152334,0.5,0 S,2,151534,152334,1,0.8 P,0,151534,152334,A
Sprite,Foreground,Centre,"sb\hl2.png",469,354 C,0,151710,,6,87,255 F,2,151710,152510,0.5,0 S,2,151710,152510,1,0.8 P,0,151710,152510,A
Sprite,Foreground,Centre,"sb\hl2.png",340,250 C,0,151887,,6,87,255 F,2,151887,152687,0.5,0 S,2,151887,152687,1,0.8 P,0,151887,152687,A
Sprite,Foreground,Centre,"sb\hl2.png",315,414 C,0,152063,,6,87,255 F,2,152063,152863,0.5,0 S,2,152063,152863,1,0.8 P,0,152063,152863,A
Sprite,Foreground,Centre,"sb\hl2.png",0,0 C,0,152240,,6,87,255 M,0,152240,152284,207,282,191.5103,262.4366 F,2,152240,153392,0.5,0 S,2,152240,153392,1,0.8 P,0,152240,153392,A M,0,152284,152328,191.5103,262.4366,180.4438,248.6649 M,0,152328,152372,180.4438,248.6649,205.3293,250.2839 M,0,152372,152416,205.3293,250.2839,229.2484,257.4179 M,0,152416,152460,229.2484,257.4179,252.0075,267.7493 M,0,152460,152504,252.0075,267.7493,274.8052,277.9908 M,0,152504,152548,274.8052,277.9908,298.91,284.3898 M,0,152548,152592,298.91,284.3898,323,284
Sprite,Foreground,Centre,"sb\hl2.png",207,282 C,0,152284,,6,87,255 F,2,152284,153084,0.5,0 P,0,152284,153084,A
Sprite,Foreground,Centre,"sb\hl2.png",191.5103,262.4366 C,0,152328,,6,87,255 F,2,152328,153128,0.5,0 P,0,152328,153128,A
Sprite,Foreground,Centre,"sb\hl2.png",180.4438,248.6649 C,0,152372,,6,87,255 F,2,152372,153172,0.5,0 P,0,152372,153172,A
Sprite,Foreground,Centre,"sb\hl2.png",205.3293,250.2839 C,0,152416,,6,87,255 F,2,152416,153216,0.5,0 P,0,152416,153216,A
Sprite,Foreground,Centre,"sb\hl2.png",229.2484,257.4179 C,0,152460,,6,87,255 F,2,152460,153260,0.5,0 P,0,152460,153260,A
Sprite,Foreground,Centre,"sb\hl2.png",252.0075,267.7493 C,0,152504,,6,87,255 F,2,152504,153304,0.5,0 P,0,152504,153304,A
Sprite,Foreground,Centre,"sb\hl2.png",274.8052,277.9908 C,0,152548,,6,87,255 F,2,152548,153348,0.5,0 P,0,152548,153348,A
Sprite,Foreground,Centre,"sb\hl2.png",298.91,284.3898 C,0,152592,,6,87,255 F,2,152592,153392,0.5,0 P,0,152592,153392,A
Sprite,Foreground,Centre,"sb\hl2.png",435,175 C,0,152769,,128,255,255 F,2,152769,153569,0.5,0 S,2,152769,153569,1,0.8 P,0,152769,153569,A
Sprite,Foreground,Centre,"sb\hl2.png",292,150 C,0,152946,,128,255,255 F,2,152946,153746,0.5,0 S,2,152946,153746,1,0.8 P,0,152946,153746,A
Sprite,Foreground,Centre,"sb\hl2.png",427,75 C,0,153122,,128,255,255 F,2,153122,153922,0.5,0 S,2,153122,153922,1,0.8 P,0,153122,153922,A
Sprite,Foreground,Centre,"sb\hl2.png",362,226 C,0,153299,,128,255,255 F,2,153299,154099,0.5,0 S,2,153299,154099,1,0.8 P,0,153299,154099,A
Sprite,Foreground,Centre,"sb\hl2.png",362,226 C,0,153387,,128,255,255 F,2,153387,154187,0.5,0 S,2,153387,154187,1,0.8 P,0,153387,154187,A
Sprite,Foreground,Centre,"sb\hl2.png",0,0 C,0,153475,,191,128,255 M,0,153475,153519,362,226,366.0283,250.6733 F,2,153475,154539,0.5,0 S,2,153475,154539,1,0.8 P,0,153475,154539,A M,0,153519,153563,366.0283,250.6733,370,275 M,0,153563,153607,370,275,366.0283,250.6733 M,0,153607,153651,366.0283,250.6733,362,226 M,0,153651,153695,362,226,366.0283,250.6733 M,0,153695,153739,366.0283,250.6733,370,275
Sprite,Foreground,Centre,"sb\hl2.png",362,226 C,0,153519,,191,128,255 F,2,153519,154319,0.5,0 P,0,153519,154319,A
Sprite,Foreground,Centre,"sb\hl2.png",366.0283,250.6733 C,0,153563,,191,128,255 F,2,153563,154363,0.5,0 P,0,153563,154363,A
Sprite,Foreground,Centre,"sb\hl2.png",370,275 C,0,153607,,191,128,255 F,2,153607,154407,0.5,0 P,0,153607,154407,A
Sprite,Foreground,Centre,"sb\hl2.png",366.0283,250.6733 C,0,153651,,191,128,255 F,2,153651,154451,0.5,0 P,0,153651,154451,A
Sprite,Foreground,Centre,"sb\hl2.png",362,226 C,0,153695,,191,128,255 F,2,153695,154495,0.5,0 P,0,153695,154495,A
Sprite,Foreground,Centre,"sb\hl2.png",366.0283,250.6733 C,0,153739,,191,128,255 F,2,153739,154539,0.5,0 P,0,153739,154539,A
Sprite,Foreground,Centre,"sb\hl2.png",0,0 C,0,153828,,191,128,255 M,0,153828,153872,273,322,276.9498,297.314 F,2,153828,154892,0.5,0 S,2,153828,154892,1,0.8 P,0,153828,154892,A M,0,153872,153916,276.9498,297.314,280.8995,272.628 M,0,153916,153960,280.8995,272.628,276.9498,297.314 M,0,153960,154004,276.9498,297.314,273,322 M,0,154004,154048,273,322,276.9498,297.314 M,0,154048,154092,276.9498,297.314,280.8995,272.628
Sprite,Foreground,Centre,"sb\hl2.png",273,322 C,0,153872,,191,128,255 F,2,153872,154672,0.5,0 P,0,153872,154672,A
Sprite,Foreground,Centre,"sb\hl2.png",276.9498,297.314 C,0,153916,,191,128,255 F,2,153916,154716,0.5,0 P,0,153916,154716,A
Sprite,Foreground,Centre,"sb\hl2.png",280.8995,272.628 C,0,153960,,191,128,255 F,2,153960,154760,0.5,0 P,0,153960,154760,A
Sprite,Foreground,Centre,"sb\hl2.png",276.9498,297.314 C,0,154004,,191,128,255 F,2,154004,154804,0.5,0 P,0,154004,154804,A
Sprite,Foreground,Centre,"sb\hl2.png",273,322 C,0,154048,,191,128,255 F,2,154048,154848,0.5,0 P,0,154048,154848,A
Sprite,Foreground,Centre,"sb\hl2.png",276.9498,297.314 C,0,154092,,191,128,255 F,2,154092,154892,0.5,0 P,0,154092,154892,A
Sprite,Foreground,Centre,"sb\hl2.png",370,368 C,0,154181,,133,11,255 F,2,154181,154981,0.5,0 S,2,154181,154981,1,0.8 P,0,154181,154981,A
Sprite,Foreground,Centre,"sb\hl2.png",404,353 C,0,154269,,133,11,255 F,2,154269,155069,0.5,0 S,2,154269,155069,1,0.8 P,0,154269,155069,A
Sprite,Foreground,Centre,"sb\hl2.png",441,349 C,0,154357,,133,11,255 F,2,154357,155157,0.5,0 S,2,154357,155157,1,0.8 P,0,154357,155157,A
Sprite,Foreground,Centre,"sb\hl2.png",478,356 C,0,154446,,133,11,255 F,2,154446,155246,0.5,0 S,2,154446,155246,1,0.8 P,0,154446,155246,A
Sprite,Foreground,Centre,"sb\hl2.png",511,374 C,0,154534,,255,128,128 F,2,154534,155334,0.5,0 S,2,154534,155334,1,0.8 P,0,154534,155334,A
Sprite,Foreground,Centre,"sb\hl2.png",506,349 C,0,154622,,255,128,128 F,2,154622,155422,0.5,0 S,2,154622,155422,1,0.8 P,0,154622,155422,A
Sprite,Foreground,Centre,"sb\hl2.png",502,325 C,0,154710,,255,128,128 F,2,154710,155510,0.5,0 S,2,154710,155510,1,0.8 P,0,154710,155510,A
Sprite,Foreground,Centre,"sb\hl2.png",498,300 C,0,154799,,255,128,128 F,2,154799,155599,0.5,0 S,2,154799,155599,1,0.8 P,0,154799,155599,A
Sprite,Foreground,Centre,"sb\hl2.png",0,0 C,0,154887,,255,6,6 M,0,154887,154931,493,275,488.5712,250.3954 F,2,154887,155951,0.5,0 S,2,154887,155951,1,0.8 P,0,154887,155951,A M,0,154931,154975,488.5712,250.3954,484.1424,225.7908 M,0,154975,155019,484.1424,225.7908,488.5712,250.3954 M,0,155019,155063,488.5712,250.3954,493,275 M,0,155063,155107,493,275,488.5712,250.3954 M,0,155107,155151,488.5712,250.3954,484.1424,225.7908
Sprite,Foreground,Centre,"sb\hl2.png",493,275 C,0,154931,,255,6,6 F,2,154931,155731,0.5,0 P,0,154931,155731,A
Sprite,Foreground,Centre,"sb\hl2.png",488.5712,250.3954 C,0,154975,,255,6,6 F,2,154975,155775,0.5,0 P,0,154975,155775,A
Sprite,Foreground,Centre,"sb\hl2.png",484.1424,225.7908 C,0,155019,,255,6,6 F,2,155019,155819,0.5,0 P,0,155019,155819,A
Sprite,Foreground,Centre,"sb\hl2.png",488.5712,250.3954 C,0,155063,,255,6,6 F,2,155063,155863,0.5,0 P,0,155063,155863,A
Sprite,Foreground,Centre,"sb\hl2.png",493,275 C,0,155107,,255,6,6 F,2,155107,155907,0.5,0 P,0,155107,155907,A
Sprite,Foreground,Centre,"sb\hl2.png",488.5712,250.3954 C,0,155151,,255,6,6 F,2,155151,155951,0.5,0 P,0,155151,155951,A
Sprite,Foreground,Centre,"sb\hl2.png",0,0 C,0,155240,,255,6,6 M,0,155240,155284,564,188,567.9498,163.314 F,2,155240,156304,0.5,0 S,2,155240,156304,1,0.8 P,0,155240,156304,A M,0,155284,155328,567.9498,163.314,571.8995,138.628 M,0,155328,155372,571.8995,138.628,567.9498,163.314 M,0,155372,155416,567.9498,163.314,564,188 M,0,155416,155460,564,188,567.9498,163.314 M,0,155460,155504,567.9498,163.314,571.8995,138.628
Sprite,Foreground,Centre,"sb\hl2.png",564,188 C,0,155284,,255,6,6 F,2,155284,156084,0.5,0 P,0,155284,156084,A
Sprite,Foreground,Centre,"sb\hl2.png",567.9498,163.314 C,0,155328,,255,6,6 F,2,155328,156128,0.5,0 P,0,155328,156128,A
Sprite,Foreground,Centre,"sb\hl2.png",571.8995,138.628 C,0,155372,,255,6,6 F,2,155372,156172,0.5,0 P,0,155372,156172,A
Sprite,Foreground,Centre,"sb\hl2.png",567.9498,163.314 C,0,155416,,255,6,6 F,2,155416,156216,0.5,0 P,0,155416,156216,A
Sprite,Foreground,Centre,"sb\hl2.png",564,188 C,0,155460,,255,6,6 F,2,155460,156260,0.5,0 P,0,155460,156260,A
Sprite,Foreground,Centre,"sb\hl2.png",567.9498,163.314 C,0,155504,,255,6,6 F,2,155504,156304,0.5,0 P,0,155504,156304,A
Sprite,Foreground,Centre,"sb\hl2.png",483,133 C,0,155593,,191,128,255 F,2,155593,156393,0.5,0 S,2,155593,156393,1,0.8 P,0,155593,156393,A
Sprite,Foreground,Centre,"sb\hl2.png",457,106 C,0,155681,,191,128,255 F,2,155681,156481,0.5,0 S,2,155681,156481,1,0.8 P,0,155681,156481,A
Sprite,Foreground,Centre,"sb\hl2.png",422,91 C,0,155769,,191,128,255 F,2,155769,156569,0.5,0 S,2,155769,156569,1,0.8 P,0,155769,156569,A
Sprite,Foreground,Centre,"sb\hl2.png",385,90 C,0,155857,,191,128,255 F,2,155857,156657,0.5,0 S,2,155857,156657,1,0.8 P,0,155857,156657,A
Sprite,Foreground,Centre,"sb\hl2.png",351,104 C,0,155946,,133,11,255 F,2,155946,156746,0.5,0 S,2,155946,156746,1,0.8 P,0,155946,156746,A
Sprite,Foreground,Centre,"sb\hl2.png",382,120 C,0,156035,,133,11,255 F,2,156035,156835,0.5,0 S,2,156035,156835,1,0.8 P,0,156035,156835,A
Sprite,Foreground,Centre,"sb\hl2.png",406,148 C,0,156123,,133,11,255 F,2,156123,156923,0.5,0 S,2,156123,156923,1,0.8 P,0,156123,156923,A
Sprite,Foreground,Centre,"sb\hl2.png",417,185 C,0,156211,,133,11,255 F,2,156211,157011,0.5,0 S,2,156211,157011,1,0.8 P,0,156211,157011,A
Sprite,Foreground,Centre,"sb\hl2.png",0,0 C,0,156299,,255,128,128 M,0,156299,156343,413,221,388.4154,216.4613 F,2,156299,157363,0.5,0 S,2,156299,157363,1,0.8 P,0,156299,157363,A M,0,156343,156387,388.4154,216.4613,363.8309,211.9226 M,0,156387,156431,363.8309,211.9226,388.4154,216.4613 M,0,156431,156475,388.4154,216.4613,413,221 M,0,156475,156519,413,221,388.4154,216.4613 M,0,156519,156563,388.4154,216.4613,363.8309,211.9226
Sprite,Foreground,Centre,"sb\hl2.png",413,221 C,0,156343,,255,128,128 F,2,156343,157143,0.5,0 P,0,156343,157143,A
Sprite,Foreground,Centre,"sb\hl2.png",388.4154,216.4613 C,0,156387,,255,128,128 F,2,156387,157187,0.5,0 P,0,156387,157187,A
Sprite,Foreground,Centre,"sb\hl2.png",363.8309,211.9226 C,0,156431,,255,128,128 F,2,156431,157231,0.5,0 P,0,156431,157231,A
Sprite,Foreground,Centre,"sb\hl2.png",388.4154,216.4613 C,0,156475,,255,128,128 F,2,156475,157275,0.5,0 P,0,156475,157275,A
Sprite,Foreground,Centre,"sb\hl2.png",413,221 C,0,156519,,255,128,128 F,2,156519,157319,0.5,0 P,0,156519,157319,A
Sprite,Foreground,Centre,"sb\hl2.png",388.4154,216.4613 C,0,156563,,255,128,128 F,2,156563,157363,0.5,0 P,0,156563,157363,A
Sprite,Foreground,Centre,"sb\hl2.png",0,0 C,0,156652,,255,128,128 M,0,156652,156696,279,299,303.5887,294.4837 F,2,156652,157716,0.5,0 S,2,156652,157716,1,0.8 P,0,156652,157716,A M,0,156696,156740,303.5887,294.4837,328,290 M,0,156740,156784,328,290,303.5887,294.4837 M,0,156784,156828,303.5887,294.4837,279,299 M,0,156828,156872,279,299,303.5887,294.4837 M,0,156872,156916,303.5887,294.4837,328,290
Sprite,Foreground,Centre,"sb\hl2.png",279,299 C,0,156696,,255,128,128 F,2,156696,157496,0.5,0 P,0,156696,157496,A
Sprite,Foreground,Centre,"sb\hl2.png",303.5887,294.4837 C,0,156740,,255,128,128 F,2,156740,157540,0.5,0 P,0,156740,157540,A
Sprite,Foreground,Centre,"sb\hl2.png",328,290 C,0,156784,,255,128,128 F,2,156784,157584,0.5,0 P,0,156784,157584,A
Sprite,Foreground,Centre,"sb\hl2.png",303.5887,294.4837 C,0,156828,,255,128,128 F,2,156828,157628,0.5,0 P,0,156828,157628,A
Sprite,Foreground,Centre,"sb\hl2.png",279,299 C,0,156872,,255,128,128 F,2,156872,157672,0.5,0 P,0,156872,157672,A
Sprite,Foreground,Centre,"sb\hl2.png",303.5887,294.4837 C,0,156916,,255,128,128 F,2,156916,157716,0.5,0 P,0,156916,157716,A
Sprite,Foreground,Centre,"sb\hl2.png",437,392 C,0,157004,,255,6,6 F,2,157004,157804,0.5,0 S,2,157004,157804,1,0.8 P,0,157004,157804,A
Sprite,Foreground,Centre,"sb\hl2.png",412,387 C,0,157093,,255,6,6 F,2,157093,157893,0.5,0 S,2,157093,157893,1,0.8 P,0,157093,157893,A
Sprite,Foreground,Centre,"sb\hl2.png",387,383 C,0,157181,,255,6,6 F,2,157181,157981,0.5,0 S,2,157181,157981,1,0.8 P,0,157181,157981,A
Sprite,Foreground,Centre,"sb\hl2.png",363,378 C,0,157269,,255,6,6 F,2,157269,158069,0.5,0 S,2,157269,158069,1,0.8 P,0,157269,158069,A
Sprite,Foreground,Centre,"sb\hl2.png",338,374 C,0,157357,,191,128,255 F,2,157357,158157,0.5,0 S,2,157357,158157,1,0.8 P,0,157357,158157,A
Sprite,Foreground,Centre,"sb\hl2.png",317,405 C,0,157445,,191,128,255 F,2,157445,158245,0.5,0 S,2,157445,158245,1,0.8 P,0,157445,158245,A
Sprite,Foreground,Centre,"sb\hl2.png",286,425 C,0,157533,,191,128,255 F,2,157533,158333,0.5,0 S,2,157533,158333,1,0.8 P,0,157533,158333,A
Sprite,Foreground,Centre,"sb\hl2.png",249,431 C,0,157621,,191,128,255 F,2,157621,158421,0.5,0 S,2,157621,158421,1,0.8 P,0,157621,158421,A
Sprite,Foreground,Centre,"sb\hl2.png",0,0 C,0,157710,,133,11,255 M,0,157710,157754,213,421,216.8991,396.3059 F,2,157710,158774,0.5,0 S,2,157710,158774,1,0.8 P,0,157710,158774,A M,0,157754,157798,216.8991,396.3059,220.7981,371.6118 M,0,157798,157842,220.7981,371.6118,216.8991,396.3059 M,0,157842,157886,216.8991,396.3059,213,421 M,0,157886,157930,213,421,216.8991,396.3059 M,0,157930,157974,216.8991,396.3059,220.7981,371.6118
Sprite,Foreground,Centre,"sb\hl2.png",213,421 C,0,157754,,133,11,255 F,2,157754,158554,0.5,0 P,0,157754,158554,A
Sprite,Foreground,Centre,"sb\hl2.png",216.8991,396.3059 C,0,157798,,133,11,255 F,2,157798,158598,0.5,0 P,0,157798,158598,A
Sprite,Foreground,Centre,"sb\hl2.png",220.7981,371.6118 C,0,157842,,133,11,255 F,2,157842,158642,0.5,0 P,0,157842,158642,A
Sprite,Foreground,Centre,"sb\hl2.png",216.8991,396.3059 C,0,157886,,133,11,255 F,2,157886,158686,0.5,0 P,0,157886,158686,A
Sprite,Foreground,Centre,"sb\hl2.png",213,421 C,0,157930,,133,11,255 F,2,157930,158730,0.5,0 P,0,157930,158730,A
Sprite,Foreground,Centre,"sb\hl2.png",216.8991,396.3059 C,0,157974,,133,11,255 F,2,157974,158774,0.5,0 P,0,157974,158774,A
Sprite,Foreground,Centre,"sb\hl2.png",279,299 C,0,158063,,128,255,255 F,2,158063,158863,0.5,0 S,2,158063,158863,1,0.8 P,0,158063,158863,A
Sprite,Foreground,Centre,"sb\hl2.png",263,265 C,0,158152,,128,255,255 F,2,158152,158952,0.5,0 S,2,158152,158952,1,0.8 P,0,158152,158952,A
Sprite,Foreground,Centre,"sb\hl2.png",260,228 C,0,158240,,128,255,255 F,2,158240,159040,0.5,0 S,2,158240,159040,1,0.8 P,0,158240,159040,A
Sprite,Foreground,Centre,"sb\hl2.png",271,192 C,0,158328,,128,255,255 F,2,158328,159128,0.5,0 S,2,158328,159128,1,0.8 P,0,158328,159128,A
Sprite,Foreground,Centre,"sb\hl2.png",0,0 C,0,158416,,255,6,6 M,0,158416,158460,295,163,319.6599,167.11 F,2,158416,159304,0.5,0 S,2,158416,159304,1,0.8 P,0,158416,159304,A M,0,158460,158504,319.6599,167.11,344.3197,171.2199
Sprite,Foreground,Centre,"sb\hl2.png",295,163 C,0,158460,,255,6,6 F,2,158460,159260,0.5,0 P,0,158460,159260,A
Sprite,Foreground,Centre,"sb\hl2.png",319.6599,167.11 C,0,158504,,255,6,6 F,2,158504,159304,0.5,0 P,0,158504,159304,A
Sprite,Foreground,Centre,"sb\hl2.png",0,0 C,0,158593,,255,6,6 M,0,158593,158637,153,206,128.3293,210.0444 F,2,158593,159481,0.5,0 S,2,158593,159481,1,0.8 P,0,158593,159481,A M,0,158637,158681,128.3293,210.0444,103.6586,214.0887
Sprite,Foreground,Centre,"sb\hl2.png",153,206 C,0,158637,,255,6,6 F,2,158637,159437,0.5,0 P,0,158637,159437,A
Sprite,Foreground,Centre,"sb\hl2.png",128.3293,210.0444 C,0,158681,,255,6,6 F,2,158681,159481,0.5,0 P,0,158681,159481,A
Sprite,Foreground,Centre,"sb\hl2.png",0,0 C,0,158769,,255,6,6 M,0,158769,158813,293,249,317.6599,253.11 F,2,158769,159657,0.5,0 S,2,158769,159657,1,0.8 P,0,158769,159657,A M,0,158813,158857,317.6599,253.11,342.3197,257.22
Sprite,Foreground,Centre,"sb\hl2.png",293,249 C,0,158813,,255,6,6 F,2,158813,159613,0.5,0 P,0,158813,159613,A
Sprite,Foreground,Centre,"sb\hl2.png",317.6599,253.11 C,0,158857,,255,6,6 F,2,158857,159657,0.5,0 P,0,158857,159657,A
Sprite,Foreground,Centre,"sb\hl2.png",0,0 C,0,158946,,255,6,6 M,0,158946,158990,150,292,125.3293,296.0444 F,2,158946,159834,0.5,0 S,2,158946,159834,1,0.8 P,0,158946,159834,A M,0,158990,159034,125.3293,296.0444,100.6586,300.0887
Sprite,Foreground,Centre,"sb\hl2.png",150,292 C,0,158990,,255,6,6 F,2,158990,159790,0.5,0 P,0,158990,159790,A
Sprite,Foreground,Centre,"sb\hl2.png",125.3293,296.0444 C,0,159034,,255,6,6 F,2,159034,159834,0.5,0 P,0,159034,159834,A
Sprite,Foreground,Centre,"sb\hl2.png",289,335 C,0,159122,,191,128,255 F,2,159122,159922,0.5,0 S,2,159122,159922,1,0.8 P,0,159122,159922,A
Sprite,Foreground,Centre,"sb\hl2.png",0,0 C,0,159299,,191,128,255 M,0,159299,159343,212,144,189.0289,124.7042 F,2,159299,160451,0.5,0 S,2,159299,160451,1,0.8 P,0,159299,160451,A M,0,159343,159387,189.0289,124.7042,166.0577,105.4085 M,0,159387,159431,166.0577,105.4085,186.1826,96.96777 M,0,159431,159475,186.1826,96.96777,215.5535,90.85593 M,0,159475,159519,215.5535,90.85593,244.9243,84.74408 M,0,159519,159563,244.9243,84.74408,274.2951,78.63223 M,0,159563,159607,274.2951,78.63223,303.666,72.52038 M,0,159607,159651,303.666,72.52038,333.0368,66.40853
Sprite,Foreground,Centre,"sb\hl2.png",212,144 C,0,159343,,191,128,255 F,2,159343,160143,0.5,0 P,0,159343,160143,A
Sprite,Foreground,Centre,"sb\hl2.png",189.0289,124.7042 C,0,159387,,191,128,255 F,2,159387,160187,0.5,0 P,0,159387,160187,A
Sprite,Foreground,Centre,"sb\hl2.png",166.0577,105.4085 C,0,159431,,191,128,255 F,2,159431,160231,0.5,0 P,0,159431,160231,A
Sprite,Foreground,Centre,"sb\hl2.png",186.1826,96.96777 C,0,159475,,191,128,255 F,2,159475,160275,0.5,0 P,0,159475,160275,A
Sprite,Foreground,Centre,"sb\hl2.png",215.5535,90.85593 C,0,159519,,191,128,255 F,2,159519,160319,0.5,0 P,0,159519,160319,A
Sprite,Foreground,Centre,"sb\hl2.png",244.9243,84.74408 C,0,159563,,191,128,255 F,2,159563,160363,0.5,0 P,0,159563,160363,A
Sprite,Foreground,Centre,"sb\hl2.png",274.2951,78.63223 C,0,159607,,191,128,255 F,2,159607,160407,0.5,0 P,0,159607,160407,A
Sprite,Foreground,Centre,"sb\hl2.png",303.666,72.52038 C,0,159651,,191,128,255 F,2,159651,160451,0.5,0 P,0,159651,160451,A
Sprite,Foreground,Centre,"sb\hl2.png",0,0 C,0,159828,,6,87,255 M,0,159828,159872,432,157,429.1574,132.3094 F,2,159828,160716,0.5,0 S,2,159828,160716,1,0.8 P,0,159828,160716,A M,0,159872,159916,429.1574,132.3094,419.9134,109.3036
Sprite,Foreground,Centre,"sb\hl2.png",432,157 C,0,159872,,6,87,255 F,2,159872,160672,0.5,0 P,0,159872,160672,A
Sprite,Foreground,Centre,"sb\hl2.png",429.1574,132.3094 C,0,159916,,6,87,255 F,2,159916,160716,0.5,0 P,0,159916,160716,A
Sprite,Foreground,Centre,"sb\hl2.png",0,0 C,0,160004,,6,87,255 M,0,160004,160048,495,222,510.3223,202.4286 F,2,160004,160892,0.5,0 S,2,160004,160892,1,0.8 P,0,160004,160892,A M,0,160048,160092,510.3223,202.4286,519.9584,179.5806
Sprite,Foreground,Centre,"sb\hl2.png",495,222 C,0,160048,,6,87,255 F,2,160048,160848,0.5,0 P,0,160048,160848,A
Sprite,Foreground,Centre,"sb\hl2.png",510.3223,202.4286 C,0,160092,,6,87,255 F,2,160092,160892,0.5,0 P,0,160092,160892,A
Sprite,Foreground,Centre,"sb\hl2.png",0,0 C,0,160181,,6,87,255 M,0,160181,160225,493,312,517.6906,309.1574 F,2,160181,161069,0.5,0 S,2,160181,161069,1,0.8 P,0,160181,161069,A M,0,160225,160269,517.6906,309.1574,540.6964,299.9134
Sprite,Foreground,Centre,"sb\hl2.png",493,312 C,0,160225,,6,87,255 F,2,160225,161025,0.5,0 P,0,160225,161025,A
Sprite,Foreground,Centre,"sb\hl2.png",517.6906,309.1574 C,0,160269,,6,87,255 F,2,160269,161069,0.5,0 P,0,160269,161069,A
Sprite,Foreground,Centre,"sb\hl2.png",0,0 C,0,160357,,228,228,228 M,0,160357,160401,428,375,447.4163,390.5057 F,2,160357,161245,0.5,0 S,2,160357,161245,1,0.8 P,0,160357,161245,A M,0,160401,160445,447.4163,390.5057,470.2502,400.1419
Sprite,Foreground,Centre,"sb\hl2.png",428,375 C,0,160401,,228,228,228 F,2,160401,161201,0.5,0 P,0,160401,161201,A
Sprite,Foreground,Centre,"sb\hl2.png",447.4163,390.5057 C,0,160445,,228,228,228 F,2,160445,161245,0.5,0 P,0,160445,161245,A
Sprite,Foreground,Centre,"sb\hl2.png",341,259 C,0,160534,,228,228,228 F,2,160534,161334,0.5,0 S,2,160534,161334,1,0.8 P,0,160534,161334,A
Sprite,Foreground,Centre,"sb\hl2.png",272,412 C,0,160710,,228,228,228 F,2,160710,161510,0.5,0 S,2,160710,161510,1,0.8 P,0,160710,161510,A
Sprite,Foreground,Centre,"sb\hl2.png",272,412 C,0,160799,,228,228,228 F,2,160799,161599,0.5,0 S,2,160799,161599,1,0.8 P,0,160799,161599,A
Sprite,Foreground,Centre,"sb\hl2.png",272,412 C,0,160887,,228,228,228 F,2,160887,161687,0.5,0 S,2,160887,161687,1,0.8 P,0,160887,161687,A
Sprite,Foreground,Centre,"sb\hl2.png",365,285 C,0,161063,,228,228,228 F,2,161063,161863,0.5,0 S,2,161063,161863,1,0.8 P,0,161063,161863,A
Sprite,Foreground,Centre,"sb\hl2.png",0,0 C,0,161240,,6,87,255 M,0,161240,161284,181,312,156.3094,309.1574 F,2,161240,162128,0.5,0 S,2,161240,162128,1,0.8 P,0,161240,162128,A M,0,161284,161328,156.3094,309.1574,133.3036,299.9134
Sprite,Foreground,Centre,"sb\hl2.png",181,312 C,0,161284,,6,87,255 F,2,161284,162084,0.5,0 P,0,161284,162084,A
Sprite,Foreground,Centre,"sb\hl2.png",156.3094,309.1574 C,0,161328,,6,87,255 F,2,161328,162128,0.5,0 P,0,161328,162128,A
Sprite,Foreground,Centre,"sb\hl2.png",0,0 C,0,161416,,6,87,255 M,0,161416,161460,179,222,163.2212,202.8073 F,2,161416,162304,0.5,0 S,2,161416,162304,1,0.8 P,0,161416,162304,A M,0,161460,161504,163.2212,202.8073,153.2112,180.1338
Sprite,Foreground,Centre,"sb\hl2.png",179,222 C,0,161460,,6,87,255 F,2,161460,162260,0.5,0 P,0,161460,162260,A
Sprite,Foreground,Centre,"sb\hl2.png",163.2212,202.8073 C,0,161504,,6,87,255 F,2,161504,162304,0.5,0 P,0,161504,162304,A
Sprite,Foreground,Centre,"sb\hl2.png",0,0 C,0,161593,,6,87,255 M,0,161593,161637,242,157,244.8426,132.3094 F,2,161593,162481,0.5,0 S,2,161593,162481,1,0.8 P,0,161593,162481,A M,0,161637,161681,244.8426,132.3094,254.0866,109.3036
Sprite,Foreground,Centre,"sb\hl2.png",242,157 C,0,161637,,6,87,255 F,2,161637,162437,0.5,0 P,0,161637,162437,A
Sprite,Foreground,Centre,"sb\hl2.png",244.8426,132.3094 C,0,161681,,6,87,255 F,2,161681,162481,0.5,0 P,0,161681,162481,A
Sprite,Foreground,Centre,"sb\hl2.png",0,0 C,0,161769,,228,228,228 M,0,161769,161813,332,155,351.0294,139.0376 F,2,161769,162657,0.5,0 S,2,161769,162657,1,0.8 P,0,161769,162657,A M,0,161813,161857,351.0294,139.0376,373.687,129.0261
Sprite,Foreground,Centre,"sb\hl2.png",332,155 C,0,161813,,228,228,228 F,2,161813,162613,0.5,0 P,0,161813,162613,A
Sprite,Foreground,Centre,"sb\hl2.png",351.0294,139.0376 C,0,161857,,228,228,228 F,2,161857,162657,0.5,0 P,0,161857,162657,A
Sprite,Foreground,Centre,"sb\hl2.png",278,245 C,0,161946,,6,87,255 F,2,161946,162746,0.5,0 S,2,161946,162746,1,0.8 P,0,161946,162746,A
Sprite,Foreground,Centre,"sb\hl2.png",170,101 C,0,162122,,6,87,255 F,2,162122,162922,0.5,0 S,2,162122,162922,1,0.8 P,0,162122,162922,A
Sprite,Foreground,Centre,"sb\hl2.png",170,101 C,0,162210,,6,87,255 F,2,162210,163010,0.5,0 S,2,162210,163010,1,0.8 P,0,162210,163010,A
Sprite,Foreground,Centre,"sb\hl2.png",170,101 C,0,162299,,6,87,255 F,2,162299,163099,0.5,0 S,2,162299,163099,1,0.8 P,0,162299,163099,A
Sprite,Foreground,Centre,"sb\hl2.png",332,155 C,0,162475,,6,87,255 F,2,162475,163275,0.5,0 S,2,162475,163275,1,0.8 P,0,162475,163275,A
Sprite,Foreground,Centre,"sb\hl2.png",0,0 C,0,162652,,228,228,228 M,0,162652,162696,179,222,154.3094,224.8426 F,2,162652,163540,0.5,0 S,2,162652,163540,1,0.8 P,0,162652,163540,A M,0,162696,162740,154.3094,224.8426,131.3036,234.0866
Sprite,Foreground,Centre,"sb\hl2.png",179,222 C,0,162696,,228,228,228 F,2,162696,163496,0.5,0 P,0,162696,163496,A
Sprite,Foreground,Centre,"sb\hl2.png",154.3094,224.8426 C,0,162740,,228,228,228 F,2,162740,163540,0.5,0 P,0,162740,163540,A
Sprite,Foreground,Centre,"sb\hl2.png",0,0 C,0,162828,,228,228,228 M,0,162828,162872,177,312,161.0376,331.0294 F,2,162828,163716,0.5,0 S,2,162828,163716,1,0.8 P,0,162828,163716,A M,0,162872,162916,161.0376,331.0294,151.0261,353.687
Sprite,Foreground,Centre,"sb\hl2.png",177,312 C,0,162872,,228,228,228 F,2,162872,163672,0.5,0 P,0,162872,163672,A
Sprite,Foreground,Centre,"sb\hl2.png",161.0376,331.0294 C,0,162916,,228,228,228 F,2,162916,163716,0.5,0 P,0,162916,163716,A
Sprite,Foreground,Centre,"sb\hl2.png",0,0 C,0,163004,,6,87,255 M,0,163004,163048,364,298,379.5057,317.4163 F,2,163004,163892,0.5,0 S,2,163004,163892,1,0.8 P,0,163004,163892,A M,0,163048,163092,379.5057,317.4163,389.1419,340.2502
Sprite,Foreground,Centre,"sb\hl2.png",364,298 C,0,163048,,6,87,255 F,2,163048,163848,0.5,0 P,0,163048,163848,A
Sprite,Foreground,Centre,"sb\hl2.png",379.5057,317.4163 C,0,163092,,6,87,255 F,2,163092,163892,0.5,0 P,0,163092,163892,A
Sprite,Foreground,Centre,"sb\hl2.png",0,0 C,0,163180,,6,87,255 M,0,163180,163224,302,363,299.1574,387.6906 F,2,163180,164068,0.5,0 S,2,163180,164068,1,0.8 P,0,163180,164068,A M,0,163224,163268,299.1574,387.6906,289.9134,410.6964
Sprite,Foreground,Centre,"sb\hl2.png",302,363 C,0,163224,,6,87,255 F,2,163224,164024,0.5,0 P,0,163224,164024,A
Sprite,Foreground,Centre,"sb\hl2.png",299.1574,387.6906 C,0,163268,,6,87,255 F,2,163268,164068,0.5,0 P,0,163268,164068,A
Sprite,Foreground,Centre,"sb\hl2.png",278,245 C,0,163357,,228,228,228 F,2,163357,164157,0.5,0 S,2,163357,164157,1,0.8 P,0,163357,164157,A
Sprite,Foreground,Centre,"sb\hl2.png",456,254 C,0,163534,,228,228,228 F,2,163534,164334,0.5,0 S,2,163534,164334,1,0.8 P,0,163534,164334,A
Sprite,Foreground,Centre,"sb\hl2.png",347,111 C,0,163710,,228,228,228 F,2,163710,164510,0.5,0 S,2,163710,164510,1,0.8 P,0,163710,164510,A
Sprite,Foreground,Centre,"sb\hl2.png",260,280 C,0,163887,,228,228,228 F,2,163887,164687,0.5,0 S,2,163887,164687,1,0.8 P,0,163887,164687,A
Sprite,Foreground,Centre,"sb\hl2.png",0,0 C,0,164063,,6,87,255 M,0,164063,164107,421,165,432.9,143.1918 F,2,164063,164951,0.5,0 S,2,164063,164951,1,0.8 P,0,164063,164951,A M,0,164107,164151,432.9,143.1918,438.4161,119.0328
Sprite,Foreground,Centre,"sb\hl2.png",421,165 C,0,164107,,6,87,255 F,2,164107,164907,0.5,0 P,0,164107,164907,A
Sprite,Foreground,Centre,"sb\hl2.png",432.9,143.1918 C,0,164151,,6,87,255 F,2,164151,164951,0.5,0 P,0,164151,164951,A
Sprite,Foreground,Centre,"sb\hl2.png",0,0 C,0,164240,,6,87,255 M,0,164240,164284,347,111,339.8202,87.21225 F,2,164240,165128,0.5,0 S,2,164240,165128,1,0.8 P,0,164240,165128,A M,0,164284,164328,339.8202,87.21225,326.5093,66.30578
Sprite,Foreground,Centre,"sb\hl2.png",347,111 C,0,164284,,6,87,255 F,2,164284,165084,0.5,0 P,0,164284,165084,A
Sprite,Foreground,Centre,"sb\hl2.png",339.8202,87.21225 C,0,164328,,6,87,255 F,2,164328,165128,0.5,0 P,0,164328,165128,A
Sprite,Foreground,Centre,"sb\hl2.png",0,0 C,0,164416,,6,87,255 M,0,164416,164460,257,125,235.5083,112.56 F,2,164416,165304,0.5,0 S,2,164416,165304,1,0.8 P,0,164416,165304,A M,0,164460,164504,235.5083,112.56,211.4584,106.6451
Sprite,Foreground,Centre,"sb\hl2.png",257,125 C,0,164460,,6,87,255 F,2,164460,165260,0.5,0 P,0,164460,165260,A
Sprite,Foreground,Centre,"sb\hl2.png",235.5083,112.56 C,0,164504,,6,87,255 F,2,164504,165304,0.5,0 P,0,164504,165304,A
Sprite,Foreground,Centre,"sb\hl2.png",0,0 C,0,164593,,228,228,228 M,0,164593,164637,203,199,179.129,205.9274 F,2,164593,165481,0.5,0 S,2,164593,165481,1,0.8 P,0,164593,165481,A M,0,164637,164681,179.129,205.9274,157.9683,218.8533
Sprite,Foreground,Centre,"sb\hl2.png",203,199 C,0,164637,,228,228,228 F,2,164637,165437,0.5,0 P,0,164637,165437,A
Sprite,Foreground,Centre,"sb\hl2.png",179.129,205.9274 C,0,164681,,228,228,228 F,2,164681,165481,0.5,0 P,0,164681,165481,A
Sprite,Foreground,Centre,"sb\hl2.png",193,385 C,0,164769,,136,136,136 F,2,164769,165569,0.5,0 S,2,164769,165569,1,0.8 P,0,164769,165569,A
Sprite,Foreground,Centre,"sb\hl2.png",278,245 C,0,164946,,136,136,136 F,2,164946,165746,0.5,0 S,2,164946,165746,1,0.8 P,0,164946,165746,A
Sprite,Foreground,Centre,"sb\hl2.png",0,0 C,0,165122,,136,136,136 M,0,165122,165166,109,291,94.82191,311.4941 F,2,165122,166098,0.5,0 S,2,165122,166098,1,0.8 P,0,165122,166098,A M,0,165166,165210,94.82191,311.4941,85.07487,334.3918 M,0,165210,165254,85.07487,334.3918,80.43671,358.8419 M,0,165254,165298,80.43671,358.8419,80.86323,383.7573
Sprite,Foreground,Centre,"sb\hl2.png",109,291 C,0,165166,,136,136,136 F,2,165166,165966,0.5,0 P,0,165166,165966,A
Sprite,Foreground,Centre,"sb\hl2.png",94.82191,311.4941 C,0,165210,,136,136,136 F,2,165210,166010,0.5,0 P,0,165210,166010,A
Sprite,Foreground,Centre,"sb\hl2.png",85.07487,334.3918 C,0,165254,,136,136,136 F,2,165254,166054,0.5,0 P,0,165254,166054,A
Sprite,Foreground,Centre,"sb\hl2.png",80.43671,358.8419 C,0,165298,,136,136,136 F,2,165298,166098,0.5,0 P,0,165298,166098,A
Sprite,Foreground,Centre,"sb\hl2.png",265,332 C,0,165475,,255,128,128 F,2,165475,166275,0.5,0 S,2,165475,166275,1,0.8 P,0,165475,166275,A
Sprite,Foreground,Centre,"sb\hl2.png",0,0 C,0,165652,,255,128,128 M,0,165652,165696,322,171,346.9146,169.7801 F,2,165652,166628,0.5,0 S,2,165652,166628,1,0.8 P,0,165652,166628,A M,0,165696,165740,346.9146,169.7801,371.4664,174.1693 M,0,165740,165784,371.4664,174.1693,394.4089,183.9434 M,0,165784,165828,394.4089,183.9434,414,198
Sprite,Foreground,Centre,"sb\hl2.png",322,171 C,0,165696,,255,128,128 F,2,165696,166496,0.5,0 P,0,165696,166496,A
Sprite,Foreground,Centre,"sb\hl2.png",346.9146,169.7801 C,0,165740,,255,128,128 F,2,165740,166540,0.5,0 P,0,165740,166540,A
Sprite,Foreground,Centre,"sb\hl2.png",371.4664,174.1693 C,0,165784,,255,128,128 F,2,165784,166584,0.5,0 P,0,165784,166584,A
Sprite,Foreground,Centre,"sb\hl2.png",394.4089,183.9434 C,0,165828,,255,128,128 F,2,165828,166628,0.5,0 P,0,165828,166628,A
Sprite,Foreground,Centre,"sb\hl2.png",383,355 C,0,166004,,136,136,136 F,2,166004,166804,0.5,0 S,2,166004,166804,1,0.8 P,0,166004,166804,A
Sprite,Foreground,Centre,"sb\hl2.png",0,0 C,0,166181,,136,136,136 M,0,166181,166225,244,234,219.3851,229.6291 F,2,166181,167157,0.5,0 S,2,166181,167157,1,0.8 P,0,166181,167157,A M,0,166225,166269,219.3851,229.6291,194.7701,225.2582 M,0,166269,166313,194.7701,225.2582,170.1552,220.8874 M,0,166313,166357,170.1552,220.8874,145.5402,216.5165
Sprite,Foreground,Centre,"sb\hl2.png",244,234 C,0,166225,,136,136,136 F,2,166225,167025,0.5,0 P,0,166225,167025,A
Sprite,Foreground,Centre,"sb\hl2.png",219.3851,229.6291 C,0,166269,,136,136,136 F,2,166269,167069,0.5,0 P,0,166269,167069,A
Sprite,Foreground,Centre,"sb\hl2.png",194.7701,225.2582 C,0,166313,,136,136,136 F,2,166313,167113,0.5,0 P,0,166313,167113,A
Sprite,Foreground,Centre,"sb\hl2.png",170.1552,220.8874 C,0,166357,,136,136,136 F,2,166357,167157,0.5,0 P,0,166357,167157,A
Sprite,Foreground,Centre,"sb\hl2.png",80,383 C,0,166534,,255,128,128 F,2,166534,167334,0.5,0 S,2,166534,167334,1,0.8 P,0,166534,167334,A
Sprite,Foreground,Centre,"sb\hl2.png",112,209 C,0,166710,,255,128,128 F,2,166710,167510,0.5,0 S,2,166710,167510,1,0.8 P,0,166710,167510,A
Sprite,Foreground,Centre,"sb\hl2.png",113,418 C,0,166887,,255,6,6 F,2,166887,167687,0.5,0 S,2,166887,167687,1,0.8 P,0,166887,167687,A
Sprite,Foreground,Centre,"sb\hl2.png",113,418 C,0,166975,,255,6,6 F,2,166975,167775,0.5,0 S,2,166975,167775,1,0.8 P,0,166975,167775,A
Sprite,Foreground,Centre,"sb\hl2.png",113,418 C,0,167063,,255,6,6 F,2,167063,167863,0.5,0 S,2,167063,167863,1,0.8 P,0,167063,167863,A
Sprite,Foreground,Centre,"sb\hl2.png",281,368 C,0,167240,,255,6,6 F,2,167240,168040,0.5,0 S,2,167240,168040,1,0.8 P,0,167240,168040,A
Sprite,Foreground,Centre,"sb\hl2.png",115,300 C,0,167416,,255,6,6 F,2,167416,168216,0.5,0 S,2,167416,168216,1,0.8 P,0,167416,168216,A
Sprite,Foreground,Centre,"sb\hl2.png",0,0 C,0,167593,,136,136,136 M,0,167593,167637,304,338,328.649,342.1744 F,2,167593,168569,0.5,0 S,2,167593,168569,1,0.8 P,0,167593,168569,A M,0,167637,167681,328.649,342.1744,353.298,346.3489 M,0,167681,167725,353.298,346.3489,377.9471,350.5233 M,0,167725,167769,377.9471,350.5233,402.5961,354.6977
Sprite,Foreground,Centre,"sb\hl2.png",304,338 C,0,167637,,136,136,136 F,2,167637,168437,0.5,0 P,0,167637,168437,A
Sprite,Foreground,Centre,"sb\hl2.png",328.649,342.1744 C,0,167681,,136,136,136 F,2,167681,168481,0.5,0 P,0,167681,168481,A
Sprite,Foreground,Centre,"sb\hl2.png",353.298,346.3489 C,0,167725,,136,136,136 F,2,167725,168525,0.5,0 P,0,167725,168525,A
Sprite,Foreground,Centre,"sb\hl2.png",377.9471,350.5233 C,0,167769,,136,136,136 F,2,167769,168569,0.5,0 P,0,167769,168569,A
Sprite,Foreground,Centre,"sb\hl2.png",0,0 C,0,167946,,136,136,136 M,0,167946,167990,299,220,274.3846,224.0537 F,2,167946,168922,0.5,0 S,2,167946,168922,1,0.8 P,0,167946,168922,A M,0,167990,168034,274.3846,224.0537,250.7809,232.0587 M,0,168034,168078,250.7809,232.0587,228.9177,244.0281 M,0,168078,168122,228.9177,244.0281,209.4543,259.6013
Sprite,Foreground,Centre,"sb\hl2.png",299,220 C,0,167990,,136,136,136 F,2,167990,168790,0.5,0 P,0,167990,168790,A
Sprite,Foreground,Centre,"sb\hl2.png",274.3846,224.0537 C,0,168034,,136,136,136 F,2,168034,168834,0.5,0 P,0,168034,168834,A
Sprite,Foreground,Centre,"sb\hl2.png",250.7809,232.0587 C,0,168078,,136,136,136 F,2,168078,168878,0.5,0 P,0,168078,168878,A
Sprite,Foreground,Centre,"sb\hl2.png",228.9177,244.0281 C,0,168122,,136,136,136 F,2,168122,168922,0.5,0 P,0,168122,168922,A
Sprite,Foreground,Centre,"sb\hl2.png",380,262 C,0,168299,,255,128,128 F,2,168299,169099,0.5,0 S,2,168299,169099,1,0.8 P,0,168299,169099,A
Sprite,Foreground,Centre,"sb\hl2.png",0,0 C,0,168475,,255,128,128 M,0,168475,168519,279,119,255.7683,109.8661 F,2,168475,169451,0.5,0 S,2,168475,169451,1,0.8 P,0,168475,169451,A M,0,168519,168563,255.7683,109.8661,231.3118,104.8997 M,0,168563,168607,231.3118,104.8997,206.3708,104.249 M,0,168607,168651,206.3708,104.249,181.7,107.9316
Sprite,Foreground,Centre,"sb\hl2.png",279,119 C,0,168519,,255,128,128 F,2,168519,169319,0.5,0 P,0,168519,169319,A
Sprite,Foreground,Centre,"sb\hl2.png",255.7683,109.8661 C,0,168563,,255,128,128 F,2,168563,169363,0.5,0 P,0,168563,169363,A
Sprite,Foreground,Centre,"sb\hl2.png",231.3118,104.8997 C,0,168607,,255,128,128 F,2,168607,169407,0.5,0 P,0,168607,169407,A
Sprite,Foreground,Centre,"sb\hl2.png",206.3708,104.249 C,0,168651,,255,128,128 F,2,168651,169451,0.5,0 P,0,168651,169451,A
Sprite,Foreground,Centre,"sb\hl2.png",365,155 C,0,168828,,228,228,228 F,2,168828,169628,0.5,0 S,2,168828,169628,1,0.8 P,0,168828,169628,A
Sprite,Foreground,Centre,"sb\hl2.png",0,0 C,0,169004,,228,228,228 M,0,169004,169048,515,56,519.3446,80.61959 F,2,169004,169980,0.5,0 S,2,169004,169980,1,0.8 P,0,169004,169980,A M,0,169048,169092,519.3446,80.61959,523.6893,105.2392 M,0,169092,169136,523.6893,105.2392,528.0339,129.8588 M,0,169136,169180,528.0339,129.8588,532.3785,154.4784
Sprite,Foreground,Centre,"sb\hl2.png",515,56 C,0,169048,,228,228,228 F,2,169048,169848,0.5,0 P,0,169048,169848,A
Sprite,Foreground,Centre,"sb\hl2.png",519.3446,80.61959 C,0,169092,,228,228,228 F,2,169092,169892,0.5,0 P,0,169092,169892,A
Sprite,Foreground,Centre,"sb\hl2.png",523.6893,105.2392 C,0,169136,,228,228,228 F,2,169136,169936,0.5,0 P,0,169136,169936,A
Sprite,Foreground,Centre,"sb\hl2.png",528.0339,129.8588 C,0,169180,,228,228,228 F,2,169180,169980,0.5,0 P,0,169180,169980,A
Sprite,Foreground,Centre,"sb\hl2.png",0,0 C,0,169357,,228,228,228 M,0,169357,169401,406,329,410.3139,304.375 F,2,169357,170333,0.5,0 S,2,169357,170333,1,0.8 P,0,169357,170333,A M,0,169401,169445,410.3139,304.375,414.6277,279.75 M,0,169445,169489,414.6277,279.75,418.9416,255.125 M,0,169489,169533,418.9416,255.125,423.2555,230.5
Sprite,Foreground,Centre,"sb\hl2.png",406,329 C,0,169401,,228,228,228 F,2,169401,170201,0.5,0 P,0,169401,170201,A
Sprite,Foreground,Centre,"sb\hl2.png",410.3139,304.375 C,0,169445,,228,228,228 F,2,169445,170245,0.5,0 P,0,169445,170245,A
Sprite,Foreground,Centre,"sb\hl2.png",414.6277,279.75 C,0,169489,,228,228,228 F,2,169489,170289,0.5,0 P,0,169489,170289,A
Sprite,Foreground,Centre,"sb\hl2.png",418.9416,255.125 C,0,169533,,228,228,228 F,2,169533,170333,0.5,0 P,0,169533,170333,A
Sprite,Foreground,Centre,"sb\hl2.png",576,363 C,0,169710,,128,255,255 F,2,169710,170510,0.5,0 S,2,169710,170510,1,0.8 P,0,169710,170510,A
Sprite,Foreground,Centre,"sb\hl2.png",576,363 C,0,169799,,128,255,255 F,2,169799,170599,0.5,0 S,2,169799,170599,1,0.8 P,0,169799,170599,A
Sprite,Foreground,Centre,"sb\hl2.png",576,363 C,0,169887,,128,255,255 F,2,169887,170687,0.5,0 S,2,169887,170687,1,0.8 P,0,169887,170687,A
Sprite,Foreground,Centre,"sb\hl2.png",370,324 C,0,170063,,128,255,255 F,2,170063,170863,0.5,0 S,2,170063,170863,1,0.8 P,0,170063,170863,A
Sprite,Foreground,Centre,"sb\hl2.png",0,0 C,0,170240,,191,128,255 M,0,170240,170284,538,190,513.1713,187.079 F,2,170240,171392,0.5,0 S,2,170240,171392,1,0.8 P,0,170240,171392,A M,0,170284,170328,513.1713,187.079,512.5253,199.2616 M,0,170328,170372,512.5253,199.2616,514.2841,218.3637 M,0,170372,170416,514.2841,218.3637,516.8265,238.3817 M,0,170416,170460,516.8265,238.3817,519.0315,258.7756 M,0,170460,170504,519.0315,258.7756,520.739,279.1017 M,0,170504,170548,520.739,279.1017,521.9985,299.0029 M,0,170548,170592,521.9985,299.0029,522.58,319.985
Sprite,Foreground,Centre,"sb\hl2.png",538,190 C,0,170284,,191,128,255 F,2,170284,171084,0.5,0 P,0,170284,171084,A
Sprite,Foreground,Centre,"sb\hl2.png",513.1713,187.079 C,0,170328,,191,128,255 F,2,170328,171128,0.5,0 P,0,170328,171128,A
Sprite,Foreground,Centre,"sb\hl2.png",512.5253,199.2616 C,0,170372,,191,128,255 F,2,170372,171172,0.5,0 P,0,170372,171172,A
Sprite,Foreground,Centre,"sb\hl2.png",514.2841,218.3637 C,0,170416,,191,128,255 F,2,170416,171216,0.5,0 P,0,170416,171216,A
Sprite,Foreground,Centre,"sb\hl2.png",516.8265,238.3817 C,0,170460,,191,128,255 F,2,170460,171260,0.5,0 P,0,170460,171260,A
Sprite,Foreground,Centre,"sb\hl2.png",519.0315,258.7756 C,0,170504,,191,128,255 F,2,170504,171304,0.5,0 P,0,170504,171304,A
Sprite,Foreground,Centre,"sb\hl2.png",520.739,279.1017 C,0,170548,,191,128,255 F,2,170548,171348,0.5,0 P,0,170548,171348,A
Sprite,Foreground,Centre,"sb\hl2.png",521.9985,299.0029 C,0,170592,,191,128,255 F,2,170592,171392,0.5,0 P,0,170592,171392,A
Sprite,Foreground,Centre,"sb\hl2.png",0,0 C,0,173063,,6,87,255 M,0,173063,173107,557,426,541.3826,406.4783 F,2,173063,174215,0.5,0 S,2,173063,174215,1,0.8 P,0,173063,174215,A M,0,173107,173151,541.3826,406.4783,523.8485,391.5244 M,0,173151,173195,523.8485,391.5244,498.977,394.0562 M,0,173195,173239,498.977,394.0562,474.1056,396.588 M,0,173239,173283,474.1056,396.588,449.2341,399.1199 M,0,173283,173327,449.2341,399.1199,424.3626,401.6517 M,0,173327,173371,424.3626,401.6517,399.4911,404.1835 M,0,173371,173415,399.4911,404.1835,374.6197,406.7154
Sprite,Foreground,Centre,"sb\hl2.png",557,426 C,0,173107,,6,87,255 F,2,173107,173907,0.5,0 P,0,173107,173907,A
Sprite,Foreground,Centre,"sb\hl2.png",541.3826,406.4783 C,0,173151,,6,87,255 F,2,173151,173951,0.5,0 P,0,173151,173951,A
Sprite,Foreground,Centre,"sb\hl2.png",523.8485,391.5244 C,0,173195,,6,87,255 F,2,173195,173995,0.5,0 P,0,173195,173995,A
Sprite,Foreground,Centre,"sb\hl2.png",498.977,394.0562 C,0,173239,,6,87,255 F,2,173239,174039,0.5,0 P,0,173239,174039,A
Sprite,Foreground,Centre,"sb\hl2.png",474.1056,396.588 C,0,173283,,6,87,255 F,2,173283,174083,0.5,0 P,0,173283,174083,A
Sprite,Foreground,Centre,"sb\hl2.png",449.2341,399.1199 C,0,173327,,6,87,255 F,2,173327,174127,0.5,0 P,0,173327,174127,A
Sprite,Foreground,Centre,"sb\hl2.png",424.3626,401.6517 C,0,173371,,6,87,255 F,2,173371,174171,0.5,0 P,0,173371,174171,A
Sprite,Foreground,Centre,"sb\hl2.png",399.4911,404.1835 C,0,173415,,6,87,255 F,2,173415,174215,0.5,0 P,0,173415,174215,A
Sprite,Foreground,Centre,"sb\hl2.png",0,0 C,0,173593,,6,87,255 M,0,173593,173637,204,391,228.7093,387.1986 F,2,173593,174569,0.5,0 S,2,173593,174569,1,0.8 P,0,173593,174569,A M,0,173637,173681,228.7093,387.1986,235.4138,363.9327 M,0,173681,173725,235.4138,363.9327,241.1259,339.594 M,0,173725,173769,241.1259,339.594,246.838,315.2553
Sprite,Foreground,Centre,"sb\hl2.png",204,391 C,0,173637,,6,87,255 F,2,173637,174437,0.5,0 P,0,173637,174437,A
Sprite,Foreground,Centre,"sb\hl2.png",228.7093,387.1986 C,0,173681,,6,87,255 F,2,173681,174481,0.5,0 P,0,173681,174481,A
Sprite,Foreground,Centre,"sb\hl2.png",235.4138,363.9327 C,0,173725,,6,87,255 F,2,173725,174525,0.5,0 P,0,173725,174525,A
Sprite,Foreground,Centre,"sb\hl2.png",241.1259,339.594 C,0,173769,,6,87,255 F,2,173769,174569,0.5,0 P,0,173769,174569,A
Sprite,Foreground,Centre,"sb\hl2.png",0,0 C,0,173946,,6,87,255 M,0,173946,173990,89,238,94.49598,262.3884 F,2,173946,174922,0.5,0 S,2,173946,174922,1,0.8 P,0,173946,174922,A M,0,173990,174034,94.49598,262.3884,99.99196,286.7768 M,0,174034,174078,99.99196,286.7768,107.1937,309.3375 M,0,174078,174122,107.1937,309.3375,131,313
Sprite,Foreground,Centre,"sb\hl2.png",89,238 C,0,173990,,6,87,255 F,2,173990,174790,0.5,0 P,0,173990,174790,A
Sprite,Foreground,Centre,"sb\hl2.png",94.49598,262.3884 C,0,174034,,6,87,255 F,2,174034,174834,0.5,0 P,0,174034,174834,A
Sprite,Foreground,Centre,"sb\hl2.png",99.99196,286.7768 C,0,174078,,6,87,255 F,2,174078,174878,0.5,0 P,0,174078,174878,A
Sprite,Foreground,Centre,"sb\hl2.png",107.1937,309.3375 C,0,174122,,6,87,255 F,2,174122,174922,0.5,0 P,0,174122,174922,A
Sprite,Foreground,Centre,"sb\hl2.png",0,0 C,0,174299,,6,87,255 M,0,174299,174343,267,202,291.3884,207.496 F,2,174299,175275,0.5,0 S,2,174299,175275,1,0.8 P,0,174299,175275,A M,0,174343,174387,291.3884,207.496,315.7768,212.992 M,0,174387,174431,315.7768,212.992,338.3375,220.1937 M,0,174431,174475,338.3375,220.1937,342,244
Sprite,Foreground,Centre,"sb\hl2.png",267,202 C,0,174343,,6,87,255 F,2,174343,175143,0.5,0 P,0,174343,175143,A
Sprite,Foreground,Centre,"sb\hl2.png",291.3884,207.496 C,0,174387,,6,87,255 F,2,174387,175187,0.5,0 P,0,174387,175187,A
Sprite,Foreground,Centre,"sb\hl2.png",315.7768,212.992 C,0,174431,,6,87,255 F,2,174431,175231,0.5,0 P,0,174431,175231,A
Sprite,Foreground,Centre,"sb\hl2.png",338.3375,220.1937 C,0,174475,,6,87,255 F,2,174475,175275,0.5,0 P,0,174475,175275,A
Sprite,Foreground,Centre,"sb\hl2.png",0,0 C,0,174652,,6,87,255 M,0,174652,174696,421,396,396.669,390.2552 F,2,174652,175628,0.5,0 S,2,174652,175628,1,0.8 P,0,174652,175628,A M,0,174696,174740,396.669,390.2552,372.338,384.5104 M,0,174740,174784,372.338,384.5104,348.8448,377.9916 M,0,174784,174828,348.8448,377.9916,345.0434,353.2823
Sprite,Foreground,Centre,"sb\hl2.png",421,396 C,0,174696,,6,87,255 F,2,174696,175496,0.5,0 P,0,174696,175496,A
Sprite,Foreground,Centre,"sb\hl2.png",396.669,390.2552 C,0,174740,,6,87,255 F,2,174740,175540,0.5,0 P,0,174740,175540,A
Sprite,Foreground,Centre,"sb\hl2.png",372.338,384.5104 C,0,174784,,6,87,255 F,2,174784,175584,0.5,0 P,0,174784,175584,A
Sprite,Foreground,Centre,"sb\hl2.png",348.8448,377.9916 C,0,174828,,6,87,255 F,2,174828,175628,0.5,0 P,0,174828,175628,A
Sprite,Foreground,Centre,"sb\hl2.png",0,0 C,0,175004,,6,87,255 M,0,175004,175048,451,214,445.2552,189.669 F,2,175004,175980,0.5,0 S,2,175004,175980,1,0.8 P,0,175004,175980,A M,0,175048,175092,445.2552,189.669,439.5104,165.338 M,0,175092,175136,439.5104,165.338,432.9916,141.8449 M,0,175136,175180,432.9916,141.8449,408.2823,138.0434
Sprite,Foreground,Centre,"sb\hl2.png",451,214 C,0,175048,,6,87,255 F,2,175048,175848,0.5,0 P,0,175048,175848,A
Sprite,Foreground,Centre,"sb\hl2.png",445.2552,189.669 C,0,175092,,6,87,255 F,2,175092,175892,0.5,0 P,0,175092,175892,A
Sprite,Foreground,Centre,"sb\hl2.png",439.5104,165.338 C,0,175136,,6,87,255 F,2,175136,175936,0.5,0 P,0,175136,175936,A
Sprite,Foreground,Centre,"sb\hl2.png",432.9916,141.8449 C,0,175180,,6,87,255 F,2,175180,175980,0.5,0 P,0,175180,175980,A
Sprite,Foreground,Centre,"sb\hl2.png",436,305 C,0,175357,,228,228,228 F,2,175357,176157,0.5,0 S,2,175357,176157,1,0.8 P,0,175357,176157,A
Sprite,Foreground,Centre,"sb\hl2.png",530,163 C,0,175534,,228,228,228 F,2,175534,176334,0.5,0 S,2,175534,176334,1,0.8 P,0,175534,176334,A
Sprite,Foreground,Centre,"sb\hl2.png",474,302 C,0,175710,,228,228,228 F,2,175710,176510,0.5,0 S,2,175710,176510,1,0.8 P,0,175710,176510,A
Sprite,Foreground,Centre,"sb\hl2.png",0,0 C,0,175887,,6,87,255 M,0,175887,175931,373,134,348.6184,128.5798 F,2,175887,177039,0.5,0 S,2,175887,177039,1,0.8 P,0,175887,177039,A M,0,175931,175975,348.6184,128.5798,323.7208,126.6353 M,0,175975,176019,323.7208,126.6353,298.7999,128.2039 M,0,176019,176063,298.7999,128.2039,274.3484,133.2538 M,0,176063,176107,274.3484,133.2538,250.8501,141.6845 M,0,176107,176151,250.8501,141.6845,228.7696,153.3285 M,0,176151,176195,228.7696,153.3285,208.5435,167.9548 M,0,176195,176239,208.5435,167.9548,190.5715,185.2738
Sprite,Foreground,Centre,"sb\hl2.png",373,134 C,0,175931,,6,87,255 F,2,175931,176731,0.5,0 P,0,175931,176731,A
Sprite,Foreground,Centre,"sb\hl2.png",348.6184,128.5798 C,0,175975,,6,87,255 F,2,175975,176775,0.5,0 P,0,175975,176775,A
Sprite,Foreground,Centre,"sb\hl2.png",323.7208,126.6353 C,0,176019,,6,87,255 F,2,176019,176819,0.5,0 P,0,176019,176819,A
Sprite,Foreground,Centre,"sb\hl2.png",298.7999,128.2039 C,0,176063,,6,87,255 F,2,176063,176863,0.5,0 P,0,176063,176863,A
Sprite,Foreground,Centre,"sb\hl2.png",274.3484,133.2538 C,0,176107,,6,87,255 F,2,176107,176907,0.5,0 P,0,176107,176907,A
Sprite,Foreground,Centre,"sb\hl2.png",250.8501,141.6845 C,0,176151,,6,87,255 F,2,176151,176951,0.5,0 P,0,176151,176951,A
Sprite,Foreground,Centre,"sb\hl2.png",228.7696,153.3285 C,0,176195,,6,87,255 F,2,176195,176995,0.5,0 P,0,176195,176995,A
Sprite,Foreground,Centre,"sb\hl2.png",208.5435,167.9548 C,0,176239,,6,87,255 F,2,176239,177039,0.5,0 P,0,176239,177039,A
Sprite,Foreground,Centre,"sb\hl2.png",0,0 C,0,176416,,6,87,255 M,0,176416,176460,172,360,196.9371,359.4879 F,2,176416,177392,0.5,0 S,2,176416,177392,1,0.8 P,0,176416,177392,A M,0,176460,176504,196.9371,359.4879,221.0789,353.2249 M,0,176504,176548,221.0789,353.2249,243.1176,341.5509 M,0,176548,176592,243.1176,341.5509,261.8594,325.099
Sprite,Foreground,Centre,"sb\hl2.png",172,360 C,0,176460,,6,87,255 F,2,176460,177260,0.5,0 P,0,176460,177260,A
Sprite,Foreground,Centre,"sb\hl2.png",196.9371,359.4879 C,0,176504,,6,87,255 F,2,176504,177304,0.5,0 P,0,176504,177304,A
Sprite,Foreground,Centre,"sb\hl2.png",221.0789,353.2249 C,0,176548,,6,87,255 F,2,176548,177348,0.5,0 P,0,176548,177348,A
Sprite,Foreground,Centre,"sb\hl2.png",243.1176,341.5509 C,0,176592,,6,87,255 F,2,176592,177392,0.5,0 P,0,176592,177392,A
Sprite,Foreground,Centre,"sb\hl2.png",0,0 C,0,176769,,6,87,255 M,0,176769,176813,436,305,422.5947,284.0006 F,2,176769,177745,0.5,0 S,2,176769,177745,1,0.8 P,0,176769,177745,A M,0,176813,176857,422.5947,284.0006,405.0761,266.3394 M,0,176857,176901,405.0761,266.3394,384.049,253.0474 M,0,176901,176945,384.049,253.0474,360.5803,244.799
Sprite,Foreground,Centre,"sb\hl2.png",436,305 C,0,176813,,6,87,255 F,2,176813,177613,0.5,0 P,0,176813,177613,A
Sprite,Foreground,Centre,"sb\hl2.png",422.5947,284.0006 C,0,176857,,6,87,255 F,2,176857,177657,0.5,0 P,0,176857,177657,A
Sprite,Foreground,Centre,"sb\hl2.png",405.0761,266.3394 C,0,176901,,6,87,255 F,2,176901,177701,0.5,0 P,0,176901,177701,A
Sprite,Foreground,Centre,"sb\hl2.png",384.049,253.0474 C,0,176945,,6,87,255 F,2,176945,177745,0.5,0 P,0,176945,177745,A
Sprite,Foreground,Centre,"sb\hl2.png",356,400 C,0,177122,,6,87,255 F,2,177122,177922,0.5,0 S,2,177122,177922,1,0.8 P,0,177122,177922,A
Sprite,Foreground,Centre,"sb\hl2.png",0,0 C,0,177299,,228,228,228 M,0,177299,177343,267,231,261.5674,206.6565 F,2,177299,178451,0.5,0 S,2,177299,178451,1,0.8 P,0,177299,178451,A M,0,177343,177387,261.5674,206.6565,261.55,181.7241 M,0,177387,177431,261.55,181.7241,266.9448,157.3916 M,0,177431,177475,266.9448,157.3916,277.491,134.8181 M,0,177475,177519,277.491,134.8181,292.683,115.0787 M,0,177519,177563,292.683,115.0787,311.7943,99.11298 M,0,177563,177607,311.7943,99.11298,333.9122,87.68034 M,0,177607,177651,333.9122,87.68034,357.9812,81.32436
Sprite,Foreground,Centre,"sb\hl2.png",267,231 C,0,177343,,228,228,228 F,2,177343,178143,0.5,0 P,0,177343,178143,A
Sprite,Foreground,Centre,"sb\hl2.png",261.5674,206.6565 C,0,177387,,228,228,228 F,2,177387,178187,0.5,0 P,0,177387,178187,A
Sprite,Foreground,Centre,"sb\hl2.png",261.55,181.7241 C,0,177431,,228,228,228 F,2,177431,178231,0.5,0 P,0,177431,178231,A
Sprite,Foreground,Centre,"sb\hl2.png",266.9448,157.3916 C,0,177475,,228,228,228 F,2,177475,178275,0.5,0 P,0,177475,178275,A
Sprite,Foreground,Centre,"sb\hl2.png",277.491,134.8181 C,0,177519,,228,228,228 F,2,177519,178319,0.5,0 P,0,177519,178319,A
Sprite,Foreground,Centre,"sb\hl2.png",292.683,115.0787 C,0,177563,,228,228,228 F,2,177563,178363,0.5,0 P,0,177563,178363,A
Sprite,Foreground,Centre,"sb\hl2.png",311.7943,99.11298 C,0,177607,,228,228,228 F,2,177607,178407,0.5,0 P,0,177607,178407,A
Sprite,Foreground,Centre,"sb\hl2.png",333.9122,87.68034 C,0,177651,,228,228,228 F,2,177651,178451,0.5,0 P,0,177651,178451,A
Sprite,Foreground,Centre,"sb\hl2.png",0,0 C,0,177828,,228,228,228 M,0,177828,177872,360,244,352.8445,267.8271 F,2,177828,178804,0.5,0 S,2,177828,178804,1,0.8 P,0,177828,178804,A M,0,177872,177916,352.8445,267.8271,340.017,289.0818 M,0,177916,177960,340.017,289.0818,322.0481,306.2122 M,0,177960,178004,322.0481,306.2122,300.2042,318.0106
Sprite,Foreground,Centre,"sb\hl2.png",360,244 C,0,177872,,228,228,228 F,2,177872,178672,0.5,0 P,0,177872,178672,A
Sprite,Foreground,Centre,"sb\hl2.png",352.8445,267.8271 C,0,177916,,228,228,228 F,2,177916,178716,0.5,0 P,0,177916,178716,A
Sprite,Foreground,Centre,"sb\hl2.png",340.017,289.0818 C,0,177960,,228,228,228 F,2,177960,178760,0.5,0 P,0,177960,178760,A
Sprite,Foreground,Centre,"sb\hl2.png",322.0481,306.2122 C,0,178004,,228,228,228 F,2,178004,178804,0.5,0 P,0,178004,178804,A
Sprite,Foreground,Centre,"sb\hl2.png",0,0 C,0,178181,,228,228,228 M,0,178181,178225,113,262,120.1555,238.1729 F,2,178181,179157,0.5,0 S,2,178181,179157,1,0.8 P,0,178181,179157,A M,0,178225,178269,120.1555,238.1729,132.983,216.9182 M,0,178269,178313,132.983,216.9182,150.9519,199.7878 M,0,178313,178357,150.9519,199.7878,172.7958,187.9894
Sprite,Foreground,Centre,"sb\hl2.png",113,262 C,0,178225,,228,228,228 F,2,178225,179025,0.5,0 P,0,178225,179025,A
Sprite,Foreground,Centre,"sb\hl2.png",120.1555,238.1729 C,0,178269,,228,228,228 F,2,178269,179069,0.5,0 P,0,178269,179069,A
Sprite,Foreground,Centre,"sb\hl2.png",132.983,216.9182 C,0,178313,,228,228,228 F,2,178313,179113,0.5,0 P,0,178313,179113,A
Sprite,Foreground,Centre,"sb\hl2.png",150.9519,199.7878 C,0,178357,,228,228,228 F,2,178357,179157,0.5,0 P,0,178357,179157,A
Sprite,Foreground,Centre,"sb\hl2.png",186,358 C,0,178534,,228,228,228 F,2,178534,179334,0.5,0 S,2,178534,179334,1,0.8 P,0,178534,179334,A
Sprite,Foreground,Centre,"sb\hl2.png",169,154 C,0,178710,,6,87,255 F,2,178710,179510,0.5,0 S,2,178710,179510,1,0.8 P,0,178710,179510,A
Sprite,Foreground,Centre,"sb\hl2.png",193,123 C,0,179063,,228,228,228 F,2,179063,179863,0.5,0 S,2,179063,179863,1,0.8 P,0,179063,179863,A
Sprite,Foreground,Centre,"sb\hl2.png",0,0 C,0,179240,,228,228,228 M,0,179240,179284,351,210,374.8993,203.3313 F,2,179240,180216,0.5,0 S,2,179240,180216,1,0.8 P,0,179240,180216,A M,0,179284,179328,374.8993,203.3313,398.3844,208.0996 M,0,179328,179372,398.3844,208.0996,421.9002,208.3843 M,0,179372,179416,421.9002,208.3843,445.4398,205.1977
Sprite,Foreground,Centre,"sb\hl2.png",351,210 C,0,179284,,228,228,228 F,2,179284,180084,0.5,0 P,0,179284,180084,A
Sprite,Foreground,Centre,"sb\hl2.png",374.8993,203.3313 C,0,179328,,228,228,228 F,2,179328,180128,0.5,0 P,0,179328,180128,A
Sprite,Foreground,Centre,"sb\hl2.png",398.3844,208.0996 C,0,179372,,228,228,228 F,2,179372,180172,0.5,0 P,0,179372,180172,A
Sprite,Foreground,Centre,"sb\hl2.png",421.9002,208.3843 C,0,179416,,228,228,228 F,2,179416,180216,0.5,0 P,0,179416,180216,A
Sprite,Foreground,Centre,"sb\hl2.png",0,0 C,0,179593,,228,228,228 M,0,179593,179637,207,266,183.1007,259.3313 F,2,179593,180569,0.5,0 S,2,179593,180569,1,0.8 P,0,179593,180569,A M,0,179637,179681,183.1007,259.3313,159.6156,264.0996 M,0,179681,179725,159.6156,264.0996,136.0998,264.3843 M,0,179725,179769,136.0998,264.3843,112.5602,261.1977
Sprite,Foreground,Centre,"sb\hl2.png",207,266 C,0,179637,,228,228,228 F,2,179637,180437,0.5,0 P,0,179637,180437,A
Sprite,Foreground,Centre,"sb\hl2.png",183.1007,259.3313 C,0,179681,,228,228,228 F,2,179681,180481,0.5,0 P,0,179681,180481,A
Sprite,Foreground,Centre,"sb\hl2.png",159.6156,264.0996 C,0,179725,,228,228,228 F,2,179725,180525,0.5,0 P,0,179725,180525,A
Sprite,Foreground,Centre,"sb\hl2.png",136.0998,264.3843 C,0,179769,,228,228,228 F,2,179769,180569,0.5,0 P,0,179769,180569,A
Sprite,Foreground,Centre,"sb\hl2.png",80,258 C,0,179857,,228,228,228 F,2,179857,180657,0.5,0 S,2,179857,180657,1,0.8 P,0,179857,180657,A
Sprite,Foreground,Centre,"sb\hl2.png",80,258 C,0,179946,,6,87,255 F,2,179946,180746,0.5,0 S,2,179946,180746,1,0.8 P,0,179946,180746,A
Sprite,Foreground,Centre,"sb\hl2.png",169,154 C,0,180122,,228,228,228 F,2,180122,180922,0.5,0 S,2,180122,180922,1,0.8 P,0,180122,180922,A
Sprite,Foreground,Centre,"sb\hl2.png",314,222 C,0,180299,,136,136,136 F,2,180299,181099,0.5,0 S,2,180299,181099,1,0.8 P,0,180299,181099,A
Sprite,Foreground,Centre,"sb\hl2.png",258,398 C,0,180475,,255,128,128 F,2,180475,181275,0.5,0 S,2,180475,181275,1,0.8 P,0,180475,181275,A
Sprite,Foreground,Centre,"sb\hl2.png",223,231 C,0,180652,,133,11,255 F,2,180652,181452,0.5,0 S,2,180652,181452,1,0.8 P,0,180652,181452,A
Sprite,Foreground,Centre,"sb\hl2.png",351,138 C,0,180828,,128,255,255 F,2,180828,181628,0.5,0 S,2,180828,181628,1,0.8 P,0,180828,181628,A
Sprite,Foreground,Centre,"sb\hl2.png",449,223 C,0,181004,,255,6,6 F,2,181004,181804,0.5,0 S,2,181004,181804,1,0.8 P,0,181004,181804,A
Sprite,Foreground,Centre,"sb\hl2.png",367,296 C,0,181181,,191,128,255 F,2,181181,181981,0.5,0 S,2,181181,181981,1,0.8 P,0,181181,181981,A
Sprite,Foreground,Centre,"sb\hl2.png",314,222 C,0,181357,,6,87,255 F,2,181357,182157,0.5,0 S,2,181357,182157,1,0.8 P,0,181357,182157,A
Sprite,Foreground,Centre,"sb\hl2.png",0,0 C,0,181534,,228,228,228 M,0,181534,181578,464,130,487.807,137.5829 F,2,181534,182686,0.5,0 S,2,181534,182686,1,0.8 P,0,181534,182686,A M,0,181578,181622,487.807,137.5829,512.3398,142.3192 M,0,181622,181666,512.3398,142.3192,526.4253,160.3561 M,0,181666,181710,526.4253,160.3561,535.1808,183.7611 M,0,181710,181754,535.1808,183.7611,541.6289,207.9061 M,0,181754,181798,541.6289,207.9061,545.9705,232.5192 M,0,181798,181842,545.9705,232.5192,548.4332,257.3922 M,0,181842,181886,548.4332,257.3922,549.2415,282.3752
Sprite,Foreground,Centre,"sb\hl2.png",464,130 C,0,181578,,228,228,228 F,2,181578,182378,0.5,0 P,0,181578,182378,A
Sprite,Foreground,Centre,"sb\hl2.png",487.807,137.5829 C,0,181622,,228,228,228 F,2,181622,182422,0.5,0 P,0,181622,182422,A
Sprite,Foreground,Centre,"sb\hl2.png",512.3398,142.3192 C,0,181666,,228,228,228 F,2,181666,182466,0.5,0 P,0,181666,182466,A
Sprite,Foreground,Centre,"sb\hl2.png",526.4253,160.3561 C,0,181710,,228,228,228 F,2,181710,182510,0.5,0 P,0,181710,182510,A
Sprite,Foreground,Centre,"sb\hl2.png",535.1808,183.7611 C,0,181754,,228,228,228 F,2,181754,182554,0.5,0 P,0,181754,182554,A
Sprite,Foreground,Centre,"sb\hl2.png",541.6289,207.9061 C,0,181798,,228,228,228 F,2,181798,182598,0.5,0 P,0,181798,182598,A
Sprite,Foreground,Centre,"sb\hl2.png",545.9705,232.5192 C,0,181842,,228,228,228 F,2,181842,182642,0.5,0 P,0,181842,182642,A
Sprite,Foreground,Centre,"sb\hl2.png",548.4332,257.3922 C,0,181886,,228,228,228 F,2,181886,182686,0.5,0 P,0,181886,182686,A
Sprite,Foreground,Centre,"sb\hl2.png",0,0 C,0,182063,,228,228,228 M,0,182063,182107,411,374,387.3753,365.8222 F,2,182063,183039,0.5,0 S,2,182063,183039,1,0.8 P,0,182063,183039,A M,0,182107,182151,387.3753,365.8222,376.4423,344.2215 M,0,182151,182195,376.4423,344.2215,369.9889,320.0879 M,0,182195,182239,369.9889,320.0879,366.6423,295.3284
Sprite,Foreground,Centre,"sb\hl2.png",411,374 C,0,182107,,228,228,228 F,2,182107,182907,0.5,0 P,0,182107,182907,A
Sprite,Foreground,Centre,"sb\hl2.png",387.3753,365.8222 C,0,182151,,228,228,228 F,2,182151,182951,0.5,0 P,0,182151,182951,A
Sprite,Foreground,Centre,"sb\hl2.png",376.4423,344.2215 C,0,182195,,228,228,228 F,2,182195,182995,0.5,0 P,0,182195,182995,A
Sprite,Foreground,Centre,"sb\hl2.png",369.9889,320.0879 C,0,182239,,228,228,228 F,2,182239,183039,0.5,0 P,0,182239,183039,A
Sprite,Foreground,Centre,"sb\hl2.png",508,372 C,0,182416,,228,228,228 F,2,182416,183216,0.5,0 S,2,182416,183216,1,0.8 P,0,182416,183216,A
Sprite,Foreground,Centre,"sb\hl2.png",449,223 C,0,182593,,228,228,228 F,2,182593,183393,0.5,0 S,2,182593,183393,1,0.8 P,0,182593,183393,A
Sprite,Foreground,Centre,"sb\hl2.png",406,408 C,0,182769,,228,228,228 F,2,182769,183569,0.5,0 S,2,182769,183569,1,0.8 P,0,182769,183569,A
Sprite,Foreground,Centre,"sb\hl2.png",0,0 C,0,182946,,6,87,255 M,0,182946,182990,242,293,217.1423,295.5842 F,2,182946,184098,0.5,0 S,2,182946,184098,1,0.8 P,0,182946,184098,A M,0,182990,183034,217.1423,295.5842,192.5884,300.2505 M,0,183034,183078,192.5884,300.2505,168.4453,306.7206 M,0,183078,183122,168.4453,306.7206,144.7705,314.7399 M,0,183122,183166,144.7705,314.7399,121.5861,324.0854 M,0,183166,183210,121.5861,324.0854,98.89244,334.5681 M,0,183210,183254,98.89244,334.5681,97.47085,321.5875 M,0,183254,183298,97.47085,321.5875,105.3765,297.8704
Sprite,Foreground,Centre,"sb\hl2.png",242,293 C,0,182990,,6,87,255 F,2,182990,183790,0.5,0 P,0,182990,183790,A
Sprite,Foreground,Centre,"sb\hl2.png",217.1423,295.5842 C,0,183034,,6,87,255 F,2,183034,183834,0.5,0 P,0,183034,183834,A
Sprite,Foreground,Centre,"sb\hl2.png",192.5884,300.2505 C,0,183078,,6,87,255 F,2,183078,183878,0.5,0 P,0,183078,183878,A
Sprite,Foreground,Centre,"sb\hl2.png",168.4453,306.7206 C,0,183122,,6,87,255 F,2,183122,183922,0.5,0 P,0,183122,183922,A
Sprite,Foreground,Centre,"sb\hl2.png",144.7705,314.7399 C,0,183166,,6,87,255 F,2,183166,183966,0.5,0 P,0,183166,183966,A
Sprite,Foreground,Centre,"sb\hl2.png",121.5861,324.0854 C,0,183210,,6,87,255 F,2,183210,184010,0.5,0 P,0,183210,184010,A
Sprite,Foreground,Centre,"sb\hl2.png",98.89244,334.5681 C,0,183254,,6,87,255 F,2,183254,184054,0.5,0 P,0,183254,184054,A
Sprite,Foreground,Centre,"sb\hl2.png",97.47085,321.5875 C,0,183298,,6,87,255 F,2,183298,184098,0.5,0 P,0,183298,184098,A
Sprite,Foreground,Centre,"sb\hl2.png",0,0 C,0,183475,,6,87,255 M,0,183475,183519,203,164,227.7261,160.5225 F,2,183475,184451,0.5,0 S,2,183475,184451,1,0.8 P,0,183475,184451,A M,0,183519,183563,227.7261,160.5225,252.6841,161.1957 M,0,183563,183607,252.6841,161.1957,277.1824,166.0002 M,0,183607,183651,277.1824,166.0002,300.5555,174.7768
Sprite,Foreground,Centre,"sb\hl2.png",203,164 C,0,183519,,6,87,255 F,2,183519,184319,0.5,0 P,0,183519,184319,A
Sprite,Foreground,Centre,"sb\hl2.png",227.7261,160.5225 C,0,183563,,6,87,255 F,2,183563,184363,0.5,0 P,0,183563,184363,A
Sprite,Foreground,Centre,"sb\hl2.png",252.6841,161.1957 C,0,183607,,6,87,255 F,2,183607,184407,0.5,0 P,0,183607,184407,A
Sprite,Foreground,Centre,"sb\hl2.png",277.1824,166.0002 C,0,183651,,6,87,255 F,2,183651,184451,0.5,0 P,0,183651,184451,A
Sprite,Foreground,Centre,"sb\hl2.png",325,351 C,0,183828,,6,87,255 F,2,183828,184628,0.5,0 S,2,183828,184628,1,0.8 P,0,183828,184628,A
Sprite,Foreground,Centre,"sb\hl2.png",334,162 C,0,184004,,6,87,255 F,2,184004,184804,0.5,0 S,2,184004,184804,1,0.8 P,0,184004,184804,A
Sprite,Foreground,Centre,"sb\hl2.png",233,329 C,0,184181,,6,87,255 F,2,184181,184981,0.5,0 S,2,184181,184981,1,0.8 P,0,184181,184981,A
Sprite,Foreground,Centre,"sb\hl2.png",403,228 C,0,184357,,6,87,255 F,2,184357,185157,0.5,0 S,2,184357,185157,1,0.8 P,0,184357,185157,A
Sprite,Foreground,Centre,"sb\hl2.png",439,239 C,0,184710,,133,11,255 F,2,184710,185510,0.5,0 S,2,184710,185510,1,0.8 P,0,184710,185510,A
Sprite,Foreground,Centre,"sb\hl2.png",391,86 C,0,184887,,133,11,255 F,2,184887,185687,0.5,0 S,2,184887,185687,1,0.8 P,0,184887,185687,A
Sprite,Foreground,Centre,"sb\hl2.png",391,86 C,0,184975,,133,11,255 F,2,184975,185775,0.5,0 S,2,184975,185775,1,0.8 P,0,184975,185775,A
Sprite,Foreground,Centre,"sb\hl2.png",391,86 C,0,185063,,133,11,255 F,2,185063,185863,0.5,0 S,2,185063,185863,1,0.8 P,0,185063,185863,A
Sprite,Foreground,Centre,"sb\hl2.png",542,167 C,0,185240,,133,11,255 F,2,185240,186040,0.5,0 S,2,185240,186040,1,0.8 P,0,185240,186040,A
Sprite,Foreground,Centre,"sb\hl2.png",542,167 C,0,185328,,133,11,255 F,2,185328,186128,0.5,0 S,2,185328,186128,1,0.8 P,0,185328,186128,A
Sprite,Foreground,Centre,"sb\hl2.png",542,167 C,0,185416,,133,11,255 F,2,185416,186216,0.5,0 S,2,185416,186216,1,0.8 P,0,185416,186216,A
Sprite,Foreground,Centre,"sb\hl2.png",547,338 C,0,185593,,133,11,255 F,2,185593,186393,0.5,0 S,2,185593,186393,1,0.8 P,0,185593,186393,A
Sprite,Foreground,Centre,"sb\hl2.png",547,338 C,0,185681,,133,11,255 F,2,185681,186481,0.5,0 S,2,185681,186481,1,0.8 P,0,185681,186481,A
Sprite,Foreground,Centre,"sb\hl2.png",547,338 C,0,185769,,133,11,255 F,2,185769,186569,0.5,0 S,2,185769,186569,1,0.8 P,0,185769,186569,A
Sprite,Foreground,Centre,"sb\hl2.png",401,428 C,0,185946,,128,255,255 F,2,185946,186746,0.5,0 S,2,185946,186746,1,0.8 P,0,185946,186746,A
Sprite,Foreground,Centre,"sb\hl2.png",401,428 C,0,186034,,128,255,255 F,2,186034,186834,0.5,0 S,2,186034,186834,1,0.8 P,0,186034,186834,A
Sprite,Foreground,Centre,"sb\hl2.png",401,428 C,0,186122,,128,255,255 F,2,186122,186922,0.5,0 S,2,186122,186922,1,0.8 P,0,186122,186922,A
Sprite,Foreground,Centre,"sb\hl2.png",396,257 C,0,186299,,128,255,255 F,2,186299,187099,0.5,0 S,2,186299,187099,1,0.8 P,0,186299,187099,A
Sprite,Foreground,Centre,"sb\hl2.png",396,257 C,0,186387,,128,255,255 F,2,186387,187187,0.5,0 S,2,186387,187187,1,0.8 P,0,186387,187187,A
Sprite,Foreground,Centre,"sb\hl2.png",396,257 C,0,186475,,128,255,255 F,2,186475,187275,0.5,0 S,2,186475,187275,1,0.8 P,0,186475,187275,A
Sprite,Foreground,Centre,"sb\hl2.png",245,176 C,0,186652,,128,255,255 F,2,186652,187452,0.5,0 S,2,186652,187452,1,0.8 P,0,186652,187452,A
Sprite,Foreground,Centre,"sb\hl2.png",245,176 C,0,186740,,128,255,255 F,2,186740,187540,0.5,0 S,2,186740,187540,1,0.8 P,0,186740,187540,A
Sprite,Foreground,Centre,"sb\hl2.png",245,176 C,0,186828,,133,11,255 F,2,186828,187628,0.5,0 S,2,186828,187628,1,0.8 P,0,186828,187628,A
Sprite,Foreground,Centre,"sb\hl2.png",260,315 C,0,187004,,133,11,255 F,2,187004,187804,0.5,0 S,2,187004,187804,1,0.8 P,0,187004,187804,A
Sprite,Foreground,Centre,"sb\hl2.png",0,0 C,0,187181,,6,87,255 M,0,187181,187225,136,164,130.4397,139.8275 F,2,187181,188333,0.5,0 S,2,187181,188333,1,0.8 P,0,187181,188333,A M,0,187225,187269,130.4397,139.8275,133.7815,119.4114 M,0,187269,187313,133.7815,119.4114,151.2154,101.511 M,0,187313,187357,151.2154,101.511,170.6677,85.83605 M,0,187357,187401,170.6677,85.83605,192.1224,73.04893 M,0,187401,187445,192.1224,73.04893,215.3103,63.7794 M,0,187445,187489,215.3103,63.7794,239.7001,58.41808 M,0,187489,187533,239.7001,58.41808,264.6342,56.97303
Sprite,Foreground,Centre,"sb\hl2.png",136,164 C,0,187225,,6,87,255 F,2,187225,188025,0.5,0 P,0,187225,188025,A
Sprite,Foreground,Centre,"sb\hl2.png",130.4397,139.8275 C,0,187269,,6,87,255 F,2,187269,188069,0.5,0 P,0,187269,188069,A
Sprite,Foreground,Centre,"sb\hl2.png",133.7815,119.4114 C,0,187313,,6,87,255 F,2,187313,188113,0.5,0 P,0,187313,188113,A
Sprite,Foreground,Centre,"sb\hl2.png",151.2154,101.511 C,0,187357,,6,87,255 F,2,187357,188157,0.5,0 P,0,187357,188157,A
Sprite,Foreground,Centre,"sb\hl2.png",170.6677,85.83605 C,0,187401,,6,87,255 F,2,187401,188201,0.5,0 P,0,187401,188201,A
Sprite,Foreground,Centre,"sb\hl2.png",192.1224,73.04893 C,0,187445,,6,87,255 F,2,187445,188245,0.5,0 P,0,187445,188245,A
Sprite,Foreground,Centre,"sb\hl2.png",215.3103,63.7794 C,0,187489,,6,87,255 F,2,187489,188289,0.5,0 P,0,187489,188289,A
Sprite,Foreground,Centre,"sb\hl2.png",239.7001,58.41808 C,0,187533,,6,87,255 F,2,187533,188333,0.5,0 P,0,187533,188333,A
Sprite,Foreground,Centre,"sb\hl2.png",0,0 C,0,187710,,6,87,255 M,0,187710,187754,405,154,394.592,132.3498 F,2,187710,188686,0.5,0 S,2,187710,188686,1,0.8 P,0,187710,188686,A M,0,187754,187798,394.592,132.3498,413.3974,115.9639 M,0,187798,187842,413.3974,115.9639,435.7156,104.8728 M,0,187842,187886,435.7156,104.8728,460.1861,100.1087
Sprite,Foreground,Centre,"sb\hl2.png",405,154 C,0,187754,,6,87,255 F,2,187754,188554,0.5,0 P,0,187754,188554,A
Sprite,Foreground,Centre,"sb\hl2.png",394.592,132.3498 C,0,187798,,6,87,255 F,2,187798,188598,0.5,0 P,0,187798,188598,A
Sprite,Foreground,Centre,"sb\hl2.png",413.3974,115.9639 C,0,187842,,6,87,255 F,2,187842,188642,0.5,0 P,0,187842,188642,A
Sprite,Foreground,Centre,"sb\hl2.png",435.7156,104.8728 C,0,187886,,6,87,255 F,2,187886,188686,0.5,0 P,0,187886,188686,A
Sprite,Foreground,Centre,"sb\hl2.png",547,235 C,0,188063,,6,87,255 F,2,188063,188863,0.5,0 S,2,188063,188863,1,0.8 P,0,188063,188863,A
Sprite,Foreground,Centre,"sb\hl2.png",376,177 C,0,188240,,6,87,255 F,2,188240,189040,0.5,0 S,2,188240,189040,1,0.8 P,0,188240,189040,A
Sprite,Foreground,Centre,"sb\hl2.png",480,335 C,0,188416,,6,87,255 F,2,188416,189216,0.5,0 S,2,188416,189216,1,0.8 P,0,188416,189216,A
Sprite,Foreground,Centre,"sb\hl2.png",0,0 C,0,188593,,228,228,228 M,0,188593,188637,344,181,319.0176,181.3082 F,2,188593,189745,0.5,0 S,2,188593,189745,1,0.8 P,0,188593,189745,A M,0,188637,188681,319.0176,181.3082,294.3094,184.9655 M,0,188681,188725,294.3094,184.9655,270.4879,192.4529 M,0,188725,188769,270.4879,192.4529,248.3176,203.9348 M,0,188769,188813,248.3176,203.9348,228.4878,219.1086 M,0,188813,188857,228.4878,219.1086,211.367,237.2928 M,0,188857,188901,211.367,237.2928,232.6367,241.8296 M,0,188901,188945,232.6367,241.8296,257.4437,244.9305
Sprite,Foreground,Centre,"sb\hl2.png",344,181 C,0,188637,,228,228,228 F,2,188637,189437,0.5,0 P,0,188637,189437,A
Sprite,Foreground,Centre,"sb\hl2.png",319.0176,181.3082 C,0,188681,,228,228,228 F,2,188681,189481,0.5,0 P,0,188681,189481,A
Sprite,Foreground,Centre,"sb\hl2.png",294.3094,184.9655 C,0,188725,,228,228,228 F,2,188725,189525,0.5,0 P,0,188725,189525,A
Sprite,Foreground,Centre,"sb\hl2.png",270.4879,192.4529 C,0,188769,,228,228,228 F,2,188769,189569,0.5,0 P,0,188769,189569,A
Sprite,Foreground,Centre,"sb\hl2.png",248.3176,203.9348 C,0,188813,,228,228,228 F,2,188813,189613,0.5,0 P,0,188813,189613,A
Sprite,Foreground,Centre,"sb\hl2.png",228.4878,219.1086 C,0,188857,,228,228,228 F,2,188857,189657,0.5,0 P,0,188857,189657,A
Sprite,Foreground,Centre,"sb\hl2.png",211.367,237.2928 C,0,188901,,228,228,228 F,2,188901,189701,0.5,0 P,0,188901,189701,A
Sprite,Foreground,Centre,"sb\hl2.png",232.6367,241.8296 C,0,188945,,228,228,228 F,2,188945,189745,0.5,0 P,0,188945,189745,A
Sprite,Foreground,Centre,"sb\hl2.png",0,0 C,0,189122,,228,228,228 M,0,189122,189166,324,396,299.234,399.27 F,2,189122,190098,0.5,0 S,2,189122,190098,1,0.8 P,0,189122,190098,A M,0,189166,189210,299.234,399.27,275.1785,405.9925 M,0,189210,189254,275.1785,405.9925,252.3947,416.2248 M,0,189254,189298,252.3947,416.2248,251.0174,429.1217
Sprite,Foreground,Centre,"sb\hl2.png",324,396 C,0,189166,,228,228,228 F,2,189166,189966,0.5,0 P,0,189166,189966,A
Sprite,Foreground,Centre,"sb\hl2.png",299.234,399.27 C,0,189210,,228,228,228 F,2,189210,190010,0.5,0 P,0,189210,190010,A
Sprite,Foreground,Centre,"sb\hl2.png",275.1785,405.9925 C,0,189254,,228,228,228 F,2,189254,190054,0.5,0 P,0,189254,190054,A
Sprite,Foreground,Centre,"sb\hl2.png",252.3947,416.2248 C,0,189298,,228,228,228 F,2,189298,190098,0.5,0 P,0,189298,190098,A
Sprite,Foreground,Centre,"sb\hl2.png",350,303 C,0,189475,,228,228,228 F,2,189475,190275,0.5,0 S,2,189475,190275,1,0.8 P,0,189475,190275,A
Sprite,Foreground,Centre,"sb\hl2.png",178,339 C,0,189652,,228,228,228 F,2,189652,190452,0.5,0 S,2,189652,190452,1,0.8 P,0,189652,190452,A
Sprite,Foreground,Centre,"sb\hl2.png",256,161 C,0,189828,,228,228,228 F,2,189828,190628,0.5,0 S,2,189828,190628,1,0.8 P,0,189828,190628,A
Sprite,Foreground,Centre,"sb\hl2.png",0,0 C,0,190004,,133,11,255 M,0,190004,190048,434,239,458.6776,243.0018 F,2,190004,191156,0.5,0 S,2,190004,191156,1,0.8 P,0,190004,191156,A M,0,190048,190092,458.6776,243.0018,468.8304,257.3272 M,0,190092,190136,468.8304,257.3272,464.497,281.9488 M,0,190136,190180,464.497,281.9488,460.1636,306.5703 M,0,190180,190224,460.1636,306.5703,455.8302,331.1919 M,0,190224,190268,455.8302,331.1919,451.4968,355.8135 M,0,190268,190312,451.4968,355.8135,459.4431,371.7903 M,0,190312,190356,459.4431,371.7903,484,376
Sprite,Foreground,Centre,"sb\hl2.png",434,239 C,0,190048,,133,11,255 F,2,190048,190848,0.5,0 P,0,190048,190848,A
Sprite,Foreground,Centre,"sb\hl2.png",458.6776,243.0018 C,0,190092,,133,11,255 F,2,190092,190892,0.5,0 P,0,190092,190892,A
Sprite,Foreground,Centre,"sb\hl2.png",468.8304,257.3272 C,0,190136,,133,11,255 F,2,190136,190936,0.5,0 P,0,190136,190936,A
Sprite,Foreground,Centre,"sb\hl2.png",464.497,281.9488 C,0,190180,,133,11,255 F,2,190180,190980,0.5,0 P,0,190180,190980,A
Sprite,Foreground,Centre,"sb\hl2.png",460.1636,306.5703 C,0,190224,,133,11,255 F,2,190224,191024,0.5,0 P,0,190224,191024,A
Sprite,Foreground,Centre,"sb\hl2.png",455.8302,331.1919 C,0,190268,,133,11,255 F,2,190268,191068,0.5,0 P,0,190268,191068,A
Sprite,Foreground,Centre,"sb\hl2.png",451.4968,355.8135 C,0,190312,,133,11,255 F,2,190312,191112,0.5,0 P,0,190312,191112,A
Sprite,Foreground,Centre,"sb\hl2.png",459.4431,371.7903 C,0,190356,,133,11,255 F,2,190356,191156,0.5,0 P,0,190356,191156,A
Sprite,Foreground,Centre,"sb\hl2.png",573,245 C,0,190534,,133,11,255 F,2,190534,191334,0.5,0 S,2,190534,191334,1,0.8 P,0,190534,191334,A
Sprite,Foreground,Centre,"sb\hl2.png",573,245 C,0,190622,,133,11,255 F,2,190622,191422,0.5,0 S,2,190622,191422,1,0.8 P,0,190622,191422,A
Sprite,Foreground,Centre,"sb\hl2.png",573,245 C,0,190710,,133,11,255 F,2,190710,191510,0.5,0 S,2,190710,191510,1,0.8 P,0,190710,191510,A
Sprite,Foreground,Centre,"sb\hl2.png",457,152 C,0,190887,,133,11,255 F,2,190887,191687,0.5,0 S,2,190887,191687,1,0.8 P,0,190887,191687,A
Sprite,Foreground,Centre,"sb\hl2.png",457,152 C,0,190975,,133,11,255 F,2,190975,191775,0.5,0 S,2,190975,191775,1,0.8 P,0,190975,191775,A
Sprite,Foreground,Centre,"sb\hl2.png",457,152 C,0,191063,,133,11,255 F,2,191063,191863,0.5,0 S,2,191063,191863,1,0.8 P,0,191063,191863,A
Sprite,Foreground,Centre,"sb\hl2.png",310,129 C,0,191240,,133,11,255 F,2,191240,192040,0.5,0 S,2,191240,192040,1,0.8 P,0,191240,192040,A
Sprite,Foreground,Centre,"sb\hl2.png",310,129 C,0,191328,,133,11,255 F,2,191328,192128,0.5,0 S,2,191328,192128,1,0.8 P,0,191328,192128,A
Sprite,Foreground,Centre,"sb\hl2.png",310,129 C,0,191416,,133,11,255 F,2,191416,192216,0.5,0 S,2,191416,192216,1,0.8 P,0,191416,192216,A
Sprite,Foreground,Centre,"sb\hl2.png",171,182 C,0,191593,,128,255,255 F,2,191593,192393,0.5,0 S,2,191593,192393,1,0.8 P,0,191593,192393,A
Sprite,Foreground,Centre,"sb\hl2.png",171,182 C,0,191681,,128,255,255 F,2,191681,192481,0.5,0 S,2,191681,192481,1,0.8 P,0,191681,192481,A
Sprite,Foreground,Centre,"sb\hl2.png",171,182 C,0,191769,,128,255,255 F,2,191769,192569,0.5,0 S,2,191769,192569,1,0.8 P,0,191769,192569,A
Sprite,Foreground,Centre,"sb\hl2.png",310,129 C,0,191946,,128,255,255 F,2,191946,192746,0.5,0 S,2,191946,192746,1,0.8 P,0,191946,192746,A
Sprite,Foreground,Centre,"sb\hl2.png",310,129 C,0,192034,,128,255,255 F,2,192034,192834,0.5,0 S,2,192034,192834,1,0.8 P,0,192034,192834,A
Sprite,Foreground,Centre,"sb\hl2.png",310,129 C,0,192122,,128,255,255 F,2,192122,192922,0.5,0 S,2,192122,192922,1,0.8 P,0,192122,192922,A
Sprite,Foreground,Centre,"sb\hl2.png",363,268 C,0,192299,,133,11,255 F,2,192299,193099,0.5,0 S,2,192299,193099,1,0.8 P,0,192299,193099,A
Sprite,Foreground,Centre,"sb\hl2.png",363,268 C,0,192387,,133,11,255 F,2,192387,193187,0.5,0 S,2,192387,193187,1,0.8 P,0,192387,193187,A
Sprite,Foreground,Centre,"sb\hl2.png",363,268 C,0,192475,,133,11,255 F,2,192475,193275,0.5,0 S,2,192475,193275,1,0.8 P,0,192475,193275,A
Sprite,Foreground,Centre,"sb\hl2.png",198,270 C,0,192652,,133,11,255 F,2,192652,193452,0.5,0 S,2,192652,193452,1,0.8 P,0,192652,193452,A
Sprite,Foreground,Centre,"sb\hl2.png",296,432 C,0,192828,,133,11,255 F,2,192828,193628,0.5,0 S,2,192828,193628,1,0.8 P,0,192828,193628,A
Sprite,Foreground,Centre,"sb\hl2.png",333,426 C,0,195122,,191,128,255 F,2,195122,195922,0.5,0 S,2,195122,195922,1,0.8 P,0,195122,195922,A
Sprite,Foreground,Centre,"sb\hl2.png",456,287 C,0,195299,,191,128,255 F,2,195299,196099,0.5,0 S,2,195299,196099,1,0.8 P,0,195299,196099,A
Sprite,Foreground,Centre,"sb\hl2.png",262,294 C,0,195475,,191,128,255 F,2,195475,196275,0.5,0 S,2,195475,196275,1,0.8 P,0,195475,196275,A
Sprite,Foreground,Centre,"sb\hl2.png",444,400 C,0,195652,,191,128,255 F,2,195652,196452,0.5,0 S,2,195652,196452,1,0.8 P,0,195652,196452,A
Sprite,Foreground,Centre,"sb\hl2.png",320,248 C,0,195674,,191,128,255 F,2,195674,197510,0.5,0 S,2,195674,197510,1,0.8 P,0,195674,197510,A
//Storyboard Layer 4 (Overlay)
//Storyboard Sound Samples

[TimingPoints]
123,352.941176470588,4,3,1,80,1,0
123,-125,4,3,1,80,0,0
652,-125,4,3,1,5,0,0
828,-125,4,3,1,80,0,0
1005,352.941176470588,4,3,1,80,1,0
3652,-83.3333333333333,4,3,1,80,0,0
3916,-83.3333333333333,4,3,1,5,0,0
4004,-100,4,3,1,80,0,0
6475,-83.3333333333333,4,3,1,80,0,0
6740,-100,4,3,1,5,0,0
6828,-100,4,3,1,80,0,0
9299,-83.3333333333333,4,3,1,80,0,0
9563,-100,4,3,1,5,0,0
9652,-100,4,3,1,80,0,0
12122,-83.3333333333333,4,3,1,80,0,0
12387,-100,4,3,1,5,0,0
12475,-100,4,3,1,80,0,0
14946,-83.3333333333333,4,3,1,80,0,0
15210,-100,4,3,1,5,0,0
15299,-100,4,3,1,80,0,0
17769,-83.3333333333333,4,3,1,80,0,0
18034,-100,4,3,1,5,0,0
18122,-100,4,3,1,80,0,0
20593,-83.3333333333333,4,3,1,80,0,0
20857,-100,4,3,1,5,0,0
20946,-100,4,3,1,60,0,0
23504,-100,4,3,1,5,0,0
23593,-100,4,3,1,60,0,0
28357,-90.9090909090909,4,3,1,60,0,0
28622,-90.9090909090909,4,3,1,5,0,0
28710,-100,4,3,1,60,0,0
37975,-100,4,3,1,5,0,0
38063,-100,4,3,1,60,0,0
39916,-100,4,3,1,5,0,0
40004,-100,4,3,1,60,0,0
46004,-100,4,3,1,90,0,0
67357,-100,4,3,1,80,0,0
68857,-100,4,3,1,5,0,0
68946,-100,4,3,1,80,0,0
71416,-83.3333333333333,4,3,1,80,0,0
71857,-100,4,3,1,80,0,0
74240,-83.3333333333333,4,3,1,80,0,0
74504,-83.3333333333333,4,3,1,5,0,0
74593,-100,4,3,1,80,0,0
77063,-83.3333333333333,4,3,1,80,0,0
77416,-100,4,3,1,80,0,0
85534,-83.3333333333333,4,3,1,80,0,0
85799,-83.3333333333333,4,3,1,5,0,0
85887,-100,4,3,1,80,0,0
91357,-100,4,3,1,60,0,0
96122,-83.3333333333333,4,3,1,60,0,0
96387,-83.3333333333333,4,3,1,5,0,0
96475,-100,4,3,1,60,0,0
102475,-100,4,3,1,90,0,0
125240,-133.333333333333,4,3,1,50,0,0
147828,-100,4,3,1,90,0,0
159299,-83.3333333333333,4,3,1,90,0,0
159828,-100,4,3,1,90,0,0
173063,-100,4,3,1,80,0,0

[Colours]
Combo1 : 136,136,136
Combo2 : 255,128,128
Combo3 : 255,6,6
Combo4 : 191,128,255
Combo5 : 133,11,255
Combo6 : 128,255,255
Combo7 : 6,87,255
Combo8 : 228,228,228

[HitObjects]
162,284,123,6,0,B|194:311|238:317|238:317|216:215|297:174,1,240,0|0,0:0|0:0,0:0:0:0:
335,272,828,2,0,L|419:286,1,80,6|0,0:0|0:0,0:0:0:0:
486,158,1181,5,2,0:0:0:0:
486,158,1269,1,0,0:0:0:0:
486,158,1357,1,2,0:0:0:0:
413,285,1534,101,0,0:0:0:0:
413,285,1622,1,0,0:0:0:0:
413,285,1710,1,8,0:0:0:0:
340,158,1887,5,0,0:0:0:0:
340,158,1975,1,0,0:0:0:0:
340,158,2063,1,0,0:0:0:0:
308,132,2151,1,0,0:0:0:0:
277,107,2239,1,0,0:0:0:0:
253,209,2416,101,2,0:0:0:0:
222,183,2504,1,0,0:0:0:0:
191,158,2592,1,0,0:0:0:0:
166,260,2769,5,0,0:0:0:0:
166,260,2857,1,0,0:0:0:0:
166,260,2946,1,2,0:0:0:0:
128,228,3034,1,0,0:0:0:0:
96,203,3122,101,8,0:0:0:0:
86,164,3210,1,0,0:0:0:0:
93,125,3298,1,0,0:0:0:0:
254,229,3475,5,8,0:0:0:0:
263,266,3563,1,0,0:0:0:0:
256,305,3652,2,0,B|226:346|226:346|296:321|360:336,1,179.999994506836,6|0,0:3|0:0,0:0:0:0:
399,351,4004,101,2,0:0:0:0:
399,351,4092,1,0,0:0:0:0:
399,351,4180,1,0,0:0:0:0:
494,262,4357,5,0,0:0:0:0:
494,262,4445,1,0,0:0:0:0:
494,262,4533,1,8,0:0:0:0:
370,225,4710,101,0,0:0:0:0:
370,225,4798,1,0,0:0:0:0:
370,225,4887,1,0,0:0:0:0:
368,185,4975,1,0,0:0:0:0:
384,148,5063,1,0,0:0:0:0:
512,89,5240,1,2,0:0:0:0:
298,35,5416,5,2,0:0:0:0:
388,129,5593,1,2,0:0:0:0:
337,40,5769,1,2,0:0:0:0:
281,253,5946,101,10,0:0:0:0:
240,127,6123,1,2,0:0:0:0:
291,216,6299,1,8,0:0:0:0:
89,180,6475,6,0,B|20:165|20:165|103:235,1,179.999994506836,6|0,0:3|0:0,0:0:0:0:
138,265,6828,101,2,0:0:0:0:
138,265,6916,1,0,0:0:0:0:
138,265,7004,1,2,0:0:0:0:
160,133,7181,5,0,0:0:0:0:
160,133,7269,1,0,0:0:0:0:
160,133,7357,1,8,0:0:0:0:
30,169,7534,101,0,0:0:0:0:
30,169,7622,1,0,0:0:0:0:
30,169,7710,1,0,0:0:0:0:
43,205,7798,1,0,0:0:0:0:
32,242,7886,1,0,0:0:0:0:
138,265,8063,5,2,0:0:0:0:
131,302,8151,1,0,0:0:0:0:
102,329,8239,1,0,0:0:0:0:
244,291,8416,101,0,0:0:0:0:
244,291,8504,1,0,0:0:0:0:
244,291,8593,1,2,0:0:0:0:
280,275,8681,1,0,0:0:0:0:
318,284,8769,5,8,0:0:0:0:
344,313,8857,1,0,0:0:0:0:
348,352,8945,1,0,0:0:0:0:
249,252,9122,101,8,0:0:0:0:
222,222,9210,1,0,0:0:0:0:
218,183,9299,6,0,B|247:120|302:85|302:85|331:145,1,179.999994506836,6|0,0:3|0:0,0:0:0:0:
347,166,9652,101,2,0:0:0:0:
347,166,9740,1,0,0:0:0:0:
347,166,9829,1,2,0:0:0:0:
226,191,10004,5,0,0:0:0:0:
226,191,10092,1,0,0:0:0:0:
226,191,10181,1,8,0:0:0:0:
105,216,10357,101,0,0:0:0:0:
105,216,10445,1,0,0:0:0:0:
105,216,10534,1,0,0:0:0:0:
66,246,10622,1,0,0:0:0:0:
49,293,10710,1,0,0:0:0:0:
210,300,10887,5,2,0:0:0:0:
226,191,11063,1,2,0:0:0:0:
160,102,11240,1,2,0:0:0:0:
51,86,11416,1,2,0:0:0:0:
102,285,11593,101,10,0:0:0:0:
210,300,11769,1,2,0:0:0:0:
334,176,11946,5,10,0:0:0:0:
226,191,12122,2,0,B|192:180|192:180|265:161|334:176,1,179.999994506836,6|0,0:0|0:0,0:0:0:0:
374,196,12475,101,2,0:0:0:0:
374,196,12563,1,0,0:0:0:0:
374,196,12652,1,2,0:0:0:0:
329,75,12828,5,0,0:0:0:0:
329,75,12916,1,0,0:0:0:0:
329,75,13005,1,8,0:0:0:0:
456,96,13181,101,0,0:0:0:0:
456,96,13269,1,0,0:0:0:0:
456,96,13357,1,0,0:0:0:0:
451,135,13445,1,0,0:0:0:0:
456,174,13533,5,0,0:0:0:0:
472,211,13621,1,0,0:0:0:0:
498,241,13709,1,2,0:0:0:0:
366,231,13887,101,0,0:0:0:0:
382,267,13975,1,0,0:0:0:0:
406,298,14063,1,0,0:0:0:0:
274,267,14240,5,2,0:0:0:0:
274,267,14328,1,0,0:0:0:0:
274,267,14416,101,8,0:0:0:0:
290,303,14504,1,0,0:0:0:0:
314,334,14592,1,2,0:0:0:0:
173,298,14769,5,8,0:0:0:0:
137,314,14857,1,0,0:0:0:0:
105,338,14946,2,0,B|85:377|85:377|36:324|36:324|72:245,1,179.999994506836,6|0,0:0|0:0,0:0:0:0:
84,243,15299,101,2,0:0:0:0:
84,243,15387,1,0,0:0:0:0:
84,243,15475,1,2,0:0:0:0:
208,171,15652,5,0,0:0:0:0:
208,171,15740,1,0,0:0:0:0:
208,171,15828,1,8,0:0:0:0:
84,99,16004,101,0,0:0:0:0:
84,99,16092,1,0,0:0:0:0:
84,99,16181,1,0,0:0:0:0:
123,91,16269,1,0,0:0:0:0:
162,84,16357,1,0,0:0:0:0:
300,60,16534,1,2,0:0:0:0:
89,8,16710,5,2,0:0:0:0:
221,13,16887,1,2,0:0:0:0:
67,35,17063,1,2,0:0:0:0:
157,216,17240,101,10,0:0:0:0:
162,84,17417,1,2,0:0:0:0:
184,238,17593,1,10,0:0:0:0:
26,116,17769,2,0,B|9:95|9:95|-3:180|24:245,1,179.999994506836,6|0,0:0|0:0,0:0:0:0:
44,285,18122,5,2,0:0:0:0:
44,285,18210,1,0,0:0:0:0:
44,285,18299,1,2,0:0:0:0:
191,246,18475,101,0,0:0:0:0:
191,246,18563,1,0,0:0:0:0:
191,246,18652,1,8,0:0:0:0:
317,342,18828,5,0,0:0:0:0:
317,342,18916,1,0,0:0:0:0:
317,342,19004,1,0,0:0:0:0:
291,310,19092,1,0,0:0:0:0:
283,272,19180,101,0,0:0:0:0:
295,233,19268,1,0,0:0:0:0:
323,205,19356,1,2,0:0:0:0:
236,138,19534,5,0,0:0:0:0:
259,106,19622,1,0,0:0:0:0:
295,89,19710,1,0,0:0:0:0:
238,14,19887,101,2,0:0:0:0:
238,14,19975,1,0,0:0:0:0:
238,14,20063,5,8,0:0:0:0:
201,30,20151,1,0,0:0:0:0:
162,26,20239,1,2,0:0:0:0:
34,159,20416,101,8,0:0:0:0:
73,155,20504,1,0,0:0:0:0:
110,171,20593,2,0,B|95:206|95:206|171:203|264:235,1,179.999994506836,6|0,0:0|0:0,0:0:0:0:
270,242,20946,5,8,0:0:0:0:
270,242,21034,1,8,0:0:0:0:
270,242,21122,102,0,L|260:297,3,50,8|8|8|8,0:0|0:0|1:0|1:0,0:0:0:0:
360,258,21475,2,0,L|350:202,3,50,8|8|2|2,1:0|1:0|0:0|0:0,0:0:0:0:
450,242,21828,5,2,0:0:0:0:
445,266,21916,1,2,0:0:0:0:
441,291,22004,1,2,0:0:0:0:
436,315,22092,1,2,0:0:0:0:
432,340,22180,1,12,0:0:0:0:
195,310,22887,101,0,0:0:0:0:
322,286,23063,1,2,0:0:0:0:
160,300,23240,2,0,B|109:283|61:293|61:293|47:245,1,150,8|0,0:0|0:0,0:0:0:0:
36,214,23593,21,6,0:0:0:0:
0,349,23769,1,2,0:0:0:0:
16,184,23946,2,0,B|13:155|13:155|87:128,1,100,10|2,0:0|0:0,0:0:0:0:
187,187,24299,2,0,B|253:162|253:162|250:133,1,100,2|2,0:0|0:0,0:0:0:0:
137,35,24652,1,10,0:0:0:0:
279,0,24828,1,2,0:0:0:0:
286,175,25004,5,2,0:0:0:0:
346,59,25181,1,2,0:0:0:0:
300,207,25357,2,0,B|318:310,1,100,10|2,0:0|0:0,0:0:0:0:
396,199,25710,101,2,0:0:0:0:
396,199,25799,1,2,0:0:0:0:
396,199,25887,1,2,0:0:0:0:
285,298,26063,1,10,0:0:0:0:
285,298,26152,1,2,0:0:0:0:
285,298,26240,1,2,0:0:0:0:
228,149,26416,6,0,B|155:142|155:142|126:164,1,100,6|2,0:0|0:0,0:0:0:0:
191,279,26769,1,10,0:0:0:0:
263,136,26946,2,0,B|270:63|270:63|248:34,1,100,2|2,0:0|0:0,0:0:0:0:
276,171,27299,2,0,B|349:178|349:178|378:156,1,100,2|10,0:0|0:0,0:0:0:0:
424,27,27652,1,2,0:0:0:0:
461,182,27828,102,0,B|475:206|475:206|411:278,1,100,2|2,0:0|0:0,0:0:0:0:
292,319,28181,1,10,0:0:0:0:
276,171,28357,6,0,B|301:226|301:226|273:279|273:279|292:319,1,165.000005035401
308,351,28710,1,2,0:0:0:0:
261,226,28887,1,10,0:0:0:0:
191,353,29063,1,2,0:0:0:0:
134,226,29240,101,6,0:0:0:0:
134,226,29328,1,0,0:0:0:0:
134,226,29416,1,2,0:0:0:0:
51,336,29593,1,10,0:0:0:0:
32,198,29769,2,0,B|42:164|42:164|111:117,1,100,2|2,0:0|0:0,0:0:0:0:
222,189,30122,2,0,B|232:223|232:223|301:270,1,100,2|10,0:0|0:0,0:0:0:0:
387,170,30475,1,2,0:0:0:0:
262,105,30652,5,2,0:0:0:0:
372,198,30828,1,2,0:0:0:0:
397,30,31004,1,10,0:0:0:0:
247,77,31181,1,2,0:0:0:0:
286,239,31357,101,2,0:0:0:0:
286,239,31446,1,2,0:0:0:0:
286,239,31534,1,2,0:0:0:0:
162,178,31710,5,10,0:0:0:0:
162,178,31799,1,2,0:0:0:0:
162,178,31887,1,2,0:0:0:0:
212,332,32063,102,0,B|283:350|283:350|333:336,1,100,6|2,0:0|0:0,0:0:0:0:
387,214,32416,1,10,0:0:0:0:
272,134,32593,2,0,B|246:126|246:126|175:144,1,100,2|2,0:0|0:0,0:0:0:0:
87,267,32946,2,0,B|94:241|94:241|76:170,1,100,2|8,0:0|0:0,0:0:0:0:
10,41,33299,1,2,0:0:0:0:
175,144,33475,6,0,L|193:40,1,100,2|2,0:0|0:0,0:0:0:0:
343,170,33828,2,0,L|324:66,1,100,10|2,0:0|0:0,0:0:0:0:
256,196,34181,1,2,0:0:0:0:
256,221,34269,1,8,0:0:0:0:
256,246,34357,1,8,0:0:0:0:
256,271,34446,1,8,0:0:0:0:
256,296,34534,101,8,1:0:0:0:
266,289,34622,1,8,1:0:0:0:
277,283,34710,1,8,1:0:0:0:
288,276,34799,1,8,1:0:0:0:
298,270,34887,6,0,B|335:260|335:260|368:207,2,100,6|2|10,0:0|0:0|0:0,0:0:0:0:
164,194,35416,2,0,B|188:213|188:213|281:189,1,100,2|2,0:0|0:0,0:0:0:0:
322,72,35769,1,2,0:0:0:0:
162,80,35946,1,10,0:0:0:0:
331,37,36122,1,2,0:0:0:0:
255,195,36299,102,0,L|132:173,1,100,2|2,0:0|0:0,0:0:0:0:
77,296,36652,1,10,0:0:0:0:
77,296,36740,1,0,0:0:0:0:
77,296,36828,1,2,0:0:0:0:
56,168,37004,1,2,0:0:0:0:
56,168,37092,1,2,0:0:0:0:
56,168,37180,1,2,0:0:0:0:
35,40,37357,1,10,0:0:0:0:
35,40,37445,1,2,0:0:0:0:
35,40,37533,1,2,0:0:0:0:
215,54,37710,6,0,B|180:64|180:64|238:171,1,150,6|0,0:0|0:0,0:0:0:0:
255,195,38063,1,10,0:0:0:0:
250,49,38240,1,2,0:0:0:0:
388,148,38416,101,2,0:0:0:0:
220,200,38593,1,2,0:0:0:0:
319,98,38769,1,10,0:0:0:0:
379,232,38946,1,2,0:0:0:0:
343,69,39122,5,2,0:0:0:0:
457,198,39299,1,2,0:0:0:0:
260,230,39475,1,10,0:0:0:0:
397,347,39652,102,0,B|446:337|446:337|397:315|329:315,1,150,2|0,0:0|0:0,0:0:0:0:
312,314,40004,1,2,0:0:0:0:
255,195,40181,1,10,0:0:0:0:
176,292,40357,1,2,0:0:0:0:
71,206,40534,6,0,B|105:210|105:210|162:145,1,100,6|2,0:0|0:0,0:0:0:0:
3,161,40887,1,10,0:0:0:0:
135,82,41063,2,0,B|173:65|173:65|236:97,1,100,2|2,0:0|0:0,0:0:0:0:
199,245,41416,2,0,B|161:262|161:262|98:230,1,100,2|10,0:0|0:0,0:0:0:0:
13,126,41769,1,2,0:0:0:0:
140,46,41946,102,0,B|161:31|191:23|191:23|234:38|276:66|276:66|302:50|329:41,1,200,2|10,0:0|0:0,0:0:0:0:
463,0,42475,1,2,0:0:0:0:
365,126,42652,5,2,0:0:0:0:
365,126,42740,1,2,0:0:0:0:
365,126,42828,1,2,0:0:0:0:
506,91,43004,1,10,0:0:0:0:
506,91,43092,1,2,0:0:0:0:
506,91,43180,1,2,0:0:0:0:
379,220,43357,102,0,B|354:241|354:241|380:316,1,100,6|2,0:0|0:0,0:0:0:0:
449,163,43710,1,10,0:0:0:0:
291,180,43887,2,0,B|227:202|227:202|206:177,1,100,2|2,0:0|0:0,0:0:0:0:
141,42,44240,2,0,B|204:19|204:19|225:44,1,100,2|10,0:0|0:0,0:0:0:0:
109,140,44593,1,2,0:0:0:0:
262,46,44769,5,2,0:0:0:0:
225,239,44946,1,8,0:0:0:0:
225,239,45034,1,8,0:0:0:0:
225,239,45122,1,8,0:0:0:0:
143,124,45299,1,2,0:0:0:0:
59,292,45475,101,2,0:0:0:0:
146,280,45652,1,8,1:0:0:0:
22,372,45828,1,8,1:0:0:0:
5,219,46004,22,0,P|15:112|73:39,1,200,6|2,0:0|0:0,0:0:0:0:
241,141,46534,2,0,L|136:122,1,100,10|2,0:0|0:0,0:0:0:0:
146,280,46887,2,0,L|250:261,1,100,2|2,0:0|0:0,0:0:0:0:
376,162,47240,1,10,0:0:0:0:
331,339,47416,6,0,P|431:367|515:306,1,200,6|2,0:0|0:0,0:0:0:0:
473,161,47946,2,0,P|416:152|355:172,1,100,10|2,0:0|0:0,0:0:0:0:
256,292,48299,2,0,P|292:247|305:184,1,100,2|2,0:0|0:0,0:0:0:0:
172,92,48652,1,10,0:0:0:0:
345,44,48828,1,6,0:0:0:0:
371,70,49181,101,2,0:0:0:0:
198,118,49357,2,0,L|76:96,1,100,10|0,0:0|0:0,0:0:0:0:
223,279,49710,2,0,L|101:300,1,100,2|0,0:0|0:0,0:0:0:0:
341,212,50063,2,0,L|219:190,1,100,10|0,0:0|0:0,0:0:0:0:
446,282,50416,2,0,L|324:303,1,100,2|0,0:0|0:0,0:0:0:0:
507,172,50769,2,0,L|385:150,1,100,10|0,0:0|0:0,0:0:0:0:
288,48,51122,5,2,0:0:0:0:
341,212,51299,1,10,0:0:0:0:
322,33,51475,1,10,0:0:0:0:
181,161,51652,102,0,P|122:184|5:125,1,200,6|2,0:0|0:0,0:0:0:0:
167,128,52181,2,0,P|225:135|270:187,1,100,10|2,0:0|0:0,0:0:0:0:
271,341,52534,2,0,P|248:287|270:222,1,100,2|2,0:0|0:0,0:0:0:0:
357,358,52887,1,10,0:0:0:0:
171,324,53063,6,0,P|116:308|2:381,1,200,6|2,0:0|0:0,0:0:0:0:
110,228,53593,2,0,P|40:241|-10:270,1,100,10|2,0:0|0:0,0:0:0:0:
166,164,53946,1,2,0:0:0:0:
0,152,54122,1,2,0:0:0:0:
108,14,54299,1,10,0:0:0:0:
203,167,54475,1,6,0:0:0:0:
226,192,54828,101,2,0:0:0:0:
371,69,55004,2,0,B|312:74|312:74|270:105,1,100,10|0,0:0|0:0,0:0:0:0:
135,163,55357,2,0,B|193:168|193:168|226:192,1,100,2|0,0:0|0:0,0:0:0:0:
371,257,55710,2,0,B|312:262|312:262|279:286,1,100,10|0,0:0|0:0,0:0:0:0:
135,351,56063,2,0,B|193:356|193:356|226:380,1,100,2|0,0:0|0:0,0:0:0:0:
31,318,56416,2,0,B|64:269|64:269|102:253,1,100,10|0,0:0|0:0,0:0:0:0:
252,354,56769,5,8,0:0:0:0:
136,243,56946,1,8,1:0:0:0:
226,380,57122,1,8,1:0:0:0:
248,186,57299,102,0,P|287:113|406:63,1,200,6|2,0:0|0:0,0:0:0:0:
468,204,57828,2,0,P|414:201|368:169,1,100,10|2,0:0|0:0,0:0:0:0:
512,277,58181,1,2,0:0:0:0:
443,122,58357,1,2,0:0:0:0:
318,238,58534,1,10,0:0:0:0:
477,109,58710,6,0,P|439:46|307:21,1,200,6|2,0:0|0:0,0:0:0:0:
206,121,59240,2,0,P|167:91|117:79,1,100,10|0,0:0|0:0,0:0:0:0:
28,223,59593,1,2,0:0:0:0:
189,155,59769,1,2,0:0:0:0:
45,256,59946,1,10,0:0:0:0:
0,72,60122,1,6,0:0:0:0:
22,98,60475,101,2,0:0:0:0:
162,20,60652,2,0,B|132:37|132:37|214:68,1,100,10|0,0:0|0:0,0:0:0:0:
350,20,61004,2,0,B|380:37|380:37|298:68,1,100,2|0,0:0|0:0,0:0:0:0:
162,140,61357,2,0,B|132:157|132:157|214:188,1,100,10|0,0:3|0:3,0:0:0:0:
350,140,61710,2,0,B|380:157|380:157|298:188,1,100,2|0,0:3|0:3,0:0:0:0:
162,260,62063,2,0,B|132:277|132:277|214:308,1,100,10|0,0:3|0:3,0:0:0:0:
350,260,62416,5,2,0:0:0:0:
193,180,62593,1,10,0:0:0:0:
342,297,62769,1,10,0:0:0:0:
459,148,62946,102,0,P|383:73|283:34,1,200,6|2,0:0|0:0,0:0:0:0:
128,104,63475,2,0,P|166:158|218:194,1,100,10|2,0:0|0:0,0:0:0:0:
199,29,63828,1,2,0:0:0:0:
294,157,64004,1,2,0:0:0:0:
226,1,64181,1,10,0:0:0:0:
195,213,64357,6,0,P|218:302|336:361,1,200,6|2,0:0|0:0,0:0:0:0:
448,274,64887,2,0,P|394:267|337:289,1,100,10|2,0:0|0:0,0:0:0:0:
509,343,65240,1,2,0:0:0:0:
448,185,65416,1,2,0:0:0:0:
406,358,65593,1,10,0:0:0:0:
296,198,65769,1,6,0:0:0:0:
283,236,66122,101,8,0:0:0:0:
158,106,66299,1,8,0:0:0:0:
327,116,66475,1,2,0:0:0:0:
195,260,66652,5,10,0:0:0:0:
151,71,66828,1,2,0:0:0:0:
168,288,67004,1,8,1:0:0:0:
221,171,67181,1,8,1:0:0:0:
91,246,67357,1,6,0:0:0:0:
216,351,68593,38,0,B|246:329|246:329|358:349,1,150,6|0,0:0|0:0,0:0:0:0:
402,368,68946,1,0,0:0:0:0:
402,368,69034,1,0,0:0:0:0:
402,368,69122,1,0,0:0:0:0:
305,249,69299,1,0,0:0:0:0:
305,249,69387,1,0,0:0:0:0:
305,249,69475,6,0,B|378:235|378:235|404:206,1,100,10|0,0:0|0:0,0:0:0:0:
413,187,69740,1,0,0:0:0:0:
413,187,69828,1,0,0:0:0:0:
250,165,70004,1,0,0:0:0:0:
319,20,70181,102,0,B|373:6|373:6|455:33|455:33|510:20,1,200,2|0,0:0|0:0,0:0:0:0:
370,101,70710,1,0,0:0:0:0:
227,29,70887,1,10,0:0:0:0:
177,20,70975,1,0,0:0:0:0:
128,24,71063,1,2,0:0:0:0:
35,155,71240,1,10,0:0:0:0:
84,163,71328,1,0,0:0:0:0:
133,159,71416,6,0,B|177:130|177:130|221:216|160:234|201:312,1,239.999992675781,6|0,0:0|0:0,0:0:0:0:
232,342,71857,1,0,0:0:0:0:
232,342,71946,2,0,B|254:368|254:368|325:355,1,100,0|0,0:0|0:0,0:0:0:0:
352,168,72299,2,0,L|331:282,1,100,10|0,0:0|0:0,0:0:0:0:
463,188,72652,1,0,0:0:0:0:
458,163,72740,1,0,0:0:0:0:
454,138,72828,1,0,0:0:0:0:
449,114,72916,1,0,0:0:0:0:
445,89,73004,1,2,0:0:0:0:
304,232,73181,101,2,0:0:0:0:
468,213,73357,1,2,0:0:0:0:
420,334,73534,1,2,0:0:0:0:
274,206,73710,5,10,0:0:0:0:
208,357,73886,1,0,0:0:0:0:
127,255,74063,1,10,0:0:0:0:
270,115,74240,102,0,B|310:103|310:103|240:77|174:105,1,179.999994506836,6|0,0:0|0:0,0:0:0:0:
153,135,74593,1,0,0:0:0:0:
153,135,74681,1,0,0:0:0:0:
153,135,74769,1,0,0:0:0:0:
250,9,74946,1,0,0:0:0:0:
250,9,75034,1,0,0:0:0:0:
250,9,75122,6,0,L|357:27,1,100,10|0,0:0|0:0,0:0:0:0:
389,40,75387,1,0,0:0:0:0:
389,40,75475,2,0,B|402:113|402:113|445:130,1,100,0|0,0:0|0:0,0:0:0:0:
264,192,75828,102,0,B|107:219|107:219|72:254,1,200,2|0,0:0|0:0,0:0:0:0:
202,315,76357,1,0,0:0:0:0:
303,186,76534,5,10,0:0:0:0:
351,176,76622,1,0,0:0:0:0:
401,182,76710,1,2,0:0:0:0:
301,312,76887,1,10,0:0:0:0:
252,321,76975,1,0,0:0:0:0:
202,315,77063,102,0,B|140:304|140:304|213:231|210:118,1,239.999992675781,6|0,0:0|0:0,0:0:0:0:
208,110,77504,1,0,0:0:0:0:
208,110,77593,2,0,B|200:76|200:76|112:108,1,100,0|0,0:0|0:0,0:0:0:0:
309,94,77946,2,0,B|317:128|317:128|405:96,1,100,10|0,0:0|0:0,0:0:0:0:
512,0,78299,1,0,0:0:0:0:
507,24,78387,1,0,0:0:0:0:
503,49,78475,1,0,0:0:0:0:
498,73,78563,1,0,0:0:0:0:
494,98,78651,5,2,0:0:0:0:
368,16,78828,1,2,0:0:0:0:
220,47,79004,1,2,0:0:0:0:
138,173,79181,1,2,0:0:0:0:
294,276,79357,101,10,0:0:0:0:
232,144,79534,1,2,0:0:0:0:
222,339,79710,5,10,0:0:0:0:
222,339,79799,1,10,0:0:0:0:
222,339,79887,1,6,0:0:0:0:
388,258,80063,101,0,0:0:0:0:
277,152,80240,1,2,0:0:0:0:
277,152,80328,1,2,0:0:0:0:
277,152,80416,6,0,L|347:139,3,50,2|2|2|2,0:0|0:0|0:0|0:0,0:0:0:0:
263,68,80769,2,0,L|333:55,3,50,10|2|2|2,0:0|0:0|0:0|0:0,0:0:0:0:
189,123,81122,2,0,L|176:52,3,50,2|2|2|2,0:0|0:0|0:0|0:0,0:0:0:0:
209,204,81475,101,10,0:0:0:0:
204,228,81563,1,2,0:0:0:0:
200,253,81652,1,2,0:0:0:0:
195,277,81740,1,2,0:0:0:0:
191,302,81828,2,0,L|178:372,3,50,2|2|2|2,0:0|0:0|0:0|0:0,0:0:0:0:
120,246,82181,5,10,0:0:0:0:
115,222,82269,1,0,0:0:0:0:
111,197,82357,1,2,0:0:0:0:
106,173,82446,1,2,0:0:0:0:
102,148,82534,101,2,0:0:0:0:
139,142,82622,1,2,0:0:0:0:
173,129,82710,1,2,0:0:0:0:
204,107,82799,1,2,0:0:0:0:
229,80,82887,6,0,L|220:29,3,50,10|2|2|2,0:0|0:0|0:0|0:0,0:0:0:0:
292,139,83240,2,0,L|283:189,3,50,2|2|2|2,0:0|0:0|0:0|0:0,0:0:0:0:
355,80,83593,2,0,L|346:29,3,50,10|2|2|2,0:0|0:0|0:0|0:0,0:0:0:0:
418,139,83946,1,2,0:0:0:0:
413,163,84034,1,2,0:0:0:0:
409,188,84122,1,2,0:0:0:0:
404,212,84210,1,2,0:0:0:0:
400,237,84298,1,10,0:0:0:0:
262,113,84475,101,2,0:0:0:0:
418,139,84652,1,2,0:0:0:0:
309,209,84828,1,2,0:0:0:0:
215,17,85004,5,10,0:0:0:0:
143,138,85181,1,8,1:0:0:0:
211,260,85357,1,8,1:0:0:0:
126,106,85534,102,0,B|74:144|62:210|62:210|20:154,1,179.999994506836,6|0,0:0|0:0,0:0:0:0:
14,147,85887,1,2,0:0:0:0:
14,147,85975,1,2,0:0:0:0:
14,147,86063,2,0,L|1:74,3,50,2|2|2|2,0:0|0:0|0:0|0:0,0:0:0:0:
107,25,86416,6,0,L|57:33,3,50,10|2|2|2,0:0|0:0|0:0|0:0,0:0:0:0:
175,114,86769,2,0,L|125:105,3,50,2|2|2|2,0:0|0:0|0:0|0:0,0:0:0:0:
243,25,87122,2,0,L|193:33,3,50,10|2|2|2,0:0|0:0|0:0|0:0,0:0:0:0:
311,114,87475,2,0,L|261:105,3,50,2|2|2|2,0:0|0:0|0:0|0:0,0:0:0:0:
392,89,87828,101,10,0:0:0:0:
396,113,87916,1,2,0:0:0:0:
400,138,88004,1,2,0:0:0:0:
405,162,88093,1,2,0:0:0:0:
409,186,88181,5,2,0:0:0:0:
371,184,88269,1,2,0:0:0:0:
336,194,88357,1,2,0:0:0:0:
306,217,88445,1,2,0:0:0:0:
287,249,88534,102,0,L|232:239,3,50,10|2|2|2,0:0|0:0|0:0|0:0,0:0:0:0:
158,226,88887,2,0,L|167:171,3,50,2|2|2|2,0:0|0:0|0:0|0:0,0:0:0:0:
181,97,89240,2,0,L|235:106,3,50,10|2|2|2,0:0|0:0|0:0|0:0,0:0:0:0:
310,120,89593,2,0,L|300:174,3,50,2|2|2|2,0:0|0:0|0:0|0:0,0:0:0:0:
385,169,89946,5,6,0:0:0:0:
392,206,90034,1,8,0:0:0:0:
399,243,90122,1,8,0:0:0:0:
405,280,90210,1,8,0:0:0:0:
412,317,90299,2,8,L|402:372,3,50,8|8|8|8,0:0|1:0|1:0|0:0,0:0:0:0:
326,315,90652,101,8,0:0:0:0:
288,305,90740,1,8,0:0:0:0:
252,310,90828,1,8,0:0:0:0:
218,327,90916,1,8,0:0:0:0:
193,356,91004,1,8,0:0:0:0:
159,370,91093,1,8,1:0:0:0:
123,365,91181,1,8,1:0:0:0:
95,341,91269,1,8,1:0:0:0:
83,306,91357,22,0,B|120:247|120:247|113:215,1,100,6|2,0:0|0:0,0:0:0:0:
3,350,91710,1,10,0:0:0:0:
15,194,91887,2,0,L|33:86,1,100,2|2,0:0|0:0,0:0:0:0:
208,180,92240,2,0,L|189:72,1,100,2|10,0:0|0:0,0:0:0:0:
114,217,92593,1,2,0:0:0:0:
314,188,92769,5,2,0:0:0:0:
143,243,92946,1,2,0:0:0:0:
283,104,93122,2,0,B|312:90|312:90|404:128,1,100,10|2,0:0|0:0,0:0:0:0:
361,283,93475,101,2,0:0:0:0:
361,283,93563,1,2,0:0:0:0:
361,283,93652,1,2,0:0:0:0:
476,172,93828,1,10,0:0:0:0:
476,172,93916,1,2,0:0:0:0:
476,172,94005,1,2,0:0:0:0:
475,369,94181,5,6,0:0:0:0:
363,248,94357,1,2,0:0:0:0:
511,382,94534,2,0,B|511:349|511:349|481:283,1,100,10|2,0:0|0:0,0:0:0:0:
327,261,94887,2,0,B|266:288|266:288|233:288,1,100,2|2,0:0|0:0,0:0:0:0:
92,213,95240,1,10,0:0:0:0:
147,373,95416,1,2,0:0:0:0:
128,200,95593,101,2,0:0:0:0:
0,326,95769,1,2,0:0:0:0:
121,237,95946,1,10,0:0:0:0:
0,78,96122,6,0,B|34:37|34:37|93:66|159:62,1,179.999994506836,2|0,0:0|0:0,0:0:0:0:
193,59,96475,1,2,0:0:0:0:
64,145,96652,1,10,0:0:0:0:
225,181,96828,1,2,0:0:0:0:
310,0,97004,102,0,B|241:12|241:12|219:33,1,100,6|2,0:0|0:0,0:0:0:0:
260,204,97357,1,10,0:0:0:0:
371,75,97534,1,2,0:0:0:0:
459,226,97710,6,0,B|476:294|476:294|447:359,1,100,2|2,0:0|0:0,0:0:0:0:
363,180,98063,1,10,0:0:0:0:
468,58,98240,1,2,0:0:0:0:
372,216,98416,2,0,B|352:283|352:283|295:325,1,100,2|2,0:0|0:0,0:0:0:0:
297,317,98681,1,0,0:0:0:0:
297,317,98769,102,0,B|279:292|279:292|212:273,1,100,10|2,0:0|0:0,0:0:0:0:
49,325,99122,1,2,0:0:0:0:
49,325,99210,1,2,0:0:0:0:
49,325,99299,1,2,0:0:0:0:
222,373,99475,1,10,0:0:0:0:
222,373,99563,1,2,0:0:0:0:
222,373,99652,1,2,0:0:0:0:
88,246,99828,6,0,L|107:136,1,100,6|2,0:0|0:0,0:0:0:0:
249,122,100181,1,10,0:0:0:0:
134,4,100357,1,2,0:0:0:0:
279,103,100534,102,0,B|300:126|300:126|384:117,1,100,2|2,0:0|0:0,0:0:0:0:
480,3,100887,1,10,0:0:0:0:
474,187,101063,1,2,0:0:0:0:
334,36,101240,5,2,0:0:0:0:
347,227,101416,1,8,0:0:0:0:
347,227,101504,1,8,0:0:0:0:
347,227,101593,1,8,0:0:0:0:
287,111,101769,101,8,1:0:0:0:
287,111,101857,1,8,1:0:0:0:
287,111,101946,1,8,1:0:0:0:
210,189,102122,1,8,1:0:0:0:
276,313,102299,1,8,1:0:0:0:
453,220,102475,22,0,P|465:128|390:29,1,200,6|2,0:0|0:0,0:0:0:0:
256,93,103004,2,0,P|307:134|379:138,1,100,10|2,0:0|0:0,0:0:0:0:
253,0,103357,2,0,P|191:23|151:84,1,100,2|2,0:0|0:0,0:0:0:0:
241,202,103710,1,10,0:0:0:0:
86,120,103887,6,0,P|79:149|52:336,1,200,6|2,0:0|0:0,0:0:0:0:
258,300,104416,2,0,L|239:195,1,100,10|2,0:0|0:0,0:0:0:0:
126,360,104769,2,0,L|230:378,1,100,2|2,0:0|0:0,0:0:0:0:
332,239,105122,1,10,0:0:0:0:
460,373,105299,1,6,0:0:0:0:
490,352,105652,101,2,0:0:0:0:
337,359,105828,2,0,B|320:341|320:341|402:313,1,100,10|0,0:0|0:0,0:0:0:0:
236,264,106181,2,0,B|253:282|253:282|181:306,1,100,2|0,0:0|0:0,0:0:0:0:
332,239,106534,2,0,B|315:221|315:221|386:196,1,100,10|0,0:0|0:0,0:0:0:0:
231,144,106887,2,0,B|248:162|248:162|176:186,1,100,2|0,0:0|0:0,0:0:0:0:
327,119,107240,2,0,B|310:101|310:101|381:76,1,100,10|0,0:0|0:0,0:0:0:0:
226,24,107593,5,2,0:0:0:0:
176,186,107769,1,10,0:0:0:0:
265,23,107946,1,10,0:0:0:0:
72,72,108122,102,0,P|29:161|59:296,1,200,6|2,0:0|0:0,0:0:0:0:
207,277,108652,2,0,P|196:213|150:166,1,100,10|2,0:0|0:0,0:0:0:0:
143,352,109004,2,0,P|203:374|266:358,1,100,2|2,0:0|0:0,0:0:0:0:
295,205,109357,1,10,0:0:0:0:
447,328,109534,6,0,P|377:332|297:240,1,200,6|2,0:0|0:0,0:0:0:0:
382,104,110063,2,0,P|424:156|418:223,1,100,10|2,0:0|0:0,0:0:0:0:
285,104,110416,2,0,P|243:52|249:-15,1,100,2|2,0:0|0:0,0:0:0:0:
408,11,110769,1,10,0:0:0:0:
250,117,110946,1,6,0:0:0:0:
215,130,111299,101,2,0:0:0:0:
59,41,111475,2,0,B|67:68|67:68|63:96|63:96|70:124|70:124|64:148,1,100,10|0,0:0|0:0,0:0:0:0:
247,78,111828,2,0,B|255:105|255:105|251:133|251:133|258:161|258:161|252:185,1,100,2|0,0:0|0:0,0:0:0:0:
124,309,112181,2,0,B|151:301|151:301|179:305|179:305|207:298|207:298|231:304,1,100,10|0,0:0|0:0,0:0:0:0:
68,172,112534,5,2,0:0:0:0:
100,338,112710,1,8,0:0:0:0:
174,179,112887,1,8,0:0:0:0:
4,256,113063,1,8,0:0:0:0:
186,384,113240,101,8,0:0:0:0:
209,183,113416,1,8,1:0:0:0:
359,323,113593,1,8,1:0:0:0:
448,128,113769,6,0,B|438:106|438:106|291:125|291:125|280:100,1,200,6|8,0:0|1:0,0:0:0:0:
420,22,114299,2,0,P|491:39|524:87,1,100,2|2,0:0|0:0,0:0:0:0:
449,216,114652,1,10,0:0:0:0:
285,155,114828,1,2,0:0:0:0:
483,135,115004,1,10,0:0:0:0:
322,284,115181,102,0,P|261:302|140:245,1,200,6|8,0:0|1:0,0:0:0:0:
218,89,115710,2,0,P|263:131|271:179,1,100,2|2,0:0|0:0,0:0:0:0:
100,130,116063,1,10,0:0:0:0:
236,4,116240,1,2,0:0:0:0:
79,100,116416,1,10,0:0:0:0:
247,191,116593,1,6,0:0:0:0:
272,167,116946,85,0,0:0:0:0:
139,235,117122,1,0,0:0:0:0:
139,235,117210,1,0,0:0:0:0:
139,235,117299,1,0,0:0:0:0:
264,316,117475,1,10,0:0:0:0:
264,316,117563,1,0,0:0:0:0:
264,316,117652,1,0,0:0:0:0:
397,248,117828,1,0,0:0:0:0:
397,248,117916,1,0,0:0:0:0:
397,248,118005,1,0,0:0:0:0:
405,99,118181,5,2,0:0:0:0:
405,99,118269,1,0,0:0:0:0:
405,99,118358,1,0,0:0:0:0:
499,209,118534,1,0,0:0:0:0:
492,40,118710,1,0,0:0:0:0:
331,55,118887,101,8,0:0:0:0:
331,55,118975,1,8,0:0:0:0:
331,55,119063,1,8,0:0:0:0:
397,218,119240,1,8,0:0:0:0:
235,94,119416,22,0,B|200:68|200:68|133:106|110:194,1,200,6|10,0:0|0:0,0:0:0:0:
223,309,119946,2,0,P|246:262|254:196,1,100,2|2,0:0|0:0,0:0:0:0:
297,375,120299,1,10,0:0:0:0:
129,349,120475,1,2,0:0:0:0:
319,342,120652,1,10,0:0:0:0:
162,219,120828,6,0,B|159:187|138:157|138:157|237:58,1,200,6|10,0:0|0:0,0:0:0:0:
377,153,121357,2,0,B|355:177|355:177|388:250,1,100,2|2,0:0|0:0,0:0:0:0:
501,361,121710,1,10,0:0:0:0:
460,190,121887,1,2,0:0:0:0:
294,259,122063,1,10,0:0:0:0:
231,63,122240,70,0,B|182:52|182:52|133:65|133:65|83:53|83:53|37:62,1,200,6|0,0:0|0:0,0:0:0:0:
193,153,122769,1,0,0:0:0:0:
193,153,122857,1,0,0:0:0:0:
193,153,122946,1,0,0:0:0:0:
64,263,123122,2,0,L|82:159,1,100,10|0,0:0|0:0,0:0:0:0:
170,323,123475,1,0,0:0:0:0:
170,323,123563,1,0,0:0:0:0:
170,323,123652,1,0,0:0:0:0:
329,258,123828,5,2,0:0:0:0:
333,282,123916,1,0,0:0:0:0:
337,307,124004,1,8,0:0:0:0:
342,331,124092,1,8,0:0:0:0:
346,356,124180,101,8,0:0:0:0:
500,294,124357,1,8,0:0:0:0:
405,188,124534,1,8,0:0:0:0:
325,234,124710,1,8,1:0:0:0:
247,96,124887,5,8,1:0:0:0:
326,142,125064,1,8,1:0:0:0:
335,58,125240,101,2,0:0:0:0:
335,58,125328,1,2,0:0:0:0:
335,58,125416,1,2,0:0:0:0:
247,96,125593,1,2,0:0:0:0:
168,50,125769,1,2,0:0:0:0:
88,95,125946,1,0,0:0:0:0:
256,6,126652,53,8,0:0:0:0:
124,167,127357,21,2,0:0:0:0:
124,167,127446,1,2,0:0:0:0:
124,167,127534,1,2,0:0:0:0:
212,205,127710,1,2,0:0:0:0:
291,159,127887,2,0,P|335:158|374:173,1,75.0000028610231,2|0,0:0|0:0,0:0:0:0:
386,193,128769,101,2,0:0:0:0:
415,226,129475,5,14,0:0:0:0:
415,226,129563,1,2,0:0:0:0:
415,226,129652,1,2,0:0:0:0:
427,114,129828,1,2,0:0:0:0:
438,253,130004,1,2,0:0:0:0:
311,229,130181,5,14,0:0:0:0:
311,229,130269,1,2,0:0:0:0:
311,229,130358,1,2,0:0:0:0:
251,113,130534,1,2,0:0:0:0:
215,243,130710,1,2,0:0:0:0:
130,149,130887,101,6,0:0:0:0:
130,149,130975,1,2,0:0:0:0:
130,149,131063,1,2,0:0:0:0:
224,135,131240,1,2,0:0:0:0:
288,199,131416,1,2,0:0:0:0:
377,176,131593,1,0,0:0:0:0:
256,6,132299,85,8,0:0:0:0:
357,254,133004,21,2,0:0:0:0:
357,254,133093,1,2,0:0:0:0:
357,254,133181,1,2,0:0:0:0:
263,240,133357,1,2,0:0:0:0:
199,304,133534,2,0,P|160:298|122:302,1,75.0000028610231,2|0,0:0|0:0,0:0:0:0:
89,311,134416,101,2,0:0:0:0:
61,328,135122,5,14,0:0:0:0:
61,328,135210,1,2,0:0:0:0:
61,328,135299,1,2,0:0:0:0:
11,211,135475,1,2,0:0:0:0:
147,254,135652,1,2,0:0:0:0:
104,134,135828,5,14,0:0:0:0:
104,134,135916,1,2,0:0:0:0:
104,134,136005,1,2,0:0:0:0:
180,33,136181,1,2,0:0:0:0:
229,171,136358,1,2,0:0:0:0:
279,51,136534,101,6,0:0:0:0:
279,51,136622,1,2,0:0:0:0:
279,51,136710,1,2,0:0:0:0:
249,140,136887,1,2,0:0:0:0:
301,215,137063,1,2,0:0:0:0:
263,298,137240,1,0,0:0:0:0:
256,6,137946,85,8,0:0:0:0:
341,328,138652,21,2,0:0:0:0:
341,328,138740,1,2,0:0:0:0:
341,328,138828,1,2,0:0:0:0:
311,239,139004,1,2,0:0:0:0:
363,164,139181,2,0,P|409:149|445:150,1,75.0000028610231,2|0,0:0|0:0,0:0:0:0:
466,153,140063,101,2,0:0:0:0:
511,166,140769,5,14,0:0:0:0:
511,166,140857,1,2,0:0:0:0:
511,166,140946,1,2,0:0:0:0:
447,39,141122,1,2,0:0:0:0:
383,192,141299,1,2,0:0:0:0:
294,86,141475,5,14,0:0:0:0:
294,86,141563,1,2,0:0:0:0:
294,86,141652,1,2,0:0:0:0:
167,150,141828,1,2,0:0:0:0:
258,259,142004,1,2,0:0:0:0:
148,187,142181,101,6,0:0:0:0:
148,187,142269,1,2,0:0:0:0:
148,187,142358,1,2,0:0:0:0:
160,64,142534,1,2,0:0:0:0:
58,134,142710,1,2,0:0:0:0:
74,15,142887,1,0,0:0:0:0:
74,15,143063,85,8,1:0:0:0:
56,48,143240,5,8,1:0:0:0:
155,102,143416,101,8,1:0:0:0:
256,6,143593,5,8,0:0:0:0:
238,240,144299,5,2,0:0:0:0:
238,240,144387,1,2,0:0:0:0:
238,240,144476,1,2,0:0:0:0:
250,117,144652,1,2,0:0:0:0:
148,187,144828,2,0,P|93:211|51:209,1,75.0000028610231,2|0,0:0|0:0,0:0:0:0:
45,213,145710,101,2,0:0:0:0:
11,213,146416,5,12,0:0:0:0:
79,339,146593,1,8,0:0:0:0:
79,339,146681,1,8,0:0:0:0:
79,339,146769,1,8,0:0:0:0:
156,226,146946,1,8,1:0:0:0:
156,226,147034,1,8,1:0:0:0:
156,226,147122,1,8,1:0:0:0:
233,113,147299,1,8,1:0:0:0:
233,113,147387,1,8,1:0:0:0:
233,113,147475,5,2,0:0:0:0:
197,124,147563,1,2,0:0:0:0:
160,120,147652,1,2,0:0:0:0:
128,101,147740,1,0,0:0:0:0:
108,70,147828,37,14,0:0:0:0:
279,33,148004,2,0,B|326:58|326:58|397:7|468:47,1,200,2|2,0:0|0:0,0:0:0:0:
405,150,148534,5,10,0:0:0:0:
233,113,148710,2,0,B|211:118|199:138|199:138|227:153|242:176|242:176|219:226|241:276,1,200,2|2,0:0|0:0,0:0:0:0:
339,227,149240,101,8,0:0:0:0:
265,357,149416,2,0,B|160:376|186:285|82:304,1,200,2|2,0:0|0:0,0:0:0:0:
22,177,149946,5,10,0:0:0:0:
149,204,150122,1,2,0:0:0:0:
176,77,150299,1,0,0:0:0:0:
57,58,150475,1,2,0:0:0:0:
57,58,150563,1,2,0:0:0:0:
57,58,150652,101,14,0:0:0:0:
231,13,150828,2,0,B|256:30|268:61|268:61|241:132|277:195,1,200,2|2,0:0|0:0,0:0:0:0:
393,264,151357,5,10,0:0:0:0:
473,148,151534,1,2,0:0:0:0:
405,298,151710,1,0,0:0:0:0:
276,194,151887,1,2,0:0:0:0:
251,358,152063,1,10,0:0:0:0:
143,226,152240,2,0,B|131:207|112:193|112:193|174:187|203:237|259:228,1,200,2|2,0:0|0:0,0:0:0:0:
371,119,152769,101,10,0:0:0:0:
228,94,152946,1,2,0:0:0:0:
363,19,153122,1,0,0:0:0:0:
298,170,153299,1,2,0:0:0:0:
298,170,153387,1,0,0:0:0:0:
298,170,153475,86,0,L|306:219,3,50,14|0|2|0,0:0|0:0|0:0|0:0,0:0:0:0:
209,266,153828,2,0,L|217:216,3,50,0|0|2|0,0:0|0:0|0:0|0:0,0:0:0:0:
306,312,154181,5,10,0:0:0:0:
340,297,154269,1,0,0:0:0:0:
377,293,154357,1,2,0:0:0:0:
414,300,154446,1,0,0:0:0:0:
447,318,154534,69,0,0:0:0:0:
442,293,154622,1,0,0:0:0:0:
438,269,154710,1,2,0:0:0:0:
434,244,154799,1,0,0:0:0:0:
429,219,154887,6,0,L|420:169,3,50,10|0|2|0,0:0|0:0|0:0|0:0,0:0:0:0:
500,132,155240,2,0,L|508:82,3,50,0|0|2|0,0:0|0:0|0:0|0:0,0:0:0:0:
419,77,155593,5,10,0:0:0:0:
393,50,155681,1,0,0:0:0:0:
358,35,155769,1,2,0:0:0:0:
321,34,155857,1,0,0:0:0:0:
287,48,155946,5,0,0:0:0:0:
318,64,156035,1,0,0:0:0:0:
342,92,156123,1,2,0:0:0:0:
353,129,156211,1,0,0:0:0:0:
349,165,156299,70,0,L|284:153,3,50,14|0|2|0,0:0|0:0|0:0|0:0,0:0:0:0:
215,243,156652,2,0,L|264:234,3,50,0|0|2|0,0:0|0:0|0:0|0:0,0:0:0:0:
373,336,157004,5,10,0:0:0:0:
348,331,157093,1,0,0:0:0:0:
323,327,157181,1,2,0:0:0:0:
299,322,157269,1,0,0:0:0:0:
274,318,157357,5,0,0:0:0:0:
253,349,157445,1,0,0:0:0:0:
222,369,157533,1,2,0:0:0:0:
185,375,157621,1,0,0:0:0:0:
149,365,157710,6,0,L|158:308,3,50,10|0|2|0,0:0|0:0|0:0|0:0,0:0:0:0:
215,243,158063,5,0,0:0:0:0:
199,209,158152,1,0,0:0:0:0:
196,172,158240,1,2,0:0:0:0:
207,136,158328,1,0,0:0:0:0:
231,107,158416,70,0,L|291:117,1,50,10|0,0:0|0:0,0:0:0:0:
89,150,158593,2,0,L|28:160,1,50,2|0,0:0|0:0,0:0:0:0:
229,193,158769,2,0,L|289:203,1,50,10|0,0:0|0:0,0:0:0:0:
86,236,158946,2,0,L|25:246,1,50,2|0,0:0|0:0,0:0:0:0:
225,279,159122,5,10,0:0:0:0:
148,88,159299,2,0,B|98:46|98:46|271:10,1,239.999992675781,6|2,0:0|0:0,0:0:0:0:
368,101,159828,38,0,P|355:51|338:31,1,50,8|0,0:0|0:0,0:0:0:0:
431,166,160004,2,0,P|457:121|459:95,1,50,2|0,0:0|0:0,0:0:0:0:
429,256,160181,2,0,P|479:243|499:226,1,50,2|0,0:0|0:0,0:0:0:0:
364,319,160357,6,0,P|408:345|434:347,1,50,2|0,0:0|0:0,0:0:0:0:
277,203,160534,1,8,0:0:0:0:
208,356,160710,1,2,0:0:0:0:
208,356,160799,1,0,0:0:0:0:
208,356,160887,1,2,0:0:0:0:
301,229,161063,1,2,0:0:0:0:
117,256,161240,102,0,P|67:243|47:226,1,50,8|0,0:0|0:0,0:0:0:0:
115,166,161416,2,0,P|88:121|86:95,1,50,0|0,0:0|0:0,0:0:0:0:
178,101,161593,2,0,P|191:51|208:31,1,50,2|0,0:0|0:0,0:0:0:0:
268,99,161769,6,0,P|312:72|338:70,1,50
214,189,161946,101,8,0:0:0:0:
106,45,162122,1,2,0:0:0:0:
106,45,162210,1,2,0:0:0:0:
106,45,162299,1,2,0:0:0:0:
268,99,162475,1,2,0:0:0:0:
115,166,162652,6,0,P|65:179|45:196,1,50,10|0,0:0|0:0,0:0:0:0:
113,256,162828,2,0,P|86:300|84:326,1,50,2|0,0:0|0:0,0:0:0:0:
300,242,163004,102,0,P|326:286|328:312,1,50,2|0,0:0|0:0,0:0:0:0:
238,307,163180,2,0,P|225:357|208:377,1,50,2|0,0:0|0:0,0:0:0:0:
214,189,163357,5,10,0:0:0:0:
392,198,163534,1,2,0:0:0:0:
283,55,163710,1,2,0:0:0:0:
196,224,163887,1,2,0:0:0:0:
357,109,164063,102,0,P|375:60|372:34,1,50,10|0,0:0|0:0,0:0:0:0:
283,55,164240,2,0,P|261:8|241:-8,1,50,2|0,0:0|0:0,0:0:0:0:
193,69,164416,2,0,P|144:50|118:53,1,50,2|0,0:0|0:0,0:0:0:0:
139,143,164593,6,0,P|92:164|75:184,1,50,0|0,0:0|0:0,0:0:0:0:
129,329,164769,5,14,0:0:0:0:
214,189,164946,1,2,0:0:0:0:
45,235,165122,2,0,P|20:281|17:329,1,100,2|2,0:0|0:0,0:0:0:0:
201,276,165475,5,10,0:0:0:0:
258,115,165652,2,0,P|307:118|350:142,1,100,2|2,0:0|0:0,0:0:0:0:
319,299,166004,101,2,0:0:0:0:
180,178,166181,2,0,L|73:159,1,100,10|2,0:0|0:0,0:0:0:0:
16,327,166534,5,2,0:0:0:0:
48,153,166710,1,2,0:0:0:0:
49,362,166887,5,10,0:0:0:0:
49,362,166975,1,0,0:0:0:0:
49,362,167063,1,2,0:0:0:0:
217,312,167240,1,2,0:0:0:0:
51,244,167416,1,2,0:0:0:0:
240,282,167593,86,0,L|364:303,1,100,14|2,0:0|0:0,0:0:0:0:
235,164,167946,2,0,P|178:180|132:218,1,100,2|2,0:0|0:0,0:0:0:0:
316,206,168299,5,10,0:0:0:0:
215,63,168475,2,0,P|157:48|98:58,1,100,2|2,0:0|0:0,0:0:0:0:
301,99,168828,85,2,0:0:0:0:
451,0,169004,2,0,L|475:136,1,100,10|2,0:0|0:0,0:0:0:0:
342,273,169357,2,0,L|366:136,1,100,10|2,0:0|0:0,0:0:0:0:
512,307,169710,85,8,0:0:0:0:
512,307,169799,1,8,0:0:0:0:
512,307,169887,1,8,0:0:0:0:
306,268,170063,1,8,0:0:0:0:
474,134,170240,86,0,B|440:130|440:130|449:144|449:144|442:155|442:155|451:163|451:163|445:172|445:172|453:182|453:182|448:193|448:193|456:201|456:201|450:212|450:212|458:221|458:221|452:231|452:231|460:239|460:239|455:249|455:249|462:258|462:258|454:272,1,200,6|0,0:0|0:0,0:0:0:0:
493,370,173063,38,0,B|465:335|465:335|298:352,1,200,6|2,0:0|0:0,0:0:0:0:
140,335,173593,2,0,B|166:331|166:331|189:233,1,100,10|0,0:0|0:0,0:0:0:0:
25,182,173946,2,0,B|41:253|41:253|67:257,1,100,2|0,0:0|0:0,0:0:0:0:
203,146,174299,2,0,B|274:162|274:162|278:188,1,100,10|0,0:0|0:0,0:0:0:0:
357,340,174652,2,0,B|285:323|285:323|281:297,1,100,2|0,0:0|0:0,0:0:0:0:
387,158,175004,2,0,B|370:86|370:86|344:82,1,100,10|0,0:0|0:0,0:0:0:0:
372,249,175357,5,8,0:0:0:0:
466,107,175534,1,8,1:0:0:0:
410,246,175710,1,8,1:0:0:0:
309,78,175887,102,0,P|246:71|119:138,1,200,6|2,0:0|0:0,0:0:0:0:
108,304,176416,2,0,P|184:282|219:234,1,100,10|2,0:0|0:0,0:0:0:0:
372,249,176769,2,0,P|314:194|255:187,1,100,2|2,0:0|0:0,0:0:0:0:
292,344,177122,1,10,0:0:0:0:
203,175,177299,6,0,P|212:81|304:24,1,200,6|2,0:0|0:0,0:0:0:0:
296,188,177828,2,0,P|264:246|194:268,1,100,10|2,0:0|0:0,0:0:0:0:
49,206,178181,2,0,P|81:148|151:126,1,100,2|2,0:0|0:0,0:0:0:0:
122,302,178534,1,10,0:0:0:0:
105,98,178710,101,6,0:0:0:0:
129,67,179063,5,2,0:0:0:0:
287,154,179240,2,0,B|310:147|310:147|329:154|329:154|346:148|346:148|365:155|365:155|382:149,1,100,10|0,0:0|0:0,0:0:0:0:
143,210,179593,2,0,B|120:203|120:203|101:210|101:210|84:204|84:204|65:211|65:211|48:205,1,100,2|8,0:0|0:0,0:0:0:0:
16,202,179857,1,8,0:0:0:0:
16,202,179946,101,8,0:0:0:0:
105,98,180122,5,8,0:0:0:0:
250,166,180299,5,8,0:0:0:0:
194,342,180475,5,8,1:0:0:0:
159,175,180652,37,8,1:0:0:0:
287,82,180828,5,8,1:0:0:0:
385,167,181004,69,2,0:0:0:0:
303,240,181181,5,2,0:0:0:0:
250,166,181357,37,2,0:0:0:0:
400,74,181534,6,0,B|426:84|454:87|454:87|488:150|485:242,1,200,6|10,0:0|0:0,0:0:0:0:
347,318,182063,2,0,B|321:309|321:309|302:270|302:222,1,100,2|2,0:0|0:0,0:0:0:0:
444,316,182416,1,10,0:0:0:0:
385,167,182593,1,2,0:0:0:0:
342,352,182769,1,10,0:0:0:0:
178,237,182946,102,0,B|109:241|28:282|28:282|47:225,1,200,6|8,0:0|1:0,0:0:0:0:
139,108,183475,2,0,P|195:106|243:122,1,100,2|2,0:0|0:0,0:0:0:0:
261,295,183828,1,10,0:0:0:0:
270,106,184004,1,2,0:0:0:0:
169,273,184181,1,10,0:0:0:0:
339,172,184357,1,6,0:0:0:0:
375,183,184710,85,0,0:0:0:0:
327,30,184887,1,2,0:0:0:0:
327,30,184975,1,0,0:0:0:0:
327,30,185063,1,0,0:0:0:0:
478,111,185240,1,10,0:0:0:0:
478,111,185328,1,0,0:0:0:0:
478,111,185416,1,0,0:0:0:0:
483,282,185593,1,2,0:0:0:0:
483,282,185681,1,0,0:0:0:0:
483,282,185769,1,0,0:0:0:0:
337,372,185946,5,2,0:0:0:0:
337,372,186034,1,0,0:0:0:0:
337,372,186122,1,0,0:0:0:0:
332,201,186299,1,2,0:0:0:0:
332,201,186387,1,0,0:0:0:0:
332,201,186475,1,0,0:0:0:0:
181,120,186652,1,8,0:0:0:0:
181,120,186740,1,8,0:0:0:0:
181,120,186828,101,8,0:0:0:0:
196,259,187004,1,8,0:0:0:0:
72,108,187181,22,0,B|72:91|61:74|61:74|120:-1|202:1,1,200,6|10,0:0|0:0,0:0:0:0:
341,98,187710,2,0,B|338:84|330:77|330:77|358:46|398:44,1,100,2|2,0:0|0:0,0:0:0:0:
483,179,188063,1,10,0:0:0:0:
312,121,188240,1,2,0:0:0:0:
416,279,188416,1,10,0:0:0:0:
280,125,188593,6,0,B|195:121|146:183|146:183|194:189,1,200,6|10,0:0|0:0,0:0:0:0:
260,340,189122,2,0,B|214:343|177:367|177:367|195:378,1,100,2|2,0:0|0:0,0:0:0:0:
286,247,189475,1,10,0:0:0:0:
114,283,189652,1,2,0:0:0:0:
192,105,189828,1,10,0:0:0:0:
370,183,190004,70,0,B|407:189|407:189|385:314|385:314|420:320,1,200,6|0,0:0|0:0,0:0:0:0:
509,189,190534,1,2,0:0:0:0:
509,189,190622,1,0,0:0:0:0:
509,189,190710,1,0,0:0:0:0:
393,96,190887,1,10,0:0:0:0:
393,96,190975,1,0,0:0:0:0:
393,96,191063,1,0,0:0:0:0:
246,73,191240,1,2,0:0:0:0:
246,73,191328,1,0,0:0:0:0:
246,73,191416,1,0,0:0:0:0:
107,126,191593,5,2,0:0:0:0:
107,126,191681,1,0,0:0:0:0:
107,126,191769,1,0,0:0:0:0:
246,73,191946,1,2,0:0:0:0:
246,73,192034,1,0,0:0:0:0:
246,73,192122,1,0,0:0:0:0:
299,212,192299,101,8,0:0:0:0:
299,212,192387,1,8,0:0:0:0:
299,212,192475,1,8,0:0:0:0:
134,214,192652,1,8,0:0:0:0:
232,376,192828,1,6,0:0:0:0:
269,370,195122,101,10,0:0:0:0:
392,231,195299,1,10,0:0:0:0:
198,238,195475,1,10,0:0:0:0:
380,344,195652,1,6,0:0:0:0:
256,192,195674,12,0,196710,0:0:0:0:
