osu file format v14

[General]
AudioFilename: audio.mp3
AudioLeadIn: 0
PreviewTime: 22181
Countdown: 0
SampleSet: Drum
StackLeniency: 0.2
Mode: 0
LetterboxInBreaks: 0
EpilepsyWarning: 1
WidescreenStoryboard: 1

[Editor]
Bookmarks: 123,828,23593,46004,67357,91357,102475,125240,147828,170240,192828,196887
DistanceSpacing: 1
BeatDivisor: 4
GridSize: 4
TimelineZoom: 3.699999

[Metadata]
Title:In Due Time
TitleUnicode:In Due Time
Artist:Killswitch Engage
ArtistUnicode:Killswitch Engage
Creator:K4L1
Version:Believe in Redemption
Source:
Tags:Kalindraz Dada yShadowXOP_ ChuuritsuTv Sakura Airi Metalcore Disarm the Descent
BeatmapID:1965258
BeatmapSetID:941053

[Difficulty]
HPDrainRate:4.5
CircleSize:4
OverallDifficulty:9.5
ApproachRate:9.5
SliderMultiplier:2
SliderTickRate:1

[Events]
//Background and Video events
0,0,"T3N1e1A0cjNEM19wNFAzbF9tVF8zUGlDMF9NM3VfNG0xRzB9.jpg",0,0
//Break Periods
//Storyboard Layer 0 (Background)
//Storyboard Layer 1 (Fail)
//Storyboard Layer 2 (Pass)
//Storyboard Layer 3 (Foreground)
Sprite,Foreground,Centre,"sb\hl2.png",0,0 C,0,147828,,128,255,255 M,0,147828,147872,98,395,137.2258,409.6734 F,2,147828,149157,0.5,0 S,2,147828,149157,1,0.8 P,0,147828,149157,A M,0,147872,147916,137.2258,409.6734,177.0202,397.409 M,0,147916,147960,177.0202,397.409,199.8315,362.5237 M,0,147960,148004,199.8315,362.5237,196.0771,320.9493 M,0,148004,148048,196.0771,320.9493,168.7715,289.1367 M,0,148048,148092,168.7715,289.1367,166.8938,264.1061 M,0,148092,148136,166.8938,264.1061,141.0269,236.4214 M,0,148136,148180,141.0269,236.4214,119.828,199.9426 M,0,148180,148225,119.828,199.9426,116.555,157.9464 M,0,148225,148269,116.555,157.9464,131.4537,118.4666 M,0,148269,148313,131.4537,118.4666,160.7958,88.14954 M,0,148313,148357,160.7958,88.14954,200.5764,74.8502
Sprite,Foreground,Centre,"sb\hl2.png",98,395 C,0,147872,,128,255,255 F,2,147872,148672,0.5,0 P,0,147872,148672,A
Sprite,Foreground,Centre,"sb\hl2.png",137.2258,409.6734 C,0,147916,,128,255,255 F,2,147916,148716,0.5,0 P,0,147916,148716,A
Sprite,Foreground,Centre,"sb\hl2.png",177.0202,397.409 C,0,147960,,128,255,255 F,2,147960,148760,0.5,0 P,0,147960,148760,A
Sprite,Foreground,Centre,"sb\hl2.png",199.8315,362.5237 C,0,148004,,128,255,255 F,2,148004,148804,0.5,0 P,0,148004,148804,A
Sprite,Foreground,Centre,"sb\hl2.png",196.0771,320.9493 C,0,148048,,128,255,255 F,2,148048,148848,0.5,0 P,0,148048,148848,A
Sprite,Foreground,Centre,"sb\hl2.png",168.7715,289.1367 C,0,148092,,128,255,255 F,2,148092,148892,0.5,0 P,0,148092,148892,A
Sprite,Foreground,Centre,"sb\hl2.png",166.8938,264.1061 C,0,148136,,128,255,255 F,2,148136,148936,0.5,0 P,0,148136,148936,A
Sprite,Foreground,Centre,"sb\hl2.png",141.0269,236.4214 C,0,148180,,128,255,255 F,2,148180,148980,0.5,0 P,0,148180,148980,A
Sprite,Foreground,Centre,"sb\hl2.png",119.828,199.9426 C,0,148225,,128,255,255 F,2,148225,149025,0.5,0 P,0,148225,149025,A
Sprite,Foreground,Centre,"sb\hl2.png",116.555,157.9464 C,0,148269,,128,255,255 F,2,148269,149069,0.5,0 P,0,148269,149069,A
Sprite,Foreground,Centre,"sb\hl2.png",131.4537,118.4666 C,0,148313,,128,255,255 F,2,148313,149113,0.5,0 P,0,148313,149113,A
Sprite,Foreground,Centre,"sb\hl2.png",160.7958,88.14954 C,0,148357,,128,255,255 F,2,148357,149157,0.5,0 P,0,148357,149157,A
Sprite,Foreground,Centre,"sb\hl2.png",0,0 C,0,148534,,128,255,255 M,0,148534,148578,362,158,331.485,179.7964 F,2,148534,149510,0.5,0 S,2,148534,149510,1,0.8 P,0,148534,149510,A M,0,148578,148622,331.485,179.7964,297.0049,183.7417 M,0,148622,148666,297.0049,183.7417,260.1318,176.9133 M,0,148666,148710,260.1318,176.9133,223.2588,170.085
Sprite,Foreground,Centre,"sb\hl2.png",362,158 C,0,148578,,128,255,255 F,2,148578,149378,0.5,0 P,0,148578,149378,A
Sprite,Foreground,Centre,"sb\hl2.png",331.485,179.7964 C,0,148622,,128,255,255 F,2,148622,149422,0.5,0 P,0,148622,149422,A
Sprite,Foreground,Centre,"sb\hl2.png",297.0049,183.7417 C,0,148666,,128,255,255 F,2,148666,149466,0.5,0 P,0,148666,149466,A
Sprite,Foreground,Centre,"sb\hl2.png",260.1318,176.9133 C,0,148710,,128,255,255 F,2,148710,149510,0.5,0 P,0,148710,149510,A
Sprite,Foreground,Centre,"sb\hl2.png",102,89 C,0,148887,,128,255,255 F,2,148887,149687,0.5,0 S,2,148887,149687,1,0.8 P,0,148887,149687,A
Sprite,Foreground,Centre,"sb\hl2.png",0,0 C,0,149063,,6,87,255 M,0,149063,149107,479,107,515.384,115.0545 F,2,149063,150745,0.5,0 S,2,149063,150745,1,0.8 P,0,149063,150745,A M,0,149107,149151,515.384,115.0545,543.9092,138.6731 M,0,149151,149195,543.9092,138.6731,555.8992,173.7446 M,0,149195,149239,555.8992,173.7446,549.8622,210.4125 M,0,149239,149283,549.8622,210.4125,527.8,240.2725 M,0,149283,149327,527.8,240.2725,498,258.9786 M,0,149327,149371,498,258.9786,484.6635,289.6623 M,0,149371,149415,484.6635,289.6623,459.1916,317.0302 M,0,149415,149460,459.1916,317.0302,441.6461,350.0541 M,0,149460,149504,441.6461,350.0541,434.509,386.6581 M,0,149504,149548,434.509,386.6581,447.7493,420.6077 M,0,149548,149592,447.7493,420.6077,482.7797,428.8057 M,0,149592,149636,482.7797,428.8057,510.1963,405.1607 M,0,149636,149680,510.1963,405.1607,510.8961,368.49 M,0,149680,149724,510.8961,368.49,491.0159,337.0798 M,0,149724,149768,491.0159,337.0798,460.7825,315.1648 M,0,149768,149813,460.7825,315.1648,425.5021,302.7971 M,0,149813,149857,425.5021,302.7971,388.2069,300.3292 M,0,149857,149901,388.2069,300.3292,351.9743,309.2442 M,0,149901,149945,351.9743,309.2442,322.0131,331.2751
Sprite,Foreground,Centre,"sb\hl2.png",479,107 C,0,149107,,6,87,255 F,2,149107,149907,0.5,0 P,0,149107,149907,A
Sprite,Foreground,Centre,"sb\hl2.png",515.384,115.0545 C,0,149151,,6,87,255 F,2,149151,149951,0.5,0 P,0,149151,149951,A
Sprite,Foreground,Centre,"sb\hl2.png",543.9092,138.6731 C,0,149195,,6,87,255 F,2,149195,149995,0.5,0 P,0,149195,149995,A
Sprite,Foreground,Centre,"sb\hl2.png",555.8992,173.7446 C,0,149239,,6,87,255 F,2,149239,150039,0.5,0 P,0,149239,150039,A
Sprite,Foreground,Centre,"sb\hl2.png",549.8622,210.4125 C,0,149283,,6,87,255 F,2,149283,150083,0.5,0 P,0,149283,150083,A
Sprite,Foreground,Centre,"sb\hl2.png",527.8,240.2725 C,0,149327,,6,87,255 F,2,149327,150127,0.5,0 P,0,149327,150127,A
Sprite,Foreground,Centre,"sb\hl2.png",498,258.9786 C,0,149371,,6,87,255 F,2,149371,150171,0.5,0 P,0,149371,150171,A
Sprite,Foreground,Centre,"sb\hl2.png",484.6635,289.6623 C,0,149415,,6,87,255 F,2,149415,150215,0.5,0 P,0,149415,150215,A
Sprite,Foreground,Centre,"sb\hl2.png",459.1916,317.0302 C,0,149460,,6,87,255 F,2,149460,150260,0.5,0 P,0,149460,150260,A
Sprite,Foreground,Centre,"sb\hl2.png",441.6461,350.0541 C,0,149504,,6,87,255 F,2,149504,150304,0.5,0 P,0,149504,150304,A
Sprite,Foreground,Centre,"sb\hl2.png",434.509,386.6581 C,0,149548,,6,87,255 F,2,149548,150348,0.5,0 P,0,149548,150348,A
Sprite,Foreground,Centre,"sb\hl2.png",447.7493,420.6077 C,0,149592,,6,87,255 F,2,149592,150392,0.5,0 P,0,149592,150392,A
Sprite,Foreground,Centre,"sb\hl2.png",482.7797,428.8057 C,0,149636,,6,87,255 F,2,149636,150436,0.5,0 P,0,149636,150436,A
Sprite,Foreground,Centre,"sb\hl2.png",510.1963,405.1607 C,0,149680,,6,87,255 F,2,149680,150480,0.5,0 P,0,149680,150480,A
Sprite,Foreground,Centre,"sb\hl2.png",510.8961,368.49 C,0,149724,,6,87,255 F,2,149724,150524,0.5,0 P,0,149724,150524,A
Sprite,Foreground,Centre,"sb\hl2.png",491.0159,337.0798 C,0,149768,,6,87,255 F,2,149768,150568,0.5,0 P,0,149768,150568,A
Sprite,Foreground,Centre,"sb\hl2.png",460.7825,315.1648 C,0,149813,,6,87,255 F,2,149813,150613,0.5,0 P,0,149813,150613,A
Sprite,Foreground,Centre,"sb\hl2.png",425.5021,302.7971 C,0,149857,,6,87,255 F,2,149857,150657,0.5,0 P,0,149857,150657,A
Sprite,Foreground,Centre,"sb\hl2.png",388.2069,300.3292 C,0,149901,,6,87,255 F,2,149901,150701,0.5,0 P,0,149901,150701,A
Sprite,Foreground,Centre,"sb\hl2.png",351.9743,309.2442 C,0,149945,,6,87,255 F,2,149945,150745,0.5,0 P,0,149945,150745,A
Sprite,Foreground,Centre,"sb\hl2.png",314,440 C,0,150122,,6,87,255 F,2,150122,150922,0.5,0 S,2,150122,150922,1,0.8 P,0,150122,150922,A
Sprite,Foreground,Centre,"sb\hl2.png",205,414 C,0,150299,,6,87,255 F,2,150299,151099,0.5,0 S,2,150299,151099,1,0.8 P,0,150299,151099,A
Sprite,Foreground,Centre,"sb\hl2.png",0,0 C,0,150475,,6,87,255 M,0,150475,150519,97,390,134.3494,386.6428 F,2,150475,151363,0.5,0 S,2,150475,151363,1,0.8 P,0,150475,151363,A M,0,150519,150563,134.3494,386.6428,171.6988,383.2855
Sprite,Foreground,Centre,"sb\hl2.png",97,390 C,0,150519,,6,87,255 F,2,150519,151319,0.5,0 P,0,150519,151319,A
Sprite,Foreground,Centre,"sb\hl2.png",134.3494,386.6428 C,0,150563,,6,87,255 F,2,150563,151363,0.5,0 P,0,150563,151363,A
Sprite,Foreground,Centre,"sb\hl2.png",0,0 C,0,150652,,128,255,255 M,0,150652,150696,522,382,534.9039,360.6353 F,2,150652,151628,0.5,0 S,2,150652,151628,1,0.8 P,0,150652,151628,A M,0,150696,150740,534.9039,360.6353,544.5614,337.6392 M,0,150740,150784,544.5614,337.6392,550.5671,313.4315 M,0,150784,150828,550.5671,313.4315,552.9801,288.5896
Sprite,Foreground,Centre,"sb\hl2.png",522,382 C,0,150696,,128,255,255 F,2,150696,151496,0.5,0 P,0,150696,151496,A
Sprite,Foreground,Centre,"sb\hl2.png",534.9039,360.6353 C,0,150740,,128,255,255 F,2,150740,151540,0.5,0 P,0,150740,151540,A
Sprite,Foreground,Centre,"sb\hl2.png",544.5614,337.6392 C,0,150784,,128,255,255 F,2,150784,151584,0.5,0 P,0,150784,151584,A
Sprite,Foreground,Centre,"sb\hl2.png",550.5671,313.4315 C,0,150828,,128,255,255 F,2,150828,151628,0.5,0 P,0,150828,151628,A
Sprite,Foreground,Centre,"sb\hl2.png",0,0 C,0,151004,,128,255,255 M,0,151004,151048,522,150,508.4229,170.9345 F,2,151004,151980,0.5,0 S,2,151004,151980,1,0.8 P,0,151004,151980,A M,0,151048,151092,508.4229,170.9345,498.3393,193.7352 M,0,151092,151136,498.3393,193.7352,492.2184,217.9031 M,0,151136,151180,492.2184,217.9031,490.0054,242.7563
Sprite,Foreground,Centre,"sb\hl2.png",522,150 C,0,151048,,128,255,255 F,2,151048,151848,0.5,0 P,0,151048,151848,A
Sprite,Foreground,Centre,"sb\hl2.png",508.4229,170.9345 C,0,151092,,128,255,255 F,2,151092,151892,0.5,0 P,0,151092,151892,A
Sprite,Foreground,Centre,"sb\hl2.png",498.3393,193.7352 C,0,151136,,128,255,255 F,2,151136,151936,0.5,0 P,0,151136,151936,A
Sprite,Foreground,Centre,"sb\hl2.png",492.2184,217.9031 C,0,151180,,128,255,255 F,2,151180,151980,0.5,0 P,0,151180,151980,A
Sprite,Foreground,Centre,"sb\hl2.png",576,440 C,0,151357,,128,255,255 F,2,151357,152157,0.5,0 S,2,151357,152157,1,0.8 P,0,151357,152157,A
Sprite,Foreground,Centre,"sb\hl2.png",576,440 C,0,151534,,128,255,255 F,2,151534,152334,0.5,0 S,2,151534,152334,1,0.8 P,0,151534,152334,A
Sprite,Foreground,Centre,"sb\hl2.png",0,0 C,0,151710,,6,87,255 M,0,151710,151754,450,321,417.1536,303.2347 F,2,151710,152862,0.5,0 S,2,151710,152862,1,0.8 P,0,151710,152862,A M,0,151754,151798,417.1536,303.2347,380.2106,298.517 M,0,151798,151842,380.2106,298.517,344.1049,307.9553 M,0,151842,151886,344.1049,307.9553,317.9367,308.3906 M,0,151886,151930,317.9367,308.3906,294.9991,320.3677 M,0,151930,151974,294.9991,320.3677,261.6418,336.7979 M,0,151974,152018,261.6418,336.7979,224.4388,336.6475 M,0,152018,152062,224.4388,336.6475,189.4009,323.6062
Sprite,Foreground,Centre,"sb\hl2.png",450,321 C,0,151754,,6,87,255 F,2,151754,152554,0.5,0 P,0,151754,152554,A
Sprite,Foreground,Centre,"sb\hl2.png",417.1536,303.2347 C,0,151798,,6,87,255 F,2,151798,152598,0.5,0 P,0,151798,152598,A
Sprite,Foreground,Centre,"sb\hl2.png",380.2106,298.517 C,0,151842,,6,87,255 F,2,151842,152642,0.5,0 P,0,151842,152642,A
Sprite,Foreground,Centre,"sb\hl2.png",344.1049,307.9553 C,0,151886,,6,87,255 F,2,151886,152686,0.5,0 P,0,151886,152686,A
Sprite,Foreground,Centre,"sb\hl2.png",317.9367,308.3906 C,0,151930,,6,87,255 F,2,151930,152730,0.5,0 P,0,151930,152730,A
Sprite,Foreground,Centre,"sb\hl2.png",294.9991,320.3677 C,0,151974,,6,87,255 F,2,151974,152774,0.5,0 P,0,151974,152774,A
Sprite,Foreground,Centre,"sb\hl2.png",261.6418,336.7979 C,0,152018,,6,87,255 F,2,152018,152818,0.5,0 P,0,152018,152818,A
Sprite,Foreground,Centre,"sb\hl2.png",224.4388,336.6475 C,0,152062,,6,87,255 F,2,152062,152862,0.5,0 P,0,152062,152862,A
Sprite,Foreground,Centre,"sb\hl2.png",0,0 C,0,152240,,128,255,255 M,0,152240,152284,69,288,83.04726,267.3983 F,2,152240,153392,0.5,0 S,2,152240,153392,1,0.8 P,0,152240,153392,A M,0,152284,152328,83.04726,267.3983,101.4351,250.5742 M,0,152328,152372,101.4351,250.5742,123.1814,238.4194 M,0,152372,152416,123.1814,238.4194,147.1265,231.5772 M,0,152416,152460,147.1265,231.5772,171.9947,230.4081 M,0,152460,152504,171.9947,230.4081,196.462,234.9713 M,0,152504,152548,196.462,234.9713,219.2263,245.0212 M,0,152548,152592,219.2263,245.0212,239.0764,260.0209
Sprite,Foreground,Centre,"sb\hl2.png",69,288 C,0,152284,,128,255,255 F,2,152284,153084,0.5,0 P,0,152284,153084,A
Sprite,Foreground,Centre,"sb\hl2.png",83.04726,267.3983 C,0,152328,,128,255,255 F,2,152328,153128,0.5,0 P,0,152328,153128,A
Sprite,Foreground,Centre,"sb\hl2.png",101.4351,250.5742 C,0,152372,,128,255,255 F,2,152372,153172,0.5,0 P,0,152372,153172,A
Sprite,Foreground,Centre,"sb\hl2.png",123.1814,238.4194 C,0,152416,,128,255,255 F,2,152416,153216,0.5,0 P,0,152416,153216,A
Sprite,Foreground,Centre,"sb\hl2.png",147.1265,231.5772 C,0,152460,,128,255,255 F,2,152460,153260,0.5,0 P,0,152460,153260,A
Sprite,Foreground,Centre,"sb\hl2.png",171.9947,230.4081 C,0,152504,,128,255,255 F,2,152504,153304,0.5,0 P,0,152504,153304,A
Sprite,Foreground,Centre,"sb\hl2.png",196.462,234.9713 C,0,152548,,128,255,255 F,2,152548,153348,0.5,0 P,0,152548,153348,A
Sprite,Foreground,Centre,"sb\hl2.png",219.2263,245.0212 C,0,152592,,128,255,255 F,2,152592,153392,0.5,0 P,0,152592,153392,A
Sprite,Foreground,Centre,"sb\hl2.png",0,0 C,0,152769,,6,87,255 M,0,152769,152813,348,267,360.1395,266.3986 F,2,152769,154098,0.5,0 S,2,152769,154098,1,0.8 P,0,152769,154098,A M,0,152813,152857,360.1395,266.3986,371.6933,262.2106 M,0,152857,152901,371.6933,262.2106,379.0469,252.5452 M,0,152901,152945,379.0469,252.5452,383.2146,241.023 M,0,152945,152989,383.2146,241.023,380.5602,229.1814 M,0,152989,153033,380.5602,229.1814,374.3946,218.6335 M,0,153033,153077,374.3946,218.6335,363.6348,213.0406 M,0,153077,153121,363.6348,213.0406,351.6178,211.0306 M,0,153121,153166,351.6178,211.0306,340.4169,215.6553 M,0,153166,153210,340.4169,215.6553,331.205,223.5801 M,0,153210,153254,331.205,223.5801,327.5305,235.1192 M,0,153254,153298,327.5305,235.1192,327,246
Sprite,Foreground,Centre,"sb\hl2.png",348,267 C,0,152813,,6,87,255 F,2,152813,153613,0.5,0 P,0,152813,153613,A
Sprite,Foreground,Centre,"sb\hl2.png",360.1395,266.3986 C,0,152857,,6,87,255 F,2,152857,153657,0.5,0 P,0,152857,153657,A
Sprite,Foreground,Centre,"sb\hl2.png",371.6933,262.2106 C,0,152901,,6,87,255 F,2,152901,153701,0.5,0 P,0,152901,153701,A
Sprite,Foreground,Centre,"sb\hl2.png",379.0469,252.5452 C,0,152945,,6,87,255 F,2,152945,153745,0.5,0 P,0,152945,153745,A
Sprite,Foreground,Centre,"sb\hl2.png",383.2146,241.023 C,0,152989,,6,87,255 F,2,152989,153789,0.5,0 P,0,152989,153789,A
Sprite,Foreground,Centre,"sb\hl2.png",380.5602,229.1814 C,0,153033,,6,87,255 F,2,153033,153833,0.5,0 P,0,153033,153833,A
Sprite,Foreground,Centre,"sb\hl2.png",374.3946,218.6335 C,0,153077,,6,87,255 F,2,153077,153877,0.5,0 P,0,153077,153877,A
Sprite,Foreground,Centre,"sb\hl2.png",363.6348,213.0406 C,0,153121,,6,87,255 F,2,153121,153921,0.5,0 P,0,153121,153921,A
Sprite,Foreground,Centre,"sb\hl2.png",351.6178,211.0306 C,0,153166,,6,87,255 F,2,153166,153966,0.5,0 P,0,153166,153966,A
Sprite,Foreground,Centre,"sb\hl2.png",340.4169,215.6553 C,0,153210,,6,87,255 F,2,153210,154010,0.5,0 P,0,153210,154010,A
Sprite,Foreground,Centre,"sb\hl2.png",331.205,223.5801 C,0,153254,,6,87,255 F,2,153254,154054,0.5,0 P,0,153254,154054,A
Sprite,Foreground,Centre,"sb\hl2.png",327.5305,235.1192 C,0,153298,,6,87,255 F,2,153298,154098,0.5,0 P,0,153298,154098,A
Sprite,Foreground,Centre,"sb\hl2.png",0,0 C,0,153475,,191,128,255 M,0,153475,153519,201,220,157.3811,216.6158 F,2,153475,154392,0.5,0 S,2,153475,154392,1,0.8 P,0,153475,154392,A M,0,153519,153563,157.3811,216.6158,113.7622,213.2316 M,0,153563,153592,113.7622,213.2316,85,211
Sprite,Foreground,Centre,"sb\hl2.png",201,220 C,0,153519,,191,128,255 F,2,153519,154319,0.5,0 P,0,153519,154319,A
Sprite,Foreground,Centre,"sb\hl2.png",157.3811,216.6158 C,0,153563,,191,128,255 F,2,153563,154363,0.5,0 P,0,153563,154363,A
Sprite,Foreground,Centre,"sb\hl2.png",113.7622,213.2316 C,0,153592,,191,128,255 F,2,153592,154392,0.5,0 P,0,153592,154392,A
Sprite,Foreground,Centre,"sb\hl2.png",0,0 C,0,153652,,133,11,255 M,0,153652,153696,88,299,92.42632,342.5255 F,2,153652,154569,0.5,0 S,2,153652,154569,1,0.8 P,0,153652,154569,A M,0,153696,153740,92.42632,342.5255,90.95088,328.017 M,0,153740,153769,90.95088,328.017,88,299
Sprite,Foreground,Centre,"sb\hl2.png",88,299 C,0,153696,,133,11,255 F,2,153696,154496,0.5,0 P,0,153696,154496,A
Sprite,Foreground,Centre,"sb\hl2.png",92.42632,342.5255 C,0,153740,,133,11,255 F,2,153740,154540,0.5,0 P,0,153740,154540,A
Sprite,Foreground,Centre,"sb\hl2.png",90.95088,328.017 C,0,153769,,133,11,255 F,2,153769,154569,0.5,0 P,0,153769,154569,A
Sprite,Foreground,Centre,"sb\hl2.png",0,0 C,0,153828,,133,11,255 M,0,153828,153872,204,309,207.7576,352.5883 F,2,153828,154745,0.5,0 S,2,153828,154745,1,0.8 P,0,153828,154745,A M,0,153872,153916,207.7576,352.5883,206.5051,338.0589 M,0,153916,153945,206.5051,338.0589,204,309
Sprite,Foreground,Centre,"sb\hl2.png",204,309 C,0,153872,,133,11,255 F,2,153872,154672,0.5,0 P,0,153872,154672,A
Sprite,Foreground,Centre,"sb\hl2.png",207.7576,352.5883 C,0,153916,,133,11,255 F,2,153916,154716,0.5,0 P,0,153916,154716,A
Sprite,Foreground,Centre,"sb\hl2.png",206.5051,338.0589 C,0,153945,,133,11,255 F,2,153945,154745,0.5,0 P,0,153945,154745,A
Sprite,Foreground,Centre,"sb\hl2.png",0,0 C,0,154004,,133,11,255 M,0,154004,154048,320,319,324.4263,362.5255 F,2,154004,154921,0.5,0 S,2,154004,154921,1,0.8 P,0,154004,154921,A M,0,154048,154092,324.4263,362.5255,322.9509,348.017 M,0,154092,154121,322.9509,348.017,320,319
Sprite,Foreground,Centre,"sb\hl2.png",320,319 C,0,154048,,133,11,255 F,2,154048,154848,0.5,0 P,0,154048,154848,A
Sprite,Foreground,Centre,"sb\hl2.png",324.4263,362.5255 C,0,154092,,133,11,255 F,2,154092,154892,0.5,0 P,0,154092,154892,A
Sprite,Foreground,Centre,"sb\hl2.png",322.9509,348.017 C,0,154121,,133,11,255 F,2,154121,154921,0.5,0 P,0,154121,154921,A
Sprite,Foreground,Centre,"sb\hl2.png",319,232 C,0,154181,,191,128,255 F,2,154181,154981,0.5,0 S,2,154181,154981,1,0.8 P,0,154181,154981,A
Sprite,Foreground,Centre,"sb\hl2.png",0,0 C,0,154240,,191,128,255 M,0,154240,154284,319,232,361.2079,240.5108 F,2,154240,155098,0.5,0 S,2,154240,155098,1,0.8 P,0,154240,155098,A M,0,154284,154298,361.2079,240.5108,373.3579,248.5188
Sprite,Foreground,Centre,"sb\hl2.png",319,232 C,0,154284,,191,128,255 F,2,154284,155084,0.5,0 P,0,154284,155084,A
Sprite,Foreground,Centre,"sb\hl2.png",361.2079,240.5108 C,0,154298,,191,128,255 F,2,154298,155098,0.5,0 P,0,154298,155098,A
Sprite,Foreground,Centre,"sb\hl2.png",410,175 C,0,154357,,191,128,255 F,2,154357,155157,0.5,0 S,2,154357,155157,1,0.8 P,0,154357,155157,A
Sprite,Foreground,Centre,"sb\hl2.png",0,0 C,0,154416,,191,128,255 M,0,154416,154460,410,175,442.3362,203.3613 F,2,154416,155274,0.5,0 S,2,154416,155274,1,0.8 P,0,154416,155274,A M,0,154460,154474,442.3362,203.3613,448.7568,216.4178
Sprite,Foreground,Centre,"sb\hl2.png",410,175 C,0,154460,,191,128,255 F,2,154460,155260,0.5,0 P,0,154460,155260,A
Sprite,Foreground,Centre,"sb\hl2.png",442.3362,203.3613 C,0,154474,,191,128,255 F,2,154474,155274,0.5,0 P,0,154474,155274,A
Sprite,Foreground,Centre,"sb\hl2.png",576,288 C,0,154534,,191,128,255 F,2,154534,155334,0.5,0 S,2,154534,155334,1,0.8 P,0,154534,155334,A
Sprite,Foreground,Centre,"sb\hl2.png",0,0 C,0,154593,,191,128,255 M,0,154593,154637,576,288,533.7921,279.4892 F,2,154593,155451,0.5,0 S,2,154593,155451,1,0.8 P,0,154593,155451,A M,0,154637,154651,533.7921,279.4892,521.6421,271.4812
Sprite,Foreground,Centre,"sb\hl2.png",576,288 C,0,154637,,191,128,255 F,2,154637,155437,0.5,0 P,0,154637,155437,A
Sprite,Foreground,Centre,"sb\hl2.png",533.7921,279.4892 C,0,154651,,191,128,255 F,2,154651,155451,0.5,0 P,0,154651,155451,A
Sprite,Foreground,Centre,"sb\hl2.png",485,345 C,0,154710,,191,128,255 F,2,154710,155510,0.5,0 S,2,154710,155510,1,0.8 P,0,154710,155510,A
Sprite,Foreground,Centre,"sb\hl2.png",0,0 C,0,154769,,191,128,255 M,0,154769,154813,485,345,452.3873,316.8056 F,2,154769,155627,0.5,0 S,2,154769,155627,1,0.8 P,0,154769,155627,A M,0,154813,154827,452.3873,316.8056,445.7882,303.836
Sprite,Foreground,Centre,"sb\hl2.png",485,345 C,0,154813,,191,128,255 F,2,154813,155613,0.5,0 P,0,154813,155613,A
Sprite,Foreground,Centre,"sb\hl2.png",452.3873,316.8056 C,0,154827,,191,128,255 F,2,154827,155627,0.5,0 P,0,154827,155627,A
Sprite,Foreground,Centre,"sb\hl2.png",0,0 C,0,154887,,133,11,255 M,0,154887,154931,320,319,315.4982,362.5178 F,2,154887,155804,0.5,0 S,2,154887,155804,1,0.8 P,0,154887,155804,A M,0,154931,154975,315.4982,362.5178,316.9988,348.0118 M,0,154975,155004,316.9988,348.0118,320,319
Sprite,Foreground,Centre,"sb\hl2.png",320,319 C,0,154931,,133,11,255 F,2,154931,155731,0.5,0 P,0,154931,155731,A
Sprite,Foreground,Centre,"sb\hl2.png",315.4982,362.5178 C,0,154975,,133,11,255 F,2,154975,155775,0.5,0 P,0,154975,155775,A
Sprite,Foreground,Centre,"sb\hl2.png",316.9988,348.0118 C,0,155004,,133,11,255 F,2,155004,155804,0.5,0 P,0,155004,155804,A
Sprite,Foreground,Centre,"sb\hl2.png",0,0 C,0,155063,,133,11,255 M,0,155063,155107,211,250,207.2424,293.5883 F,2,155063,155980,0.5,0 S,2,155063,155980,1,0.8 P,0,155063,155980,A M,0,155107,155151,207.2424,293.5883,208.4949,279.0589 M,0,155151,155180,208.4949,279.0589,211,250
Sprite,Foreground,Centre,"sb\hl2.png",211,250 C,0,155107,,133,11,255 F,2,155107,155907,0.5,0 P,0,155107,155907,A
Sprite,Foreground,Centre,"sb\hl2.png",207.2424,293.5883 C,0,155151,,133,11,255 F,2,155151,155951,0.5,0 P,0,155151,155951,A
Sprite,Foreground,Centre,"sb\hl2.png",208.4949,279.0589 C,0,155180,,133,11,255 F,2,155180,155980,0.5,0 P,0,155180,155980,A
Sprite,Foreground,Centre,"sb\hl2.png",0,0 C,0,155240,,133,11,255 M,0,155240,155284,100,177,104.5018,220.5178 F,2,155240,156157,0.5,0 S,2,155240,156157,1,0.8 P,0,155240,156157,A M,0,155284,155328,104.5018,220.5178,103.0012,206.0118 M,0,155328,155357,103.0012,206.0118,100,177
Sprite,Foreground,Centre,"sb\hl2.png",100,177 C,0,155284,,133,11,255 F,2,155284,156084,0.5,0 P,0,155284,156084,A
Sprite,Foreground,Centre,"sb\hl2.png",104.5018,220.5178 C,0,155328,,133,11,255 F,2,155328,156128,0.5,0 P,0,155328,156128,A
Sprite,Foreground,Centre,"sb\hl2.png",103.0012,206.0118 C,0,155357,,133,11,255 F,2,155357,156157,0.5,0 P,0,155357,156157,A
Sprite,Foreground,Centre,"sb\hl2.png",0,0 C,0,155416,,133,11,255 M,0,155416,155460,208,108,211.7576,151.5883 F,2,155416,156333,0.5,0 S,2,155416,156333,1,0.8 P,0,155416,156333,A M,0,155460,155504,211.7576,151.5883,210.5051,137.0589 M,0,155504,155533,210.5051,137.0589,208,108
Sprite,Foreground,Centre,"sb\hl2.png",208,108 C,0,155460,,133,11,255 F,2,155460,156260,0.5,0 P,0,155460,156260,A
Sprite,Foreground,Centre,"sb\hl2.png",211.7576,151.5883 C,0,155504,,133,11,255 F,2,155504,156304,0.5,0 P,0,155504,156304,A
Sprite,Foreground,Centre,"sb\hl2.png",210.5051,137.0589 C,0,155533,,133,11,255 F,2,155533,156333,0.5,0 P,0,155533,156333,A
Sprite,Foreground,Centre,"sb\hl2.png",332,72 C,0,155593,,191,128,255 F,2,155593,156393,0.5,0 S,2,155593,156393,1,0.8 P,0,155593,156393,A
Sprite,Foreground,Centre,"sb\hl2.png",0,0 C,0,155652,,191,128,255 M,0,155652,155696,332,72,366.3596,97.85907 F,2,155652,156510,0.5,0 S,2,155652,156510,1,0.8 P,0,155652,156510,A M,0,155696,155710,366.3596,97.85907,373.706,110.4175
Sprite,Foreground,Centre,"sb\hl2.png",332,72 C,0,155696,,191,128,255 F,2,155696,156496,0.5,0 P,0,155696,156496,A
Sprite,Foreground,Centre,"sb\hl2.png",366.3596,97.85907 C,0,155710,,191,128,255 F,2,155710,156510,0.5,0 P,0,155710,156510,A
Sprite,Foreground,Centre,"sb\hl2.png",456,103 C,0,155769,,191,128,255 F,2,155769,156569,0.5,0 S,2,155769,156569,1,0.8 P,0,155769,156569,A
Sprite,Foreground,Centre,"sb\hl2.png",0,0 C,0,155828,,191,128,255 M,0,155828,155872,456,103,449.7663,145.922 F,2,155828,156686,0.5,0 S,2,155828,156686,1,0.8 P,0,155828,156686,A M,0,155872,155886,449.7663,145.922,444,159
Sprite,Foreground,Centre,"sb\hl2.png",456,103 C,0,155872,,191,128,255 F,2,155872,156672,0.5,0 P,0,155872,156672,A
Sprite,Foreground,Centre,"sb\hl2.png",449.7663,145.922 C,0,155886,,191,128,255 F,2,155886,156686,0.5,0 P,0,155886,156686,A
Sprite,Foreground,Centre,"sb\hl2.png",492,223 C,0,155946,,191,128,255 F,2,155946,156746,0.5,0 S,2,155946,156746,1,0.8 P,0,155946,156746,A
Sprite,Foreground,Centre,"sb\hl2.png",0,0 C,0,156004,,191,128,255 M,0,156004,156048,491,223,450.9368,239.1574 F,2,156004,156862,0.5,0 S,2,156004,156862,1,0.8 P,0,156004,156862,A M,0,156048,156062,450.9368,239.1574,437,240
Sprite,Foreground,Centre,"sb\hl2.png",491,223 C,0,156048,,191,128,255 F,2,156048,156848,0.5,0 P,0,156048,156848,A
Sprite,Foreground,Centre,"sb\hl2.png",450.9368,239.1574 C,0,156062,,191,128,255 F,2,156062,156862,0.5,0 P,0,156062,156862,A
Sprite,Foreground,Centre,"sb\hl2.png",405,315 C,0,156122,,191,128,255 F,2,156122,156922,0.5,0 S,2,156122,156922,1,0.8 P,0,156122,156922,A
Sprite,Foreground,Centre,"sb\hl2.png",0,0 C,0,156181,,191,128,255 M,0,156181,156225,405,315,370.6404,289.1409 F,2,156181,157039,0.5,0 S,2,156181,157039,1,0.8 P,0,156181,157039,A M,0,156225,156239,370.6404,289.1409,363.294,276.5825
Sprite,Foreground,Centre,"sb\hl2.png",405,315 C,0,156225,,191,128,255 F,2,156225,157025,0.5,0 P,0,156225,157025,A
Sprite,Foreground,Centre,"sb\hl2.png",370.6404,289.1409 C,0,156239,,191,128,255 F,2,156239,157039,0.5,0 P,0,156239,157039,A
Sprite,Foreground,Centre,"sb\hl2.png",297,219 C,0,156299,,255,128,128 F,2,156299,157099,0.5,0 S,2,156299,157099,1,0.8 P,0,156299,157099,A
Sprite,Foreground,Centre,"sb\hl2.png",279,210 C,0,156357,,255,128,128 F,2,156357,157157,0.5,0 S,2,156357,157157,1,0.8 P,0,156357,157157,A
Sprite,Foreground,Centre,"sb\hl2.png",262,202 C,0,156416,,255,128,128 F,2,156416,157216,0.5,0 S,2,156416,157216,1,0.8 P,0,156416,157216,A
Sprite,Foreground,Centre,"sb\hl2.png",243,197 C,0,156475,,255,128,128 F,2,156475,157275,0.5,0 S,2,156475,157275,1,0.8 P,0,156475,157275,A
Sprite,Foreground,Centre,"sb\hl2.png",224,193 C,0,156534,,255,128,128 F,2,156534,157334,0.5,0 S,2,156534,157334,1,0.8 P,0,156534,157334,A
Sprite,Foreground,Centre,"sb\hl2.png",205,193 C,0,156593,,255,128,128 F,2,156593,157393,0.5,0 S,2,156593,157393,1,0.8 P,0,156593,157393,A
Sprite,Foreground,Centre,"sb\hl2.png",186,195 C,0,156651,,255,128,128 F,2,156651,157451,0.5,0 S,2,156651,157451,1,0.8 P,0,156651,157451,A
Sprite,Foreground,Centre,"sb\hl2.png",167,198 C,0,156710,,255,128,128 F,2,156710,157510,0.5,0 S,2,156710,157510,1,0.8 P,0,156710,157510,A
Sprite,Foreground,Centre,"sb\hl2.png",148,198 C,0,156769,,255,128,128 F,2,156769,157569,0.5,0 S,2,156769,157569,1,0.8 P,0,156769,157569,A
Sprite,Foreground,Centre,"sb\hl2.png",129,195 C,0,156828,,255,128,128 F,2,156828,157628,0.5,0 S,2,156828,157628,1,0.8 P,0,156828,157628,A
Sprite,Foreground,Centre,"sb\hl2.png",110,190 C,0,156887,,255,128,128 F,2,156887,157687,0.5,0 S,2,156887,157687,1,0.8 P,0,156887,157687,A
Sprite,Foreground,Centre,"sb\hl2.png",92,182 C,0,156946,,255,128,128 F,2,156946,157746,0.5,0 S,2,156946,157746,1,0.8 P,0,156946,157746,A
Sprite,Foreground,Centre,"sb\hl2.png",76,174 C,0,157004,,255,6,6 F,2,157004,157804,0.5,0 S,2,157004,157804,1,0.8 P,0,157004,157804,A
Sprite,Foreground,Centre,"sb\hl2.png",106,152 C,0,157062,,255,6,6 F,2,157062,157862,0.5,0 S,2,157062,157862,1,0.8 P,0,157062,157862,A
Sprite,Foreground,Centre,"sb\hl2.png",143,143 C,0,157121,,255,6,6 F,2,157121,157921,0.5,0 S,2,157121,157921,1,0.8 P,0,157121,157921,A
Sprite,Foreground,Centre,"sb\hl2.png",180,148 C,0,157180,,255,6,6 F,2,157180,157980,0.5,0 S,2,157180,157980,1,0.8 P,0,157180,157980,A
Sprite,Foreground,Centre,"sb\hl2.png",213,166 C,0,157239,,255,6,6 F,2,157239,158039,0.5,0 S,2,157239,158039,1,0.8 P,0,157239,158039,A
Sprite,Foreground,Centre,"sb\hl2.png",236,196 C,0,157298,,255,6,6 F,2,157298,158098,0.5,0 S,2,157298,158098,1,0.8 P,0,157298,158098,A
Sprite,Foreground,Centre,"sb\hl2.png",247,232 C,0,157356,,255,6,6 F,2,157356,158156,0.5,0 S,2,157356,158156,1,0.8 P,0,157356,158156,A
Sprite,Foreground,Centre,"sb\hl2.png",244,270 C,0,157415,,255,6,6 F,2,157415,158215,0.5,0 S,2,157415,158215,1,0.8 P,0,157415,158215,A
Sprite,Foreground,Centre,"sb\hl2.png",227,303 C,0,157474,,255,6,6 F,2,157474,158274,0.5,0 S,2,157474,158274,1,0.8 P,0,157474,158274,A
Sprite,Foreground,Centre,"sb\hl2.png",198,328 C,0,157533,,255,6,6 F,2,157533,158333,0.5,0 S,2,157533,158333,1,0.8 P,0,157533,158333,A
Sprite,Foreground,Centre,"sb\hl2.png",163,341 C,0,157592,,255,6,6 F,2,157592,158392,0.5,0 S,2,157592,158392,1,0.8 P,0,157592,158392,A
Sprite,Foreground,Centre,"sb\hl2.png",125,339 C,0,157651,,255,6,6 F,2,157651,158451,0.5,0 S,2,157651,158451,1,0.8 P,0,157651,158451,A
Sprite,Foreground,Centre,"sb\hl2.png",91,324 C,0,157710,,255,128,128 F,2,157710,158510,0.5,0 S,2,157710,158510,1,0.8 P,0,157710,158510,A
Sprite,Foreground,Centre,"sb\hl2.png",117,312 C,0,157768,,255,128,128 F,2,157768,158568,0.5,0 S,2,157768,158568,1,0.8 P,0,157768,158568,A
Sprite,Foreground,Centre,"sb\hl2.png",145,302 C,0,157827,,255,128,128 F,2,157827,158627,0.5,0 S,2,157827,158627,1,0.8 P,0,157827,158627,A
Sprite,Foreground,Centre,"sb\hl2.png",173,295 C,0,157886,,255,128,128 F,2,157886,158686,0.5,0 S,2,157886,158686,1,0.8 P,0,157886,158686,A
Sprite,Foreground,Centre,"sb\hl2.png",202,291 C,0,157945,,255,128,128 F,2,157945,158745,0.5,0 S,2,157945,158745,1,0.8 P,0,157945,158745,A
Sprite,Foreground,Centre,"sb\hl2.png",231,290 C,0,158004,,255,128,128 F,2,158004,158804,0.5,0 S,2,158004,158804,1,0.8 P,0,158004,158804,A
Sprite,Foreground,Centre,"sb\hl2.png",260,292 C,0,158062,,255,128,128 F,2,158062,158862,0.5,0 S,2,158062,158862,1,0.8 P,0,158062,158862,A
Sprite,Foreground,Centre,"sb\hl2.png",289,297 C,0,158121,,255,128,128 F,2,158121,158921,0.5,0 S,2,158121,158921,1,0.8 P,0,158121,158921,A
Sprite,Foreground,Centre,"sb\hl2.png",317,305 C,0,158180,,255,128,128 F,2,158180,158980,0.5,0 S,2,158180,158980,1,0.8 P,0,158180,158980,A
Sprite,Foreground,Centre,"sb\hl2.png",345,315 C,0,158239,,255,128,128 F,2,158239,159039,0.5,0 S,2,158239,159039,1,0.8 P,0,158239,159039,A
Sprite,Foreground,Centre,"sb\hl2.png",371,328 C,0,158298,,255,128,128 F,2,158298,159098,0.5,0 S,2,158298,159098,1,0.8 P,0,158298,159098,A
Sprite,Foreground,Centre,"sb\hl2.png",395,343 C,0,158357,,255,128,128 F,2,158357,159157,0.5,0 S,2,158357,159157,1,0.8 P,0,158357,159157,A
Sprite,Foreground,Centre,"sb\hl2.png",418,361 C,0,158416,,255,6,6 F,2,158416,159216,0.5,0 S,2,158416,159216,1,0.8 P,0,158416,159216,A
Sprite,Foreground,Centre,"sb\hl2.png",417,338 C,0,158474,,255,6,6 F,2,158474,159274,0.5,0 S,2,158474,159274,1,0.8 P,0,158474,159274,A
Sprite,Foreground,Centre,"sb\hl2.png",415,315 C,0,158533,,255,6,6 F,2,158533,159333,0.5,0 S,2,158533,159333,1,0.8 P,0,158533,159333,A
Sprite,Foreground,Centre,"sb\hl2.png",414,292 C,0,158592,,255,6,6 F,2,158592,159392,0.5,0 S,2,158592,159392,1,0.8 P,0,158592,159392,A
Sprite,Foreground,Centre,"sb\hl2.png",412,268 C,0,158651,,255,6,6 F,2,158651,159451,0.5,0 S,2,158651,159451,1,0.8 P,0,158651,159451,A
Sprite,Foreground,Centre,"sb\hl2.png",411,245 C,0,158710,,255,6,6 F,2,158710,159510,0.5,0 S,2,158710,159510,1,0.8 P,0,158710,159510,A
Sprite,Foreground,Centre,"sb\hl2.png",428,229 C,0,158768,,255,128,128 F,2,158768,159568,0.5,0 S,2,158768,159568,1,0.8 P,0,158768,159568,A
Sprite,Foreground,Centre,"sb\hl2.png",431,206 C,0,158827,,255,128,128 F,2,158827,159627,0.5,0 S,2,158827,159627,1,0.8 P,0,158827,159627,A
Sprite,Foreground,Centre,"sb\hl2.png",432,185 C,0,158886,,255,128,128 F,2,158886,159686,0.5,0 S,2,158886,159686,1,0.8 P,0,158886,159686,A
Sprite,Foreground,Centre,"sb\hl2.png",433,162 C,0,158945,,255,128,128 F,2,158945,159745,0.5,0 S,2,158945,159745,1,0.8 P,0,158945,159745,A
Sprite,Foreground,Centre,"sb\hl2.png",436,141 C,0,159004,,255,128,128 F,2,159004,159804,0.5,0 S,2,159004,159804,1,0.8 P,0,159004,159804,A
Sprite,Foreground,Centre,"sb\hl2.png",437,121 C,0,159063,,255,128,128 F,2,159063,159863,0.5,0 S,2,159063,159863,1,0.8 P,0,159063,159863,A
Sprite,Foreground,Centre,"sb\hl2.png",0,0 C,0,159122,,255,6,6 M,0,159122,159166,450,90,410.9389,109.4714 F,2,159122,160010,0.5,0 S,2,159122,160010,1,0.8 P,0,159122,160010,A M,0,159166,159210,410.9389,109.4714,368.5636,119.8587
Sprite,Foreground,Centre,"sb\hl2.png",450,90 C,0,159166,,255,6,6 F,2,159166,159966,0.5,0 P,0,159166,159966,A
Sprite,Foreground,Centre,"sb\hl2.png",410.9389,109.4714 C,0,159210,,255,6,6 F,2,159210,160010,0.5,0 P,0,159210,160010,A
Sprite,Foreground,Centre,"sb\hl2.png",0,0 C,0,159299,,128,255,255 M,0,159299,159343,156,140,183.513,105.9839 F,2,159299,160540,0.5,0 S,2,159299,160540,1,0.8 P,0,159299,160540,A M,0,159343,159387,183.513,105.9839,210.9968,72.04131 M,0,159387,159431,210.9968,72.04131,207.6414,115.6624 M,0,159431,159475,207.6414,115.6624,204.2859,159.2836 M,0,159475,159519,204.2859,159.2836,200.4809,202.7442 M,0,159519,159563,200.4809,202.7442,174.2988,237.7797 M,0,159563,159607,174.2988,237.7797,177.4872,276.1599 M,0,159607,159651,177.4872,276.1599,157.6684,313.0836 M,0,159651,159696,157.6684,313.0836,153.3381,356.1367 M,0,159696,159740,153.3381,356.1367,167.3875,397.358
Sprite,Foreground,Centre,"sb\hl2.png",156,140 C,0,159343,,128,255,255 F,2,159343,160143,0.5,0 P,0,159343,160143,A
Sprite,Foreground,Centre,"sb\hl2.png",183.513,105.9839 C,0,159387,,128,255,255 F,2,159387,160187,0.5,0 P,0,159387,160187,A
Sprite,Foreground,Centre,"sb\hl2.png",210.9968,72.04131 C,0,159431,,128,255,255 F,2,159431,160231,0.5,0 P,0,159431,160231,A
Sprite,Foreground,Centre,"sb\hl2.png",207.6414,115.6624 C,0,159475,,128,255,255 F,2,159475,160275,0.5,0 P,0,159475,160275,A
Sprite,Foreground,Centre,"sb\hl2.png",204.2859,159.2836 C,0,159519,,128,255,255 F,2,159519,160319,0.5,0 P,0,159519,160319,A
Sprite,Foreground,Centre,"sb\hl2.png",200.4809,202.7442 C,0,159563,,128,255,255 F,2,159563,160363,0.5,0 P,0,159563,160363,A
Sprite,Foreground,Centre,"sb\hl2.png",174.2988,237.7797 C,0,159607,,128,255,255 F,2,159607,160407,0.5,0 P,0,159607,160407,A
Sprite,Foreground,Centre,"sb\hl2.png",177.4872,276.1599 C,0,159651,,128,255,255 F,2,159651,160451,0.5,0 P,0,159651,160451,A
Sprite,Foreground,Centre,"sb\hl2.png",157.6684,313.0836 C,0,159696,,128,255,255 F,2,159696,160496,0.5,0 P,0,159696,160496,A
Sprite,Foreground,Centre,"sb\hl2.png",153.3381,356.1367 C,0,159740,,128,255,255 F,2,159740,160540,0.5,0 P,0,159740,160540,A
Sprite,Foreground,Centre,"sb\hl2.png",0,0 C,0,159828,,128,255,255 M,0,159828,159872,441,399,469.2425,380.2058 F,2,159828,161069,0.5,0 S,2,159828,161069,1,0.8 P,0,159828,161069,A M,0,159872,159916,469.2425,380.2058,470.0673,344.8237 M,0,159916,159960,470.0673,344.8237,447.6768,317.1873 M,0,159960,160004,447.6768,317.1873,412.9651,309.6675 M,0,160004,160048,412.9651,309.6675,382.332,327.4691 M,0,160048,160092,382.332,327.4691,359.7519,355.7749 M,0,160092,160136,359.7519,355.7749,328.9999,374.4027 M,0,160136,160180,328.9999,374.4027,293.3604,379.7254 M,0,160180,160225,293.3604,379.7254,258.8956,369.7723 M,0,160225,160269,258.8956,369.7723,234.2933,343.7208
Sprite,Foreground,Centre,"sb\hl2.png",441,399 C,0,159872,,128,255,255 F,2,159872,160672,0.5,0 P,0,159872,160672,A
Sprite,Foreground,Centre,"sb\hl2.png",469.2425,380.2058 C,0,159916,,128,255,255 F,2,159916,160716,0.5,0 P,0,159916,160716,A
Sprite,Foreground,Centre,"sb\hl2.png",470.0673,344.8237 C,0,159960,,128,255,255 F,2,159960,160760,0.5,0 P,0,159960,160760,A
Sprite,Foreground,Centre,"sb\hl2.png",447.6768,317.1873 C,0,160004,,128,255,255 F,2,160004,160804,0.5,0 P,0,160004,160804,A
Sprite,Foreground,Centre,"sb\hl2.png",412.9651,309.6675 C,0,160048,,128,255,255 F,2,160048,160848,0.5,0 P,0,160048,160848,A
Sprite,Foreground,Centre,"sb\hl2.png",382.332,327.4691 C,0,160092,,128,255,255 F,2,160092,160892,0.5,0 P,0,160092,160892,A
Sprite,Foreground,Centre,"sb\hl2.png",359.7519,355.7749 C,0,160136,,128,255,255 F,2,160136,160936,0.5,0 P,0,160136,160936,A
Sprite,Foreground,Centre,"sb\hl2.png",328.9999,374.4027 C,0,160180,,128,255,255 F,2,160180,160980,0.5,0 P,0,160180,160980,A
Sprite,Foreground,Centre,"sb\hl2.png",293.3604,379.7254 C,0,160225,,128,255,255 F,2,160225,161025,0.5,0 P,0,160225,161025,A
Sprite,Foreground,Centre,"sb\hl2.png",258.8956,369.7723 C,0,160269,,128,255,255 F,2,160269,161069,0.5,0 P,0,160269,161069,A
Sprite,Foreground,Centre,"sb\hl2.png",0,0 C,0,160357,,6,87,255 M,0,160357,160401,554,361,546.2406,318.1641 F,2,160357,161509,0.5,0 S,2,160357,161509,1,0.8 P,0,160357,161509,A M,0,160401,160445,546.2406,318.1641,525.3972,279.9816 M,0,160445,160489,525.3972,279.9816,493.6831,250.1927 M,0,160489,160533,493.6831,250.1927,454.0534,232.2179 M,0,160533,160577,454.0534,232.2179,410.8011,227.6454 M,0,160577,160621,410.8011,227.6454,368.2948,236.8698 M,0,160621,160665,368.2948,236.8698,330.9815,259.2347 M,0,160665,160709,330.9815,259.2347,302.4493,292.0984
Sprite,Foreground,Centre,"sb\hl2.png",554,361 C,0,160401,,6,87,255 F,2,160401,161201,0.5,0 P,0,160401,161201,A
Sprite,Foreground,Centre,"sb\hl2.png",546.2406,318.1641 C,0,160445,,6,87,255 F,2,160445,161245,0.5,0 P,0,160445,161245,A
Sprite,Foreground,Centre,"sb\hl2.png",525.3972,279.9816 C,0,160489,,6,87,255 F,2,160489,161289,0.5,0 P,0,160489,161289,A
Sprite,Foreground,Centre,"sb\hl2.png",493.6831,250.1927 C,0,160533,,6,87,255 F,2,160533,161333,0.5,0 P,0,160533,161333,A
Sprite,Foreground,Centre,"sb\hl2.png",454.0534,232.2179 C,0,160577,,6,87,255 F,2,160577,161377,0.5,0 P,0,160577,161377,A
Sprite,Foreground,Centre,"sb\hl2.png",410.8011,227.6454 C,0,160621,,6,87,255 F,2,160621,161421,0.5,0 P,0,160621,161421,A
Sprite,Foreground,Centre,"sb\hl2.png",368.2948,236.8698 C,0,160665,,6,87,255 F,2,160665,161465,0.5,0 P,0,160665,161465,A
Sprite,Foreground,Centre,"sb\hl2.png",330.9815,259.2347 C,0,160709,,6,87,255 F,2,160709,161509,0.5,0 P,0,160709,161509,A
Sprite,Foreground,Centre,"sb\hl2.png",300,299 C,0,160799,,6,87,255 F,2,160799,161599,0.5,0 S,2,160799,161599,1,0.8 P,0,160799,161599,A
Sprite,Foreground,Centre,"sb\hl2.png",299,306 C,0,160887,,6,87,255 F,2,160887,161687,0.5,0 S,2,160887,161687,1,0.8 P,0,160887,161687,A
Sprite,Foreground,Centre,"sb\hl2.png",0,0 C,0,161063,,128,255,255 M,0,161063,161107,427,401,450.7549,370.5328 F,2,161063,162392,0.5,0 S,2,161063,162392,1,0.8 P,0,161063,162392,A M,0,161107,161151,450.7549,370.5328,462.9186,334.0284 M,0,161151,161195,462.9186,334.0284,458.7782,295.7828 M,0,161195,161239,458.7782,295.7828,441.7428,261.1162 M,0,161239,161283,441.7428,261.1162,439.6915,229.7818 M,0,161283,161327,439.6915,229.7818,419.2633,197.1054 M,0,161327,161371,419.2633,197.1054,414.6661,159.0697 M,0,161371,161415,414.6661,159.0697,431.6708,124.9513 M,0,161415,161460,431.6708,124.9513,465.2223,106.6979 M,0,161460,161504,465.2223,106.6979,503.2885,109.8002 M,0,161504,161548,503.2885,109.8002,531.9241,134.7607 M,0,161548,161592,531.9241,134.7607,537.8217,172.3146
Sprite,Foreground,Centre,"sb\hl2.png",427,401 C,0,161107,,128,255,255 F,2,161107,161907,0.5,0 P,0,161107,161907,A
Sprite,Foreground,Centre,"sb\hl2.png",450.7549,370.5328 C,0,161151,,128,255,255 F,2,161151,161951,0.5,0 P,0,161151,161951,A
Sprite,Foreground,Centre,"sb\hl2.png",462.9186,334.0284 C,0,161195,,128,255,255 F,2,161195,161995,0.5,0 P,0,161195,161995,A
Sprite,Foreground,Centre,"sb\hl2.png",458.7782,295.7828 C,0,161239,,128,255,255 F,2,161239,162039,0.5,0 P,0,161239,162039,A
Sprite,Foreground,Centre,"sb\hl2.png",441.7428,261.1162 C,0,161283,,128,255,255 F,2,161283,162083,0.5,0 P,0,161283,162083,A
Sprite,Foreground,Centre,"sb\hl2.png",439.6915,229.7818 C,0,161327,,128,255,255 F,2,161327,162127,0.5,0 P,0,161327,162127,A
Sprite,Foreground,Centre,"sb\hl2.png",419.2633,197.1054 C,0,161371,,128,255,255 F,2,161371,162171,0.5,0 P,0,161371,162171,A
Sprite,Foreground,Centre,"sb\hl2.png",414.6661,159.0697 C,0,161415,,128,255,255 F,2,161415,162215,0.5,0 P,0,161415,162215,A
Sprite,Foreground,Centre,"sb\hl2.png",431.6708,124.9513 C,0,161460,,128,255,255 F,2,161460,162260,0.5,0 P,0,161460,162260,A
Sprite,Foreground,Centre,"sb\hl2.png",465.2223,106.6979 C,0,161504,,128,255,255 F,2,161504,162304,0.5,0 P,0,161504,162304,A
Sprite,Foreground,Centre,"sb\hl2.png",503.2885,109.8002 C,0,161548,,128,255,255 F,2,161548,162348,0.5,0 P,0,161548,162348,A
Sprite,Foreground,Centre,"sb\hl2.png",531.9241,134.7607 C,0,161592,,128,255,255 F,2,161592,162392,0.5,0 P,0,161592,162392,A
Sprite,Foreground,Centre,"sb\hl2.png",0,0 C,0,161769,,6,87,255 M,0,161769,161813,283,420,247.8772,385.4059 F,2,161769,162921,0.5,0 S,2,161769,162921,1,0.8 P,0,161769,162921,A M,0,161813,161857,247.8772,385.4059,237.8976,337.11 M,0,161857,161901,237.8976,337.11,253.0203,289.8865 M,0,161901,161945,253.0203,289.8865,261.6522,244.2921 M,0,161945,161989,261.6522,244.2921,283.3782,205.1988 M,0,161989,162033,283.3782,205.1988,303.3253,160.0117 M,0,162033,162077,303.3253,160.0117,293.4256,111.9852 M,0,162077,162121,293.4256,111.9852,256.8825,78.73625
Sprite,Foreground,Centre,"sb\hl2.png",283,420 C,0,161813,,6,87,255 F,2,161813,162613,0.5,0 P,0,161813,162613,A
Sprite,Foreground,Centre,"sb\hl2.png",247.8772,385.4059 C,0,161857,,6,87,255 F,2,161857,162657,0.5,0 P,0,161857,162657,A
Sprite,Foreground,Centre,"sb\hl2.png",237.8976,337.11 C,0,161901,,6,87,255 F,2,161901,162701,0.5,0 P,0,161901,162701,A
Sprite,Foreground,Centre,"sb\hl2.png",253.0203,289.8865 C,0,161945,,6,87,255 F,2,161945,162745,0.5,0 P,0,161945,162745,A
Sprite,Foreground,Centre,"sb\hl2.png",261.6522,244.2921 C,0,161989,,6,87,255 F,2,161989,162789,0.5,0 P,0,161989,162789,A
Sprite,Foreground,Centre,"sb\hl2.png",283.3782,205.1988 C,0,162033,,6,87,255 F,2,162033,162833,0.5,0 P,0,162033,162833,A
Sprite,Foreground,Centre,"sb\hl2.png",303.3253,160.0117 C,0,162077,,6,87,255 F,2,162077,162877,0.5,0 P,0,162077,162877,A
Sprite,Foreground,Centre,"sb\hl2.png",293.4256,111.9852 C,0,162121,,6,87,255 F,2,162121,162921,0.5,0 P,0,162121,162921,A
Sprite,Foreground,Centre,"sb\hl2.png",242,76 C,0,162210,,6,87,255 F,2,162210,163010,0.5,0 S,2,162210,163010,1,0.8 P,0,162210,163010,A
Sprite,Foreground,Centre,"sb\hl2.png",0,0 C,0,162299,,128,255,255 M,0,162299,162343,166,248,183.7965,294.3162 F,2,162299,163275,0.5,0 S,2,162299,163275,1,0.8 P,0,162299,163275,A M,0,162343,162387,183.7965,294.3162,222.154,324.1618 M,0,162387,162431,222.154,324.1618,271.5075,332.1764 M,0,162431,162475,271.5075,332.1764,320.861,340.1911
Sprite,Foreground,Centre,"sb\hl2.png",166,248 C,0,162343,,128,255,255 F,2,162343,163143,0.5,0 P,0,162343,163143,A
Sprite,Foreground,Centre,"sb\hl2.png",183.7965,294.3162 C,0,162387,,128,255,255 F,2,162387,163187,0.5,0 P,0,162387,163187,A
Sprite,Foreground,Centre,"sb\hl2.png",222.154,324.1618 C,0,162431,,128,255,255 F,2,162431,163231,0.5,0 P,0,162431,163231,A
Sprite,Foreground,Centre,"sb\hl2.png",271.5075,332.1764 C,0,162475,,128,255,255 F,2,162475,163275,0.5,0 P,0,162475,163275,A
Sprite,Foreground,Centre,"sb\hl2.png",0,0 C,0,162652,,128,255,255 M,0,162652,162696,474,248,456.2034,201.6838 F,2,162652,163628,0.5,0 S,2,162652,163628,1,0.8 P,0,162652,163628,A M,0,162696,162740,456.2034,201.6838,417.846,171.8382 M,0,162740,162784,417.846,171.8382,368.4925,163.8236 M,0,162784,162828,368.4925,163.8236,319.139,155.8089
Sprite,Foreground,Centre,"sb\hl2.png",474,248 C,0,162696,,128,255,255 F,2,162696,163496,0.5,0 P,0,162696,163496,A
Sprite,Foreground,Centre,"sb\hl2.png",456.2034,201.6838 C,0,162740,,128,255,255 F,2,162740,163540,0.5,0 P,0,162740,163540,A
Sprite,Foreground,Centre,"sb\hl2.png",417.846,171.8382 C,0,162784,,128,255,255 F,2,162784,163584,0.5,0 P,0,162784,163584,A
Sprite,Foreground,Centre,"sb\hl2.png",368.4925,163.8236 C,0,162828,,128,255,255 F,2,162828,163628,0.5,0 P,0,162828,163628,A
Sprite,Foreground,Centre,"sb\hl2.png",0,0 C,0,163004,,6,87,255 M,0,163004,163048,125,312,169.9732,345.5259 F,2,163004,163980,0.5,0 S,2,163004,163980,1,0.8 P,0,163004,163980,A M,0,163048,163092,169.9732,345.5259,223.5746,359.4042 M,0,163092,163136,223.5746,359.4042,276.1844,339.4978 M,0,163136,163180,276.1844,339.4978,328.7943,319.5913
Sprite,Foreground,Centre,"sb\hl2.png",125,312 C,0,163048,,6,87,255 F,2,163048,163848,0.5,0 P,0,163048,163848,A
Sprite,Foreground,Centre,"sb\hl2.png",169.9732,345.5259 C,0,163092,,6,87,255 F,2,163092,163892,0.5,0 P,0,163092,163892,A
Sprite,Foreground,Centre,"sb\hl2.png",223.5746,359.4042 C,0,163136,,6,87,255 F,2,163136,163936,0.5,0 P,0,163136,163936,A
Sprite,Foreground,Centre,"sb\hl2.png",276.1844,339.4978 C,0,163180,,6,87,255 F,2,163180,163980,0.5,0 P,0,163180,163980,A
Sprite,Foreground,Centre,"sb\hl2.png",0,0 C,0,163357,,6,87,255 M,0,163357,163401,515,184,470.1836,150.246 F,2,163357,164333,0.5,0 S,2,163357,164333,1,0.8 P,0,163357,164333,A M,0,163401,163445,470.1836,150.246,416.6974,135.1145 M,0,163445,163489,416.6974,135.1145,364.0875,155.0209 M,0,163489,163533,364.0875,155.0209,311.4777,174.9274
Sprite,Foreground,Centre,"sb\hl2.png",515,184 C,0,163401,,6,87,255 F,2,163401,164201,0.5,0 P,0,163401,164201,A
Sprite,Foreground,Centre,"sb\hl2.png",470.1836,150.246 C,0,163445,,6,87,255 F,2,163445,164245,0.5,0 P,0,163445,164245,A
Sprite,Foreground,Centre,"sb\hl2.png",416.6974,135.1145 C,0,163489,,6,87,255 F,2,163489,164289,0.5,0 P,0,163489,164289,A
Sprite,Foreground,Centre,"sb\hl2.png",364.0875,155.0209 C,0,163533,,6,87,255 F,2,163533,164333,0.5,0 P,0,163533,164333,A
Sprite,Foreground,Centre,"sb\hl2.png",0,0 C,0,163710,,128,255,255 M,0,163710,163754,146,414,207.977,419.9831 F,2,163710,164686,0.5,0 S,2,163710,164686,1,0.8 P,0,163710,164686,A M,0,163754,163798,207.977,419.9831,263.0817,395.8297 M,0,163798,163842,263.0817,395.8297,301.9651,346.8978 M,0,163842,163886,301.9651,346.8978,340.8485,297.9659
Sprite,Foreground,Centre,"sb\hl2.png",146,414 C,0,163754,,128,255,255 F,2,163754,164554,0.5,0 P,0,163754,164554,A
Sprite,Foreground,Centre,"sb\hl2.png",207.977,419.9831 C,0,163798,,128,255,255 F,2,163798,164598,0.5,0 P,0,163798,164598,A
Sprite,Foreground,Centre,"sb\hl2.png",263.0817,395.8297 C,0,163842,,128,255,255 F,2,163842,164642,0.5,0 P,0,163842,164642,A
Sprite,Foreground,Centre,"sb\hl2.png",301.9651,346.8978 C,0,163886,,128,255,255 F,2,163886,164686,0.5,0 P,0,163886,164686,A
Sprite,Foreground,Centre,"sb\hl2.png",0,0 C,0,164063,,128,255,255 M,0,164063,164107,494,82,432.0976,75.21341 F,2,164063,165039,0.5,0 S,2,164063,165039,1,0.8 P,0,164063,165039,A M,0,164107,164151,432.0976,75.21341,376.6433,98.4467 M,0,164151,164195,376.6433,98.4467,338.2418,147.7577 M,0,164195,164239,338.2418,147.7577,299.8403,197.0687
Sprite,Foreground,Centre,"sb\hl2.png",494,82 C,0,164107,,128,255,255 F,2,164107,164907,0.5,0 P,0,164107,164907,A
Sprite,Foreground,Centre,"sb\hl2.png",432.0976,75.21341 C,0,164151,,128,255,255 F,2,164151,164951,0.5,0 P,0,164151,164951,A
Sprite,Foreground,Centre,"sb\hl2.png",376.6433,98.4467 C,0,164195,,128,255,255 F,2,164195,164995,0.5,0 P,0,164195,164995,A
Sprite,Foreground,Centre,"sb\hl2.png",338.2418,147.7577 C,0,164239,,128,255,255 F,2,164239,165039,0.5,0 P,0,164239,165039,A
Sprite,Foreground,Centre,"sb\hl2.png",0,0 C,0,164416,,6,87,255 M,0,164416,164460,278,440,295.1214,422.2191 F,2,164416,165480,0.5,0 S,2,164416,165480,1,0.8 P,0,164416,165480,A M,0,164460,164504,295.1214,422.2191,301.2775,398.3705 M,0,164504,164548,301.2775,398.3705,294.9264,374.6232 M,0,164548,164592,294.9264,374.6232,277.7502,357.0977 M,0,164592,164636,277.7502,357.0977,254.2125,350.2933 M,0,164636,164680,254.2125,350.2933,230.4025,355.9356
Sprite,Foreground,Centre,"sb\hl2.png",278,440 C,0,164460,,6,87,255 F,2,164460,165260,0.5,0 P,0,164460,165260,A
Sprite,Foreground,Centre,"sb\hl2.png",295.1214,422.2191 C,0,164504,,6,87,255 F,2,164504,165304,0.5,0 P,0,164504,165304,A
Sprite,Foreground,Centre,"sb\hl2.png",301.2775,398.3705 C,0,164548,,6,87,255 F,2,164548,165348,0.5,0 P,0,164548,165348,A
Sprite,Foreground,Centre,"sb\hl2.png",294.9264,374.6232 C,0,164592,,6,87,255 F,2,164592,165392,0.5,0 P,0,164592,165392,A
Sprite,Foreground,Centre,"sb\hl2.png",277.7502,357.0977 C,0,164636,,6,87,255 F,2,164636,165436,0.5,0 P,0,164636,165436,A
Sprite,Foreground,Centre,"sb\hl2.png",254.2125,350.2933 C,0,164680,,6,87,255 F,2,164680,165480,0.5,0 P,0,164680,165480,A
Sprite,Foreground,Centre,"sb\hl2.png",396,414 C,0,164769,,228,228,228 F,2,164769,165569,0.5,0 S,2,164769,165569,1,0.8 P,0,164769,165569,A
Sprite,Foreground,Centre,"sb\hl2.png",478,240 C,0,164946,,228,228,228 F,2,164946,165746,0.5,0 S,2,164946,165746,1,0.8 P,0,164946,165746,A
Sprite,Foreground,Centre,"sb\hl2.png",215,242 C,0,165122,,228,228,228 F,2,165122,165922,0.5,0 S,2,165122,165922,1,0.8 P,0,165122,165922,A
Sprite,Foreground,Centre,"sb\hl2.png",424,380 C,0,165299,,136,136,136 F,2,165299,166099,0.5,0 S,2,165299,166099,1,0.8 P,0,165299,166099,A
Sprite,Foreground,Centre,"sb\hl2.png",474,194 C,0,165476,,136,136,136 F,2,165476,166276,0.5,0 S,2,165476,166276,1,0.8 P,0,165476,166276,A
Sprite,Foreground,Centre,"sb\hl2.png",215,242 C,0,165652,,136,136,136 F,2,165652,166452,0.5,0 S,2,165652,166452,1,0.8 P,0,165652,166452,A
Sprite,Foreground,Centre,"sb\hl2.png",145,440 C,0,165828,,228,228,228 F,2,165828,166628,0.5,0 S,2,165828,166628,1,0.8 P,0,165828,166628,A
Sprite,Foreground,Centre,"sb\hl2.png",297,340 C,0,166004,,228,228,228 F,2,166004,166804,0.5,0 S,2,166004,166804,1,0.8 P,0,166004,166804,A
Sprite,Foreground,Centre,"sb\hl2.png",371,113 C,0,166181,,228,228,228 F,2,166181,166981,0.5,0 S,2,166181,166981,1,0.8 P,0,166181,166981,A
Sprite,Foreground,Centre,"sb\hl2.png",145,440 C,0,166357,,136,136,136 F,2,166357,167157,0.5,0 S,2,166357,167157,1,0.8 P,0,166357,167157,A
Sprite,Foreground,Centre,"sb\hl2.png",265,304 C,0,166533,,136,136,136 F,2,166533,167333,0.5,0 S,2,166533,167333,1,0.8 P,0,166533,167333,A
Sprite,Foreground,Centre,"sb\hl2.png",278,65 C,0,166710,,136,136,136 F,2,166710,167510,0.5,0 S,2,166710,167510,1,0.8 P,0,166710,167510,A
Sprite,Foreground,Centre,"sb\hl2.png",145,440 C,0,166887,,255,128,128 F,2,166887,167687,0.5,0 S,2,166887,167687,1,0.8 P,0,166887,167687,A
Sprite,Foreground,Centre,"sb\hl2.png",225,277 C,0,167063,,255,128,128 F,2,167063,167863,0.5,0 S,2,167063,167863,1,0.8 P,0,167063,167863,A
Sprite,Foreground,Centre,"sb\hl2.png",97,98 C,0,167240,,255,6,6 F,2,167240,168040,0.5,0 S,2,167240,168040,1,0.8 P,0,167240,168040,A
Sprite,Foreground,Centre,"sb\hl2.png",177,261 C,0,167416,,255,6,6 F,2,167416,168216,0.5,0 S,2,167416,168216,1,0.8 P,0,167416,168216,A
Sprite,Foreground,Centre,"sb\hl2.png",145,440 C,0,167593,,228,228,228 F,2,167593,168393,0.5,0 S,2,167593,168393,1,0.8 P,0,167593,168393,A
Sprite,Foreground,Centre,"sb\hl2.png",265,304 C,0,167769,,228,228,228 F,2,167769,168569,0.5,0 S,2,167769,168569,1,0.8 P,0,167769,168569,A
Sprite,Foreground,Centre,"sb\hl2.png",404,148 C,0,167946,,228,228,228 F,2,167946,168746,0.5,0 S,2,167946,168746,1,0.8 P,0,167946,168746,A
Sprite,Foreground,Centre,"sb\hl2.png",145,440 C,0,168122,,136,136,136 F,2,168122,168922,0.5,0 S,2,168122,168922,1,0.8 P,0,168122,168922,A
Sprite,Foreground,Centre,"sb\hl2.png",296,339 C,0,168298,,136,136,136 F,2,168298,169098,0.5,0 S,2,168298,169098,1,0.8 P,0,168298,169098,A
Sprite,Foreground,Centre,"sb\hl2.png",470,224 C,0,168475,,136,136,136 F,2,168475,169275,0.5,0 S,2,168475,169275,1,0.8 P,0,168475,169275,A
Sprite,Foreground,Centre,"sb\hl2.png",145,440 C,0,168652,,228,228,228 F,2,168652,169452,0.5,0 S,2,168652,169452,1,0.8 P,0,168652,169452,A
Sprite,Foreground,Centre,"sb\hl2.png",316,382 C,0,168828,,228,228,228 F,2,168828,169628,0.5,0 S,2,168828,169628,1,0.8 P,0,168828,169628,A
Sprite,Foreground,Centre,"sb\hl2.png",74,175 C,0,169004,,128,255,255 F,2,169004,169804,0.5,0 S,2,169004,169804,1,0.8 P,0,169004,169804,A
Sprite,Foreground,Centre,"sb\hl2.png",243,227 C,0,169181,,128,255,255 F,2,169181,169981,0.5,0 S,2,169181,169981,1,0.8 P,0,169181,169981,A
Sprite,Foreground,Centre,"sb\hl2.png",546,226 C,0,169357,,191,128,255 F,2,169357,170157,0.5,0 S,2,169357,170157,1,0.8 P,0,169357,170157,A
Sprite,Foreground,Centre,"sb\hl2.png",377,278 C,0,169534,,191,128,255 F,2,169534,170334,0.5,0 S,2,169534,170334,1,0.8 P,0,169534,170334,A
Sprite,Foreground,Centre,"sb\hl2.png",73,288 C,0,169710,,255,128,128 F,2,169710,170510,0.5,0 S,2,169710,170510,1,0.8 P,0,169710,170510,A
Sprite,Foreground,Centre,"sb\hl2.png",157,314 C,0,169799,,255,128,128 F,2,169799,170599,0.5,0 S,2,169799,170599,1,0.8 P,0,169799,170599,A
Sprite,Foreground,Centre,"sb\hl2.png",242,340 C,0,169887,,255,128,128 F,2,169887,170687,0.5,0 S,2,169887,170687,1,0.8 P,0,169887,170687,A
Sprite,Foreground,Centre,"sb\hl2.png",545,339 C,0,170063,,255,128,128 F,2,170063,170863,0.5,0 S,2,170063,170863,1,0.8 P,0,170063,170863,A
Sprite,Foreground,Centre,"sb\hl2.png",0,0 C,0,170240,,255,6,6 M,0,170240,170284,76,395,87.92355,398.7522 F,2,170240,171569,0.5,0 S,2,170240,171569,1,0.8 P,0,170240,171569,A M,0,170284,170328,87.92355,398.7522,99.84711,402.5043 M,0,170328,170372,99.84711,402.5043,111.7707,406.2565 M,0,170372,170416,111.7707,406.2565,123.6942,410.0087 M,0,170416,170460,123.6942,410.0087,135.6178,413.7608 M,0,170460,170504,135.6178,413.7608,147.5414,417.513 M,0,170504,170548,147.5414,417.513,159.4649,421.2652 M,0,170548,170592,159.4649,421.2652,171.3885,425.0173 M,0,170592,170637,171.3885,425.0173,183.312,428.7695 M,0,170637,170681,183.312,428.7695,195.2356,432.5217 M,0,170681,170725,195.2356,432.5217,207.1591,436.2739 M,0,170725,170769,207.1591,436.2739,219,440
Sprite,Foreground,Centre,"sb\hl2.png",76,395 C,0,170284,,255,6,6 F,2,170284,171084,0.5,0 P,0,170284,171084,A
Sprite,Foreground,Centre,"sb\hl2.png",87.92355,398.7522 C,0,170328,,255,6,6 F,2,170328,171128,0.5,0 P,0,170328,171128,A
Sprite,Foreground,Centre,"sb\hl2.png",99.84711,402.5043 C,0,170372,,255,6,6 F,2,170372,171172,0.5,0 P,0,170372,171172,A
Sprite,Foreground,Centre,"sb\hl2.png",111.7707,406.2565 C,0,170416,,255,6,6 F,2,170416,171216,0.5,0 P,0,170416,171216,A
Sprite,Foreground,Centre,"sb\hl2.png",123.6942,410.0087 C,0,170460,,255,6,6 F,2,170460,171260,0.5,0 P,0,170460,171260,A
Sprite,Foreground,Centre,"sb\hl2.png",135.6178,413.7608 C,0,170504,,255,6,6 F,2,170504,171304,0.5,0 P,0,170504,171304,A
Sprite,Foreground,Centre,"sb\hl2.png",147.5414,417.513 C,0,170548,,255,6,6 F,2,170548,171348,0.5,0 P,0,170548,171348,A
Sprite,Foreground,Centre,"sb\hl2.png",159.4649,421.2652 C,0,170592,,255,6,6 F,2,170592,171392,0.5,0 P,0,170592,171392,A
Sprite,Foreground,Centre,"sb\hl2.png",171.3885,425.0173 C,0,170637,,255,6,6 F,2,170637,171437,0.5,0 P,0,170637,171437,A
Sprite,Foreground,Centre,"sb\hl2.png",183.312,428.7695 C,0,170681,,255,6,6 F,2,170681,171481,0.5,0 P,0,170681,171481,A
Sprite,Foreground,Centre,"sb\hl2.png",195.2356,432.5217 C,0,170725,,255,6,6 F,2,170725,171525,0.5,0 P,0,170725,171525,A
Sprite,Foreground,Centre,"sb\hl2.png",207.1591,436.2739 C,0,170769,,255,6,6 F,2,170769,171569,0.5,0 P,0,170769,171569,A
Sprite,Foreground,Centre,"sb\hl2.png",219,440 C,0,171122,,6,87,255 F,2,171122,171922,0.5,0 S,2,171122,171922,1,0.8 P,0,171122,171922,A
Sprite,Foreground,Centre,"sb\hl2.png",219,440 C,0,171828,,133,11,255 F,2,171828,172628,0.5,0 S,2,171828,172628,1,0.8 P,0,171828,172628,A
Sprite,Foreground,Centre,"sb\hl2.png",219,440 C,0,172534,,255,6,6 F,2,172534,173334,0.5,0 S,2,172534,173334,1,0.8 P,0,172534,173334,A
Sprite,Foreground,Centre,"sb\hl2.png",0,0 C,0,173063,,128,255,255 M,0,173063,173107,219,440,249.9059,429.9463 F,2,173063,174127,0.5,0 S,2,173063,174127,1,0.8 P,0,173063,174127,A M,0,173107,173151,249.9059,429.9463,280.8117,419.8926 M,0,173151,173195,280.8117,419.8926,301.3625,402.8011 M,0,173195,173239,301.3625,402.8011,320.4005,406.8187 M,0,173239,173283,320.4005,406.8187,351.4791,397.3123 M,0,173283,173327,351.4791,397.3123,382.5577,387.8059
Sprite,Foreground,Centre,"sb\hl2.png",219,440 C,0,173107,,128,255,255 F,2,173107,173907,0.5,0 P,0,173107,173907,A
Sprite,Foreground,Centre,"sb\hl2.png",249.9059,429.9463 C,0,173151,,128,255,255 F,2,173151,173951,0.5,0 P,0,173151,173951,A
Sprite,Foreground,Centre,"sb\hl2.png",280.8117,419.8926 C,0,173195,,128,255,255 F,2,173195,173995,0.5,0 P,0,173195,173995,A
Sprite,Foreground,Centre,"sb\hl2.png",301.3625,402.8011 C,0,173239,,128,255,255 F,2,173239,174039,0.5,0 P,0,173239,174039,A
Sprite,Foreground,Centre,"sb\hl2.png",320.4005,406.8187 C,0,173283,,128,255,255 F,2,173283,174083,0.5,0 P,0,173283,174083,A
Sprite,Foreground,Centre,"sb\hl2.png",351.4791,397.3123 C,0,173327,,128,255,255 F,2,173327,174127,0.5,0 P,0,173327,174127,A
Sprite,Foreground,Centre,"sb\hl2.png",496,344 C,0,173416,,128,255,255 F,2,173416,174216,0.5,0 S,2,173416,174216,1,0.8 P,0,173416,174216,A
Sprite,Foreground,Centre,"sb\hl2.png",0,0 C,0,173593,,6,87,255 M,0,173593,173637,330,245,371.8805,272.3134 F,2,173593,174481,0.5,0 S,2,173593,174481,1,0.8 P,0,173593,174481,A M,0,173637,173681,371.8805,272.3134,413.761,299.6268
Sprite,Foreground,Centre,"sb\hl2.png",330,245 C,0,173637,,6,87,255 F,2,173637,174437,0.5,0 P,0,173637,174437,A
Sprite,Foreground,Centre,"sb\hl2.png",371.8805,272.3134 C,0,173681,,6,87,255 F,2,173681,174481,0.5,0 P,0,173681,174481,A
Sprite,Foreground,Centre,"sb\hl2.png",496,344 C,0,173770,,6,87,255 F,2,173770,174570,0.5,0 S,2,173770,174570,1,0.8 P,0,173770,174570,A
Sprite,Foreground,Centre,"sb\hl2.png",0,0 C,0,173946,,6,87,255 M,0,173946,173990,330,245,374.3534,221.9181 F,2,173946,174834,0.5,0 S,2,173946,174834,1,0.8 P,0,173946,174834,A M,0,173990,174034,374.3534,221.9181,418.7068,198.8362
Sprite,Foreground,Centre,"sb\hl2.png",330,245 C,0,173990,,6,87,255 F,2,173990,174790,0.5,0 P,0,173990,174790,A
Sprite,Foreground,Centre,"sb\hl2.png",374.3534,221.9181 C,0,174034,,6,87,255 F,2,174034,174834,0.5,0 P,0,174034,174834,A
Sprite,Foreground,Centre,"sb\hl2.png",498,150 C,0,174123,,6,87,255 F,2,174123,174923,0.5,0 S,2,174123,174923,1,0.8 P,0,174123,174923,A
Sprite,Foreground,Centre,"sb\hl2.png",0,0 C,0,174299,,128,255,255 M,0,174299,174343,330,245,285.6466,268.0819 F,2,174299,175187,0.5,0 S,2,174299,175187,1,0.8 P,0,174299,175187,A M,0,174343,174387,285.6466,268.0819,241.2932,291.1638
Sprite,Foreground,Centre,"sb\hl2.png",330,245 C,0,174343,,128,255,255 F,2,174343,175143,0.5,0 P,0,174343,175143,A
Sprite,Foreground,Centre,"sb\hl2.png",285.6466,268.0819 C,0,174387,,128,255,255 F,2,174387,175187,0.5,0 P,0,174387,175187,A
Sprite,Foreground,Centre,"sb\hl2.png",162,340 C,0,174476,,128,255,255 F,2,174476,175276,0.5,0 S,2,174476,175276,1,0.8 P,0,174476,175276,A
Sprite,Foreground,Centre,"sb\hl2.png",0,0 C,0,174652,,128,255,255 M,0,174652,174696,330,245,282.3892,229.7286 F,2,174652,175540,0.5,0 S,2,174652,175540,1,0.8 P,0,174652,175540,A M,0,174696,174740,282.3892,229.7286,234.7785,214.4572
Sprite,Foreground,Centre,"sb\hl2.png",330,245 C,0,174696,,128,255,255 F,2,174696,175496,0.5,0 P,0,174696,175496,A
Sprite,Foreground,Centre,"sb\hl2.png",282.3892,229.7286 C,0,174740,,128,255,255 F,2,174740,175540,0.5,0 P,0,174740,175540,A
Sprite,Foreground,Centre,"sb\hl2.png",144,193 C,0,174829,,128,255,255 F,2,174829,175629,0.5,0 S,2,174829,175629,1,0.8 P,0,174829,175629,A
Sprite,Foreground,Centre,"sb\hl2.png",0,0 C,0,175004,,128,255,255 M,0,175004,175048,330,245,307.1022,200.5513 F,2,175004,175892,0.5,0 S,2,175004,175892,1,0.8 P,0,175004,175892,A M,0,175048,175092,307.1022,200.5513,284.2043,156.1025
Sprite,Foreground,Centre,"sb\hl2.png",330,245 C,0,175048,,128,255,255 F,2,175048,175848,0.5,0 P,0,175048,175848,A
Sprite,Foreground,Centre,"sb\hl2.png",307.1022,200.5513 C,0,175092,,128,255,255 F,2,175092,175892,0.5,0 P,0,175092,175892,A
Sprite,Foreground,Centre,"sb\hl2.png",235,76 C,0,175181,,128,255,255 F,2,175181,175981,0.5,0 S,2,175181,175981,1,0.8 P,0,175181,175981,A
Sprite,Foreground,Centre,"sb\hl2.png",280,433 C,0,175357,,6,87,255 F,2,175357,176157,0.5,0 S,2,175357,176157,1,0.8 P,0,175357,176157,A
Sprite,Foreground,Centre,"sb\hl2.png",330,245 C,0,175534,,6,87,255 F,2,175534,176334,0.5,0 S,2,175534,176334,1,0.8 P,0,175534,176334,A
Sprite,Foreground,Centre,"sb\hl2.png",380,57 C,0,175710,,6,87,255 F,2,175710,176510,0.5,0 S,2,175710,176510,1,0.8 P,0,175710,176510,A
Sprite,Foreground,Centre,"sb\hl2.png",0,0 C,0,175887,,128,255,255 M,0,175887,175931,415,302,383.6538,310.5829 F,2,175887,176951,0.5,0 S,2,175887,176951,1,0.8 P,0,175887,176951,A M,0,175931,175975,383.6538,310.5829,352.3076,319.1658 M,0,175975,176019,352.3076,319.1658,320.9171,322.4188 M,0,176019,176063,320.9171,322.4188,289.4324,314.3587 M,0,176063,176107,289.4324,314.3587,257.9477,306.2986 M,0,176107,176151,257.9477,306.2986,226.463,298.2385
Sprite,Foreground,Centre,"sb\hl2.png",415,302 C,0,175931,,128,255,255 F,2,175931,176731,0.5,0 P,0,175931,176731,A
Sprite,Foreground,Centre,"sb\hl2.png",383.6538,310.5829 C,0,175975,,128,255,255 F,2,175975,176775,0.5,0 P,0,175975,176775,A
Sprite,Foreground,Centre,"sb\hl2.png",352.3076,319.1658 C,0,176019,,128,255,255 F,2,176019,176819,0.5,0 P,0,176019,176819,A
Sprite,Foreground,Centre,"sb\hl2.png",320.9171,322.4188 C,0,176063,,128,255,255 F,2,176063,176863,0.5,0 P,0,176063,176863,A
Sprite,Foreground,Centre,"sb\hl2.png",289.4324,314.3587 C,0,176107,,128,255,255 F,2,176107,176907,0.5,0 P,0,176107,176907,A
Sprite,Foreground,Centre,"sb\hl2.png",257.9477,306.2986 C,0,176151,,128,255,255 F,2,176151,176951,0.5,0 P,0,176151,176951,A
Sprite,Foreground,Centre,"sb\hl2.png",92,269 C,0,176240,,128,255,255 F,2,176240,177040,0.5,0 S,2,176240,177040,1,0.8 P,0,176240,177040,A
Sprite,Foreground,Centre,"sb\hl2.png",0,0 C,0,176416,,6,87,255 M,0,176416,176460,272,355,320.5568,366.9262 F,2,176416,177304,0.5,0 S,2,176416,177304,1,0.8 P,0,176416,177304,A M,0,176460,176504,320.5568,366.9262,368.9683,358.5735
Sprite,Foreground,Centre,"sb\hl2.png",272,355 C,0,176460,,6,87,255 F,2,176460,177260,0.5,0 P,0,176460,177260,A
Sprite,Foreground,Centre,"sb\hl2.png",320.5568,366.9262 C,0,176504,,6,87,255 F,2,176504,177304,0.5,0 P,0,176504,177304,A
Sprite,Foreground,Centre,"sb\hl2.png",534,295 C,0,176593,,6,87,255 F,2,176593,177393,0.5,0 S,2,176593,177393,1,0.8 P,0,176593,177393,A
Sprite,Foreground,Centre,"sb\hl2.png",0,0 C,0,176769,,6,87,255 M,0,176769,176813,226,298,274.4247,310.4521 F,2,176769,177921,0.5,0 S,2,176769,177921,1,0.8 P,0,176769,177921,A M,0,176813,176857,274.4247,310.4521,322.8493,322.9041 M,0,176857,176901,322.8493,322.9041,371.1189,314.0585 M,0,176901,176945,371.1189,314.0585,419,301 M,0,176945,176989,419,301,371.1189,314.0585 M,0,176989,177033,371.1189,314.0585,322.8493,322.9041 M,0,177033,177077,322.8493,322.9041,274.4247,310.4521 M,0,177077,177121,274.4247,310.4521,226,298
Sprite,Foreground,Centre,"sb\hl2.png",226,298 C,0,176813,,6,87,255 F,2,176813,177613,0.5,0 P,0,176813,177613,A
Sprite,Foreground,Centre,"sb\hl2.png",274.4247,310.4521 C,0,176857,,6,87,255 F,2,176857,177657,0.5,0 P,0,176857,177657,A
Sprite,Foreground,Centre,"sb\hl2.png",322.8493,322.9041 C,0,176901,,6,87,255 F,2,176901,177701,0.5,0 P,0,176901,177701,A
Sprite,Foreground,Centre,"sb\hl2.png",371.1189,314.0585 C,0,176945,,6,87,255 F,2,176945,177745,0.5,0 P,0,176945,177745,A
Sprite,Foreground,Centre,"sb\hl2.png",419,301 C,0,176989,,6,87,255 F,2,176989,177789,0.5,0 P,0,176989,177789,A
Sprite,Foreground,Centre,"sb\hl2.png",371.1189,314.0585 C,0,177033,,6,87,255 F,2,177033,177833,0.5,0 P,0,177033,177833,A
Sprite,Foreground,Centre,"sb\hl2.png",322.8493,322.9041 C,0,177077,,6,87,255 F,2,177077,177877,0.5,0 P,0,177077,177877,A
Sprite,Foreground,Centre,"sb\hl2.png",274.4247,310.4521 C,0,177121,,6,87,255 F,2,177121,177921,0.5,0 P,0,177121,177921,A
Sprite,Foreground,Centre,"sb\hl2.png",0,0 C,0,177299,,128,255,255 M,0,177299,177343,323,92,332.5847,123.0545 F,2,177299,178363,0.5,0 S,2,177299,178363,1,0.8 P,0,177299,178363,A M,0,177343,177387,332.5847,123.0545,342.1695,154.109 M,0,177387,177431,342.1695,154.109,343.8714,185.0416 M,0,177431,177475,343.8714,185.0416,333.3309,215.7849 M,0,177475,177519,333.3309,215.7849,321.3627,240.3627 M,0,177519,177563,321.3627,240.3627,298.3817,217.3817
Sprite,Foreground,Centre,"sb\hl2.png",323,92 C,0,177343,,128,255,255 F,2,177343,178143,0.5,0 P,0,177343,178143,A
Sprite,Foreground,Centre,"sb\hl2.png",332.5847,123.0545 C,0,177387,,128,255,255 F,2,177387,178187,0.5,0 P,0,177387,178187,A
Sprite,Foreground,Centre,"sb\hl2.png",342.1695,154.109 C,0,177431,,128,255,255 F,2,177431,178231,0.5,0 P,0,177431,178231,A
Sprite,Foreground,Centre,"sb\hl2.png",343.8714,185.0416 C,0,177475,,128,255,255 F,2,177475,178275,0.5,0 P,0,177475,178275,A
Sprite,Foreground,Centre,"sb\hl2.png",333.3309,215.7849 C,0,177519,,128,255,255 F,2,177519,178319,0.5,0 P,0,177519,178319,A
Sprite,Foreground,Centre,"sb\hl2.png",321.3627,240.3627 C,0,177563,,128,255,255 F,2,177563,178363,0.5,0 P,0,177563,178363,A
Sprite,Foreground,Centre,"sb\hl2.png",234,117 C,0,177652,,128,255,255 F,2,177652,178452,0.5,0 S,2,177652,178452,1,0.8 P,0,177652,178452,A
Sprite,Foreground,Centre,"sb\hl2.png",0,0 C,0,177828,,6,87,255 M,0,177828,177872,414,133,428.9412,180.7154 F,2,177828,178716,0.5,0 S,2,177828,178716,1,0.8 P,0,177828,178716,A M,0,177872,177916,428.9412,180.7154,443.8824,228.4308
Sprite,Foreground,Centre,"sb\hl2.png",414,133 C,0,177872,,6,87,255 F,2,177872,178672,0.5,0 P,0,177872,178672,A
Sprite,Foreground,Centre,"sb\hl2.png",428.9412,180.7154 C,0,177916,,6,87,255 F,2,177916,178716,0.5,0 P,0,177916,178716,A
Sprite,Foreground,Centre,"sb\hl2.png",437,389 C,0,178004,,6,87,255 F,2,178004,178804,0.5,0 S,2,178004,178804,1,0.8 P,0,178004,178804,A
Sprite,Foreground,Centre,"sb\hl2.png",0,0 C,0,178181,,6,87,255 M,0,178181,178225,436,92,450.9277,139.7196 F,2,178181,179333,0.5,0 S,2,178181,179333,1,0.8 P,0,178181,179333,A M,0,178225,178269,450.9277,139.7196,465.8554,187.4393 M,0,178269,178313,465.8554,187.4393,480.7831,235.1589 M,0,178313,178357,480.7831,235.1589,495.7107,282.8786 M,0,178357,178401,495.7107,282.8786,480.7831,235.1589 M,0,178401,178445,480.7831,235.1589,465.8554,187.4393 M,0,178445,178489,465.8554,187.4393,450.9277,139.7196 M,0,178489,178533,450.9277,139.7196,436,92
Sprite,Foreground,Centre,"sb\hl2.png",436,92 C,0,178225,,6,87,255 F,2,178225,179025,0.5,0 P,0,178225,179025,A
Sprite,Foreground,Centre,"sb\hl2.png",450.9277,139.7196 C,0,178269,,6,87,255 F,2,178269,179069,0.5,0 P,0,178269,179069,A
Sprite,Foreground,Centre,"sb\hl2.png",465.8554,187.4393 C,0,178313,,6,87,255 F,2,178313,179113,0.5,0 P,0,178313,179113,A
Sprite,Foreground,Centre,"sb\hl2.png",480.7831,235.1589 C,0,178357,,6,87,255 F,2,178357,179157,0.5,0 P,0,178357,179157,A
Sprite,Foreground,Centre,"sb\hl2.png",495.7107,282.8786 C,0,178401,,6,87,255 F,2,178401,179201,0.5,0 P,0,178401,179201,A
Sprite,Foreground,Centre,"sb\hl2.png",480.7831,235.1589 C,0,178445,,6,87,255 F,2,178445,179245,0.5,0 P,0,178445,179245,A
Sprite,Foreground,Centre,"sb\hl2.png",465.8554,187.4393 C,0,178489,,6,87,255 F,2,178489,179289,0.5,0 P,0,178489,179289,A
Sprite,Foreground,Centre,"sb\hl2.png",450.9277,139.7196 C,0,178533,,6,87,255 F,2,178533,179333,0.5,0 P,0,178533,179333,A
Sprite,Foreground,Centre,"sb\hl2.png",0,0 C,0,178710,,128,255,255 M,0,178710,178754,546,364,515.4377,375.0544 F,2,178710,179774,0.5,0 S,2,178710,179774,1,0.8 P,0,178710,179774,A M,0,178754,178798,515.4377,375.0544,484.2717,378.0543 M,0,178798,178842,484.2717,378.0543,452.4028,371.6806 M,0,178842,178886,452.4028,371.6806,428.7559,350.1936 M,0,178886,178930,428.7559,350.1936,410.433,324.4322 M,0,178930,178974,410.433,324.4322,402.0114,293.0423
Sprite,Foreground,Centre,"sb\hl2.png",546,364 C,0,178754,,128,255,255 F,2,178754,179554,0.5,0 P,0,178754,179554,A
Sprite,Foreground,Centre,"sb\hl2.png",515.4377,375.0544 C,0,178798,,128,255,255 F,2,178798,179598,0.5,0 P,0,178798,179598,A
Sprite,Foreground,Centre,"sb\hl2.png",484.2717,378.0543 C,0,178842,,128,255,255 F,2,178842,179642,0.5,0 P,0,178842,179642,A
Sprite,Foreground,Centre,"sb\hl2.png",452.4028,371.6806 C,0,178886,,128,255,255 F,2,178886,179686,0.5,0 P,0,178886,179686,A
Sprite,Foreground,Centre,"sb\hl2.png",428.7559,350.1936 C,0,178930,,128,255,255 F,2,178930,179730,0.5,0 P,0,178930,179730,A
Sprite,Foreground,Centre,"sb\hl2.png",410.433,324.4322 C,0,178974,,128,255,255 F,2,178974,179774,0.5,0 P,0,178974,179774,A
Sprite,Foreground,Centre,"sb\hl2.png",501,171 C,0,179063,,128,255,255 F,2,179063,179863,0.5,0 S,2,179063,179863,1,0.8 P,0,179063,179863,A
Sprite,Foreground,Centre,"sb\hl2.png",0,0 C,0,179240,,6,87,255 M,0,179240,179284,383,410,346.8663,375.5366 F,2,179240,180128,0.5,0 S,2,179240,180128,1,0.8 P,0,179240,180128,A M,0,179284,179328,346.8663,375.5366,333.0083,327.4954
Sprite,Foreground,Centre,"sb\hl2.png",383,410 C,0,179284,,6,87,255 F,2,179284,180084,0.5,0 P,0,179284,180084,A
Sprite,Foreground,Centre,"sb\hl2.png",346.8663,375.5366 C,0,179328,,6,87,255 F,2,179328,180128,0.5,0 P,0,179328,180128,A
Sprite,Foreground,Centre,"sb\hl2.png",343,215 C,0,179417,,6,87,255 F,2,179417,180217,0.5,0 S,2,179417,180217,1,0.8 P,0,179417,180217,A
Sprite,Foreground,Centre,"sb\hl2.png",0,0 C,0,179593,,6,87,255 M,0,179593,179637,273,381,258.0862,333.276 F,2,179593,180481,0.5,0 S,2,179593,180481,1,0.8 P,0,179593,180481,A M,0,179637,179681,258.0862,333.276,270.9235,284.9984
Sprite,Foreground,Centre,"sb\hl2.png",273,381 C,0,179637,,6,87,255 F,2,179637,180437,0.5,0 P,0,179637,180437,A
Sprite,Foreground,Centre,"sb\hl2.png",258.0862,333.276 C,0,179681,,6,87,255 F,2,179681,180481,0.5,0 P,0,179681,180481,A
Sprite,Foreground,Centre,"sb\hl2.png",335,192 C,0,179770,,128,255,255 F,2,179770,180570,0.5,0 S,2,179770,180570,1,0.8 P,0,179770,180570,A
Sprite,Foreground,Centre,"sb\hl2.png",335,192 C,0,179857,,128,255,255 F,2,179857,180657,0.5,0 S,2,179857,180657,1,0.8 P,0,179857,180657,A
Sprite,Foreground,Centre,"sb\hl2.png",0,0 C,0,179946,,128,255,255 M,0,179946,179990,237,215,202.64,251.3234 F,2,179946,180834,0.5,0 S,2,179946,180834,1,0.8 P,0,179946,180834,A M,0,179990,180034,202.64,251.3234,191.0392,299.8288
Sprite,Foreground,Centre,"sb\hl2.png",237,215 C,0,179990,,128,255,255 F,2,179990,180790,0.5,0 P,0,179990,180790,A
Sprite,Foreground,Centre,"sb\hl2.png",202.64,251.3234 C,0,180034,,128,255,255 F,2,180034,180834,0.5,0 P,0,180034,180834,A
Sprite,Foreground,Centre,"sb\hl2.png",314,440 C,0,180122,,128,255,255 F,2,180122,180922,0.5,0 S,2,180122,180922,1,0.8 P,0,180122,180922,A
Sprite,Foreground,Centre,"sb\hl2.png",489,255 C,0,180299,,191,128,255 F,2,180299,181099,0.5,0 S,2,180299,181099,1,0.8 P,0,180299,181099,A
Sprite,Foreground,Centre,"sb\hl2.png",304,80 C,0,180475,,191,128,255 F,2,180475,181275,0.5,0 S,2,180475,181275,1,0.8 P,0,180475,181275,A
Sprite,Foreground,Centre,"sb\hl2.png",237,188 C,0,180652,,133,11,255 F,2,180652,181452,0.5,0 S,2,180652,181452,1,0.8 P,0,180652,181452,A
Sprite,Foreground,Centre,"sb\hl2.png",385,328 C,0,180828,,133,11,255 F,2,180828,181628,0.5,0 S,2,180828,181628,1,0.8 P,0,180828,181628,A
Sprite,Foreground,Centre,"sb\hl2.png",281,401 C,0,181004,,191,128,255 F,2,181004,181804,0.5,0 S,2,181004,181804,1,0.8 P,0,181004,181804,A
Sprite,Foreground,Centre,"sb\hl2.png",170,296 C,0,181181,,191,128,255 F,2,181181,181981,0.5,0 S,2,181181,181981,1,0.8 P,0,181181,181981,A
Sprite,Foreground,Centre,"sb\hl2.png",102,404 C,0,181357,,133,11,255 F,2,181357,182157,0.5,0 S,2,181357,182157,1,0.8 P,0,181357,182157,A
Sprite,Foreground,Centre,"sb\hl2.png",0,0 C,0,181534,,128,255,255 M,0,181534,181578,355,204,326.8943,220.3194 F,2,181534,182598,0.5,0 S,2,181534,182598,1,0.8 P,0,181534,182598,A M,0,181578,181622,326.8943,220.3194,298.7887,236.6388 M,0,181622,181666,298.7887,236.6388,281.6018,263.1526 M,0,181666,181710,281.6018,263.1526,267.2471,292.3106 M,0,181710,181754,267.2471,292.3106,276.8417,295.7268 M,0,181754,181798,276.8417,295.7268,304.8896,279.3085
Sprite,Foreground,Centre,"sb\hl2.png",355,204 C,0,181578,,128,255,255 F,2,181578,182378,0.5,0 P,0,181578,182378,A
Sprite,Foreground,Centre,"sb\hl2.png",326.8943,220.3194 C,0,181622,,128,255,255 F,2,181622,182422,0.5,0 P,0,181622,182422,A
Sprite,Foreground,Centre,"sb\hl2.png",298.7887,236.6388 C,0,181666,,128,255,255 F,2,181666,182466,0.5,0 P,0,181666,182466,A
Sprite,Foreground,Centre,"sb\hl2.png",281.6018,263.1526 C,0,181710,,128,255,255 F,2,181710,182510,0.5,0 P,0,181710,182510,A
Sprite,Foreground,Centre,"sb\hl2.png",267.2471,292.3106 C,0,181754,,128,255,255 F,2,181754,182554,0.5,0 P,0,181754,182554,A
Sprite,Foreground,Centre,"sb\hl2.png",276.8417,295.7268 C,0,181798,,128,255,255 F,2,181798,182598,0.5,0 P,0,181798,182598,A
Sprite,Foreground,Centre,"sb\hl2.png",428,202 C,0,181887,,128,255,255 F,2,181887,182687,0.5,0 S,2,181887,182687,1,0.8 P,0,181887,182687,A
Sprite,Foreground,Centre,"sb\hl2.png",0,0 C,0,182063,,6,87,255 M,0,182063,182107,276,158,234.1001,185.2837 F,2,182063,182951,0.5,0 S,2,182063,182951,1,0.8 P,0,182063,182951,A M,0,182107,182151,234.1001,185.2837,211,229
Sprite,Foreground,Centre,"sb\hl2.png",276,158 C,0,182107,,6,87,255 F,2,182107,182907,0.5,0 P,0,182107,182907,A
Sprite,Foreground,Centre,"sb\hl2.png",234.1001,185.2837 C,0,182151,,6,87,255 F,2,182151,182951,0.5,0 P,0,182151,182951,A
Sprite,Foreground,Centre,"sb\hl2.png",186,385 C,0,182240,,6,87,255 F,2,182240,183040,0.5,0 S,2,182240,183040,1,0.8 P,0,182240,183040,A
Sprite,Foreground,Centre,"sb\hl2.png",348,126 C,0,182416,,6,87,255 F,2,182416,183216,0.5,0 S,2,182416,183216,1,0.8 P,0,182416,183216,A
Sprite,Foreground,Centre,"sb\hl2.png",0,0 C,0,182593,,6,87,255 M,0,182593,182637,403,374,392.3584,325.1455 F,2,182593,183481,0.5,0 S,2,182593,183481,1,0.8 P,0,182593,183481,A M,0,182637,182681,392.3584,325.1455,381.7169,276.2911
Sprite,Foreground,Centre,"sb\hl2.png",403,374 C,0,182637,,6,87,255 F,2,182637,183437,0.5,0 P,0,182637,183437,A
Sprite,Foreground,Centre,"sb\hl2.png",392.3584,325.1455 C,0,182681,,6,87,255 F,2,182681,183481,0.5,0 P,0,182681,183481,A
Sprite,Foreground,Centre,"sb\hl2.png",0,0 C,0,182769,,6,87,255 M,0,182769,182813,521,97,509.9407,145.7616 F,2,182769,183657,0.5,0 S,2,182769,183657,1,0.8 P,0,182769,183657,A M,0,182813,182857,509.9407,145.7616,499,194
Sprite,Foreground,Centre,"sb\hl2.png",521,97 C,0,182813,,6,87,255 F,2,182813,183613,0.5,0 P,0,182813,183613,A
Sprite,Foreground,Centre,"sb\hl2.png",509.9407,145.7616 C,0,182857,,6,87,255 F,2,182857,183657,0.5,0 P,0,182857,183657,A
Sprite,Foreground,Centre,"sb\hl2.png",0,0 C,0,182946,,128,255,255 M,0,182946,182990,334,406,326.1176,374.4704 F,2,182946,184010,0.5,0 S,2,182946,184010,1,0.8 P,0,182946,184010,A M,0,182990,183034,326.1176,374.4704,318.2352,342.9407 M,0,183034,183078,318.2352,342.9407,302.0852,322 M,0,183078,183122,302.0852,322,307.7209,299.3704 M,0,183122,183166,307.7209,299.3704,300.6128,267.6572 M,0,183166,183210,300.6128,267.6572,293.5047,235.9441
Sprite,Foreground,Centre,"sb\hl2.png",334,406 C,0,182990,,128,255,255 F,2,182990,183790,0.5,0 P,0,182990,183790,A
Sprite,Foreground,Centre,"sb\hl2.png",326.1176,374.4704 C,0,183034,,128,255,255 F,2,183034,183834,0.5,0 P,0,183034,183834,A
Sprite,Foreground,Centre,"sb\hl2.png",318.2352,342.9407 C,0,183078,,128,255,255 F,2,183078,183878,0.5,0 P,0,183078,183878,A
Sprite,Foreground,Centre,"sb\hl2.png",302.0852,322 C,0,183122,,128,255,255 F,2,183122,183922,0.5,0 P,0,183122,183922,A
Sprite,Foreground,Centre,"sb\hl2.png",307.7209,299.3704 C,0,183166,,128,255,255 F,2,183166,183966,0.5,0 P,0,183166,183966,A
Sprite,Foreground,Centre,"sb\hl2.png",300.6128,267.6572 C,0,183210,,128,255,255 F,2,183210,184010,0.5,0 P,0,183210,184010,A
Sprite,Foreground,Centre,"sb\hl2.png",348,126 C,0,183299,,128,255,255 F,2,183299,184099,0.5,0 S,2,183299,184099,1,0.8 P,0,183299,184099,A
Sprite,Foreground,Centre,"sb\hl2.png",0,0 C,0,183475,,6,87,255 M,0,183475,183519,108,147,96.95872,195.7657 F,2,183475,184363,0.5,0 S,2,183475,184363,1,0.8 P,0,183475,184363,A M,0,183519,183563,96.95872,195.7657,107.5252,244.1799
Sprite,Foreground,Centre,"sb\hl2.png",108,147 C,0,183519,,6,87,255 F,2,183519,184319,0.5,0 P,0,183519,184319,A
Sprite,Foreground,Centre,"sb\hl2.png",96.95872,195.7657 C,0,183563,,6,87,255 F,2,183563,184363,0.5,0 P,0,183563,184363,A
Sprite,Foreground,Centre,"sb\hl2.png",125,355 C,0,183652,,6,87,255 F,2,183652,184452,0.5,0 S,2,183652,184452,1,0.8 P,0,183652,184452,A
Sprite,Foreground,Centre,"sb\hl2.png",293,235 C,0,183828,,6,87,255 F,2,183828,184628,0.5,0 S,2,183828,184628,1,0.8 P,0,183828,184628,A
Sprite,Foreground,Centre,"sb\hl2.png",0,0 C,0,184004,,6,87,255 M,0,184004,184048,116,149,130.967,196.7073 F,2,184004,184892,0.5,0 S,2,184004,184892,1,0.8 P,0,184004,184892,A M,0,184048,184092,130.967,196.7073,164.4203,233.4027
Sprite,Foreground,Centre,"sb\hl2.png",116,149 C,0,184048,,6,87,255 F,2,184048,184848,0.5,0 P,0,184048,184848,A
Sprite,Foreground,Centre,"sb\hl2.png",130.967,196.7073 C,0,184092,,6,87,255 F,2,184092,184892,0.5,0 P,0,184092,184892,A
Sprite,Foreground,Centre,"sb\hl2.png",0,0 C,0,184181,,6,87,255 M,0,184181,184225,344,121,295.2343,109.9587 F,2,184181,185069,0.5,0 S,2,184181,185069,1,0.8 P,0,184181,185069,A M,0,184225,184269,295.2343,109.9587,246.6474,119.8418
Sprite,Foreground,Centre,"sb\hl2.png",344,121 C,0,184225,,6,87,255 F,2,184225,185025,0.5,0 P,0,184225,185025,A
Sprite,Foreground,Centre,"sb\hl2.png",295.2343,109.9587 C,0,184269,,6,87,255 F,2,184269,185069,0.5,0 P,0,184269,185069,A
Sprite,Foreground,Centre,"sb\hl2.png",0,0 C,0,184357,,128,255,255 M,0,184357,184401,196,350,201.4091,338.731 F,2,184357,185421,0.5,0 S,2,184357,185421,1,0.8 P,0,184357,185421,A M,0,184401,184445,201.4091,338.731,206.8183,327.4619 M,0,184445,184489,206.8183,327.4619,216.377,319.9738 M,0,184489,184533,216.377,319.9738,216.1025,308.5638 M,0,184533,184577,216.1025,308.5638,220.5,296.9546 M,0,184577,184621,220.5,296.9546,225.2162,285.3784
Sprite,Foreground,Centre,"sb\hl2.png",196,350 C,0,184401,,128,255,255 F,2,184401,185201,0.5,0 P,0,184401,185201,A
Sprite,Foreground,Centre,"sb\hl2.png",201.4091,338.731 C,0,184445,,128,255,255 F,2,184445,185245,0.5,0 P,0,184445,185245,A
Sprite,Foreground,Centre,"sb\hl2.png",206.8183,327.4619 C,0,184489,,128,255,255 F,2,184489,185289,0.5,0 P,0,184489,185289,A
Sprite,Foreground,Centre,"sb\hl2.png",216.377,319.9738 C,0,184533,,128,255,255 F,2,184533,185333,0.5,0 P,0,184533,185333,A
Sprite,Foreground,Centre,"sb\hl2.png",216.1025,308.5638 C,0,184577,,128,255,255 F,2,184577,185377,0.5,0 P,0,184577,185377,A
Sprite,Foreground,Centre,"sb\hl2.png",220.5,296.9546 C,0,184621,,128,255,255 F,2,184621,185421,0.5,0 P,0,184621,185421,A
Sprite,Foreground,Centre,"sb\hl2.png",187,372 C,0,184710,,128,255,255 F,2,184710,185510,0.5,0 S,2,184710,185510,1,0.8 P,0,184710,185510,A
Sprite,Foreground,Centre,"sb\hl2.png",246,120 C,0,184887,,191,128,255 F,2,184887,185687,0.5,0 S,2,184887,185687,1,0.8 P,0,184887,185687,A
Sprite,Foreground,Centre,"sb\hl2.png",255,169 C,0,184975,,191,128,255 F,2,184975,185775,0.5,0 S,2,184975,185775,1,0.8 P,0,184975,185775,A
Sprite,Foreground,Centre,"sb\hl2.png",265,218 C,0,185063,,191,128,255 F,2,185063,185863,0.5,0 S,2,185063,185863,1,0.8 P,0,185063,185863,A
Sprite,Foreground,Centre,"sb\hl2.png",312,361 C,0,185240,,133,11,255 F,2,185240,186040,0.5,0 S,2,185240,186040,1,0.8 P,0,185240,186040,A
Sprite,Foreground,Centre,"sb\hl2.png",328,313 C,0,185328,,133,11,255 F,2,185328,186128,0.5,0 S,2,185328,186128,1,0.8 P,0,185328,186128,A
Sprite,Foreground,Centre,"sb\hl2.png",344,267 C,0,185416,,133,11,255 F,2,185416,186216,0.5,0 S,2,185416,186216,1,0.8 P,0,185416,186216,A
Sprite,Foreground,Centre,"sb\hl2.png",359,76 C,0,185593,,191,128,255 F,2,185593,186393,0.5,0 S,2,185593,186393,1,0.8 P,0,185593,186393,A
Sprite,Foreground,Centre,"sb\hl2.png",368,125 C,0,185681,,191,128,255 F,2,185681,186481,0.5,0 S,2,185681,186481,1,0.8 P,0,185681,186481,A
Sprite,Foreground,Centre,"sb\hl2.png",378,174 C,0,185769,,191,128,255 F,2,185769,186569,0.5,0 S,2,185769,186569,1,0.8 P,0,185769,186569,A
Sprite,Foreground,Centre,"sb\hl2.png",418,268 C,0,185946,,133,11,255 F,2,185946,186746,0.5,0 S,2,185946,186746,1,0.8 P,0,185946,186746,A
Sprite,Foreground,Centre,"sb\hl2.png",434,220 C,0,186034,,133,11,255 F,2,186034,186834,0.5,0 S,2,186034,186834,1,0.8 P,0,186034,186834,A
Sprite,Foreground,Centre,"sb\hl2.png",450,174 C,0,186122,,133,11,255 F,2,186122,186922,0.5,0 S,2,186122,186922,1,0.8 P,0,186122,186922,A
Sprite,Foreground,Centre,"sb\hl2.png",502,87 C,0,186299,,191,128,255 F,2,186299,187099,0.5,0 S,2,186299,187099,1,0.8 P,0,186299,187099,A
Sprite,Foreground,Centre,"sb\hl2.png",511,136 C,0,186387,,191,128,255 F,2,186387,187187,0.5,0 S,2,186387,187187,1,0.8 P,0,186387,187187,A
Sprite,Foreground,Centre,"sb\hl2.png",521,185 C,0,186475,,191,128,255 F,2,186475,187275,0.5,0 S,2,186475,187275,1,0.8 P,0,186475,187275,A
Sprite,Foreground,Centre,"sb\hl2.png",474,328 C,0,186652,,133,11,255 F,2,186652,187452,0.5,0 S,2,186652,187452,1,0.8 P,0,186652,187452,A
Sprite,Foreground,Centre,"sb\hl2.png",418,268 C,0,186740,,133,11,255 F,2,186740,187540,0.5,0 S,2,186740,187540,1,0.8 P,0,186740,187540,A
Sprite,Foreground,Centre,"sb\hl2.png",340,244 C,0,186828,,133,11,255 F,2,186828,187628,0.5,0 S,2,186828,187628,1,0.8 P,0,186828,187628,A
Sprite,Foreground,Centre,"sb\hl2.png",492,408 C,0,187005,,133,11,255 F,2,187005,187805,0.5,0 S,2,187005,187805,1,0.8 P,0,187005,187805,A
Sprite,Foreground,Centre,"sb\hl2.png",0,0 C,0,187181,,128,255,255 M,0,187181,187225,249,269,216.8425,264.294 F,2,187181,188245,0.5,0 S,2,187181,188245,1,0.8 P,0,187181,188245,A M,0,187225,187269,216.8425,264.294,224.2928,280.006 M,0,187269,187313,224.2928,280.006,249.6445,300.2914 M,0,187313,187357,249.6445,300.2914,277.7044,316.6351 M,0,187357,187401,277.7044,316.6351,307.6992,329.092 M,0,187401,187445,307.6992,329.092,338.942,337.9866
Sprite,Foreground,Centre,"sb\hl2.png",249,269 C,0,187225,,128,255,255 F,2,187225,188025,0.5,0 P,0,187225,188025,A
Sprite,Foreground,Centre,"sb\hl2.png",216.8425,264.294 C,0,187269,,128,255,255 F,2,187269,188069,0.5,0 P,0,187269,188069,A
Sprite,Foreground,Centre,"sb\hl2.png",224.2928,280.006 C,0,187313,,128,255,255 F,2,187313,188113,0.5,0 P,0,187313,188113,A
Sprite,Foreground,Centre,"sb\hl2.png",249.6445,300.2914 C,0,187357,,128,255,255 F,2,187357,188157,0.5,0 P,0,187357,188157,A
Sprite,Foreground,Centre,"sb\hl2.png",277.7044,316.6351 C,0,187401,,128,255,255 F,2,187401,188201,0.5,0 P,0,187401,188201,A
Sprite,Foreground,Centre,"sb\hl2.png",307.6992,329.092 C,0,187445,,128,255,255 F,2,187445,188245,0.5,0 P,0,187445,188245,A
Sprite,Foreground,Centre,"sb\hl2.png",474,328 C,0,187534,,128,255,255 F,2,187534,188334,0.5,0 S,2,187534,188334,1,0.8 P,0,187534,188334,A
Sprite,Foreground,Centre,"sb\hl2.png",0,0 C,0,187710,,6,87,255 M,0,187710,187754,254,354,209.392,332.2885 F,2,187710,188598,0.5,0 S,2,187710,188598,1,0.8 P,0,187710,188598,A M,0,187754,187798,209.392,332.2885,176.3612,295.283
Sprite,Foreground,Centre,"sb\hl2.png",254,354 C,0,187754,,6,87,255 F,2,187754,188554,0.5,0 P,0,187754,188554,A
Sprite,Foreground,Centre,"sb\hl2.png",209.392,332.2885 C,0,187798,,6,87,255 F,2,187798,188598,0.5,0 P,0,187798,188598,A
Sprite,Foreground,Centre,"sb\hl2.png",149,132 C,0,187887,,6,87,255 F,2,187887,188687,0.5,0 S,2,187887,188687,1,0.8 P,0,187887,188687,A
Sprite,Foreground,Centre,"sb\hl2.png",114,373 C,0,188063,,6,87,255 F,2,188063,188863,0.5,0 S,2,188063,188863,1,0.8 P,0,188063,188863,A
Sprite,Foreground,Centre,"sb\hl2.png",0,0 C,0,188240,,6,87,255 M,0,188240,188284,339,338,366.6859,296.7704 F,2,188240,189128,0.5,0 S,2,188240,189128,1,0.8 P,0,188240,189128,A M,0,188284,188328,366.6859,296.7704,376,248
Sprite,Foreground,Centre,"sb\hl2.png",339,338 C,0,188284,,6,87,255 F,2,188284,189084,0.5,0 P,0,188284,189084,A
Sprite,Foreground,Centre,"sb\hl2.png",366.6859,296.7704 C,0,188328,,6,87,255 F,2,188328,189128,0.5,0 P,0,188328,189128,A
Sprite,Foreground,Centre,"sb\hl2.png",0,0 C,0,188416,,6,87,255 M,0,188416,188460,250,157,261.8176,205.5834 F,2,188416,189304,0.5,0 S,2,188416,189304,1,0.8 P,0,188416,189304,A M,0,188460,188504,261.8176,205.5834,273.6352,254.1668
Sprite,Foreground,Centre,"sb\hl2.png",250,157 C,0,188460,,6,87,255 F,2,188460,189260,0.5,0 P,0,188460,189260,A
Sprite,Foreground,Centre,"sb\hl2.png",261.8176,205.5834 C,0,188504,,6,87,255 F,2,188504,189304,0.5,0 P,0,188504,189304,A
Sprite,Foreground,Centre,"sb\hl2.png",0,0 C,0,188593,,128,255,255 M,0,188593,188637,176,440,207.5643,432.2578 F,2,188593,189657,0.5,0 S,2,188593,189657,1,0.8 P,0,188593,189657,A M,0,188637,188681,207.5643,432.2578,239.4269,427.2085 M,0,188681,188725,239.4269,427.2085,271.9203,427.8584 M,0,188725,188769,271.9203,427.8584,303.7219,422.0882 M,0,188769,188813,303.7219,422.0882,335.3307,414.5296 M,0,188813,188857,335.3307,414.5296,366.9395,406.971
Sprite,Foreground,Centre,"sb\hl2.png",176,440 C,0,188637,,128,255,255 F,2,188637,189437,0.5,0 P,0,188637,189437,A
Sprite,Foreground,Centre,"sb\hl2.png",207.5643,432.2578 C,0,188681,,128,255,255 F,2,188681,189481,0.5,0 P,0,188681,189481,A
Sprite,Foreground,Centre,"sb\hl2.png",239.4269,427.2085 C,0,188725,,128,255,255 F,2,188725,189525,0.5,0 P,0,188725,189525,A
Sprite,Foreground,Centre,"sb\hl2.png",271.9203,427.8584 C,0,188769,,128,255,255 F,2,188769,189569,0.5,0 P,0,188769,189569,A
Sprite,Foreground,Centre,"sb\hl2.png",303.7219,422.0882 C,0,188813,,128,255,255 F,2,188813,189613,0.5,0 P,0,188813,189613,A
Sprite,Foreground,Centre,"sb\hl2.png",335.3307,414.5296 C,0,188857,,128,255,255 F,2,188857,189657,0.5,0 P,0,188857,189657,A
Sprite,Foreground,Centre,"sb\hl2.png",502,372 C,0,188946,,128,255,255 F,2,188946,189746,0.5,0 S,2,188946,189746,1,0.8 P,0,188946,189746,A
Sprite,Foreground,Centre,"sb\hl2.png",0,0 C,0,189122,,6,87,255 M,0,189122,189166,353,151,364.8176,199.5834 F,2,189122,190010,0.5,0 S,2,189122,190010,1,0.8 P,0,189122,190010,A M,0,189166,189210,364.8176,199.5834,376.6352,248.1668
Sprite,Foreground,Centre,"sb\hl2.png",353,151 C,0,189166,,6,87,255 F,2,189166,189966,0.5,0 P,0,189166,189966,A
Sprite,Foreground,Centre,"sb\hl2.png",364.8176,199.5834 C,0,189210,,6,87,255 F,2,189210,190010,0.5,0 P,0,189210,190010,A
Sprite,Foreground,Centre,"sb\hl2.png",416,394 C,0,189299,,6,87,255 F,2,189299,190099,0.5,0 S,2,189299,190099,1,0.8 P,0,189299,190099,A
Sprite,Foreground,Centre,"sb\hl2.png",273,254 C,0,189475,,6,87,255 F,2,189475,190275,0.5,0 S,2,189475,190275,1,0.8 P,0,189475,190275,A
Sprite,Foreground,Centre,"sb\hl2.png",0,0 C,0,189652,,128,255,255 M,0,189652,189696,448,179,411.6766,213.36 F,2,189652,190540,0.5,0 S,2,189652,190540,1,0.8 P,0,189652,190540,A M,0,189696,189740,411.6766,213.36,375.3531,247.72
Sprite,Foreground,Centre,"sb\hl2.png",448,179 C,0,189696,,128,255,255 F,2,189696,190496,0.5,0 P,0,189696,190496,A
Sprite,Foreground,Centre,"sb\hl2.png",411.6766,213.36 C,0,189740,,128,255,255 F,2,189740,190540,0.5,0 P,0,189740,190540,A
Sprite,Foreground,Centre,"sb\hl2.png",0,0 C,0,189828,,128,255,255 M,0,189828,189872,173,326,220.8638,340.4589 F,2,189828,190716,0.5,0 S,2,189828,190716,1,0.8 P,0,189828,190716,A M,0,189872,189916,220.8638,340.4589,268.7276,354.9177
Sprite,Foreground,Centre,"sb\hl2.png",173,326 C,0,189872,,128,255,255 F,2,189872,190672,0.5,0 P,0,189872,190672,A
Sprite,Foreground,Centre,"sb\hl2.png",220.8638,340.4589 C,0,189916,,128,255,255 F,2,189916,190716,0.5,0 P,0,189916,190716,A
Sprite,Foreground,Centre,"sb\hl2.png",0,0 C,0,190004,,6,87,255 M,0,190004,190048,490,244,480.3509,251.9463 F,2,190004,191068,0.5,0 S,2,190004,191068,1,0.8 P,0,190004,191068,A M,0,190048,190092,480.3509,251.9463,471.7409,260.698 M,0,190092,190136,471.7409,260.698,466.4549,272.0253 M,0,190136,190180,466.4549,272.0253,455.3928,277.2429 M,0,190180,190224,455.3928,277.2429,445.1746,284.14 M,0,190224,190268,445.1746,284.14,435.8017,292.4103
Sprite,Foreground,Centre,"sb\hl2.png",490,244 C,0,190048,,6,87,255 F,2,190048,190848,0.5,0 P,0,190048,190848,A
Sprite,Foreground,Centre,"sb\hl2.png",480.3509,251.9463 C,0,190092,,6,87,255 F,2,190092,190892,0.5,0 P,0,190092,190892,A
Sprite,Foreground,Centre,"sb\hl2.png",471.7409,260.698 C,0,190136,,6,87,255 F,2,190136,190936,0.5,0 P,0,190136,190936,A
Sprite,Foreground,Centre,"sb\hl2.png",466.4549,272.0253 C,0,190180,,6,87,255 F,2,190180,190980,0.5,0 P,0,190180,190980,A
Sprite,Foreground,Centre,"sb\hl2.png",455.3928,277.2429 C,0,190224,,6,87,255 F,2,190224,191024,0.5,0 P,0,190224,191024,A
Sprite,Foreground,Centre,"sb\hl2.png",445.1746,284.14 C,0,190268,,6,87,255 F,2,190268,191068,0.5,0 P,0,190268,191068,A
Sprite,Foreground,Centre,"sb\hl2.png",509,231 C,0,190357,,6,87,255 F,2,190357,191157,0.5,0 S,2,190357,191157,1,0.8 P,0,190357,191157,A
Sprite,Foreground,Centre,"sb\hl2.png",272,404 C,0,190534,,191,128,255 F,2,190534,191334,0.5,0 S,2,190534,191334,1,0.8 P,0,190534,191334,A
Sprite,Foreground,Centre,"sb\hl2.png",269,355 C,0,190622,,191,128,255 F,2,190622,191422,0.5,0 S,2,190622,191422,1,0.8 P,0,190622,191422,A
Sprite,Foreground,Centre,"sb\hl2.png",263,305 C,0,190710,,191,128,255 F,2,190710,191510,0.5,0 S,2,190710,191510,1,0.8 P,0,190710,191510,A
Sprite,Foreground,Centre,"sb\hl2.png",322,117 C,0,190887,,133,11,255 F,2,190887,191687,0.5,0 S,2,190887,191687,1,0.8 P,0,190887,191687,A
Sprite,Foreground,Centre,"sb\hl2.png",319,166 C,0,190975,,133,11,255 F,2,190975,191775,0.5,0 S,2,190975,191775,1,0.8 P,0,190975,191775,A
Sprite,Foreground,Centre,"sb\hl2.png",313,216 C,0,191063,,133,11,255 F,2,191063,191863,0.5,0 S,2,191063,191863,1,0.8 P,0,191063,191863,A
Sprite,Foreground,Centre,"sb\hl2.png",367,399 C,0,191240,,191,128,255 F,2,191240,192040,0.5,0 S,2,191240,192040,1,0.8 P,0,191240,192040,A
Sprite,Foreground,Centre,"sb\hl2.png",364,350 C,0,191328,,191,128,255 F,2,191328,192128,0.5,0 S,2,191328,192128,1,0.8 P,0,191328,192128,A
Sprite,Foreground,Centre,"sb\hl2.png",358,300 C,0,191416,,191,128,255 F,2,191416,192216,0.5,0 S,2,191416,192216,1,0.8 P,0,191416,192216,A
Sprite,Foreground,Centre,"sb\hl2.png",445,193 C,0,191593,,133,11,255 F,2,191593,192393,0.5,0 S,2,191593,192393,1,0.8 P,0,191593,192393,A
Sprite,Foreground,Centre,"sb\hl2.png",442,242 C,0,191681,,133,11,255 F,2,191681,192481,0.5,0 S,2,191681,192481,1,0.8 P,0,191681,192481,A
Sprite,Foreground,Centre,"sb\hl2.png",436,292 C,0,191769,,133,11,255 F,2,191769,192569,0.5,0 S,2,191769,192569,1,0.8 P,0,191769,192569,A
Sprite,Foreground,Centre,"sb\hl2.png",522,357 C,0,191946,,191,128,255 F,2,191946,192746,0.5,0 S,2,191946,192746,1,0.8 P,0,191946,192746,A
Sprite,Foreground,Centre,"sb\hl2.png",516,307 C,0,192034,,191,128,255 F,2,192034,192834,0.5,0 S,2,192034,192834,1,0.8 P,0,192034,192834,A
Sprite,Foreground,Centre,"sb\hl2.png",513,258 C,0,192122,,191,128,255 F,2,192122,192922,0.5,0 S,2,192122,192922,1,0.8 P,0,192122,192922,A
Sprite,Foreground,Centre,"sb\hl2.png",530,123 C,0,192299,,133,11,255 F,2,192299,193099,0.5,0 S,2,192299,193099,1,0.8 P,0,192299,193099,A
Sprite,Foreground,Centre,"sb\hl2.png",445,193 C,0,192387,,133,11,255 F,2,192387,193187,0.5,0 S,2,192387,193187,1,0.8 P,0,192387,193187,A
Sprite,Foreground,Centre,"sb\hl2.png",361,264 C,0,192475,,133,11,255 F,2,192475,193275,0.5,0 S,2,192475,193275,1,0.8 P,0,192475,193275,A
Sprite,Foreground,Centre,"sb\hl2.png",179,127 C,0,192652,,133,11,255 F,2,192652,193452,0.5,0 S,2,192652,193452,1,0.8 P,0,192652,193452,A
Sprite,Foreground,Centre,"sb\hl2.png",0,0 C,0,192828,,255,128,128 M,0,192828,192872,190,344,239.2763,342.4305 F,2,192828,194069,0.5,0 S,2,192828,194069,1,0.8 P,0,192828,194069,A M,0,192872,192916,239.2763,342.4305,274.0718,308.7238 M,0,192916,192960,274.0718,308.7238,271.7217,260.1066 M,0,192960,193004,271.7217,260.1066,235.2557,228.0715 M,0,193004,193048,235.2557,228.0715,187.0435,234.6144 M,0,193048,193092,187.0435,234.6144,139.1761,243.1701 M,0,193092,193136,139.1761,243.1701,101.2541,212.9404 M,0,193136,193180,101.2541,212.9404,98.06587,164.4114 M,0,193180,193225,98.06587,164.4114,130.7519,128.3318 M,0,193225,193269,130.7519,128.3318,179,127
Sprite,Foreground,Centre,"sb\hl2.png",190,344 C,0,192872,,255,128,128 F,2,192872,193672,0.5,0 P,0,192872,193672,A
Sprite,Foreground,Centre,"sb\hl2.png",239.2763,342.4305 C,0,192916,,255,128,128 F,2,192916,193716,0.5,0 P,0,192916,193716,A
Sprite,Foreground,Centre,"sb\hl2.png",274.0718,308.7238 C,0,192960,,255,128,128 F,2,192960,193760,0.5,0 P,0,192960,193760,A
Sprite,Foreground,Centre,"sb\hl2.png",271.7217,260.1066 C,0,193004,,255,128,128 F,2,193004,193804,0.5,0 P,0,193004,193804,A
Sprite,Foreground,Centre,"sb\hl2.png",235.2557,228.0715 C,0,193048,,255,128,128 F,2,193048,193848,0.5,0 P,0,193048,193848,A
Sprite,Foreground,Centre,"sb\hl2.png",187.0435,234.6144 C,0,193092,,255,128,128 F,2,193092,193892,0.5,0 P,0,193092,193892,A
Sprite,Foreground,Centre,"sb\hl2.png",139.1761,243.1701 C,0,193136,,255,128,128 F,2,193136,193936,0.5,0 P,0,193136,193936,A
Sprite,Foreground,Centre,"sb\hl2.png",101.2541,212.9404 C,0,193180,,255,128,128 F,2,193180,193980,0.5,0 P,0,193180,193980,A
Sprite,Foreground,Centre,"sb\hl2.png",98.06587,164.4114 C,0,193225,,255,128,128 F,2,193225,194025,0.5,0 P,0,193225,194025,A
Sprite,Foreground,Centre,"sb\hl2.png",130.7519,128.3318 C,0,193269,,255,128,128 F,2,193269,194069,0.5,0 P,0,193269,194069,A
Sprite,Foreground,Centre,"sb\hl2.png",0,0 C,0,193357,,255,6,6 M,0,193357,193401,240,209,288.2362,196.8824 F,2,193357,194245,0.5,0 S,2,193357,194245,1,0.8 P,0,193357,194245,A M,0,193401,193445,288.2362,196.8824,329,169
Sprite,Foreground,Centre,"sb\hl2.png",240,209 C,0,193401,,255,6,6 F,2,193401,194201,0.5,0 P,0,193401,194201,A
Sprite,Foreground,Centre,"sb\hl2.png",288.2362,196.8824 C,0,193445,,255,6,6 F,2,193445,194245,0.5,0 P,0,193445,194245,A
Sprite,Foreground,Centre,"sb\hl2.png",416,110 C,0,193534,,255,6,6 F,2,193534,194334,0.5,0 S,2,193534,194334,1,0.8 P,0,193534,194334,A
Sprite,Foreground,Centre,"sb\hl2.png",416,110 C,0,193622,,255,6,6 F,2,193622,194422,0.5,0 S,2,193622,194422,1,0.8 P,0,193622,194422,A
Sprite,Foreground,Centre,"sb\hl2.png",0,0 C,0,193710,,255,6,6 M,0,193710,193754,416,110,410.0246,159.6417 F,2,193710,194598,0.5,0 S,2,193710,194598,1,0.8 P,0,193710,194598,A M,0,193754,193798,410.0246,159.6417,404.0492,209.2833
Sprite,Foreground,Centre,"sb\hl2.png",416,110 C,0,193754,,255,6,6 F,2,193754,194554,0.5,0 P,0,193754,194554,A
Sprite,Foreground,Centre,"sb\hl2.png",410.0246,159.6417 C,0,193798,,255,6,6 F,2,193798,194598,0.5,0 P,0,193798,194598,A
Sprite,Foreground,Centre,"sb\hl2.png",346,280 C,0,193887,,255,128,128 F,2,193887,194687,0.5,0 S,2,193887,194687,1,0.8 P,0,193887,194687,A
Sprite,Foreground,Centre,"sb\hl2.png",346,280 C,0,193975,,255,128,128 F,2,193975,194775,0.5,0 S,2,193975,194775,1,0.8 P,0,193975,194775,A
Sprite,Foreground,Centre,"sb\hl2.png",346,280 C,0,194063,,255,128,128 F,2,194063,194863,0.5,0 S,2,194063,194863,1,0.8 P,0,194063,194863,A
Sprite,Foreground,Centre,"sb\hl2.png",346,280 C,0,194152,,255,128,128 F,2,194152,194952,0.5,0 S,2,194152,194952,1,0.8 P,0,194152,194952,A
Sprite,Foreground,Centre,"sb\hl2.png",0,0 C,0,194240,,255,128,128 M,0,194240,194284,346,280,351.9573,329.6438 F,2,194240,195128,0.5,0 S,2,194240,195128,1,0.8 P,0,194240,195128,A M,0,194284,194328,351.9573,329.6438,357.9145,379.2877
Sprite,Foreground,Centre,"sb\hl2.png",346,280 C,0,194284,,255,128,128 F,2,194284,195084,0.5,0 P,0,194284,195084,A
Sprite,Foreground,Centre,"sb\hl2.png",351.9573,329.6438 C,0,194328,,255,128,128 F,2,194328,195128,0.5,0 P,0,194328,195128,A
Sprite,Foreground,Centre,"sb\hl2.png",456,411 C,0,194416,,255,128,128 F,2,194416,195216,0.5,0 S,2,194416,195216,1,0.8 P,0,194416,195216,A
Sprite,Foreground,Centre,"sb\hl2.png",456,411 C,0,194504,,255,128,128 F,2,194504,195304,0.5,0 S,2,194504,195304,1,0.8 P,0,194504,195304,A
Sprite,Foreground,Centre,"sb\hl2.png",0,0 C,0,194593,,255,128,128 M,0,194593,194637,456,411,501.3823,390.7112 F,2,194593,195481,0.5,0 S,2,194593,195481,1,0.8 P,0,194593,195481,A M,0,194637,194681,501.3823,390.7112,536,356
Sprite,Foreground,Centre,"sb\hl2.png",456,411 C,0,194637,,255,128,128 F,2,194637,195437,0.5,0 P,0,194637,195437,A
Sprite,Foreground,Centre,"sb\hl2.png",501.3823,390.7112 C,0,194681,,255,128,128 F,2,194681,195481,0.5,0 P,0,194681,195481,A
Sprite,Foreground,Centre,"sb\hl2.png",543,273 C,0,194769,,255,6,6 F,2,194769,195569,0.5,0 S,2,194769,195569,1,0.8 P,0,194769,195569,A
Sprite,Foreground,Centre,"sb\hl2.png",543,273 C,0,194857,,255,6,6 F,2,194857,195657,0.5,0 S,2,194857,195657,1,0.8 P,0,194857,195657,A
Sprite,Foreground,Centre,"sb\hl2.png",543,273 C,0,194946,,255,6,6 F,2,194946,195746,0.5,0 S,2,194946,195746,1,0.8 P,0,194946,195746,A
Sprite,Foreground,Centre,"sb\hl2.png",543,273 C,0,195034,,255,6,6 F,2,195034,195834,0.5,0 S,2,195034,195834,1,0.8 P,0,195034,195834,A
Sprite,Foreground,Centre,"sb\hl2.png",0,0 C,0,195122,,255,128,128 M,0,195122,195166,530,123,502.1042,164.4949 F,2,195122,196010,0.5,0 S,2,195122,196010,1,0.8 P,0,195122,196010,A M,0,195166,195210,502.1042,164.4949,474.2085,205.9898
Sprite,Foreground,Centre,"sb\hl2.png",530,123 C,0,195166,,255,128,128 F,2,195166,195966,0.5,0 P,0,195166,195966,A
Sprite,Foreground,Centre,"sb\hl2.png",502.1042,164.4949 C,0,195210,,255,128,128 F,2,195210,196010,0.5,0 P,0,195210,196010,A
Sprite,Foreground,Centre,"sb\hl2.png",0,0 C,0,195299,,255,128,128 M,0,195299,195343,321,83,352.1067,122.1455 F,2,195299,196187,0.5,0 S,2,195299,196187,1,0.8 P,0,195299,196187,A M,0,195343,195387,352.1067,122.1455,383.2134,161.291
Sprite,Foreground,Centre,"sb\hl2.png",321,83 C,0,195343,,255,128,128 F,2,195343,196143,0.5,0 P,0,195343,196143,A
Sprite,Foreground,Centre,"sb\hl2.png",352.1067,122.1455 C,0,195387,,255,128,128 F,2,195387,196187,0.5,0 P,0,195387,196187,A
Sprite,Foreground,Centre,"sb\hl2.png",0,0 C,0,195475,,255,128,128 M,0,195475,195519,218,268,264.7299,250.2147 F,2,195475,196363,0.5,0 S,2,195475,196363,1,0.8 P,0,195475,196363,A M,0,195519,195563,264.7299,250.2147,311.4598,232.4295
Sprite,Foreground,Centre,"sb\hl2.png",218,268 C,0,195519,,255,128,128 F,2,195519,196319,0.5,0 P,0,195519,196319,A
Sprite,Foreground,Centre,"sb\hl2.png",264.7299,250.2147 C,0,195563,,255,128,128 F,2,195563,196363,0.5,0 P,0,195563,196363,A
Sprite,Foreground,Centre,"sb\hl2.png",0,0 C,0,195652,,6,87,255 M,0,195652,195696,496,405,490.828,388.5436 F,2,195652,197510,0.5,0 S,2,195652,197510,1,0.8 P,0,195652,197510,A M,0,195696,195740,490.828,388.5436,485.656,372.0872 M,0,195740,195784,485.656,372.0872,480.484,355.6308 M,0,195784,195828,480.484,355.6308,475.312,339.1744 M,0,195828,195872,475.312,339.1744,470.14,322.718 M,0,195872,195916,470.14,322.718,464.968,306.2617 M,0,195916,195960,464.968,306.2617,455.3886,292.499 M,0,195960,196004,455.3886,292.499,443.1023,280.3907 M,0,196004,196049,443.1023,280.3907,430.816,268.2825 M,0,196049,196093,430.816,268.2825,418.5298,256.1743 M,0,196093,196137,418.5298,256.1743,406.2434,244.066 M,0,196137,196181,406.2434,244.066,393.9766,232.0554 M,0,196181,196225,393.9766,232.0554,387.2668,247.947 M,0,196225,196269,387.2668,247.947,380.5571,263.8385 M,0,196269,196313,380.5571,263.8385,373.8473,279.7301 M,0,196313,196357,373.8473,279.7301,367.1375,295.6216 M,0,196357,196402,367.1375,295.6216,360.4278,311.5132 M,0,196402,196446,360.4278,311.5132,357.4229,327.6916 M,0,196446,196490,357.4229,327.6916,361.6066,344.4266 M,0,196490,196534,361.6066,344.4266,357.2615,360.8925 M,0,196534,196578,357.2615,360.8925,358.9767,376.9474 M,0,196578,196622,358.9767,376.9474,361.3725,393.161 M,0,196622,196666,361.3725,393.161,358.2874,410.0122 M,0,196666,196710,358.2874,410.0122,360.727,427.0888
Sprite,Foreground,Centre,"sb\hl2.png",496,405 C,0,195696,,6,87,255 F,2,195696,196496,0.5,0 P,0,195696,196496,A
Sprite,Foreground,Centre,"sb\hl2.png",490.828,388.5436 C,0,195740,,6,87,255 F,2,195740,196540,0.5,0 P,0,195740,196540,A
Sprite,Foreground,Centre,"sb\hl2.png",485.656,372.0872 C,0,195784,,6,87,255 F,2,195784,196584,0.5,0 P,0,195784,196584,A
Sprite,Foreground,Centre,"sb\hl2.png",480.484,355.6308 C,0,195828,,6,87,255 F,2,195828,196628,0.5,0 P,0,195828,196628,A
Sprite,Foreground,Centre,"sb\hl2.png",475.312,339.1744 C,0,195872,,6,87,255 F,2,195872,196672,0.5,0 P,0,195872,196672,A
Sprite,Foreground,Centre,"sb\hl2.png",470.14,322.718 C,0,195916,,6,87,255 F,2,195916,196716,0.5,0 P,0,195916,196716,A
Sprite,Foreground,Centre,"sb\hl2.png",464.968,306.2617 C,0,195960,,6,87,255 F,2,195960,196760,0.5,0 P,0,195960,196760,A
Sprite,Foreground,Centre,"sb\hl2.png",455.3886,292.499 C,0,196004,,6,87,255 F,2,196004,196804,0.5,0 P,0,196004,196804,A
Sprite,Foreground,Centre,"sb\hl2.png",443.1023,280.3907 C,0,196049,,6,87,255 F,2,196049,196849,0.5,0 P,0,196049,196849,A
Sprite,Foreground,Centre,"sb\hl2.png",430.816,268.2825 C,0,196093,,6,87,255 F,2,196093,196893,0.5,0 P,0,196093,196893,A
Sprite,Foreground,Centre,"sb\hl2.png",418.5298,256.1743 C,0,196137,,6,87,255 F,2,196137,196937,0.5,0 P,0,196137,196937,A
Sprite,Foreground,Centre,"sb\hl2.png",406.2434,244.066 C,0,196181,,6,87,255 F,2,196181,196981,0.5,0 P,0,196181,196981,A
Sprite,Foreground,Centre,"sb\hl2.png",393.9766,232.0554 C,0,196225,,6,87,255 F,2,196225,197025,0.5,0 P,0,196225,197025,A
Sprite,Foreground,Centre,"sb\hl2.png",387.2668,247.947 C,0,196269,,6,87,255 F,2,196269,197069,0.5,0 P,0,196269,197069,A
Sprite,Foreground,Centre,"sb\hl2.png",380.5571,263.8385 C,0,196313,,6,87,255 F,2,196313,197113,0.5,0 P,0,196313,197113,A
Sprite,Foreground,Centre,"sb\hl2.png",373.8473,279.7301 C,0,196357,,6,87,255 F,2,196357,197157,0.5,0 P,0,196357,197157,A
Sprite,Foreground,Centre,"sb\hl2.png",367.1375,295.6216 C,0,196402,,6,87,255 F,2,196402,197202,0.5,0 P,0,196402,197202,A
Sprite,Foreground,Centre,"sb\hl2.png",360.4278,311.5132 C,0,196446,,6,87,255 F,2,196446,197246,0.5,0 P,0,196446,197246,A
Sprite,Foreground,Centre,"sb\hl2.png",357.4229,327.6916 C,0,196490,,6,87,255 F,2,196490,197290,0.5,0 P,0,196490,197290,A
Sprite,Foreground,Centre,"sb\hl2.png",361.6066,344.4266 C,0,196534,,6,87,255 F,2,196534,197334,0.5,0 P,0,196534,197334,A
Sprite,Foreground,Centre,"sb\hl2.png",357.2615,360.8925 C,0,196578,,6,87,255 F,2,196578,197378,0.5,0 P,0,196578,197378,A
Sprite,Foreground,Centre,"sb\hl2.png",358.9767,376.9474 C,0,196622,,6,87,255 F,2,196622,197422,0.5,0 P,0,196622,197422,A
Sprite,Foreground,Centre,"sb\hl2.png",361.3725,393.161 C,0,196666,,6,87,255 F,2,196666,197466,0.5,0 P,0,196666,197466,A
Sprite,Foreground,Centre,"sb\hl2.png",358.2874,410.0122 C,0,196710,,6,87,255 F,2,196710,197510,0.5,0 P,0,196710,197510,A
//Storyboard Layer 4 (Overlay)
//Storyboard Sound Samples

[TimingPoints]
123,352.941176470588,4,3,1,80,1,0
123,-200,4,3,1,80,0,0
475,-200,4,3,1,5,0,0
828,-50,4,3,1,80,0,0
1005,352.941176470588,4,3,1,80,1,0
1005,-50,4,3,1,80,0,0
1093,-50,4,3,1,5,0,0
1181,-50,4,3,1,80,0,0
3653,-100,4,3,1,80,0,0
3916,-100,4,3,1,5,0,0
4005,-50,4,3,1,80,0,0
6476,-100,4,3,1,80,0,0
6740,-100,4,3,1,5,0,0
6829,-50,4,3,1,80,0,0
9300,-100,4,3,1,80,0,0
9563,-100,4,3,1,5,0,0
9653,-50,4,3,1,80,0,0
12122,-100,4,3,1,80,0,0
12387,-100,4,3,1,5,0,0
12475,-50,4,3,1,80,0,0
14946,-100,4,3,1,80,0,0
15210,-100,4,3,1,5,0,0
15299,-50,4,3,1,80,0,0
17769,-100,4,3,1,80,0,0
18034,-100,4,3,1,5,0,0
18122,-50,4,3,1,80,0,0
20593,-100,4,3,1,80,0,0
20857,-100,4,3,1,5,0,0
20946,-50,4,3,1,80,0,0
23240,-40,4,3,1,80,0,0
23504,-40,4,3,1,5,0,0
23593,-100,4,3,1,60,0,0
23594,-100,4,3,1,60,0,0
24210,-100,4,3,1,5,0,0
24299,-100,4,3,1,60,0,0
24563,-100,4,3,1,5,0,0
24652,-100,4,3,1,60,0,0
24916,-100,4,3,1,5,0,0
25004,-100,4,3,1,60,0,0
27034,-100,4,3,1,5,0,0
27122,-100,4,3,1,60,0,0
27387,-100,4,3,1,5,0,0
27475,-100,4,3,1,60,0,0
27652,-50,4,3,1,60,0,0
29240,-100,4,3,1,60,0,0
29857,-100,4,3,1,5,0,0
29946,-100,4,3,1,60,0,0
30210,-100,4,3,1,5,0,0
30299,-100,4,3,1,60,0,0
30563,-100,4,3,1,5,0,0
30652,-100,4,3,1,60,0,0
32681,-100,4,3,1,5,0,0
32769,-100,4,3,1,60,0,0
33034,-100,4,3,1,5,0,0
33122,-100,4,3,1,60,0,0
33299,-50,4,3,1,60,0,0
34887,-100,4,3,1,60,0,0
35504,-100,4,3,1,5,0,0
35593,-100,4,3,1,60,0,0
35857,-100,4,3,1,5,0,0
35946,-100,4,3,1,60,0,0
36210,-100,4,3,1,5,0,0
36299,-100,4,3,1,60,0,0
38328,-100,4,3,1,5,0,0
38416,-100,4,3,1,60,0,0
38681,-100,4,3,1,5,0,0
38769,-100,4,3,1,60,0,0
38946,-50,4,3,1,60,0,0
40534,-100,4,3,1,60,0,0
41152,-100,4,3,1,5,0,0
41240,-100,4,3,1,60,0,0
41504,-100,4,3,1,5,0,0
41593,-100,4,3,1,60,0,0
41857,-100,4,3,1,5,0,0
41946,-100,4,3,1,60,0,0
43975,-100,4,3,1,5,0,0
44063,-100,4,3,1,60,0,0
44328,-100,4,3,1,5,0,0
44416,-100,4,3,1,60,0,0
44593,-50,4,3,1,60,0,0
46004,-76.9230769230769,4,3,1,90,0,1
46269,-76.9230769230769,4,3,1,5,0,1
46357,-50,4,3,1,90,0,1
46622,-50,4,3,1,5,0,1
46710,-50,4,3,1,90,0,1
47416,-76.9230769230769,4,3,1,90,0,1
47681,-50,4,3,1,5,0,1
47769,-50,4,3,1,90,0,1
48034,-50,4,3,1,5,0,1
48122,-50,4,3,1,90,0,1
48828,-76.9230769230769,4,3,1,90,0,1
49093,-50,4,3,1,5,0,1
49181,-50,4,3,1,90,0,1
49446,-50,4,3,1,5,0,1
49534,-50,4,3,1,90,0,1
49799,-50,4,3,1,5,0,1
49887,-50,4,3,1,90,0,1
50152,-50,4,3,1,5,0,1
50240,-50,4,3,1,90,0,1
50504,-50,4,3,1,5,0,1
50593,-50,4,3,1,90,0,1
50857,-50,4,3,1,5,0,1
50946,-50,4,3,1,90,0,1
51652,-76.9230769230769,4,3,1,90,0,1
51916,-50,4,3,1,5,0,1
52004,-50,4,3,1,90,0,1
52269,-50,4,3,1,5,0,1
52357,-50,4,3,1,90,0,1
53063,-76.9230769230769,4,3,1,90,0,1
53328,-50,4,3,1,5,0,1
53416,-50,4,3,1,90,0,1
53681,-50,4,3,1,5,0,1
53769,-50,4,3,1,90,0,1
54475,-76.9230769230769,4,3,1,90,0,1
54740,-50,4,3,1,5,0,1
54828,-50,4,3,1,90,0,1
55093,-50,4,3,1,5,0,1
55181,-50,4,3,1,90,0,1
55446,-50,4,3,1,5,0,1
55534,-50,4,3,1,90,0,1
55799,-50,4,3,1,5,0,1
55887,-50,4,3,1,90,0,1
56152,-50,4,3,1,5,0,1
56240,-50,4,3,1,90,0,1
56504,-50,4,3,1,5,0,1
56593,-50,4,3,1,90,0,1
57299,-76.9230769230769,4,3,1,90,0,1
57563,-50,4,3,1,5,0,1
57652,-50,4,3,1,90,0,1
57916,-50,4,3,1,5,0,1
58004,-50,4,3,1,90,0,1
58710,-76.9230769230769,4,3,1,90,0,1
58975,-50,4,3,1,5,0,1
59063,-50,4,3,1,90,0,1
59328,-50,4,3,1,5,0,1
59416,-50,4,3,1,90,0,1
60122,-76.9230769230769,4,3,1,90,0,1
60387,-50,4,3,1,5,0,1
60475,-50,4,3,1,90,0,1
60740,-50,4,3,1,5,0,1
60828,-50,4,3,1,90,0,1
61093,-50,4,3,1,5,0,1
61181,-50,4,3,1,90,0,1
61446,-50,4,3,1,5,0,1
61534,-50,4,3,1,90,0,1
61799,-50,4,3,1,5,0,1
61887,-50,4,3,1,90,0,1
62152,-50,4,3,1,5,0,1
62240,-50,4,3,1,90,0,1
62946,-76.9230769230769,4,3,1,90,0,1
63210,-50,4,3,1,5,0,1
63299,-50,4,3,1,90,0,1
63563,-50,4,3,1,5,0,1
63652,-50,4,3,1,90,0,1
64357,-76.9230769230769,4,3,1,90,0,1
64622,-50,4,3,1,5,0,1
64710,-50,4,3,1,90,0,1
64975,-50,4,3,1,5,0,1
65063,-50,4,3,1,60,0,1
65769,-76.9230769230769,4,3,1,90,0,1
66034,-50,4,3,1,5,0,1
66122,-50,4,3,1,90,0,1
67357,-100,4,3,1,90,0,0
68504,-100,4,3,1,5,0,0
68593,-50,4,3,1,80,0,0
68857,-50,4,3,1,5,0,0
68946,-50,4,3,1,80,0,0
71416,-100,4,3,1,80,0,0
71681,-100,4,3,1,5,0,0
71769,-50,4,3,1,80,0,0
74240,-100,4,3,1,80,0,0
74504,-100,4,3,1,5,0,0
74593,-50,4,3,1,80,0,0
77063,-100,4,3,1,80,0,0
77328,-100,4,3,1,5,0,0
77416,-50,4,3,1,80,0,0
79887,-100,4,3,1,80,0,0
80152,-100,4,3,1,5,0,0
80240,-50,4,3,1,80,0,0
82710,-100,4,3,1,80,0,0
83063,-50,4,3,1,80,0,0
85534,-100,4,3,1,80,0,0
85799,-50,4,3,1,5,0,0
85887,-50,4,3,1,80,0,0
88357,-100,4,3,1,80,0,0
88710,-50,4,3,1,80,0,0
89769,-200,4,3,1,80,0,0
89946,-50,4,3,1,80,0,0
91358,-100,4,3,1,60,0,0
91975,-100,4,3,1,5,0,0
92063,-100,4,3,1,60,0,0
92328,-100,4,3,1,5,0,0
92416,-100,4,3,1,60,0,0
92681,-100,4,3,1,5,0,0
92769,-100,4,3,1,60,0,0
94799,-100,4,3,1,5,0,0
94887,-100,4,3,1,60,0,0
95152,-100,4,3,1,5,0,0
95240,-100,4,3,1,60,0,0
95416,-50,4,3,1,60,0,0
97004,-100,4,3,1,60,0,0
97622,-100,4,3,1,5,0,0
97710,-100,4,3,1,60,0,0
97975,-100,4,3,1,5,0,0
98063,-100,4,3,1,60,0,0
98328,-100,4,3,1,5,0,0
98416,-100,4,3,1,60,0,0
100446,-100,4,3,1,5,0,0
100534,-100,4,3,1,60,0,0
100799,-100,4,3,1,5,0,0
100887,-100,4,3,1,60,0,0
101063,-50,4,3,1,60,0,0
102475,-76.9230769230769,4,3,1,90,0,1
102740,-50,4,3,1,5,0,1
102828,-50,4,3,1,90,0,1
103093,-50,4,3,1,5,0,1
103181,-50,4,3,1,90,0,1
103887,-76.9230769230769,4,3,1,90,0,1
104152,-50,4,3,1,5,0,1
104240,-50,4,3,1,90,0,1
104504,-50,4,3,1,5,0,1
104593,-50,4,3,1,90,0,1
105299,-76.9230769230769,4,3,1,90,0,1
105563,-50,4,3,1,5,0,1
105652,-50,4,3,1,90,0,1
105916,-50,4,3,1,5,0,1
106004,-50,4,3,1,90,0,1
106269,-50,4,3,1,5,0,1
106357,-50,4,3,1,90,0,1
106622,-50,4,3,1,5,0,1
106710,-50,4,3,1,90,0,1
106975,-50,4,3,1,5,0,1
107063,-50,4,3,1,90,0,1
107328,-50,4,3,1,5,0,1
107416,-50,4,3,1,90,0,1
108122,-76.9230769230769,4,3,1,90,0,1
108387,-50,4,3,1,5,0,1
108475,-50,4,3,1,90,0,1
108740,-50,4,3,1,5,0,1
108828,-50,4,3,1,90,0,1
109534,-76.9230769230769,4,3,1,90,0,1
109799,-50,4,3,1,5,0,1
109887,-50,4,3,1,90,0,1
110152,-50,4,3,1,5,0,1
110240,-50,4,3,1,90,0,1
110946,-76.9230769230769,4,3,1,90,0,1
111210,-50,4,3,1,5,0,1
111299,-50,4,3,1,90,0,1
111563,-50,4,3,1,5,0,1
111652,-50,4,3,1,90,0,1
111916,-50,4,3,1,5,0,1
112004,-50,4,3,1,90,0,1
112269,-50,4,3,1,5,0,1
112357,-50,4,3,1,90,0,1
112622,-50,4,3,1,5,0,1
112710,-50,4,3,1,90,0,1
113769,-76.9230769230769,4,3,1,90,0,1
114034,-50,4,3,1,5,0,1
114122,-50,4,3,1,90,0,1
114387,-50,4,3,1,5,0,1
114475,-50,4,3,1,90,0,1
114916,-50,4,3,1,5,0,1
115004,-50,4,3,1,90,0,1
115093,-50,4,3,1,5,0,1
115181,-76.9230769230769,4,3,1,90,0,1
115446,-50,4,3,1,5,0,1
115534,-50,4,3,1,90,0,1
115799,-50,4,3,1,5,0,1
115887,-50,4,3,1,90,0,1
116328,-50,4,3,1,5,0,1
116416,-50,4,3,1,90,0,1
116504,-50,4,3,1,5,0,1
116593,-200,4,3,1,90,0,1
116857,-200,4,3,1,5,0,1
116946,-200,4,3,1,60,0,0
119416,-76.9230769230769,4,3,1,90,0,1
119681,-50,4,3,1,5,0,1
119769,-50,4,3,1,90,0,1
120034,-50,4,3,1,5,0,1
120122,-50,4,3,1,90,0,1
120563,-50,4,3,1,5,0,1
120652,-50,4,3,1,90,0,1
120740,-50,4,3,1,5,0,1
120828,-76.9230769230769,4,3,1,90,0,1
121093,-50,4,3,1,5,0,1
121181,-50,4,3,1,90,0,1
121446,-50,4,3,1,5,0,1
121534,-50,4,3,1,90,0,1
121975,-50,4,3,1,5,0,1
122063,-50,4,3,1,90,0,1
122152,-50,4,3,1,5,0,1
122240,-200,4,3,1,90,0,1
122504,-200,4,3,1,5,0,1
122593,-200,4,3,1,60,0,0
124887,-100,4,3,1,60,0,0
124975,-100,4,3,1,5,0,0
125063,-100,4,3,1,60,0,0
125152,-100,4,3,1,5,0,0
125240,-100,4,3,1,50,0,0
125681,-100,4,3,1,5,0,0
125769,-100,4,3,1,50,0,0
125857,-100,4,3,1,5,0,0
125946,-100,4,3,1,50,0,0
127799,-100,4,3,1,5,0,0
127887,-100,4,3,1,50,0,0
127975,-100,4,3,1,5,0,0
128063,-100,4,3,1,50,0,0
129916,-100,4,3,1,5,0,0
130004,-100,4,3,1,50,0,0
130093,-100,4,3,1,5,0,0
130181,-100,4,3,1,50,0,0
130622,-100,4,3,1,5,0,0
130710,-100,4,3,1,50,0,0
130799,-100,4,3,1,5,0,0
130887,-100,4,3,1,50,0,0
131328,-100,4,3,1,5,0,0
131416,-100,4,3,1,50,0,0
131504,-100,4,3,1,5,0,0
131593,-100,4,3,1,50,0,0
133446,-100,4,3,1,5,0,0
133534,-100,4,3,1,50,0,0
133622,-100,4,3,1,5,0,0
133710,-100,4,3,1,50,0,0
135122,-100,4,3,1,60,0,0
135563,-100,4,3,1,5,0,0
135652,-100,4,3,1,60,0,0
135740,-100,4,3,1,5,0,0
135828,-100,4,3,1,60,0,0
136269,-100,4,3,1,5,0,0
136357,-100,4,3,1,60,0,0
136446,-100,4,3,1,5,0,0
136534,-100,4,3,1,60,0,0
136975,-100,4,3,1,5,0,0
137063,-100,4,3,1,60,0,0
137152,-100,4,3,1,5,0,0
137240,-100,4,3,1,60,0,0
139093,-100,4,3,1,5,0,0
139181,-100,4,3,1,60,0,0
139269,-100,4,3,1,5,0,0
139357,-100,4,3,1,60,0,0
141210,-100,4,3,1,5,0,0
141299,-100,4,3,1,60,0,0
141387,-100,4,3,1,5,0,0
141475,-100,4,3,1,60,0,0
141916,-100,4,3,1,5,0,0
142004,-100,4,3,1,60,0,0
142093,-100,4,3,1,5,0,0
142181,-100,4,3,1,60,0,0
142622,-100,4,3,1,5,0,0
142710,-100,4,3,1,60,0,0
142799,-100,4,3,1,5,0,0
142887,-100,4,3,1,60,0,0
144740,-100,4,3,1,5,0,0
144828,-100,4,3,1,60,0,0
144916,-100,4,3,1,5,0,0
145004,-100,4,3,1,60,0,0
147828,-58.8235294117647,4,3,1,70,0,0
148534,-66.6666666666667,4,3,1,70,0,0
150652,-100,4,3,1,70,0,0
151710,-66.6666666666667,4,3,1,70,0,0
152240,-100,4,3,1,70,0,0
152769,-200,4,3,1,70,0,0
153475,-57.1428571428571,4,3,1,90,0,1
159122,-57.1428571428571,4,3,1,80,0,0
159740,-57.1428571428571,4,3,1,5,0,0
159828,-68.9655172413793,4,3,1,80,0,0
160269,-68.9655172413793,4,3,1,5,0,0
160357,-57.1428571428571,4,3,1,80,0,0
161063,-64.5161290322581,4,3,1,80,0,0
161769,-50,4,3,1,80,0,0
163004,-44.4444444444445,4,3,1,80,0,0
163710,-40,4,3,1,80,0,0
164416,-100,4,3,1,80,0,0
164681,-66.6666666666667,4,3,1,5,0,0
164769,-57.1428571428571,4,3,1,70,0,0
170240,-200,4,3,1,60,0,0
170416,-100,4,3,1,60,0,0
173063,-76.9230769230769,4,3,1,90,0,1
173328,-76.9230769230769,4,3,1,5,0,1
173416,-50,4,3,1,90,0,1
173681,-50,4,3,1,5,0,1
173769,-50,4,3,1,90,0,1
174034,-50,4,3,1,5,0,1
174122,-50,4,3,1,90,0,1
174387,-50,4,3,1,5,0,1
174475,-50,4,3,1,90,0,1
174740,-50,4,3,1,5,0,1
174828,-50,4,3,1,90,0,1
175093,-50,4,3,1,5,0,1
175181,-50,4,3,1,90,0,1
175887,-76.9230769230769,4,3,1,90,0,1
176152,-76.9230769230769,4,3,1,5,0,1
176240,-50,4,3,1,90,0,1
176504,-50,4,3,1,5,0,1
176593,-50,4,3,1,90,0,1
177299,-76.9230769230769,4,3,1,90,0,1
177563,-50,4,3,1,5,0,1
177652,-50,4,3,1,90,0,1
177916,-50,4,3,1,5,0,1
178004,-50,4,3,1,90,0,1
178710,-76.9230769230769,4,3,1,90,0,1
178975,-50,4,3,1,5,0,1
179063,-50,4,3,1,90,0,1
179328,-50,4,3,1,5,0,1
179416,-50,4,3,1,90,0,1
179681,-50,4,3,1,5,0,1
179769,-50,4,3,1,90,0,1
180034,-50,4,3,1,5,0,1
180122,-50,4,3,1,90,0,1
180299,-50,4,3,1,90,0,0
181534,-76.9230769230769,4,3,1,90,0,1
181799,-76.9230769230769,4,3,1,5,0,1
181887,-50,4,3,1,90,0,1
182152,-50,4,3,1,5,0,1
182240,-50,4,3,1,90,0,1
182681,-50,4,3,1,5,0,1
182769,-50,4,3,1,90,0,1
182857,-50,4,3,1,5,0,1
182946,-76.9230769230769,4,3,1,90,0,1
183210,-76.9230769230769,4,3,1,5,0,1
183299,-50,4,3,1,90,0,1
183563,-50,4,3,1,5,0,1
183652,-50,4,3,1,90,0,1
184093,-50,4,3,1,5,0,1
184181,-50,4,3,1,90,0,1
184269,-50,4,3,1,5,0,1
184357,-200,4,3,1,90,0,1
184622,-200,4,3,1,5,0,1
184710,-200,4,3,1,60,0,0
187181,-76.9230769230769,4,3,1,90,0,1
187446,-76.9230769230769,4,3,1,5,0,1
187534,-50,4,3,1,90,0,1
187799,-50,4,3,1,5,0,1
187887,-50,4,3,1,90,0,1
188328,-50,4,3,1,5,0,1
188416,-50,4,3,1,90,0,1
188504,-50,4,3,1,5,0,1
188593,-76.9230769230769,4,3,1,90,0,1
188857,-50,4,3,1,5,0,1
188946,-50,4,3,1,90,0,1
189210,-50,4,3,1,5,0,1
189299,-50,4,3,1,90,0,1
189740,-50,4,3,1,5,0,1
189828,-50,4,3,1,90,0,1
189916,-50,4,3,1,5,0,1
190004,-200,4,3,1,90,0,1
190269,-200,4,3,1,5,0,1
190357,-200,4,3,1,60,0,0
192828,-50,4,3,1,80,0,0
193269,-50,4,3,1,5,0,0
193357,-50,4,3,1,80,0,0
195210,-50,4,3,1,5,0,0
195299,-50,4,3,1,80,0,0
195387,-50,4,3,1,5,0,0
195475,-50,4,3,1,80,0,0
195563,-50,4,3,1,5,0,0
195652,-144.927536231884,4,3,1,80,0,0

[Colours]
Combo1 : 136,136,136
Combo2 : 255,128,128
Combo3 : 255,6,6
Combo4 : 191,128,255
Combo5 : 133,11,255
Combo6 : 128,255,255
Combo7 : 6,87,255
Combo8 : 228,228,228

[HitObjects]
176,150,123,22,0,B|213:156|193:194|152:188|133:160|139:129|191:127|164:44,1,175
84,114,828,102,0,P|0:205|120:233,1,300,6|0,0:0|0:0,0:0:0:0:
176,150,1182,5,2,0:0:0:0:
176,150,1270,1,0,0:0:0:0:
217,237,1358,2,0,B|263:257|263:257|312:260,1,100,2|0,0:0|0:0,0:0:0:0:
453,162,1535,1,0,0:0:0:0:
453,162,1623,1,0,0:0:0:0:
408,237,1711,2,0,B|362:257|362:257|312:260,1,100,8|0,0:0|0:0,0:0:0:0:
175,314,1887,101,0,0:0:0:0:
175,314,1976,1,0,0:0:0:0:
175,314,2064,1,0,0:0:0:0:
175,314,2153,1,0,0:0:0:0:
217,237,2241,2,0,B|245:196|245:196|259:148,1,100
316,67,2416,1,2,0:0:0:0:
316,67,2504,1,0,0:0:0:0:
365,148,2593,2,0,B|379:196|379:196|407:236,1,100
508,253,2770,5,0,0:0:0:0:
508,253,2858,1,0,0:0:0:0:
508,253,2947,1,2,0:0:0:0:
508,253,3035,1,0,0:0:0:0:
449,161,3123,2,0,B|433:113|433:113|433:63,1,100,8|0,0:0|0:0,0:0:0:0:
496,2,3300,1,2,0:0:0:0:
496,2,3388,1,0,0:0:0:0:
384,0,3476,2,0,B|334:3|334:3|288:23,1,100,8|0,0:0|0:0,0:0:0:0:
222,202,3653,102,0,B|207:167|225:137|225:137|211:116|211:116|231:87|218:62,1,150,6|0,0:3|0:0,0:0:0:0:
146,29,4005,5,2,0:0:0:0:
146,29,4094,1,0,0:0:0:0:
60,59,4182,2,0,B|64:109|64:109|80:156,1,100,2|0,0:0|0:0,0:0:0:0:
140,216,4358,1,0,0:0:0:0:
140,216,4447,1,0,0:0:0:0:
230,227,4535,2,0,B|226:277|226:277|211:325,1,100,8|0,0:0|0:0,0:0:0:0:
156,381,4711,101,0,0:0:0:0:
156,381,4800,1,0,0:0:0:0:
156,381,4888,1,0,0:0:0:0:
156,381,4976,1,0,0:0:0:0:
156,381,5064,1,0,0:0:0:0:
60,128,5241,5,2,0:0:0:0:
388,93,5417,2,0,L|344:296,1,200,2|2,0:0|0:0,0:0:0:0:
40,46,5770,1,2,0:0:0:0:
361,303,5946,2,0,L|404:108,1,200,10|2,0:0|0:0,0:0:0:0:
79,214,6300,1,8,0:0:0:0:
467,211,6476,102,0,B|433:219|402:206|402:206|378:216|378:216|351:206|316:216,1,150,6|0,0:3|0:0,0:0:0:0:
214,273,6829,5,2,0:0:0:0:
214,273,6917,1,0,0:0:0:0:
236,181,7005,2,0,P|238:131|229:81,1,100,2|0,0:0|0:0,0:0:0:0:
157,30,7181,1,0,0:0:0:0:
157,30,7269,1,0,0:0:0:0:
81,83,7358,2,0,P|71:137|75:192,1,100,8|0,0:0|0:0,0:0:0:0:
118,280,7535,101,0,0:0:0:0:
118,280,7623,1,0,0:0:0:0:
118,280,7711,1,0,0:0:0:0:
118,280,7800,1,0,0:0:0:0:
73,181,7888,2,0,P|71:132|81:83,1,100
157,30,8064,1,2,0:0:0:0:
157,30,8153,1,0,0:0:0:0:
229,81,8241,2,0,P|238:130|236:179,1,100
214,273,8417,5,0,0:0:0:0:
214,273,8505,1,0,0:0:0:0:
214,273,8594,1,2,0:0:0:0:
214,273,8682,1,0,0:0:0:0:
308,232,8770,2,0,P|357:229|406:239,1,100,8|0,0:0|0:0,0:0:0:0:
481,300,8947,1,2,0:0:0:0:
481,300,9035,1,0,0:0:0:0:
406,239,9123,2,0,P|379:196|362:149,1,100,8|0,0:0|0:0,0:0:0:0:
469,50,9300,102,0,B|444:64|415:44|415:44|394:57|394:57|364:40|329:56,1,150,6|0,0:3|0:0,0:0:0:0:
265,141,9652,5,2,0:0:0:0:
265,141,9740,1,0,0:0:0:0:
185,201,9828,2,0,L|34:176,1,100,2|0,0:0|0:0,0:0:0:0:
27,102,10005,1,0,0:0:0:0:
27,102,10093,1,0,0:0:0:0:
102,36,10181,2,0,L|201:53,1,100,8|0,0:0|0:0,0:0:0:0:
265,141,10357,101,0,0:0:0:0:
265,141,10446,1,0,0:0:0:0:
265,141,10534,1,0,0:0:0:0:
265,141,10622,1,0,0:0:0:0:
265,141,10710,1,0,0:0:0:0:
28,330,10887,5,2,0:0:0:0:
261,292,11063,1,2,0:0:0:0:
494,254,11240,1,2,0:0:0:0:
261,216,11416,1,2,0:0:0:0:
28,178,11593,1,10,0:0:0:0:
374,253,11769,1,2,0:0:0:0:
154,134,11946,101,10,0:0:0:0:
154,134,12034,1,10,0:0:0:0:
247,118,12122,2,0,P|185:157|164:227,1,150,6|0,0:0|0:0,0:0:0:0:
261,216,12475,5,2,0:0:0:0:
261,216,12563,1,0,0:0:0:0:
286,40,12652,2,0,P|238:32|193:53,1,100,2|0,0:0|0:0,0:0:0:0:
154,134,12828,1,0,0:0:0:0:
154,134,12916,1,0,0:0:0:0:
286,40,13005,2,0,P|326:70|345:116,1,100,8|0,0:0|0:0,0:0:0:0:
261,216,13181,101,0,0:0:0:0:
261,216,13269,1,0,0:0:0:0:
261,216,13357,1,0,0:0:0:0:
261,216,13446,1,0,0:0:0:0:
192,53,13534,2,0,P|237:32|286:40,1,100
370,42,13710,1,2,0:0:0:0:
370,42,13799,1,0,0:0:0:0:
192,53,13887,2,0,P|162:91|157:141,1,100
164,227,14063,5,0,0:0:0:0:
164,227,14151,1,0,0:0:0:0:
164,227,14239,1,2,0:0:0:0:
164,227,14328,1,0,0:0:0:0:
322,291,14416,2,0,L|223:304,1,100,8|0,0:0|0:0,0:0:0:0:
261,216,14593,1,2,0:0:0:0:
261,216,14682,1,0,0:0:0:0:
421,277,14770,2,0,L|322:290,1,100,8|0,0:0|0:0,0:0:0:0:
78,323,14946,102,0,B|128:317|128:317|152:325|152:325|179:311|179:311|222:304,1,150,6|0,0:0|0:0,0:0:0:0:
67,238,15299,5,2,0:0:0:0:
67,238,15387,1,0,0:0:0:0:
222,303,15475,2,0,L|321:290,1,100,2|0,0:0|0:0,0:0:0:0:
164,227,15652,1,0,0:0:0:0:
164,227,15740,1,0,0:0:0:0:
321,290,15828,2,0,L|420:277,1,100,8|0,0:0|0:0,0:0:0:0:
261,216,16004,101,0,0:0:0:0:
261,216,16092,1,0,0:0:0:0:
261,216,16180,1,0,0:0:0:0:
261,216,16269,1,0,0:0:0:0:
261,216,16357,1,0,0:0:0:0:
63,340,16534,5,2,0:0:0:0:
431,295,16710,2,0,L|218:322,1,200,2|2,0:0|0:0,0:0:0:0:
368,169,17063,1,2,0:0:0:0:
0,124,17239,2,0,L|212:151,1,200,10|2,0:0|0:0,0:0:0:0:
70,0,17593,1,10,0:0:0:0:
70,315,17769,102,0,B|76:272|76:272|91:244|91:244|83:220|83:220|88:170,1,150,6|0,0:0|0:0,0:0:0:0:
0,35,18122,5,2,0:0:0:0:
0,35,18210,1,0,0:0:0:0:
87,170,18299,2,0,L|100:71,1,100,2|0,0:0|0:0,0:0:0:0:
0,124,18475,1,0,0:0:0:0:
0,124,18563,1,0,0:0:0:0:
176,109,18652,2,0,L|163:208,1,100,8|0,0:0|0:0,0:0:0:0:
0,214,18828,101,0,0:0:0:0:
0,214,18916,1,0,0:0:0:0:
0,214,19004,1,0,0:0:0:0:
0,214,19093,1,0,0:0:0:0:
162,208,19181,2,0,L|261:221,1,100
0,304,19357,1,2,0:0:0:0:
0,304,19446,1,0,0:0:0:0:
149,300,19534,2,0,L|248:313,1,100
0,214,19710,5,0,0:0:0:0:
0,214,19798,1,0,0:0:0:0:
0,214,19886,1,2,0:0:0:0:
0,214,19975,1,0,0:0:0:0:
149,300,20063,2,0,L|248:313,1,100,8|0,0:0|0:0,0:0:0:0:
0,304,20240,1,2,0:0:0:0:
0,304,20329,1,0,0:0:0:0:
162,208,20416,2,0,L|261:221,1,100,8|0,0:0|0:0,0:0:0:0:
480,244,20593,102,0,B|429:249|429:249|405:241|405:241|378:255|378:255|335:262,1,150,6|0,0:0|0:0,0:0:0:0:
150,208,20946,5,8,0:0:0:0:
107,142,21034,1,8,0:0:0:0:
127,67,21123,1,8,0:0:0:0:
195,29,21211,1,8,0:0:0:0:
270,54,21299,101,8,1:0:0:0:
234,124,21387,1,8,1:0:0:0:
159,144,21475,1,8,1:0:0:0:
92,104,21563,1,8,1:0:0:0:
76,27,21652,5,2,0:0:0:0:
71,61,21740,1,2,0:0:0:0:
67,94,21828,1,2,0:0:0:0:
62,127,21916,1,2,0:0:0:0:
31,154,22004,101,2,0:0:0:0:
0,233,22093,1,2,0:0:0:0:
27,315,22181,1,12,0:0:0:0:
27,315,22887,5,0,0:0:0:0:
27,315,23063,5,2,0:0:0:0:
435,130,23240,6,0,P|314:37|310:189,1,375,8|0,0:0|0:0,0:0:0:0:
350,114,23593,101,6,0:0:0:0:
172,29,23769,1,2,0:0:0:0:
174,46,23946,1,10,0:0:0:0:
202,311,24122,2,0,L|214:216,1,50,2|0,0:0|0:0,0:0:0:0:
230,112,24299,1,2,0:0:0:0:
116,324,24475,2,0,L|128:229,1,50,2|0,0:0|0:0,0:0:0:0:
144,125,24652,1,10,0:0:0:0:
30,337,24828,2,0,L|42:242,1,50,2|0,0:0|0:0,0:0:0:0:
51,36,25004,2,0,L|65:135,1,100,2|2,0:0|0:0,0:0:0:0:
202,311,25357,5,10,0:0:0:0:
208,327,25534,1,2,0:0:0:0:
277,115,25710,1,2,0:0:0:0:
327,122,25798,1,2,0:0:0:0:
377,129,25886,1,2,0:0:0:0:
358,314,26063,1,10,0:0:0:0:
308,320,26151,1,2,0:0:0:0:
258,327,26239,1,2,0:0:0:0:
428,138,26416,101,6,0:0:0:0:
246,214,26592,1,2,0:0:0:0:
248,197,26769,1,10,0:0:0:0:
29,89,26946,2,0,L|123:101,1,50,2|0,0:0|0:0,0:0:0:0:
229,111,27123,1,2,0:0:0:0:
471,15,27299,2,0,L|376:27,1,50,2|0,0:0|0:0,0:0:0:0:
276,37,27476,1,10,0:0:0:0:
293,286,27652,6,0,B|341:201|341:201|342:86,2,200,2|2|2,0:0|0:0|0:0,0:0:0:0:
374,205,28181,1,10,0:0:0:0:
68,182,28357,2,0,B|112:193|154:177|154:177|179:187|179:187|217:173|263:185,1,200,2|2,0:0|0:0,0:0:0:0:
106,82,28710,101,2,0:0:0:0:
16,286,28887,1,10,0:0:0:0:
195,263,29063,1,2,0:0:0:0:
341,98,29240,5,6,0:0:0:0:
417,280,29416,1,2,0:0:0:0:
400,278,29593,1,10,0:0:0:0:
156,181,29769,2,0,L|250:193,1,50,2|0,0:0|0:0,0:0:0:0:
354,208,29946,1,2,0:0:0:0:
111,251,30122,2,0,L|205:263,1,50,2|0,0:0|0:0,0:0:0:0:
309,278,30299,1,10,0:0:0:0:
66,321,30475,2,0,L|160:333,1,50,2|0,0:0|0:0,0:0:0:0:
365,355,30652,2,0,L|232:373,1,100,2|2,0:0|0:0,0:0:0:0:
20,253,31004,101,10,0:0:0:0:
37,251,31181,1,2,0:0:0:0:
83,79,31357,1,2,0:0:0:0:
106,124,31445,1,2,0:0:0:0:
106,175,31534,1,2,0:0:0:0:
220,13,31710,1,10,0:0:0:0:
217,63,31798,1,2,0:0:0:0:
191,107,31887,1,2,0:0:0:0:
2,157,32063,5,6,0:0:0:0:
175,216,32240,1,2,0:0:0:0:
181,233,32416,1,10,0:0:0:0:
14,111,32593,2,0,P|34:83|78:57,1,50,2|0,0:0|0:0,0:0:0:0:
190,0,32769,1,2,0:0:0:0:
84,148,32946,2,0,P|69:180|68:230,1,50,2|0,0:0|0:0,0:0:0:0:
73,355,33122,1,8,0:0:0:0:
370,137,33299,102,0,B|293:43|293:43|218:12,2,200,2|2|2,0:0|0:0|0:0,0:0:0:0:
316,17,33828,1,10,0:0:0:0:
250,226,34004,1,2,0:0:0:0:
429,54,34181,5,2,0:0:0:0:
439,82,34269,1,8,0:0:0:0:
444,121,34357,1,8,0:0:0:0:
438,171,34446,1,8,0:0:0:0:
413,225,34534,1,8,1:0:0:0:
363,273,34622,1,8,1:0:0:0:
288,301,34710,1,8,1:0:0:0:
197,289,34799,1,8,1:0:0:0:
117,228,34887,101,6,0:0:0:0:
318,104,35063,1,2,0:0:0:0:
328,125,35239,1,10,0:0:0:0:
126,67,35416,2,0,P|107:84|94:105,1,50,2|0,0:0|0:0,0:0:0:0:
33,274,35593,1,2,0:0:0:0:
186,178,35769,2,0,P|180:153|169:131,1,50,2|0,0:0|0:0,0:0:0:0:
0,0,35946,1,10,0:0:0:0:
60,173,36122,2,0,P|83:180|108:180,1,50,2|0,0:0|0:0,0:0:0:0:
289,250,36299,2,0,P|241:264|191:265,1,100,2|2,0:0|0:0,0:0:0:0:
0,265,36652,5,10,0:0:0:0:
0,281,36828,1,2,0:0:0:0:
144,118,37004,1,2,0:0:0:0:
158,165,37092,1,2,0:0:0:0:
173,213,37180,1,2,0:0:0:0:
288,35,37357,1,10,0:0:0:0:
274,82,37445,1,2,0:0:0:0:
259,130,37533,1,2,0:0:0:0:
78,0,37710,101,6,0:0:0:0:
288,35,37887,1,2,0:0:0:0:
275,23,38063,1,10,0:0:0:0:
92,104,38240,2,0,L|140:117,1,50,2|0,0:0|0:0,0:0:0:0:
308,275,38417,1,2,0:0:0:0:
100,189,38593,2,0,L|148:202,1,50,2|0,0:0|0:0,0:0:0:0:
368,167,38770,1,10,0:0:0:0:
229,330,38946,6,0,B|212:262|212:262|234:217|234:217|218:138,2,200,2|2|2,0:0|0:0|0:0,0:0:0:0:
148,202,39475,1,10,0:0:0:0:
464,380,39652,2,0,B|488:295|488:295|474:218|474:218|461:262,1,200,2|2,0:0|0:0,0:0:0:0:
138,284,40005,101,2,0:0:0:0:
306,230,40181,1,10,0:0:0:0:
475,176,40357,1,2,0:0:0:0:
221,141,40534,5,6,0:0:0:0:
229,330,40710,1,2,0:0:0:0:
227,349,40886,1,10,0:0:0:0:
376,152,41063,2,0,P|351:132|327:123,1,50,2|0,0:0|0:0,0:0:0:0:
156,110,41240,1,2,0:0:0:0:
365,57,41416,2,0,P|334:52|308:56,1,50,2|0,0:0|0:0,0:0:0:0:
131,40,41593,1,10,0:0:0:0:
317,195,41769,2,0,P|331:216|340:240,1,50,2|0,0:0|0:0,0:0:0:0:
156,360,41946,2,0,P|190:323|232:296,1,100,2|2,0:0|0:0,0:0:0:0:
405,349,42299,101,10,0:0:0:0:
416,368,42475,1,2,0:0:0:0:
251,220,42652,1,2,0:0:0:0:
225,174,42741,1,2,0:0:0:0:
224,125,42829,1,2,0:0:0:0:
342,290,43004,1,10,0:0:0:0:
315,334,43093,1,2,0:0:0:0:
272,359,43181,1,2,0:0:0:0:
418,127,43357,5,6,0:0:0:0:
225,174,43534,1,2,0:0:0:0:
235,191,43710,1,10,0:0:0:0:
29,290,43887,2,0,L|123:279,1,50,2|0,0:0|0:0,0:0:0:0:
264,264,44064,1,2,0:0:0:0:
463,382,44240,2,0,L|368:369,1,50,2|0,0:0|0:0,0:0:0:0:
229,351,44417,1,10,0:0:0:0:
428,229,44593,102,0,B|458:116|384:154|417:30,1,200,2|2,0:0|0:0,0:0:0:0:
344,183,44946,1,8,0:0:0:0:
354,263,45034,1,8,0:0:0:0:
421,308,45122,1,8,0:0:0:0:
498,86,45299,5,2,0:0:0:0:
285,56,45475,1,2,0:0:0:0:
84,133,45652,1,8,1:0:0:0:
255,157,45828,1,8,1:0:0:0:
92,16,46004,6,0,P|158:81|164:189,1,194.999991073609,6|0,0:0|0:0,0:0:0:0:
57,264,46357,1,2,0:0:0:0:
325,229,46534,6,0,P|283:254|234:260,1,100,10|0,0:0|0:0,0:0:0:0:
74,284,46710,1,2,0:0:0:0:
378,227,46887,2,0,P|295:281|196:295,2,200,2|2|10,0:0|0:0|0:0,0:0:0:0:
64,124,47416,102,0,P|162:117|254:156,1,194.999991073609,6|0,0:0|0:0,0:0:0:0:
323,310,47769,1,2,0:0:0:0:
345,59,47946,6,0,L|324:156,1,100,10|0,0:0|0:0,0:0:0:0:
340,328,48122,1,2,0:0:0:0:
376,19,48299,2,0,L|338:220,2,200,2|2|10,0:0|0:0|0:0,0:0:0:0:
95,63,48828,102,0,B|157:75|157:75|195:67|195:67|229:88|229:88|282:98,1,194.999991073609,6|0,0:0|0:0,0:0:0:0:
201,21,49181,1,2,0:0:0:0:
81,136,49357,6,0,L|185:155,1,100,10|0,0:0|0:0,0:0:0:0:
268,169,49534,1,0,0:0:0:0:
67,208,49710,2,0,L|177:229,1,100,2|0,0:0|0:0,0:0:0:0:
254,242,49887,1,0,0:0:0:0:
469,350,50063,102,0,L|370:369,1,100,10|0,0:0|0:0,0:0:0:0:
282,384,50240,1,0,0:0:0:0:
455,279,50416,2,0,L|340:301,1,100,2|0,0:0|0:0,0:0:0:0:
268,313,50593,1,0,0:0:0:0:
441,208,50769,2,0,L|332:229,1,100,10|0,0:0|0:0,0:0:0:0:
254,242,50946,1,0,0:0:0:0:
428,136,51122,5,2,0:0:0:0:
241,170,51299,1,10,0:0:0:0:
54,204,51475,1,10,0:0:0:0:
115,346,51652,102,0,P|140:264|127:146,1,194.999991073609,6|0,0:0|0:0,0:0:0:0:
13,95,52004,1,2,0:0:0:0:
271,72,52181,6,0,P|223:57|174:57,1,100,10|0,0:0|0:0,0:0:0:0:
26,75,52357,1,2,0:0:0:0:
346,75,52534,2,0,P|254:34|155:27,2,200,2|2|10,0:0|0:0|0:0,0:0:0:0:
190,329,53063,102,0,P|168:191|126:156,1,194.999991073609,6|0,0:0|0:0,0:0:0:0:
52,301,53416,1,2,0:0:0:0:
313,257,53593,6,0,B|266:238|266:238|217:236,1,100,10|0,0:0|0:0,0:0:0:0:
72,302,53769,1,2,0:0:0:0:
388,265,53946,2,0,B|267:220|267:220|196:218,2,200,2|2|10,0:0|0:0|0:0,0:0:0:0:
55,125,54475,102,0,P|40:43|93:98,1,194.999991073609,6|0,0:0|0:0,0:0:0:0:
128,251,54828,1,2,0:0:0:0:
171,83,55004,6,0,L|199:198,1,100,10|0,0:0|0:0,0:0:0:0:
194,297,55181,1,0,0:0:0:0:
249,46,55357,2,0,L|277:161,1,100,2|0,0:0|0:0,0:0:0:0:
272,260,55534,1,0,0:0:0:0:
458,137,55710,102,0,L|425:231,1,100,10|0,0:0|0:0,0:0:0:0:
421,348,55887,1,0,0:0:0:0:
383,93,56063,2,0,L|350:187,1,100,2|0,0:0|0:0,0:0:0:0:
346,304,56240,1,0,0:0:0:0:
308,49,56416,2,0,L|275:143,1,100,10|0,0:0|0:0,0:0:0:0:
272,260,56593,1,0,0:0:0:0:
233,5,56769,5,8,0:0:0:0:
167,193,56946,1,8,1:0:0:0:
103,383,57122,1,8,1:0:0:0:
12,41,57299,102,0,P|103:37|196:93,1,194.999991073609,6|0,0:0|0:0,0:0:0:0:
247,218,57652,1,2,0:0:0:0:
81,143,57828,6,0,B|76:188|76:188|86:242,1,100,10|0,0:0|0:0,0:0:0:0:
236,249,58004,1,2,0:0:0:0:
53,307,58181,2,0,B|35:203|35:203|45:110,2,200,2|2|10,0:0|0:0|0:0,0:0:0:0:
368,37,58710,102,0,P|272:36|190:87,1,194.999991073609,6|0,0:0|0:0,0:0:0:0:
247,218,59063,1,2,0:0:0:0:
421,241,59239,6,0,P|430:191|426:142,1,100,10|0,0:0|0:0,0:0:0:0:
258,193,59415,1,2,0:0:0:0:
450,71,59593,2,0,P|464:169|445:266,2,200,2|2|10,0:0|0:0|0:0,0:0:0:0:
262,329,60122,102,0,B|181:354|111:330|111:330|149:314,1,194.999991073609,6|0,0:0|0:0,0:0:0:0:
340,315,60475,1,2,0:0:0:0:
107,236,60652,6,0,P|156:230|204:243,1,100,10|0,0:0|0:0,0:0:0:0:
339,303,60828,1,0,0:0:0:0:
173,144,61004,2,0,P|220:159|258:191,1,100,2|0,0:0|0:0,0:0:0:0:
340,290,61181,1,0,0:0:0:0:
491,120,61357,102,0,P|488:169|466:214,1,100,10|0,0:3|0:3,0:3:0:0:
339,276,61534,1,0,0:3:0:0:
385,80,61710,2,0,P|403:126|403:175,1,100,2|0,0:3|0:3,0:3:0:0:
339,276,61888,1,0,0:3:0:0:
272,88,62063,2,0,P|308:122|328:167,1,100,10|0,0:3|0:3,0:3:0:0:
339,276,62240,1,0,0:3:0:0:
107,236,62416,5,2,0:0:0:0:
272,88,62593,1,10,0:0:0:0:
491,120,62769,1,10,0:0:0:0:
173,144,62946,102,0,B|13:181|13:181|54:193,1,194.999991073609,6|0,0:0|0:0,0:0:0:0:
253,175,63299,1,2,0:0:0:0:
175,61,63475,6,0,L|77:84,1,100,10|0,0:0|0:0,0:0:0:0:
246,195,63652,1,2,0:0:0:0:
0,76,63828,2,0,L|212:26,2,200,2|2|10,0:0|0:0|0:0,0:0:0:0:
337,246,64357,102,0,P|341:151|272:88,1,194.999991073609,6|0,0:0|0:0,0:0:0:0:
246,195,64710,1,2,0:0:0:0:
353,279,64887,6,0,P|379:232|383:153,1,100,10|0,0:0|0:0,0:0:0:0:
253,211,65063,1,2,0:0:0:0:
419,116,65240,2,0,P|413:214|363:313,2,200,2|2|10,0:0|0:0|0:0,0:0:0:0:
71,271,65769,102,0,B|133:259|133:259|171:267|171:267|205:246|205:246|258:236,1,194.999991073609,6|0,0:0|0:0,0:0:0:0:
177,313,66122,1,10,0:0:0:0:
150,153,66299,1,8,0:0:0:0:
124,0,66475,1,2,0:0:0:0:
257,236,66652,5,10,0:0:0:0:
364,160,66828,1,2,0:0:0:0:
326,34,67004,1,8,1:0:0:0:
194,30,67181,1,8,1:0:0:0:
151,154,67357,1,6,0:0:0:0:
256,192,67446,12,0,68504,0:0:0:0:
146,202,68593,38,0,P|257:137|263:263,1,300,6|0,0:0|0:0,0:0:0:0:
168,312,68946,5,0,0:0:0:0:
168,312,69034,1,0,0:0:0:0:
267,259,69122,2,0,L|389:320,1,100
453,252,69299,1,0,0:0:0:0:
453,252,69387,1,0,0:0:0:0:
433,144,69475,2,0,L|339:97,1,100,10|0,0:0|0:0,0:0:0:0:
251,157,69652,101,0,0:0:0:0:
251,157,69740,1,0,0:0:0:0:
251,157,69828,1,0,0:0:0:0:
251,157,69916,1,0,0:0:0:0:
231,49,70004,2,0,L|137:2,1,100
37,44,70181,1,2,0:0:0:0:
37,44,70269,1,0,0:0:0:0:
55,152,70357,2,0,L|149:198,1,100
173,303,70534,5,0,0:0:0:0:
173,303,70622,1,0,0:0:0:0:
173,303,70710,1,0,0:0:0:0:
173,303,70799,1,0,0:0:0:0:
272,257,70887,2,0,P|320:247|369:257,1,100,10|0,0:0|0:0,0:0:0:0:
456,323,71063,1,2,0:0:0:0:
456,323,71152,1,0,0:0:0:0:
369,257,71240,2,0,P|336:219|319:172,1,100,10|0,0:0|0:0,0:0:0:0:
215,48,71416,102,0,B|215:92|233:118|233:118|215:145|219:189,1,150,6|0,0:0|0:0,0:0:0:0:
173,303,71769,5,0,0:0:0:0:
173,303,71857,1,0,0:0:0:0:
261,369,71946,2,0,P|308:379|358:370,1,100
456,323,72122,1,0,0:0:0:0:
456,323,72210,1,0,0:0:0:0:
369,257,72299,2,0,P|336:219|320:171,1,100,10|0,0:0|0:0,0:0:0:0:
341,64,72475,101,0,0:0:0:0:
341,64,72563,1,0,0:0:0:0:
341,64,72652,1,0,0:0:0:0:
341,64,72740,1,0,0:0:0:0:
341,64,72828,1,0,0:0:0:0:
267,293,73004,5,2,0:0:0:0:
101,13,73181,2,0,P|47:95|27:193,1,200,2|2,0:0|0:0,0:0:0:0:
349,236,73534,1,2,0:0:0:0:
26,193,73711,2,0,P|57:287|121:362,1,200,10|2,0:0|0:0,0:0:0:0:
431,179,74063,1,10,0:0:0:0:
138,254,74240,102,0,B|119:226|115:200|115:200|108:190|108:190|114:179|114:179|118:146|136:116,1,150,6|0,0:0|0:0,0:0:0:0:
229,121,74593,5,0,0:0:0:0:
229,121,74681,1,0,0:0:0:0:
262,211,74769,2,0,P|270:259|259:308,1,100
168,365,74946,1,0,0:0:0:0:
168,365,75034,1,0,0:0:0:0:
258,308,75122,2,0,P|297:262|310:215,1,100,10|0,0:0|0:0,0:0:0:0:
359,152,75299,101,0,0:0:0:0:
359,152,75387,1,0,0:0:0:0:
359,152,75475,1,0,0:0:0:0:
359,152,75563,1,0,0:0:0:0:
343,260,75652,2,0,P|305:292|258:307,1,100
169,269,75828,1,2,0:0:0:0:
169,269,75916,1,0,0:0:0:0:
257,307,76004,2,0,P|316:318|363:306,1,100
446,251,76181,5,0,0:0:0:0:
446,251,76269,1,0,0:0:0:0:
446,251,76357,1,0,0:0:0:0:
446,251,76446,1,0,0:0:0:0:
354,309,76534,2,0,P|305:317|257:306,1,100,10|0,0:0|0:0,0:0:0:0:
169,269,76710,1,2,0:0:0:0:
169,269,76799,1,0,0:0:0:0:
259,208,76887,2,0,P|267:257|256:306,1,100,10|0,0:0|0:0,0:0:0:0:
178,177,77063,102,0,B|165:146|167:119|167:119|163:108|163:108|172:99|172:99|183:67|207:42,1,150,6|0,0:0|0:0,0:0:0:0:
301,9,77416,5,0,0:0:0:0:
301,9,77504,1,0,0:0:0:0:
344,91,77593,2,0,P|391:103|440:94,1,100
512,34,77769,1,0,0:0:0:0:
512,34,77857,1,0,0:0:0:0:
440,93,77946,2,0,P|408:130|396:178,1,100,10|0,0:0|0:0,0:0:0:0:
429,285,78122,101,0,0:0:0:0:
429,285,78210,1,0,0:0:0:0:
429,285,78299,1,0,0:0:0:0:
429,285,78387,1,0,0:0:0:0:
429,285,78475,1,0,0:0:0:0:
165,35,78652,5,2,0:0:0:0:
127,259,78828,1,2,0:0:0:0:
329,365,79004,1,2,0:0:0:0:
491,204,79181,1,2,0:0:0:0:
388,1,79357,1,10,0:0:0:0:
145,147,79534,1,2,0:0:0:0:
441,107,79710,101,10,0:0:0:0:
441,107,79799,1,10,0:0:0:0:
495,41,79887,2,0,L|356:99,1,150,6|0,0:0|0:0,0:0:0:0:
322,250,80240,5,2,0:0:0:0:
322,250,80328,1,2,0:0:0:0:
356,98,80416,2,0,L|266:141,1,100,2|2,0:0|0:0,0:0:0:0:
232,293,80593,1,2,0:0:0:0:
232,293,80681,1,2,0:0:0:0:
265,141,80769,2,0,L|174:183,1,100,10|2,0:0|0:0,0:0:0:0:
141,335,80946,101,2,0:0:0:0:
141,335,81034,1,2,0:0:0:0:
141,335,81122,1,2,0:0:0:0:
141,335,81210,1,2,0:0:0:0:
174,182,81298,2,0,L|264:139,1,100,2|2,0:0|0:0,0:0:0:0:
232,293,81475,1,10,0:0:0:0:
232,293,81563,1,2,0:0:0:0:
264,138,81652,2,0,L|354:95,1,100,2|2,0:0|0:0,0:0:0:0:
322,250,81828,5,2,0:0:0:0:
322,250,81916,1,2,0:0:0:0:
322,250,82004,1,2,0:0:0:0:
322,250,82093,1,2,0:0:0:0:
477,281,82181,2,0,L|386:323,1,100,10|2,0:0|0:0,0:0:0:0:
232,293,82357,1,2,0:0:0:0:
232,293,82445,1,2,0:0:0:0:
386,322,82534,2,0,L|295:364,1,100,2|2,0:0|0:0,0:0:0:0:
141,335,82710,102,0,P|98:301|78:247,1,100,2|10,0:0|0:0,0:0:0:0:
59,16,83063,5,2,0:0:0:0:
59,16,83152,1,2,0:0:0:0:
185,144,83240,2,0,L|153:49,1,100,2|2,0:0|0:0,0:0:0:0:
79,101,83416,1,2,0:0:0:0:
79,101,83504,1,2,0:0:0:0:
251,94,83593,2,0,L|219:0,1,100,10|2,0:0|0:0,0:0:0:0:
109,191,83769,101,2,0:0:0:0:
109,191,83857,1,2,0:0:0:0:
109,191,83946,1,2,0:0:0:0:
109,191,84034,1,2,0:0:0:0:
109,191,84122,1,2,0:0:0:0:
350,23,84299,5,10,0:0:0:0:
188,150,84475,2,0,P|192:205|230:245,2,100,2|2|2,0:0|0:0|0:0,0:0:0:0:
358,140,84740,1,2,0:0:0:0:
358,140,84828,2,0,L|195:194,1,100,2|2,0:0|0:0,0:0:0:0:
274,359,85004,102,0,P|270:304|232:264,2,100,8|8|8,0:0|0:0|1:0,0:0:0:0:
99,366,85269,1,8,1:0:0:0:
99,366,85357,2,0,L|263:311,1,100,8|2,1:0|0:0,0:0:0:0:
388,226,85534,6,0,B|337:245|337:245|295:241|295:241|245:258,1,150,6|0,0:0|0:0,0:0:0:0:
467,184,85887,101,2,0:0:0:0:
467,184,85975,1,2,0:0:0:0:
264,172,86063,2,0,L|359:140,1,100,2|2,0:0|0:0,0:0:0:0:
436,98,86240,1,2,0:0:0:0:
436,98,86328,1,2,0:0:0:0:
233,86,86416,2,0,L|328:54,1,100,10|2,0:0|0:0,0:0:0:0:
405,12,86593,5,2,0:0:0:0:
405,12,86681,1,2,0:0:0:0:
405,12,86769,1,2,0:0:0:0:
405,12,86857,1,2,0:0:0:0:
358,140,86946,2,0,L|263:172,1,100,2|2,0:0|0:0,0:0:0:0:
436,98,87122,1,10,0:0:0:0:
436,98,87210,1,2,0:0:0:0:
388,226,87299,2,0,L|292:257,1,100,2|2,0:0|0:0,0:0:0:0:
467,184,87475,101,2,0:0:0:0:
467,184,87563,1,2,0:0:0:0:
467,184,87652,1,2,0:0:0:0:
467,184,87740,1,2,0:0:0:0:
420,311,87828,2,0,L|325:343,1,100,10|2,0:0|0:0,0:0:0:0:
294,256,88004,1,2,0:0:0:0:
294,256,88093,1,2,0:0:0:0:
229,374,88181,2,0,L|324:342,1,100,2|2,0:0|0:0,0:0:0:0:
198,288,88357,6,0,P|155:321|138:369,1,100,6|8,0:0|0:0,0:0:0:0:
164,150,88710,101,2,0:0:0:0:
164,150,88799,1,2,0:0:0:0:
56,53,88887,2,0,L|24:147,1,100,2|2,0:0|0:0,0:0:0:0:
144,153,89063,1,2,0:0:0:0:
144,153,89152,1,2,0:0:0:0:
56,243,89240,2,0,L|24:148,1,100,10|2,0:0|0:0,0:0:0:0:
139,166,89416,5,2,0:0:0:0:
139,166,89504,1,2,0:0:0:0:
139,166,89593,1,2,0:0:0:0:
139,166,89681,1,2,0:0:0:0:
139,166,89769,2,0,L|104:167,1,25,2|2,0:0|0:0,0:0:0:0:
48,260,89946,101,12,0:0:0:0:
56,243,90034,1,8,0:0:0:0:
96,322,90122,1,8,0:0:0:0:
164,366,90210,1,8,0:0:0:0:
237,372,90298,1,8,0:0:0:0:
300,350,90387,1,8,1:0:0:0:
345,300,90475,1,8,1:0:0:0:
357,236,90563,5,8,0:0:0:0:
447,235,90651,1,8,0:0:0:0:
500,164,90740,1,8,0:0:0:0:
478,85,90827,1,8,0:0:0:0:
407,52,90916,1,8,0:0:0:0:
344,75,91004,1,8,0:0:0:0:
306,123,91093,1,8,1:0:0:0:
276,144,91181,1,8,1:0:0:0:
238,158,91269,1,8,1:0:0:0:
164,158,91357,5,6,0:0:0:0:
134,334,91534,1,2,0:0:0:0:
136,352,91710,1,10,0:0:0:0:
37,185,91887,2,0,P|43:162|59:134,1,50,2|0,0:0|0:0,0:0:0:0:
183,35,92063,1,2,0:0:0:0:
37,185,92240,2,0,P|53:168|81:151,1,50,2|0,0:0|0:0,0:0:0:0:
231,112,92416,1,10,0:0:0:0:
37,185,92593,2,0,P|59:178|92:178,1,50,2|0,0:0|0:0,0:0:0:0:
293,222,92769,2,0,P|252:233|195:233,1,100,2|2,0:0|0:0,0:0:0:0:
8,113,93122,5,10,0:0:0:0:
0,98,93299,1,2,0:0:0:0:
231,112,93475,1,2,0:0:0:0:
281,119,93563,1,2,0:0:0:0:
331,126,93651,1,2,0:0:0:0:
253,314,93828,1,10,0:0:0:0:
203,320,93916,1,2,0:0:0:0:
153,327,94004,1,2,0:0:0:0:
391,180,94181,101,6,0:0:0:0:
473,379,94357,1,2,0:0:0:0:
477,357,94534,1,10,0:0:0:0:
512,122,94710,2,0,L|466:140,1,50,2|0,0:0|0:0,0:0:0:0:
310,203,94887,1,2,0:0:0:0:
512,122,95063,2,0,L|463:114,1,50,2|0,0:0|0:0,0:0:0:0:
296,91,95240,1,10,0:0:0:0:
362,378,95416,6,0,L|392:178,2,200,2|2|2,0:0|0:0|0:0,0:0:0:0:
422,252,95946,1,10,0:0:0:0:
136,304,96122,2,0,B|216:295|216:295|259:321|259:321|328:310,1,200,2|2,0:0|0:0,0:0:0:0:
189,384,96475,101,2,0:0:0:0:
300,204,96652,1,10,0:0:0:0:
131,310,96828,1,2,0:0:0:0:
0,117,97004,5,6,0:0:0:0:
145,227,97181,1,2,0:0:0:0:
158,240,97357,1,10,0:0:0:0:
101,39,97534,2,0,L|89:118,1,50,2|0,0:0|0:0,0:0:0:0:
73,252,97710,1,2,0:0:0:0:
204,80,97887,2,0,L|154:142,1,50,2|0,0:0|0:0,0:0:0:0:
73,252,98063,1,10,0:0:0:0:
275,172,98240,2,0,L|200:201,1,50,2|0,0:0|0:0,0:0:0:0:
0,282,98416,2,0,L|92:320,1,100,2|2,0:0|0:0,0:0:0:0:
284,275,98769,101,10,0:0:0:0:
271,292,98946,1,2,0:0:0:0:
483,249,99122,1,2,0:0:0:0:
509,205,99211,1,2,0:0:0:0:
512,155,99299,1,2,0:0:0:0:
373,303,99475,1,10,0:0:0:0:
373,252,99564,1,2,0:0:0:0:
350,207,99652,1,2,0:0:0:0:
473,372,99828,5,6,0:0:0:0:
417,133,100004,1,2,0:0:0:0:
407,113,100181,1,10,0:0:0:0:
263,208,100357,2,0,P|267:183|280:162,1,50,2|0,0:0|0:0,0:0:0:0:
394,36,100534,1,2,0:0:0:0:
217,115,100710,2,0,P|232:95|254:83,1,50,2|0,0:0|0:0,0:0:0:0:
404,16,100887,1,10,0:0:0:0:
303,293,101063,102,0,B|190:323|228:249|109:280,1,200,2|2,0:0|0:0,0:0:0:0:
263,208,101416,5,8,0:0:0:0:
362,218,101504,1,8,0:0:0:0:
403,308,101593,1,8,0:0:0:0:
263,208,101769,101,8,1:0:0:0:
222,117,101857,1,8,1:0:0:0:
279,36,101946,1,8,1:0:0:0:
263,208,102122,5,8,1:0:0:0:
106,280,102299,1,8,1:0:0:0:
303,293,102475,6,0,B|190:323|228:249|109:280,1,194.999991073609,6|0,0:0|0:0,0:0:0:0:
0,368,102828,1,2,0:0:0:0:
24,221,103004,6,0,P|64:192|112:178,1,100,10|0,0:0|0:0,0:0:0:0:
253,207,103181,1,2,0:0:0:0:
0,183,103357,2,0,P|97:136|204:123,2,200,2|2|10,0:0|0:0|0:0,0:0:0:0:
207,308,103887,102,0,P|296:261|245:206,1,194.999991073609,6|0,0:0|0:0,0:0:0:0:
98,305,104240,1,2,0:0:0:0:
426,312,104416,6,0,L|333:275,1,100,10|0,0:0|0:0,0:0:0:0:
159,227,104593,1,2,0:0:0:0:
458,352,104769,2,0,L|272:278,2,200,2|2|10,0:0|0:0|0:0,0:0:0:0:
247,173,105299,102,0,B|216:159|216:159|294:155|294:155|379:192,1,194.999991073609,6|0,0:0|0:0,0:0:0:0:
371,276,105652,1,2,0:0:0:0:
310,84,105828,6,0,L|203:90,1,100,10|0,0:0|0:0,0:0:0:0:
107,102,106004,1,0,0:0:0:0:
310,84,106181,2,0,L|405:125,1,100,2|0,0:0|0:0,0:0:0:0:
493,165,106357,1,0,0:0:0:0:
296,157,106534,102,0,L|189:163,1,100,10|0,0:0|0:0,0:0:0:0:
93,175,106710,1,0,0:0:0:0:
282,230,106887,2,0,L|377:271,1,100,2|0,0:0|0:0,0:0:0:0:
465,311,107063,1,0,0:0:0:0:
268,303,107240,2,0,L|161:309,1,100,10|0,0:0|0:0,0:0:0:0:
65,321,107416,1,0,0:0:0:0:
451,384,107593,5,2,0:0:0:0:
268,303,107769,1,10,0:0:0:0:
65,321,107946,1,10,0:0:0:0:
93,175,108122,102,0,B|197:163|197:163|269:217,1,194.999991073609,6|0,0:0|0:0,0:0:0:0:
340,349,108475,1,2,0:0:0:0:
271,117,108652,6,0,L|349:181,1,100,10|0,0:0|0:0,0:0:0:0:
417,314,108828,1,2,0:0:0:0:
260,75,109004,2,0,L|416:200,2,200,2|2|10,0:0|0:0|0:0,0:0:0:0:
79,218,109534,102,0,B|152:272|152:272|256:260,1,194.999991073609,6|0,0:0|0:0,0:0:0:0:
184,147,109887,1,2,0:0:0:0:
77,317,110064,6,0,L|0:253,1,100,10|0,0:0|0:0,0:0:0:0:
0,135,110240,1,2,0:0:0:0:
85,359,110416,2,0,L|303:336,2,200,2|2|10,0:0|0:0|0:0,0:0:0:0:
374,359,110946,102,0,B|376:316|376:316|353:270|353:270|309:245|309:245|259:247,1,194.999991073609,6|0,0:0|0:0,0:0:0:0:
197,317,111299,1,2,0:0:0:0:
365,194,111475,6,0,B|321:172|321:172|267:176,1,100,10|0,0:0|0:0,0:0:0:0:
170,224,111652,1,0,0:0:0:0:
287,65,111828,2,0,B|240:80|240:80|204:121,1,100,2|0,0:0|0:0,0:0:0:0:
170,224,112005,1,0,0:0:0:0:
12,107,112181,102,0,B|27:153|27:153|66:186,1,100,10|0,0:0|0:0,0:0:0:0:
170,224,112358,1,0,0:0:0:0:
141,29,112534,2,0,B|118:73|118:73|122:123,1,100,2|0,0:0|0:0,0:0:0:0:
170,224,112711,5,8,0:0:0:0:
287,65,112887,1,8,0:0:0:0:
474,127,113063,1,8,0:0:0:0:
472,324,113240,1,8,0:0:0:0:
284,382,113416,1,8,1:0:0:0:
357,217,113593,1,8,1:0:0:0:
469,102,113769,102,0,P|362:67|250:132,1,194.999991073609,6|0,0:0|0:0,0:0:0:0:
368,201,114122,1,8,1:0:0:0:
257,124,114299,6,0,L|179:186,1,100,2|0,0:0|0:0,0:0:0:0:
172,354,114475,1,2,0:0:0:0:
98,187,114652,1,10,0:0:0:0:
225,267,114828,2,0,P|213:216|155:178,1,100,2|0,0:0|0:0,0:0:0:0:
49,256,115004,2,0,P|98:271|160:239,1,100,10|0,0:0|0:0,0:0:0:0:
471,180,115181,102,0,P|391:155|292:207,1,194.999991073609,6|0,0:0|0:0,0:0:0:0:
98,187,115534,1,8,1:0:0:0:
273,347,115710,6,0,P|262:299|225:267,1,100,2|0,0:0|0:0,0:0:0:0:
175,352,115887,1,2,0:0:0:0:
381,205,116063,1,10,0:0:0:0:
291,370,116240,2,0,P|339:384|386:369,1,100,2|0,0:0|0:0,0:0:0:0:
224,266,116416,2,0,P|177:251|130:268,1,100,10|0,0:0|0:0,0:0:0:0:
342,295,116593,102,0,L|358:213,1,75,6|0,0:0|0:0,0:0:0:0:
340,304,116946,1,0,0:0:0:0:
306,73,117122,85,0,0:0:0:0:
297,122,117210,1,0,0:0:0:0:
287,171,117298,1,0,0:0:0:0:
240,314,117475,5,10,0:0:0:0:
224,266,117563,1,0,0:0:0:0:
208,220,117651,1,0,0:0:0:0:
193,29,117828,101,0,0:0:0:0:
184,78,117916,1,0,0:0:0:0:
174,127,118004,1,0,0:0:0:0:
134,221,118181,5,2,0:0:0:0:
118,173,118269,1,0,0:0:0:0:
102,127,118357,1,0,0:0:0:0:
50,40,118534,101,0,0:0:0:0:
41,89,118622,1,0,0:0:0:0:
31,138,118710,1,0,0:0:0:0:
78,281,118887,5,8,0:0:0:0:
134,221,118975,1,8,0:0:0:0:
212,197,119063,1,8,0:0:0:0:
60,361,119240,1,8,0:0:0:0:
291,215,119416,6,0,P|382:214|449:135,1,194.999991073609,6|0,0:0|0:0,0:0:0:0:
403,247,119769,1,10,0:0:0:0:
256,111,119946,6,0,P|204:103|146:122,1,100,2|0,0:0|0:0,0:0:0:0:
57,202,120122,1,2,0:0:0:0:
349,136,120299,1,10,0:0:0:0:
285,314,120475,2,0,L|290:214,1,100,2|0,0:0|0:0,0:0:0:0:
210,190,120652,2,0,L|204:289,1,100,10|0,0:0|0:0,0:0:0:0:
484,232,120828,102,0,L|281:213,1,194.999991073609,6|0,0:0|0:0,0:0:0:0:
376,262,121181,1,10,0:0:0:0:
358,36,121357,6,0,L|348:136,1,100,2|0,0:0|0:0,0:0:0:0:
372,274,121534,1,2,0:0:0:0:
95,228,121710,1,10,0:0:0:0:
256,108,121887,2,0,P|244:158|186:196,1,100,2|0,0:0|0:0,0:0:0:0:
80,119,122063,2,0,P|129:103|191:135,1,100,10|0,0:0|0:0,0:0:0:0:
279,283,122240,102,0,L|204:289,1,75,6|0,0:0|0:0,0:0:0:0:
289,282,122593,1,0,0:0:0:0:
46,225,122769,85,0,0:0:0:0:
95,228,122857,1,0,0:0:0:0:
145,234,122945,1,0,0:0:0:0:
333,175,123122,5,10,0:0:0:0:
284,178,123210,1,0,0:0:0:0:
234,184,123298,1,0,0:0:0:0:
93,119,123475,101,0,0:0:0:0:
142,122,123563,1,0,0:0:0:0:
192,128,123651,1,0,0:0:0:0:
376,262,123828,5,2,0:0:0:0:
382,307,123916,1,0,0:0:0:0:
390,381,124004,101,8,0:0:0:0:
338,326,124092,1,10,0:0:0:0:
265,304,124181,1,10,0:0:0:0:
190,321,124269,1,2,0:0:0:0:
133,373,124357,1,10,0:0:0:0:
333,142,124534,5,8,0:0:0:0:
367,107,124622,1,0,0:0:0:0:
403,72,124710,1,8,1:0:0:0:
328,146,124887,102,0,L|274:147,1,50,8|0,1:0|0:0,0:0:0:0:
227,201,125063,2,0,L|173:202,1,50,8|0,1:0|0:0,0:0:0:0:
24,286,125240,85,2,0:0:0:0:
24,286,125328,1,2,0:0:0:0:
24,286,125416,1,2,0:0:0:0:
79,198,125593,86,0,L|86:248,1,50,2|0,0:0|0:0,0:0:0:0:
79,369,125769,2,0,L|95:318,1,50,2|0,0:0|0:0,0:0:0:0:
164,317,125946,1,0,0:0:0:0:
234,184,126122,1,0,0:0:0:0:
327,325,126299,5,0,0:0:0:0:
242,273,126476,1,2,0:0:0:0:
172,140,126652,1,8,0:0:0:0:
275,361,126828,101,0,0:0:0:0:
205,287,127005,1,0,0:0:0:0:
172,140,127181,1,2,0:0:0:0:
338,221,127357,21,2,0:0:0:0:
338,221,127446,1,2,0:0:0:0:
338,221,127534,1,2,0:0:0:0:
512,90,127710,102,0,L|447:106,1,50,2|0,0:0|0:0,0:0:0:0:
352,135,127887,2,0,L|400:146,1,50,2|0,0:0|0:0,0:0:0:0:
433,298,128063,101,0,0:0:0:0:
338,221,128240,1,0,0:0:0:0:
275,58,128416,1,0,0:0:0:0:
366,331,128593,5,2,0:0:0:0:
294,232,128770,1,2,0:0:0:0:
275,58,128946,1,0,0:0:0:0:
293,346,129122,101,0,0:0:0:0:
249,231,129299,1,2,0:0:0:0:
161,1,129475,37,14,0:0:0:0:
143,89,129563,1,2,0:0:0:0:
126,178,129652,1,2,0:0:0:0:
92,356,129828,86,0,L|85:306,1,50,2|0,0:0|0:0,0:0:0:0:
15,210,130004,2,0,L|8:260,1,50,2|0,0:0|0:0,0:0:0:0:
92,356,130181,21,14,0:0:0:0:
160,332,130269,1,2,0:0:0:0:
227,308,130358,1,2,0:0:0:0:
363,260,130534,70,0,L|313:279,1,50,2|0,0:0|0:0,0:0:0:0:
441,319,130710,2,0,L|391:338,1,50,2|0,0:0|0:0,0:0:0:0:
363,260,130887,37,6,0:0:0:0:
347,204,130975,1,2,0:0:0:0:
327,149,131064,1,2,0:0:0:0:
187,110,131240,86,0,L|233:128,1,50,2|0,0:0|0:0,0:0:0:0:
158,174,131416,2,0,L|204:192,1,50,2|0,0:0|0:0,0:0:0:0:
221,274,131593,1,0,0:0:0:0:
394,336,131769,1,0,0:0:0:0:
379,177,131946,101,0,0:0:0:0:
316,277,132123,1,2,0:0:0:0:
143,339,132299,1,8,0:0:0:0:
413,244,132475,5,0,0:0:0:0:
326,324,132652,1,0,0:0:0:0:
143,339,132828,1,2,0:0:0:0:
71,123,133004,5,2,0:0:0:0:
71,123,133093,1,2,0:0:0:0:
71,123,133181,1,2,0:0:0:0:
196,185,133357,86,0,L|203:242,1,50,2|0,0:0|0:0,0:0:0:0:
138,335,133534,2,0,L|144:285,1,50,2|0,0:0|0:0,0:0:0:0:
62,111,133710,5,0,0:0:0:0:
203,139,133886,1,0,0:0:0:0:
379,114,134063,1,0,0:0:0:0:
62,111,134240,101,2,0:0:0:0:
198,95,134416,1,2,0:0:0:0:
355,24,134593,1,0,0:0:0:0:
62,111,134769,5,0,0:0:0:0:
180,53,134945,1,2,0:0:0:0:
355,24,135122,21,14,0:0:0:0:
332,110,135210,1,2,0:0:0:0:
308,197,135299,1,2,0:0:0:0:
260,372,135475,70,0,L|274:319,1,50,2|0,0:0|0:0,0:0:0:0:
382,287,135652,2,0,L|395:335,1,50,2|0,0:0|0:0,0:0:0:0:
260,372,135828,37,14,0:0:0:0:
234,280,135916,1,2,0:0:0:0:
209,186,136005,1,2,0:0:0:0:
159,0,136181,86,0,L|181:86,1,50,2|0,0:0|0:0,0:0:0:0:
97,256,136357,2,0,L|109:207,1,50,2|0,0:0|0:0,0:0:0:0:
159,0,136534,21,6,0:0:0:0:
246,8,136622,1,2,0:0:0:0:
332,21,136710,1,2,0:0:0:0:
505,42,136887,70,0,L|445:59,1,50,2|0,0:0|0:0,0:0:0:0:
451,132,137063,2,0,L|500:119,1,50,2|0,0:0|0:0,0:0:0:0:
328,191,137240,1,0,0:0:0:0:
105,77,137416,1,0,0:0:0:0:
0,174,137593,5,0,0:0:0:0:
123,232,137770,1,2,0:0:0:0:
346,118,137946,1,8,0:0:0:0:
0,174,138122,101,0,0:0:0:0:
133,198,138299,1,0,0:0:0:0:
319,30,138475,1,2,0:0:0:0:
0,174,138652,21,2,0:0:0:0:
67,168,138740,1,2,0:0:0:0:
134,162,138829,1,2,0:0:0:0:
373,206,139004,102,0,L|323:211,1,50,2|0,0:0|0:0,0:0:0:0:
132,251,139181,2,0,L|181:256,1,50,2|0,0:0|0:0,0:0:0:0:
362,276,139357,101,0,0:0:0:0:
237,163,139534,1,0,0:0:0:0:
27,81,139710,1,0,0:0:0:0:
362,276,139887,5,2,0:0:0:0:
270,134,140064,1,2,0:0:0:0:
88,0,140240,1,0,0:0:0:0:
362,276,140416,101,0,0:0:0:0:
309,115,140593,1,2,0:0:0:0:
52,182,140769,37,14,0:0:0:0:
143,172,140857,1,2,0:0:0:0:
237,163,140946,1,2,0:0:0:0:
458,130,141122,86,0,L|398:138,1,50,2|0,0:0|0:0,0:0:0:0:
159,54,141299,2,0,L|208:60,1,50,2|0,0:0|0:0,0:0:0:0:
458,130,141475,21,14,0:0:0:0:
387,154,141564,1,2,0:0:0:0:
320,182,141652,1,2,0:0:0:0:
116,260,141828,70,0,L|114:191,1,50,2|0,0:0|0:0,0:0:0:0:
159,54,142004,2,0,L|160:103,1,50,2|0,0:0|0:0,0:0:0:0:
116,260,142181,37,6,0:0:0:0:
175,267,142269,1,2,0:0:0:0:
236,275,142357,1,2,0:0:0:0:
503,310,142534,86,0,L|434:302,1,50,2|0,0:0|0:0,0:0:0:0:
267,359,142710,2,0,L|316:353,1,50,2|0,0:0|0:0,0:0:0:0:
374,237,142887,1,0,0:0:0:0:
326,36,143063,1,8,1:0:0:0:
428,172,143240,101,8,1:0:0:0:
306,279,143417,1,8,1:0:0:0:
115,229,143593,1,8,0:0:0:0:
428,172,143769,5,0,0:0:0:0:
282,243,143946,1,0,0:0:0:0:
110,143,144122,1,2,0:0:0:0:
428,172,144299,5,2,0:0:0:0:
348,187,144387,1,2,0:0:0:0:
268,202,144476,1,2,0:0:0:0:
0,180,144652,86,0,L|56:192,1,50,2|0,0:0|0:0,0:0:0:0:
306,279,144828,2,0,L|250:291,1,50,2|0,0:0|0:0,0:0:0:0:
30,381,145004,5,0,0:0:0:0:
160,272,145181,1,0,0:0:0:0:
292,62,145357,1,0,0:0:0:0:
30,381,145534,101,2,0:0:0:0:
127,242,145711,1,2,0:0:0:0:
200,5,145887,1,0,0:0:0:0:
30,381,146063,5,0,0:0:0:0:
87,221,146240,1,2,0:0:0:0:
0,0,146416,1,12,0:0:0:0:
118,202,146593,85,8,0:0:0:0:
214,254,146681,1,8,0:0:0:0:
293,178,146769,1,8,0:0:0:0:
136,93,146946,85,8,1:0:0:0:
245,78,147034,1,8,1:0:0:0:
293,178,147122,1,8,1:0:0:0:
147,190,147299,85,8,1:0:0:0:
214,226,147387,1,8,1:0:0:0:
270,173,147475,1,2,0:0:0:0:
236,104,147563,1,2,0:0:0:0:
160,115,147652,1,2,0:0:0:0:
34,339,147828,38,0,B|92:382|164:335|157:251|87:224|87:224|106:205|106:205|-15:126|92:-19|171:28,1,510.000009727478,14|2,0:0|0:0,0:0:0:0:
298,102,148534,2,0,B|256:132|256:132|148:112,1,150.000005722046,10|2,0:0|0:0,0:0:0:0:
38,33,148887,1,0,0:0:0:0:
415,51,149063,6,0,B|517:55|512:180|434:199|434:199|434:224|434:224|376:261|359:316|361:359|348:385|414:398|457:401|470:366|575:260|268:147|239:317,1,750.000028610231,2|8,0:0|0:0,0:0:0:0:
250,384,150122,1,2,0:0:0:0:
141,358,150299,1,0,0:0:0:0:
33,334,150475,2,0,L|122:326,1,75.0000028610231,2|2,0:0|0:0,0:0:0:0:
458,326,150652,102,0,P|481:281|489:232,1,100,14|2,0:0|0:0,0:0:0:0:
458,94,151004,2,0,P|434:138|426:187,1,100,0|2,0:0|0:0,0:0:0:0:
512,384,151357,1,10,0:0:0:0:
512,384,151534,1,2,0:0:0:0:
386,265,151710,6,0,B|326:220|258:264|258:264|251:244|251:244|191:320|93:247,1,300.000011444092,0|10,0:0|0:0,0:0:0:0:
5,232,152240,102,0,P|97:174|187:217,1,200,2|2,0:0|0:0,0:0:0:0:
284,211,152769,6,0,P|310:162|263:190,1,150,10|2,0:0|0:0,0:0:0:0:
137,164,153475,70,0,L|21:155,1,116.666667779287,14|0,0:0|0:0,0:0:0:0:
24,243,153652,6,0,L|30:302,2,58.3333338896433,2|0|0,0:0|0:0|0:0,0:0:0:0:
140,253,153828,2,0,L|145:311,2,58.3333338896433
256,263,154004,2,0,L|262:322,2,58.3333338896433,2|0|0,0:0|0:0|0:0,0:0:0:0:
255,176,154181,101,10,0:0:0:0:
255,176,154240,2,0,P|281:178|310:193,1,58.3333338896433
346,119,154357,1,2,0:0:0:0:
346,119,154416,2,0,P|367:133|385:161,1,58.3333338896433
512,232,154534,1,0,0:0:0:0:
512,232,154593,2,0,P|486:230|457:215,1,58.3333338896433
421,289,154710,1,2,0:0:0:0:
421,289,154769,2,0,P|399:274|381:246,1,58.3333338896433
256,263,154887,6,0,L|250:321,2,58.3333338896433,10|0|0,0:0|0:0|0:0,0:0:0:0:
147,194,155063,2,0,L|142:252,2,58.3333338896433,2|0|0,0:0|0:0|0:0,0:0:0:0:
36,121,155240,2,0,L|42:179,2,58.3333338896433
144,52,155416,2,0,L|149:110,2,58.3333338896433,2|0|0,0:0|0:0|0:0,0:0:0:0:
268,16,155593,101,10,0:0:0:0:
268,16,155652,2,0,P|293:31|310:55,1,58.3333338896433
392,47,155769,1,2,0:0:0:0:
392,47,155828,2,0,P|390:76|380:103,1,58.3333338896433
428,167,155946,1,0,0:0:0:0:
427,167,156004,2,0,P|402:180|373:184,1,58.3333338896433
341,259,156122,1,2,0:0:0:0:
341,259,156181,2,0,P|316:244|299:220,1,58.3333338896433,2|2,0:0|0:0,0:0:0:0:
233,163,156299,85,14,0:0:0:0:
215,154,156357,1,0,0:0:0:0:
198,146,156416,1,0,0:0:0:0:
179,141,156475,1,2,0:0:0:0:
160,137,156534,1,0,0:0:0:0:
141,137,156593,1,0,0:0:0:0:
122,139,156651,1,0,0:0:0:0:
103,142,156710,1,0,0:0:0:0:
84,142,156769,1,0,0:0:0:0:
65,139,156828,1,2,0:0:0:0:
46,134,156887,1,0,0:0:0:0:
28,126,156946,1,0,0:0:0:0:
12,118,157004,5,10,0:0:0:0:
42,96,157062,1,0,0:0:0:0:
79,87,157121,1,0,0:0:0:0:
116,92,157180,1,2,0:0:0:0:
149,110,157239,1,0,0:0:0:0:
172,140,157298,1,0,0:0:0:0:
183,176,157356,1,0,0:0:0:0:
180,214,157415,1,0,0:0:0:0:
163,247,157474,1,0,0:0:0:0:
134,272,157533,1,2,0:0:0:0:
99,285,157592,1,0,0:0:0:0:
61,283,157651,1,0,0:0:0:0:
27,268,157710,101,10,0:0:0:0:
53,256,157768,1,0,0:0:0:0:
81,246,157827,1,0,0:0:0:0:
109,239,157886,1,2,0:0:0:0:
138,235,157945,1,0,0:0:0:0:
167,234,158004,1,0,0:0:0:0:
196,236,158062,1,0,0:0:0:0:
225,241,158121,1,0,0:0:0:0:
253,249,158180,1,0,0:0:0:0:
281,259,158239,1,2,0:0:0:0:
307,272,158298,1,2,0:0:0:0:
331,287,158357,1,0,0:0:0:0:
354,305,158416,5,10,0:0:0:0:
353,282,158474,1,0,0:0:0:0:
351,259,158533,1,0,0:0:0:0:
350,236,158592,1,2,0:0:0:0:
348,212,158651,1,0,0:0:0:0:
347,189,158710,1,0,0:0:0:0:
364,173,158768,101,10,0:0:0:0:
367,150,158827,1,0,0:0:0:0:
368,129,158886,1,0,0:0:0:0:
369,106,158945,1,2,0:0:0:0:
372,85,159004,1,0,0:0:0:0:
373,65,159063,1,0,0:0:0:0:
386,34,159122,6,0,P|326:60|247:63,1,87.500000834465,10|2,0:0|0:0,0:0:0:0:
92,84,159299,38,0,B|147:16|147:16|137:146|137:146|114:179|102:191|102:191|115:224|115:224|66:276|107:348,1,437.500004172325,6|0,0:0|0:0,0:0:0:0:
377,343,159828,2,0,B|414:346|442:290|418:195|283:225|296:283|329:291|329:298|210:382|166:279,1,362.500011062622,10|0,0:0|0:0,0:0:0:0:
490,305,160357,6,0,P|445:206|235:242,1,350.00000333786,2|2,0:0|0:0,0:0:0:0:
236,243,160799,1,0,0:0:0:0:
235,250,160887,1,2,0:0:0:0:
363,345,161063,102,0,B|428:280|377:204|377:204|387:185|387:185|310:117|330:12|490:-5|517:114|438:169,1,465.000003547668,2|2,0:0|0:0,0:0:0:0:
219,364,161769,6,0,B|169:337|156:272|202:215|202:215|195:172|195:172|259:127|261:37|160:10,1,400,6|0,0:0|0:0,0:0:0:0:
178,20,162210,1,2,0:0:0:0:
102,192,162299,102,0,B|111:244|151:267|151:267|268:286,1,200,2|2,0:0|0:0,0:0:0:0:
410,192,162652,2,0,B|401:140|361:117|361:117|244:98,1,200,10|2,0:0|0:0,0:0:0:0:
61,256,163004,6,0,B|112:304|158:304|158:304|269:262,1,225.000008583069,2|2,0:0|0:0,0:0:0:0:
451,128,163357,2,0,B|399:79|353:79|353:79|242:121,1,225.000008583069,10|2,0:0|0:0,0:0:0:0:
82,358,163710,102,0,B|151:374|191:350|191:350|280:238,1,250,2|2,0:0|0:0,0:0:0:0:
430,26,164063,2,0,B|360:9|320:33|320:33|232:146,1,250,10|2,0:0|0:0,0:0:0:0:
214,384,164416,6,0,P|235:327|151:312,1,150,2|0,0:0|0:0,0:0:0:0:
332,358,164769,5,14,0:0:0:0:
414,184,164946,1,2,0:0:0:0:
151,186,165122,1,2,0:0:0:0:
360,324,165299,5,2,0:0:0:0:
410,138,165476,1,10,0:0:0:0:
151,186,165652,1,2,0:0:0:0:
81,384,165828,101,2,0:0:0:0:
233,284,166004,1,2,0:0:0:0:
307,57,166181,1,10,0:0:0:0:
81,384,166357,5,2,0:0:0:0:
201,248,166533,1,2,0:0:0:0:
214,9,166710,1,2,0:0:0:0:
81,384,166887,5,10,0:0:0:0:
161,221,167063,1,2,0:0:0:0:
33,42,167240,5,2,0:0:0:0:
113,205,167416,1,2,0:0:0:0:
81,384,167593,69,14,0:0:0:0:
201,248,167769,1,2,0:0:0:0:
340,92,167946,1,2,0:0:0:0:
81,384,168122,5,2,0:0:0:0:
232,283,168298,1,10,0:0:0:0:
406,168,168475,1,2,0:0:0:0:
81,384,168652,101,2,0:0:0:0:
252,326,168828,1,2,0:0:0:0:
10,119,169004,85,10,0:0:0:0:
179,171,169181,1,2,0:0:0:0:
482,170,169357,85,10,0:0:0:0:
313,222,169534,1,2,0:0:0:0:
9,232,169710,85,8,0:0:0:0:
93,258,169799,1,8,0:0:0:0:
178,284,169887,1,8,0:0:0:0:
481,283,170063,1,8,0:0:0:0:
12,339,170240,6,0,L|155:384,1,150,6|0,0:0|0:0,0:0:0:0:
155,384,171122,53,0,0:0:0:0:
155,384,171828,85,0,0:0:0:0:
155,384,172534,85,0,0:0:0:0:
155,384,173063,38,0,B|238:357|238:357|237:341|237:341|246:354|246:354|331:328,1,194.999991073609,6|0,0:0|0:0,0:0:0:0:
432,288,173416,1,2,0:0:0:0:
266,189,173593,6,0,L|358:249,1,100,10|0,0:0|0:0,0:0:0:0:
432,288,173770,1,0,0:0:0:0:
266,189,173946,2,0,L|364:138,1,100,2|0,0:0|0:0,0:0:0:0:
434,94,174123,1,0,0:0:0:0:
266,189,174299,102,0,L|168:240,1,100,10|0,0:0|0:0,0:0:0:0:
98,284,174476,1,0,0:0:0:0:
266,189,174652,2,0,L|160:155,1,100,2|0,0:0|0:0,0:0:0:0:
80,137,174829,1,0,0:0:0:0:
266,189,175004,2,0,L|215:90,1,100,10|0,0:0|0:0,0:0:0:0:
171,20,175181,1,0,0:0:0:0:
216,377,175357,5,8,0:0:0:0:
266,189,175534,1,8,1:0:0:0:
316,1,175710,1,8,1:0:0:0:
351,246,175887,102,0,B|267:269|267:269|142:237,1,194.999991073609,6|0,0:0|0:0,0:0:0:0:
28,213,176240,1,2,0:0:0:0:
208,299,176416,6,0,B|265:313|265:313|311:301,1,100,10|0,0:0|0:0,0:0:0:0:
470,239,176593,1,2,0:0:0:0:
162,242,176769,2,0,B|267:269|267:269|355:245,2,200,2|2|10,0:0|0:0|0:0,0:0:0:0:
259,36,177299,102,0,B|284:117|284:117|260:187|260:187|230:157,1,194.999991073609,6|0,0:0|0:0,0:0:0:0:
170,61,177652,1,2,0:0:0:0:
350,77,177828,6,0,L|381:176,1,100,10|0,0:0|0:0,0:0:0:0:
373,333,178004,1,2,0:0:0:0:
372,36,178181,2,0,L|433:231,2,200,2|2|10,0:0|0:0|0:0,0:0:0:0:
482,308,178710,102,0,B|435:325|435:325|385:315|385:315|349:278|349:278|338:237,1,194.999991073609,6|0,0:0|0:0,0:0:0:0:
437,115,179063,1,2,0:0:0:0:
319,354,179240,6,0,B|283:320|283:320|268:268,1,100,10|0,0:0|0:0,0:0:0:0:
279,159,179417,1,0,0:0:0:0:
209,325,179593,2,0,B|194:277|194:277|208:225,1,100,2|0,0:0|0:0,0:0:0:0:
271,136,179770,101,8,0:0:0:0:
271,136,179857,1,8,0:0:0:0:
173,159,179946,2,0,B|138:196|138:196|127:244,1,100,8|0,0:0|0:0,0:0:0:0:
250,384,180122,1,8,0:0:0:0:
425,199,180299,85,8,0:0:0:0:
240,24,180475,1,8,1:0:0:0:
173,132,180652,5,8,1:0:0:0:
321,272,180828,1,8,1:0:0:0:
217,345,181004,101,2,0:0:0:0:
106,240,181181,1,2,0:0:0:0:
38,348,181357,5,2,0:0:0:0:
291,148,181534,6,0,B|229:184|229:184|197:249|197:249|279:201,1,194.999991073609,6|0,0:0|0:0,0:0:0:0:
364,146,181887,1,10,0:0:0:0:
212,102,182063,6,0,B|169:130|169:130|147:173,1,100,2|0,0:0|0:0,0:0:0:0:
122,329,182240,1,2,0:0:0:0:
284,70,182416,1,10,0:0:0:0:
339,318,182593,2,0,L|317:217,1,100,2|0,0:0|0:0,0:0:0:0:
457,41,182769,2,0,L|435:138,1,100,10|0,0:0|0:0,0:0:0:0:
270,350,182946,102,0,B|249:266|249:266|235:266|235:266|247:258|247:258|221:142,1,194.999991073609,6|0,0:0|0:0,0:0:0:0:
284,70,183299,1,8,1:0:0:0:
44,91,183475,6,0,B|32:144|32:144|44:190,1,100,2|0,0:0|0:0,0:0:0:0:
61,299,183652,1,2,0:0:0:0:
229,179,183828,1,10,0:0:0:0:
52,93,184004,2,0,B|68:144|68:144|101:178,1,100,2|0,0:0|0:0,0:0:0:0:
280,65,184181,2,0,B|227:53|227:53|182:64,1,100,10|0,0:0|0:0,0:0:0:0:
132,294,184357,102,0,B|144:269|144:269|154:263|154:263|152:252|152:252|163:225,1,75,6|0,0:0|0:0,0:0:0:0:
123,316,184710,1,0,0:0:0:0:
182,64,184887,85,2,0:0:0:0:
191,113,184975,1,0,0:0:0:0:
201,162,185063,1,0,0:0:0:0:
248,305,185240,5,10,0:0:0:0:
264,257,185328,1,0,0:0:0:0:
280,211,185416,1,0,0:0:0:0:
295,20,185593,101,2,0:0:0:0:
304,69,185681,1,0,0:0:0:0:
314,118,185769,1,0,0:0:0:0:
354,212,185946,5,2,0:0:0:0:
370,164,186034,1,0,0:0:0:0:
386,118,186122,1,0,0:0:0:0:
438,31,186299,101,2,0:0:0:0:
447,80,186387,1,0,0:0:0:0:
457,129,186475,1,0,0:0:0:0:
410,272,186652,5,8,0:0:0:0:
354,212,186740,1,8,0:0:0:0:
276,188,186828,1,8,0:0:0:0:
428,352,187005,1,8,0:0:0:0:
185,213,187181,6,0,B|144:207|144:207|192:263|275:282,1,194.999991073609,6|0,0:0|0:0,0:0:0:0:
410,272,187534,1,10,0:0:0:0:
190,298,187710,6,0,P|142:274|111:237,1,100,2|0,0:0|0:0,0:0:0:0:
85,76,187887,1,2,0:0:0:0:
50,317,188063,1,10,0:0:0:0:
275,282,188240,2,0,P|303:240|312:192,1,100,2|0,0:0|0:0,0:0:0:0:
186,101,188416,2,0,L|222:249,1,100,10|0,0:0|0:0,0:0:0:0:
112,384,188593,102,0,B|165:371|165:371|215:372|215:372|307:350,1,194.999991073609,6|0,0:0|0:0,0:0:0:0:
438,316,188946,1,10,0:0:0:0:
289,95,189122,6,0,L|325:243,1,100,2|0,0:0|0:0,0:0:0:0:
352,338,189299,1,2,0:0:0:0:
209,198,189475,1,10,0:0:0:0:
384,123,189652,102,0,L|273:228,1,100,2|0,0:0|0:0,0:0:0:0:
109,270,189828,2,0,L|205:299,1,100,10|0,0:0|0:0,0:0:0:0:
426,188,190004,6,0,B|409:202|409:202|402:217|402:217|387:223|387:223|370:238,1,75,6|0,0:0|0:0,0:0:0:0:
445,175,190357,1,0,0:0:0:0:
208,348,190534,69,2,0:0:0:0:
205,299,190622,1,0,0:0:0:0:
199,249,190710,1,0,0:0:0:0:
258,61,190887,5,10,0:0:0:0:
255,110,190975,1,0,0:0:0:0:
249,160,191063,1,0,0:0:0:0:
303,343,191240,101,2,0:0:0:0:
300,294,191328,1,0,0:0:0:0:
294,244,191416,1,0,0:0:0:0:
381,137,191593,5,2,0:0:0:0:
378,186,191681,1,0,0:0:0:0:
372,236,191769,1,0,0:0:0:0:
458,301,191946,101,2,0:0:0:0:
452,251,192034,1,0,0:0:0:0:
449,202,192122,1,0,0:0:0:0:
466,67,192299,5,8,0:0:0:0:
381,137,192387,1,8,0:0:0:0:
297,208,192475,1,8,0:0:0:0:
115,71,192652,1,8,0:0:0:0:
126,288,192828,70,0,B|211:308|257:229|196:140|124:178|124:178|57:222|-26:137|45:44|115:71,1,500,6|0,0:0|0:0,0:0:0:0:
176,153,193357,6,0,P|224:141|265:113,1,100
352,54,193534,1,0,0:0:0:0:
352,54,193622,1,0,0:0:0:0:
352,54,193710,2,0,L|339:162,1,100
282,224,193887,101,0,0:0:0:0:
282,224,193975,1,0,0:0:0:0:
282,224,194063,1,0,0:0:0:0:
282,224,194152,1,0,0:0:0:0:
282,224,194240,2,0,L|294:324,1,100
392,355,194416,1,0,0:0:0:0:
392,355,194504,1,0,0:0:0:0:
392,355,194593,2,0,P|437:335|472:300,1,100
479,217,194769,5,0,0:0:0:0:
479,217,194857,1,0,0:0:0:0:
479,217,194946,1,0,0:0:0:0:
479,217,195034,1,0,0:0:0:0:
466,67,195122,102,0,L|386:186,1,100,10|0,0:0|0:0,0:0:0:0:
257,27,195299,2,0,L|346:139,1,100,10|0,0:0|0:0,0:0:0:0:
154,212,195475,2,0,L|288:161,1,100,10|0,0:0|0:0,0:0:0:0:
432,349,195652,70,0,B|399:244|399:244|330:176|330:176|292:266|292:266|298:290|298:290|291:312|291:312|299:330|299:330|294:352|294:352|297:373,1,414.000000631714,6|0,0:0|0:0,0:0:0:0:
