osu file format v14

[General]
AudioFilename: audio.mp3
AudioLeadIn: 0
PreviewTime: 22181
Countdown: 0
SampleSet: Drum
StackLeniency: 1
Mode: 0
LetterboxInBreaks: 0
EpilepsyWarning: 1
WidescreenStoryboard: 1

[Editor]
Bookmarks: 123,828,23593,46004,67357,91357,102475,125240,147828,170240,192828,196887
DistanceSpacing: 1
BeatDivisor: 4
GridSize: 4
TimelineZoom: 1.9

[Metadata]
Title:In Due Time
TitleUnicode:In Due Time
Artist:Killswitch Engage
ArtistUnicode:Killswitch Engage
Creator:K4L1
Version:Airi's Hard
Source:
Tags:Kalindraz Dada yShadowXOP_ ChuuritsuTv Sakura Airi Metalcore Disarm the Descent
BeatmapID:2105920
BeatmapSetID:941053

[Difficulty]
HPDrainRate:5
CircleSize:3
OverallDifficulty:7
ApproachRate:8
SliderMultiplier:1.6
SliderTickRate:1

[Events]
//Background and Video events
0,0,"T3N1e1A0cjNEM19wNFAzbF9tVF8zUGlDMF9NM3VfNG0xRzB9.jpg",0,0
//Break Periods
//Storyboard Layer 0 (Background)
//Storyboard Layer 1 (Fail)
//Storyboard Layer 2 (Pass)
//Storyboard Layer 3 (Foreground)
Sprite,Foreground,Centre,"sb\hl2.png",0,0 C,0,147828,,128,255,255 M,0,147828,147872,257,423,277.9577,421.6674 F,2,147828,148980,0.5,0 S,2,147828,148980,1,0.8 P,0,147828,148980,A M,0,147872,147916,277.9577,421.6674,298.9153,420.3349 M,0,147916,147960,298.9153,420.3349,319.873,419.0023 M,0,147960,148004,319.873,419.0023,340.8307,417.6697 M,0,148004,148048,340.8307,417.6697,361.7884,416.3372 M,0,148048,148092,361.7884,416.3372,382.7461,415.0046 M,0,148092,148136,382.7461,415.0046,403.7037,413.672 M,0,148136,148180,403.7037,413.672,424.6614,412.3394
Sprite,Foreground,Centre,"sb\hl2.png",257,423 C,0,147872,,128,255,255 F,2,147872,148672,0.5,0 P,0,147872,148672,A
Sprite,Foreground,Centre,"sb\hl2.png",277.9577,421.6674 C,0,147916,,128,255,255 F,2,147916,148716,0.5,0 P,0,147916,148716,A
Sprite,Foreground,Centre,"sb\hl2.png",298.9153,420.3349 C,0,147960,,128,255,255 F,2,147960,148760,0.5,0 P,0,147960,148760,A
Sprite,Foreground,Centre,"sb\hl2.png",319.873,419.0023 C,0,148004,,128,255,255 F,2,148004,148804,0.5,0 P,0,148004,148804,A
Sprite,Foreground,Centre,"sb\hl2.png",340.8307,417.6697 C,0,148048,,128,255,255 F,2,148048,148848,0.5,0 P,0,148048,148848,A
Sprite,Foreground,Centre,"sb\hl2.png",361.7884,416.3372 C,0,148092,,128,255,255 F,2,148092,148892,0.5,0 P,0,148092,148892,A
Sprite,Foreground,Centre,"sb\hl2.png",382.7461,415.0046 C,0,148136,,128,255,255 F,2,148136,148936,0.5,0 P,0,148136,148936,A
Sprite,Foreground,Centre,"sb\hl2.png",403.7037,413.672 C,0,148180,,128,255,255 F,2,148180,148980,0.5,0 P,0,148180,148980,A
Sprite,Foreground,Centre,"sb\hl2.png",484,335 C,0,148357,,128,255,255 F,2,148357,149157,0.5,0 S,2,148357,149157,1,0.8 P,0,148357,149157,A
Sprite,Foreground,Centre,"sb\hl2.png",484,335 C,0,148446,,128,255,255 F,2,148446,149246,0.5,0 S,2,148446,149246,1,0.8 P,0,148446,149246,A
Sprite,Foreground,Centre,"sb\hl2.png",0,0 C,0,148534,,128,255,255 M,0,148534,148578,484,335,473.2467,317.011 F,2,148534,149686,0.5,0 S,2,148534,149686,1,0.8 P,0,148534,149686,A M,0,148578,148622,473.2467,317.011,465.1837,297.6663 M,0,148622,148666,465.1837,297.6663,460.6285,277.2137 M,0,148666,148710,460.6285,277.2137,459.1186,256.3189 M,0,148710,148754,459.1186,256.3189,460.6285,277.2137 M,0,148754,148798,460.6285,277.2137,465.1837,297.6663 M,0,148798,148842,465.1837,297.6663,473.2467,317.011 M,0,148842,148886,473.2467,317.011,484,335
Sprite,Foreground,Centre,"sb\hl2.png",484,335 C,0,148578,,128,255,255 F,2,148578,149378,0.5,0 P,0,148578,149378,A
Sprite,Foreground,Centre,"sb\hl2.png",473.2467,317.011 C,0,148622,,128,255,255 F,2,148622,149422,0.5,0 P,0,148622,149422,A
Sprite,Foreground,Centre,"sb\hl2.png",465.1837,297.6663 C,0,148666,,128,255,255 F,2,148666,149466,0.5,0 P,0,148666,149466,A
Sprite,Foreground,Centre,"sb\hl2.png",460.6285,277.2137 C,0,148710,,128,255,255 F,2,148710,149510,0.5,0 P,0,148710,149510,A
Sprite,Foreground,Centre,"sb\hl2.png",459.1186,256.3189 C,0,148754,,128,255,255 F,2,148754,149554,0.5,0 P,0,148754,149554,A
Sprite,Foreground,Centre,"sb\hl2.png",460.6285,277.2137 C,0,148798,,128,255,255 F,2,148798,149598,0.5,0 P,0,148798,149598,A
Sprite,Foreground,Centre,"sb\hl2.png",465.1837,297.6663 C,0,148842,,128,255,255 F,2,148842,149642,0.5,0 P,0,148842,149642,A
Sprite,Foreground,Centre,"sb\hl2.png",473.2467,317.011 C,0,148886,,128,255,255 F,2,148886,149686,0.5,0 P,0,148886,149686,A
Sprite,Foreground,Centre,"sb\hl2.png",561,269 C,0,149063,,128,255,255 F,2,149063,149863,0.5,0 S,2,149063,149863,1,0.8 P,0,149063,149863,A
Sprite,Foreground,Centre,"sb\hl2.png",0,0 C,0,149240,,6,87,255 M,0,149240,149284,526,174,506.4767,166.2643 F,2,149240,150392,0.5,0 S,2,149240,150392,1,0.8 P,0,149240,150392,A M,0,149284,149328,506.4767,166.2643,486.9534,158.5287 M,0,149328,149372,486.9534,158.5287,467.4301,150.793 M,0,149372,149416,467.4301,150.793,447.9067,143.0574 M,0,149416,149460,447.9067,143.0574,428.3834,135.3217 M,0,149460,149504,428.3834,135.3217,408.2763,134.4768 M,0,149504,149548,408.2763,134.4768,387.7299,138.8176 M,0,149548,149592,387.7299,138.8176,367.1834,143.1584
Sprite,Foreground,Centre,"sb\hl2.png",526,174 C,0,149284,,6,87,255 F,2,149284,150084,0.5,0 P,0,149284,150084,A
Sprite,Foreground,Centre,"sb\hl2.png",506.4767,166.2643 C,0,149328,,6,87,255 F,2,149328,150128,0.5,0 P,0,149328,150128,A
Sprite,Foreground,Centre,"sb\hl2.png",486.9534,158.5287 C,0,149372,,6,87,255 F,2,149372,150172,0.5,0 P,0,149372,150172,A
Sprite,Foreground,Centre,"sb\hl2.png",467.4301,150.793 C,0,149416,,6,87,255 F,2,149416,150216,0.5,0 P,0,149416,150216,A
Sprite,Foreground,Centre,"sb\hl2.png",447.9067,143.0574 C,0,149460,,6,87,255 F,2,149460,150260,0.5,0 P,0,149460,150260,A
Sprite,Foreground,Centre,"sb\hl2.png",428.3834,135.3217 C,0,149504,,6,87,255 F,2,149504,150304,0.5,0 P,0,149504,150304,A
Sprite,Foreground,Centre,"sb\hl2.png",408.2763,134.4768 C,0,149548,,6,87,255 F,2,149548,150348,0.5,0 P,0,149548,150348,A
Sprite,Foreground,Centre,"sb\hl2.png",387.7299,138.8176 C,0,149592,,6,87,255 F,2,149592,150392,0.5,0 P,0,149592,150392,A
Sprite,Foreground,Centre,"sb\hl2.png",281,111 C,0,149769,,6,87,255 F,2,149769,150569,0.5,0 S,2,149769,150569,1,0.8 P,0,149769,150569,A
Sprite,Foreground,Centre,"sb\hl2.png",0,0 C,0,149946,,6,87,255 M,0,149946,149990,242,195,246.3377,215.5471 F,2,149946,150922,0.5,0 S,2,149946,150922,1,0.8 P,0,149946,150922,A M,0,149990,150034,246.3377,215.5471,250.6754,236.0942 M,0,150034,150078,250.6754,236.0942,255.0132,256.6414 M,0,150078,150122,255.0132,256.6414,259.3509,277.1885
Sprite,Foreground,Centre,"sb\hl2.png",242,195 C,0,149990,,6,87,255 F,2,149990,150790,0.5,0 P,0,149990,150790,A
Sprite,Foreground,Centre,"sb\hl2.png",246.3377,215.5471 C,0,150034,,6,87,255 F,2,150034,150834,0.5,0 P,0,150034,150834,A
Sprite,Foreground,Centre,"sb\hl2.png",250.6754,236.0942 C,0,150078,,6,87,255 F,2,150078,150878,0.5,0 P,0,150078,150878,A
Sprite,Foreground,Centre,"sb\hl2.png",255.0132,256.6414 C,0,150122,,6,87,255 F,2,150122,150922,0.5,0 P,0,150122,150922,A
Sprite,Foreground,Centre,"sb\hl2.png",0,0 C,0,150299,,6,87,255 M,0,150299,150343,350,304,345.0524,324.4088 F,2,150299,151275,0.5,0 S,2,150299,151275,1,0.8 P,0,150299,151275,A M,0,150343,150387,345.0524,324.4088,340.1048,344.8177 M,0,150387,150431,340.1048,344.8177,335.1572,365.2266 M,0,150431,150475,335.1572,365.2266,330.2096,385.6354
Sprite,Foreground,Centre,"sb\hl2.png",350,304 C,0,150343,,6,87,255 F,2,150343,151143,0.5,0 P,0,150343,151143,A
Sprite,Foreground,Centre,"sb\hl2.png",345.0524,324.4088 C,0,150387,,6,87,255 F,2,150387,151187,0.5,0 P,0,150387,151187,A
Sprite,Foreground,Centre,"sb\hl2.png",340.1048,344.8177 C,0,150431,,6,87,255 F,2,150431,151231,0.5,0 P,0,150431,151231,A
Sprite,Foreground,Centre,"sb\hl2.png",335.1572,365.2266 C,0,150475,,6,87,255 F,2,150475,151275,0.5,0 P,0,150475,151275,A
Sprite,Foreground,Centre,"sb\hl2.png",309,403 C,0,150563,,6,87,255 F,2,150563,151363,0.5,0 S,2,150563,151363,1,0.8 P,0,150563,151363,A
Sprite,Foreground,Centre,"sb\hl2.png",0,0 C,0,150652,,128,255,255 M,0,150652,150696,309,403,288.1423,405.4408 F,2,150652,151804,0.5,0 S,2,150652,151804,1,0.8 P,0,150652,151804,A M,0,150696,150740,288.1423,405.4408,267.2847,407.8816 M,0,150740,150784,267.2847,407.8816,246.427,410.3224 M,0,150784,150828,246.427,410.3224,225.5693,412.7632 M,0,150828,150872,225.5693,412.7632,246.427,410.3224 M,0,150872,150916,246.427,410.3224,267.2847,407.8816 M,0,150916,150960,267.2847,407.8816,288.1423,405.4408 M,0,150960,151004,288.1423,405.4408,309,403
Sprite,Foreground,Centre,"sb\hl2.png",309,403 C,0,150696,,128,255,255 F,2,150696,151496,0.5,0 P,0,150696,151496,A
Sprite,Foreground,Centre,"sb\hl2.png",288.1423,405.4408 C,0,150740,,128,255,255 F,2,150740,151540,0.5,0 P,0,150740,151540,A
Sprite,Foreground,Centre,"sb\hl2.png",267.2847,407.8816 C,0,150784,,128,255,255 F,2,150784,151584,0.5,0 P,0,150784,151584,A
Sprite,Foreground,Centre,"sb\hl2.png",246.427,410.3224 C,0,150828,,128,255,255 F,2,150828,151628,0.5,0 P,0,150828,151628,A
Sprite,Foreground,Centre,"sb\hl2.png",225.5693,412.7632 C,0,150872,,128,255,255 F,2,150872,151672,0.5,0 P,0,150872,151672,A
Sprite,Foreground,Centre,"sb\hl2.png",246.427,410.3224 C,0,150916,,128,255,255 F,2,150916,151716,0.5,0 P,0,150916,151716,A
Sprite,Foreground,Centre,"sb\hl2.png",267.2847,407.8816 C,0,150960,,128,255,255 F,2,150960,151760,0.5,0 P,0,150960,151760,A
Sprite,Foreground,Centre,"sb\hl2.png",288.1423,405.4408 C,0,151004,,128,255,255 F,2,151004,151804,0.5,0 P,0,151004,151804,A
Sprite,Foreground,Centre,"sb\hl2.png",415,407 C,0,151181,,128,255,255 F,2,151181,151981,0.5,0 S,2,151181,151981,1,0.8 P,0,151181,151981,A
Sprite,Foreground,Centre,"sb\hl2.png",0,0 C,0,151357,,128,255,255 M,0,151357,151401,498,440,513.6749,426.1188 F,2,151357,152333,0.5,0 S,2,151357,152333,1,0.8 P,0,151357,152333,A M,0,151401,151445,513.6749,426.1188,526.4523,409.5596 M,0,151445,151489,526.4523,409.5596,535.9824,390.9478 M,0,151489,151533,535.9824,390.9478,541.4605,370.7588
Sprite,Foreground,Centre,"sb\hl2.png",498,440 C,0,151401,,128,255,255 F,2,151401,152201,0.5,0 P,0,151401,152201,A
Sprite,Foreground,Centre,"sb\hl2.png",513.6749,426.1188 C,0,151445,,128,255,255 F,2,151445,152245,0.5,0 P,0,151445,152245,A
Sprite,Foreground,Centre,"sb\hl2.png",526.4523,409.5596 C,0,151489,,128,255,255 F,2,151489,152289,0.5,0 P,0,151489,152289,A
Sprite,Foreground,Centre,"sb\hl2.png",535.9824,390.9478 C,0,151533,,128,255,255 F,2,151533,152333,0.5,0 P,0,151533,152333,A
Sprite,Foreground,Centre,"sb\hl2.png",0,0 C,0,151710,,6,87,255 M,0,151710,151754,545,281,539.6417,260.6951 F,2,151710,152862,0.5,0 S,2,151710,152862,1,0.8 P,0,151710,152862,A M,0,151754,151798,539.6417,260.6951,534.2835,240.3902 M,0,151798,151842,534.2835,240.3902,528.9253,220.0853 M,0,151842,151886,528.9253,220.0853,529.3945,200.0894 M,0,151886,151930,529.3945,200.0894,531.8656,180.2246 M,0,151930,151974,531.8656,180.2246,526.3065,159.9738 M,0,151974,152018,526.3065,159.9738,520.7474,139.7229 M,0,152018,152062,520.7474,139.7229,515.1884,119.4721
Sprite,Foreground,Centre,"sb\hl2.png",545,281 C,0,151754,,6,87,255 F,2,151754,152554,0.5,0 P,0,151754,152554,A
Sprite,Foreground,Centre,"sb\hl2.png",539.6417,260.6951 C,0,151798,,6,87,255 F,2,151798,152598,0.5,0 P,0,151798,152598,A
Sprite,Foreground,Centre,"sb\hl2.png",534.2835,240.3902 C,0,151842,,6,87,255 F,2,151842,152642,0.5,0 P,0,151842,152642,A
Sprite,Foreground,Centre,"sb\hl2.png",528.9253,220.0853 C,0,151886,,6,87,255 F,2,151886,152686,0.5,0 P,0,151886,152686,A
Sprite,Foreground,Centre,"sb\hl2.png",529.3945,200.0894 C,0,151930,,6,87,255 F,2,151930,152730,0.5,0 P,0,151930,152730,A
Sprite,Foreground,Centre,"sb\hl2.png",531.8656,180.2246 C,0,151974,,6,87,255 F,2,151974,152774,0.5,0 P,0,151974,152774,A
Sprite,Foreground,Centre,"sb\hl2.png",526.3065,159.9738 C,0,152018,,6,87,255 F,2,152018,152818,0.5,0 P,0,152018,152818,A
Sprite,Foreground,Centre,"sb\hl2.png",520.7474,139.7229 C,0,152062,,6,87,255 F,2,152062,152862,0.5,0 P,0,152062,152862,A
Sprite,Foreground,Centre,"sb\hl2.png",0,0 C,0,152240,,6,87,255 M,0,152240,152284,437,64,426.1956,82.00735 F,2,152240,153392,0.5,0 S,2,152240,153392,1,0.8 P,0,152240,153392,A M,0,152284,152328,426.1956,82.00735,415.3912,100.0147 M,0,152328,152372,415.3912,100.0147,396.7652,102.0426 M,0,152372,152416,396.7652,102.0426,375.9162,99.5289 M,0,152416,152460,375.9162,99.5289,355.0672,97.01519 M,0,152460,152504,355.0672,97.01519,334.2181,94.50148 M,0,152504,152548,334.2181,94.50148,313.3691,91.98777 M,0,152548,152592,313.3691,91.98777,292.5201,89.47406
Sprite,Foreground,Centre,"sb\hl2.png",437,64 C,0,152284,,6,87,255 F,2,152284,153084,0.5,0 P,0,152284,153084,A
Sprite,Foreground,Centre,"sb\hl2.png",426.1956,82.00735 C,0,152328,,6,87,255 F,2,152328,153128,0.5,0 P,0,152328,153128,A
Sprite,Foreground,Centre,"sb\hl2.png",415.3912,100.0147 C,0,152372,,6,87,255 F,2,152372,153172,0.5,0 P,0,152372,153172,A
Sprite,Foreground,Centre,"sb\hl2.png",396.7652,102.0426 C,0,152416,,6,87,255 F,2,152416,153216,0.5,0 P,0,152416,153216,A
Sprite,Foreground,Centre,"sb\hl2.png",375.9162,99.5289 C,0,152460,,6,87,255 F,2,152460,153260,0.5,0 P,0,152460,153260,A
Sprite,Foreground,Centre,"sb\hl2.png",355.0672,97.01519 C,0,152504,,6,87,255 F,2,152504,153304,0.5,0 P,0,152504,153304,A
Sprite,Foreground,Centre,"sb\hl2.png",334.2181,94.50148 C,0,152548,,6,87,255 F,2,152548,153348,0.5,0 P,0,152548,153348,A
Sprite,Foreground,Centre,"sb\hl2.png",313.3691,91.98777 C,0,152592,,6,87,255 F,2,152592,153392,0.5,0 P,0,152592,153392,A
Sprite,Foreground,Centre,"sb\hl2.png",0,0 C,0,152769,,6,87,255 M,0,152769,152813,229,167,249.8198,169.7455 F,2,152769,153921,0.5,0 S,2,152769,153921,1,0.8 P,0,152769,153921,A M,0,152813,152857,249.8198,169.7455,270.6395,172.4909 M,0,152857,152901,270.6395,172.4909,291.4593,175.2364 M,0,152901,152945,291.4593,175.2364,312.2791,177.9818 M,0,152945,152989,312.2791,177.9818,333.0988,180.7273 M,0,152989,153033,333.0988,180.7273,353.9186,183.4728 M,0,153033,153077,353.9186,183.4728,374.7383,186.2182 M,0,153077,153121,374.7383,186.2182,395.5581,188.9637
Sprite,Foreground,Centre,"sb\hl2.png",229,167 C,0,152813,,6,87,255 F,2,152813,153613,0.5,0 P,0,152813,153613,A
Sprite,Foreground,Centre,"sb\hl2.png",249.8198,169.7455 C,0,152857,,6,87,255 F,2,152857,153657,0.5,0 P,0,152857,153657,A
Sprite,Foreground,Centre,"sb\hl2.png",270.6395,172.4909 C,0,152901,,6,87,255 F,2,152901,153701,0.5,0 P,0,152901,153701,A
Sprite,Foreground,Centre,"sb\hl2.png",291.4593,175.2364 C,0,152945,,6,87,255 F,2,152945,153745,0.5,0 P,0,152945,153745,A
Sprite,Foreground,Centre,"sb\hl2.png",312.2791,177.9818 C,0,152989,,6,87,255 F,2,152989,153789,0.5,0 P,0,152989,153789,A
Sprite,Foreground,Centre,"sb\hl2.png",333.0988,180.7273 C,0,153033,,6,87,255 F,2,153033,153833,0.5,0 P,0,153033,153833,A
Sprite,Foreground,Centre,"sb\hl2.png",353.9186,183.4728 C,0,153077,,6,87,255 F,2,153077,153877,0.5,0 P,0,153077,153877,A
Sprite,Foreground,Centre,"sb\hl2.png",374.7383,186.2182 C,0,153121,,6,87,255 F,2,153121,153921,0.5,0 P,0,153121,153921,A
Sprite,Foreground,Centre,"sb\hl2.png",454,263 C,0,153299,,6,87,255 F,2,153299,154099,0.5,0 S,2,153299,154099,1,0.8 P,0,153299,154099,A
Sprite,Foreground,Centre,"sb\hl2.png",0,0 C,0,153475,,191,128,255 M,0,153475,153519,432,350,414.5461,361.5923 F,2,153475,154451,0.5,0 S,2,153475,154451,1,0.8 P,0,153475,154451,A M,0,153519,153563,414.5461,361.5923,395.5281,370.3793 M,0,153563,153607,395.5281,370.3793,375.2211,375.5175 M,0,153607,153651,375.2211,375.5175,354.3672,377.3986
Sprite,Foreground,Centre,"sb\hl2.png",432,350 C,0,153519,,191,128,255 F,2,153519,154319,0.5,0 P,0,153519,154319,A
Sprite,Foreground,Centre,"sb\hl2.png",414.5461,361.5923 C,0,153563,,191,128,255 F,2,153563,154363,0.5,0 P,0,153563,154363,A
Sprite,Foreground,Centre,"sb\hl2.png",395.5281,370.3793 C,0,153607,,191,128,255 F,2,153607,154407,0.5,0 P,0,153607,154407,A
Sprite,Foreground,Centre,"sb\hl2.png",375.2211,375.5175 C,0,153651,,191,128,255 F,2,153651,154451,0.5,0 P,0,153651,154451,A
Sprite,Foreground,Centre,"sb\hl2.png",285,305 C,0,153740,,191,128,255 F,2,153740,154540,0.5,0 S,2,153740,154540,1,0.8 P,0,153740,154540,A
Sprite,Foreground,Centre,"sb\hl2.png",0,0 C,0,153828,,191,128,255 M,0,153828,153872,285,305,267.6538,293.2648 F,2,153828,154804,0.5,0 S,2,153828,154804,1,0.8 P,0,153828,154804,A M,0,153872,153916,267.6538,293.2648,248.579,284.6341 M,0,153916,153960,248.579,284.6341,228.1597,280.017 M,0,153960,154004,228.1597,280.017,207.2607,279.0425
Sprite,Foreground,Centre,"sb\hl2.png",285,305 C,0,153872,,191,128,255 F,2,153872,154672,0.5,0 P,0,153872,154672,A
Sprite,Foreground,Centre,"sb\hl2.png",267.6538,293.2648 C,0,153916,,191,128,255 F,2,153916,154716,0.5,0 P,0,153916,154716,A
Sprite,Foreground,Centre,"sb\hl2.png",248.579,284.6341 C,0,153960,,191,128,255 F,2,153960,154760,0.5,0 P,0,153960,154760,A
Sprite,Foreground,Centre,"sb\hl2.png",228.1597,280.017 C,0,154004,,191,128,255 F,2,154004,154804,0.5,0 P,0,154004,154804,A
Sprite,Foreground,Centre,"sb\hl2.png",120,325 C,0,154181,,191,128,255 F,2,154181,154981,0.5,0 S,2,154181,154981,1,0.8 P,0,154181,154981,A
Sprite,Foreground,Centre,"sb\hl2.png",120,325 C,0,154269,,191,128,255 F,2,154269,155069,0.5,0 S,2,154269,155069,1,0.8 P,0,154269,155069,A
Sprite,Foreground,Centre,"sb\hl2.png",0,0 C,0,154357,,191,128,255 M,0,154357,154401,120,325,104.7327,310.5809 F,2,154357,155509,0.5,0 S,2,154357,155509,1,0.8 P,0,154357,155509,A M,0,154401,154445,104.7327,310.5809,89.46545,296.1618 M,0,154445,154489,89.46545,296.1618,81.82584,277.6941 M,0,154489,154533,81.82584,277.6941,78.43938,256.969 M,0,154533,154577,78.43938,256.969,75.05291,236.2438 M,0,154577,154621,75.05291,236.2438,71.66645,215.5187 M,0,154621,154665,71.66645,215.5187,68.27998,194.7935 M,0,154665,154709,68.27998,194.7935,64.89352,174.0684
Sprite,Foreground,Centre,"sb\hl2.png",120,325 C,0,154401,,191,128,255 F,2,154401,155201,0.5,0 P,0,154401,155201,A
Sprite,Foreground,Centre,"sb\hl2.png",104.7327,310.5809 C,0,154445,,191,128,255 F,2,154445,155245,0.5,0 P,0,154445,155245,A
Sprite,Foreground,Centre,"sb\hl2.png",89.46545,296.1618 C,0,154489,,191,128,255 F,2,154489,155289,0.5,0 P,0,154489,155289,A
Sprite,Foreground,Centre,"sb\hl2.png",81.82584,277.6941 C,0,154533,,191,128,255 F,2,154533,155333,0.5,0 P,0,154533,155333,A
Sprite,Foreground,Centre,"sb\hl2.png",78.43938,256.969 C,0,154577,,191,128,255 F,2,154577,155377,0.5,0 P,0,154577,155377,A
Sprite,Foreground,Centre,"sb\hl2.png",75.05291,236.2438 C,0,154621,,191,128,255 F,2,154621,155421,0.5,0 P,0,154621,155421,A
Sprite,Foreground,Centre,"sb\hl2.png",71.66645,215.5187 C,0,154665,,191,128,255 F,2,154665,155465,0.5,0 P,0,154665,155465,A
Sprite,Foreground,Centre,"sb\hl2.png",68.27998,194.7935 C,0,154709,,191,128,255 F,2,154709,155509,0.5,0 P,0,154709,155509,A
Sprite,Foreground,Centre,"sb\hl2.png",0,0 C,0,154887,,133,11,255 M,0,154887,154931,101,95,119.5185,104.7372 F,2,154887,155863,0.5,0 S,2,154887,155863,1,0.8 P,0,154887,155863,A M,0,154931,154975,119.5185,104.7372,135.5798,118.1042 M,0,154975,155019,135.5798,118.1042,148.5397,134.4804 M,0,155019,155063,148.5397,134.4804,157.4381,153.3889
Sprite,Foreground,Centre,"sb\hl2.png",101,95 C,0,154931,,133,11,255 F,2,154931,155731,0.5,0 P,0,154931,155731,A
Sprite,Foreground,Centre,"sb\hl2.png",119.5185,104.7372 C,0,154975,,133,11,255 F,2,154975,155775,0.5,0 P,0,154975,155775,A
Sprite,Foreground,Centre,"sb\hl2.png",135.5798,118.1042 C,0,155019,,133,11,255 F,2,155019,155819,0.5,0 P,0,155019,155819,A
Sprite,Foreground,Centre,"sb\hl2.png",148.5397,134.4804 C,0,155063,,133,11,255 F,2,155063,155863,0.5,0 P,0,155063,155863,A
Sprite,Foreground,Centre,"sb\hl2.png",172,244 C,0,155240,,133,11,255 F,2,155240,156040,0.5,0 S,2,155240,156040,1,0.8 P,0,155240,156040,A
Sprite,Foreground,Centre,"sb\hl2.png",245,191 C,0,155416,,133,11,255 F,2,155416,156216,0.5,0 S,2,155416,156216,1,0.8 P,0,155416,156216,A
Sprite,Foreground,Centre,"sb\hl2.png",0,0 C,0,155593,,133,11,255 M,0,155593,155637,306,263,301.6475,283.544 F,2,155593,156745,0.5,0 S,2,155593,156745,1,0.8 P,0,155593,156745,A M,0,155637,155681,301.6475,283.544,297.2949,304.088 M,0,155681,155725,297.2949,304.088,292.9424,324.632 M,0,155725,155769,292.9424,324.632,288.5898,345.176 M,0,155769,155813,288.5898,345.176,284.2373,365.7199 M,0,155813,155857,284.2373,365.7199,283.6208,385.6994 M,0,155857,155901,283.6208,385.6994,293.8492,404.04 M,0,155901,155945,293.8492,404.04,304.0777,422.3806
Sprite,Foreground,Centre,"sb\hl2.png",306,263 C,0,155637,,133,11,255 F,2,155637,156437,0.5,0 P,0,155637,156437,A
Sprite,Foreground,Centre,"sb\hl2.png",301.6475,283.544 C,0,155681,,133,11,255 F,2,155681,156481,0.5,0 P,0,155681,156481,A
Sprite,Foreground,Centre,"sb\hl2.png",297.2949,304.088 C,0,155725,,133,11,255 F,2,155725,156525,0.5,0 P,0,155725,156525,A
Sprite,Foreground,Centre,"sb\hl2.png",292.9424,324.632 C,0,155769,,133,11,255 F,2,155769,156569,0.5,0 P,0,155769,156569,A
Sprite,Foreground,Centre,"sb\hl2.png",288.5898,345.176 C,0,155813,,133,11,255 F,2,155813,156613,0.5,0 P,0,155813,156613,A
Sprite,Foreground,Centre,"sb\hl2.png",284.2373,365.7199 C,0,155857,,133,11,255 F,2,155857,156657,0.5,0 P,0,155857,156657,A
Sprite,Foreground,Centre,"sb\hl2.png",283.6208,385.6994 C,0,155901,,133,11,255 F,2,155901,156701,0.5,0 P,0,155901,156701,A
Sprite,Foreground,Centre,"sb\hl2.png",293.8492,404.04 C,0,155945,,133,11,255 F,2,155945,156745,0.5,0 P,0,155945,156745,A
Sprite,Foreground,Centre,"sb\hl2.png",392,385 C,0,156122,,133,11,255 F,2,156122,156922,0.5,0 S,2,156122,156922,1,0.8 P,0,156122,156922,A
Sprite,Foreground,Centre,"sb\hl2.png",392,385 C,0,156210,,133,11,255 F,2,156210,157010,0.5,0 S,2,156210,157010,1,0.8 P,0,156210,157010,A
Sprite,Foreground,Centre,"sb\hl2.png",0,0 C,0,156299,,255,128,128 M,0,156299,156343,392,385,387.6708,364.5157 F,2,156299,157451,0.5,0 S,2,156299,157451,1,0.8 P,0,156299,157451,A M,0,156343,156387,387.6708,364.5157,387.2688,343.6037 M,0,156387,156431,387.2688,343.6037,390.7859,322.998 M,0,156431,156475,390.7859,322.998,398.4353,303.5308 M,0,156475,156519,398.4353,303.5308,390.7859,322.998 M,0,156519,156563,390.7859,322.998,387.2688,343.6037 M,0,156563,156607,387.2688,343.6037,387.6708,364.5157 M,0,156607,156651,387.6708,364.5157,392,385
Sprite,Foreground,Centre,"sb\hl2.png",392,385 C,0,156343,,255,128,128 F,2,156343,157143,0.5,0 P,0,156343,157143,A
Sprite,Foreground,Centre,"sb\hl2.png",387.6708,364.5157 C,0,156387,,255,128,128 F,2,156387,157187,0.5,0 P,0,156387,157187,A
Sprite,Foreground,Centre,"sb\hl2.png",387.2688,343.6037 C,0,156431,,255,128,128 F,2,156431,157231,0.5,0 P,0,156431,157231,A
Sprite,Foreground,Centre,"sb\hl2.png",390.7859,322.998 C,0,156475,,255,128,128 F,2,156475,157275,0.5,0 P,0,156475,157275,A
Sprite,Foreground,Centre,"sb\hl2.png",398.4353,303.5308 C,0,156519,,255,128,128 F,2,156519,157319,0.5,0 P,0,156519,157319,A
Sprite,Foreground,Centre,"sb\hl2.png",390.7859,322.998 C,0,156563,,255,128,128 F,2,156563,157363,0.5,0 P,0,156563,157363,A
Sprite,Foreground,Centre,"sb\hl2.png",387.2688,343.6037 C,0,156607,,255,128,128 F,2,156607,157407,0.5,0 P,0,156607,157407,A
Sprite,Foreground,Centre,"sb\hl2.png",387.6708,364.5157 C,0,156651,,255,128,128 F,2,156651,157451,0.5,0 P,0,156651,157451,A
Sprite,Foreground,Centre,"sb\hl2.png",478,426 C,0,156828,,255,128,128 F,2,156828,157628,0.5,0 S,2,156828,157628,1,0.8 P,0,156828,157628,A
Sprite,Foreground,Centre,"sb\hl2.png",0,0 C,0,157004,,255,128,128 M,0,157004,157048,549,369,539.556,350.2546 F,2,157004,158156,0.5,0 S,2,157004,158156,1,0.8 P,0,157004,158156,A M,0,157048,157092,539.556,350.2546,532.7117,330.4288 M,0,157092,157136,532.7117,330.4288,530.2592,309.6336 M,0,157136,157180,530.2592,309.6336,533.535,288.9532 M,0,157180,157224,533.535,288.9532,540.2947,269.0753 M,0,157224,157268,540.2947,269.0753,545.7313,248.8208 M,0,157268,157312,545.7313,248.8208,546.3556,227.8893 M,0,157312,157356,546.3556,227.8893,542.1591,207.3489
Sprite,Foreground,Centre,"sb\hl2.png",549,369 C,0,157048,,255,128,128 F,2,157048,157848,0.5,0 P,0,157048,157848,A
Sprite,Foreground,Centre,"sb\hl2.png",539.556,350.2546 C,0,157092,,255,128,128 F,2,157092,157892,0.5,0 P,0,157092,157892,A
Sprite,Foreground,Centre,"sb\hl2.png",532.7117,330.4288 C,0,157136,,255,128,128 F,2,157136,157936,0.5,0 P,0,157136,157936,A
Sprite,Foreground,Centre,"sb\hl2.png",530.2592,309.6336 C,0,157180,,255,128,128 F,2,157180,157980,0.5,0 P,0,157180,157980,A
Sprite,Foreground,Centre,"sb\hl2.png",533.535,288.9532 C,0,157224,,255,128,128 F,2,157224,158024,0.5,0 P,0,157224,158024,A
Sprite,Foreground,Centre,"sb\hl2.png",540.2947,269.0753 C,0,157268,,255,128,128 F,2,157268,158068,0.5,0 P,0,157268,158068,A
Sprite,Foreground,Centre,"sb\hl2.png",545.7313,248.8208 C,0,157312,,255,128,128 F,2,157312,158112,0.5,0 P,0,157312,158112,A
Sprite,Foreground,Centre,"sb\hl2.png",546.3556,227.8893 C,0,157356,,255,128,128 F,2,157356,158156,0.5,0 P,0,157356,158156,A
Sprite,Foreground,Centre,"sb\hl2.png",462,129 C,0,157534,,255,128,128 F,2,157534,158334,0.5,0 S,2,157534,158334,1,0.8 P,0,157534,158334,A
Sprite,Foreground,Centre,"sb\hl2.png",462,129 C,0,157622,,255,128,128 F,2,157622,158422,0.5,0 S,2,157622,158422,1,0.8 P,0,157622,158422,A
Sprite,Foreground,Centre,"sb\hl2.png",0,0 C,0,157710,,255,6,6 M,0,157710,157754,462,129,468.9244,109.2198 F,2,157710,158862,0.5,0 S,2,157710,158862,1,0.8 P,0,157710,158862,A M,0,157754,157798,468.9244,109.2198,478.6009,90.62291 M,0,157798,157842,478.6009,90.62291,491.4496,74.0679 M,0,157842,157886,491.4496,74.0679,506.5416,59.5214 M,0,157886,157930,506.5416,59.5214,491.4496,74.0679 M,0,157930,157974,491.4496,74.0679,478.6009,90.62291 M,0,157974,158018,478.6009,90.62291,468.9244,109.2198 M,0,158018,158062,468.9244,109.2198,462,129
Sprite,Foreground,Centre,"sb\hl2.png",462,129 C,0,157754,,255,6,6 F,2,157754,158554,0.5,0 P,0,157754,158554,A
Sprite,Foreground,Centre,"sb\hl2.png",468.9244,109.2198 C,0,157798,,255,6,6 F,2,157798,158598,0.5,0 P,0,157798,158598,A
Sprite,Foreground,Centre,"sb\hl2.png",478.6009,90.62291 C,0,157842,,255,6,6 F,2,157842,158642,0.5,0 P,0,157842,158642,A
Sprite,Foreground,Centre,"sb\hl2.png",491.4496,74.0679 C,0,157886,,255,6,6 F,2,157886,158686,0.5,0 P,0,157886,158686,A
Sprite,Foreground,Centre,"sb\hl2.png",506.5416,59.5214 C,0,157930,,255,6,6 F,2,157930,158730,0.5,0 P,0,157930,158730,A
Sprite,Foreground,Centre,"sb\hl2.png",491.4496,74.0679 C,0,157974,,255,6,6 F,2,157974,158774,0.5,0 P,0,157974,158774,A
Sprite,Foreground,Centre,"sb\hl2.png",478.6009,90.62291 C,0,158018,,255,6,6 F,2,158018,158818,0.5,0 P,0,158018,158818,A
Sprite,Foreground,Centre,"sb\hl2.png",468.9244,109.2198 C,0,158062,,255,6,6 F,2,158062,158862,0.5,0 P,0,158062,158862,A
Sprite,Foreground,Centre,"sb\hl2.png",379,180 C,0,158240,,255,6,6 F,2,158240,159040,0.5,0 S,2,158240,159040,1,0.8 P,0,158240,159040,A
Sprite,Foreground,Centre,"sb\hl2.png",379,180 C,0,158328,,255,6,6 F,2,158328,159128,0.5,0 S,2,158328,159128,1,0.8 P,0,158328,159128,A
Sprite,Foreground,Centre,"sb\hl2.png",0,0 C,0,158416,,255,6,6 M,0,158416,158460,379,180,358.2615,176.6965 F,2,158416,159392,0.5,0 S,2,158416,159392,1,0.8 P,0,158416,159392,A M,0,158460,158504,358.2615,176.6965,337.5229,173.393 M,0,158504,158548,337.5229,173.393,316.7844,170.0895 M,0,158548,158592,316.7844,170.0895,296.0458,166.7861
Sprite,Foreground,Centre,"sb\hl2.png",379,180 C,0,158460,,255,6,6 F,2,158460,159260,0.5,0 P,0,158460,159260,A
Sprite,Foreground,Centre,"sb\hl2.png",358.2615,176.6965 C,0,158504,,255,6,6 F,2,158504,159304,0.5,0 P,0,158504,159304,A
Sprite,Foreground,Centre,"sb\hl2.png",337.5229,173.393 C,0,158548,,255,6,6 F,2,158548,159348,0.5,0 P,0,158548,159348,A
Sprite,Foreground,Centre,"sb\hl2.png",316.7844,170.0895 C,0,158592,,255,6,6 F,2,158592,159392,0.5,0 P,0,158592,159392,A
Sprite,Foreground,Centre,"sb\hl2.png",0,0 C,0,158769,,255,6,6 M,0,158769,158813,236,98,215.1539,100.5378 F,2,158769,159745,0.5,0 S,2,158769,159745,1,0.8 P,0,158769,159745,A M,0,158813,158857,215.1539,100.5378,194.3078,103.0756 M,0,158857,158901,194.3078,103.0756,173.4617,105.6134 M,0,158901,158945,173.4617,105.6134,152.6156,108.1511
Sprite,Foreground,Centre,"sb\hl2.png",236,98 C,0,158813,,255,6,6 F,2,158813,159613,0.5,0 P,0,158813,159613,A
Sprite,Foreground,Centre,"sb\hl2.png",215.1539,100.5378 C,0,158857,,255,6,6 F,2,158857,159657,0.5,0 P,0,158857,159657,A
Sprite,Foreground,Centre,"sb\hl2.png",194.3078,103.0756 C,0,158901,,255,6,6 F,2,158901,159701,0.5,0 P,0,158901,159701,A
Sprite,Foreground,Centre,"sb\hl2.png",173.4617,105.6134 C,0,158945,,255,6,6 F,2,158945,159745,0.5,0 P,0,158945,159745,A
Sprite,Foreground,Centre,"sb\hl2.png",95,185 C,0,159122,,255,6,6 F,2,159122,159922,0.5,0 S,2,159122,159922,1,0.8 P,0,159122,159922,A
Sprite,Foreground,Centre,"sb\hl2.png",0,0 C,0,159299,,128,255,255 M,0,159299,159343,162,243,158.4186,263.6924 F,2,159299,160451,0.5,0 S,2,159299,160451,1,0.8 P,0,159299,160451,A M,0,159343,159387,158.4186,263.6924,154.8372,284.3847 M,0,159387,159431,154.8372,284.3847,146.8639,303.1815 M,0,159431,159475,146.8639,303.1815,134.7688,320.2049 M,0,159475,159519,134.7688,320.2049,130.8107,340.8285 M,0,159519,159563,130.8107,340.8285,126.8526,361.4521 M,0,159563,159607,126.8526,361.4521,122.8945,382.0758 M,0,159607,159651,122.8945,382.0758,118.9365,402.6994
Sprite,Foreground,Centre,"sb\hl2.png",162,243 C,0,159343,,128,255,255 F,2,159343,160143,0.5,0 P,0,159343,160143,A
Sprite,Foreground,Centre,"sb\hl2.png",158.4186,263.6924 C,0,159387,,128,255,255 F,2,159387,160187,0.5,0 P,0,159387,160187,A
Sprite,Foreground,Centre,"sb\hl2.png",154.8372,284.3847 C,0,159431,,128,255,255 F,2,159431,160231,0.5,0 P,0,159431,160231,A
Sprite,Foreground,Centre,"sb\hl2.png",146.8639,303.1815 C,0,159475,,128,255,255 F,2,159475,160275,0.5,0 P,0,159475,160275,A
Sprite,Foreground,Centre,"sb\hl2.png",134.7688,320.2049 C,0,159519,,128,255,255 F,2,159519,160319,0.5,0 P,0,159519,160319,A
Sprite,Foreground,Centre,"sb\hl2.png",130.8107,340.8285 C,0,159563,,128,255,255 F,2,159563,160363,0.5,0 P,0,159563,160363,A
Sprite,Foreground,Centre,"sb\hl2.png",126.8526,361.4521 C,0,159607,,128,255,255 F,2,159607,160407,0.5,0 P,0,159607,160407,A
Sprite,Foreground,Centre,"sb\hl2.png",122.8945,382.0758 C,0,159651,,128,255,255 F,2,159651,160451,0.5,0 P,0,159651,160451,A
Sprite,Foreground,Centre,"sb\hl2.png",0,0 C,0,159828,,128,255,255 M,0,159828,159872,211,417,228.808,405.87 F,2,159828,160980,0.5,0 S,2,159828,160980,1,0.8 P,0,159828,160980,A M,0,159872,159916,228.808,405.87,246.6159,394.7401 M,0,159916,159960,246.6159,394.7401,266.5542,394.9427 M,0,159960,160004,266.5542,394.9427,287.1882,398.8464 M,0,160004,160048,287.1882,398.8464,307.8221,402.7501 M,0,160048,160092,307.8221,402.7501,328.4561,406.6539 M,0,160092,160136,328.4561,406.6539,349.0901,410.5576 M,0,160136,160180,349.0901,410.5576,369.7241,414.4613
Sprite,Foreground,Centre,"sb\hl2.png",211,417 C,0,159872,,128,255,255 F,2,159872,160672,0.5,0 P,0,159872,160672,A
Sprite,Foreground,Centre,"sb\hl2.png",228.808,405.87 C,0,159916,,128,255,255 F,2,159916,160716,0.5,0 P,0,159916,160716,A
Sprite,Foreground,Centre,"sb\hl2.png",246.6159,394.7401 C,0,159960,,128,255,255 F,2,159960,160760,0.5,0 P,0,159960,160760,A
Sprite,Foreground,Centre,"sb\hl2.png",266.5542,394.9427 C,0,160004,,128,255,255 F,2,160004,160804,0.5,0 P,0,160004,160804,A
Sprite,Foreground,Centre,"sb\hl2.png",287.1882,398.8464 C,0,160048,,128,255,255 F,2,160048,160848,0.5,0 P,0,160048,160848,A
Sprite,Foreground,Centre,"sb\hl2.png",307.8221,402.7501 C,0,160092,,128,255,255 F,2,160092,160892,0.5,0 P,0,160092,160892,A
Sprite,Foreground,Centre,"sb\hl2.png",328.4561,406.6539 C,0,160136,,128,255,255 F,2,160136,160936,0.5,0 P,0,160136,160936,A
Sprite,Foreground,Centre,"sb\hl2.png",349.0901,410.5576 C,0,160180,,128,255,255 F,2,160180,160980,0.5,0 P,0,160180,160980,A
Sprite,Foreground,Centre,"sb\hl2.png",458,377 C,0,160357,,128,255,255 F,2,160357,161157,0.5,0 S,2,160357,161157,1,0.8 P,0,160357,161157,A
Sprite,Foreground,Centre,"sb\hl2.png",0,0 C,0,160534,,128,255,255 M,0,160534,160578,458,377,450.0143,357.6212 F,2,160534,161510,0.5,0 S,2,160534,161510,1,0.8 P,0,160534,161510,A M,0,160578,160622,450.0143,357.6212,445.0338,337.2755 M,0,160622,160666,445.0338,337.2755,443.1567,316.4212 M,0,160666,160710,443.1567,316.4212,444.7047,295.5319
Sprite,Foreground,Centre,"sb\hl2.png",458,377 C,0,160578,,128,255,255 F,2,160578,161378,0.5,0 P,0,160578,161378,A
Sprite,Foreground,Centre,"sb\hl2.png",450.0143,357.6212 C,0,160622,,128,255,255 F,2,160622,161422,0.5,0 P,0,160622,161422,A
Sprite,Foreground,Centre,"sb\hl2.png",445.0338,337.2755 C,0,160666,,128,255,255 F,2,160666,161466,0.5,0 P,0,160666,161466,A
Sprite,Foreground,Centre,"sb\hl2.png",443.1567,316.4212 C,0,160710,,128,255,255 F,2,160710,161510,0.5,0 P,0,160710,161510,A
Sprite,Foreground,Centre,"sb\hl2.png",422,249 C,0,160799,,128,255,255 F,2,160799,161599,0.5,0 S,2,160799,161599,1,0.8 P,0,160799,161599,A
Sprite,Foreground,Centre,"sb\hl2.png",0,0 C,0,160887,,6,87,255 M,0,160887,160931,422,249,401.1418,246.6876 F,2,160887,162039,0.5,0 S,2,160887,162039,1,0.8 P,0,160887,162039,A M,0,160931,160975,401.1418,246.6876,380.2184,247.8951 M,0,160975,161019,380.2184,247.8951,360.4086,254.5986 M,0,161019,161063,360.4086,254.5986,343.0553,266.3687 M,0,161063,161107,343.0553,266.3687,326.1205,278.766 M,0,161107,161151,326.1205,278.766,307.0643,287.4419 M,0,161151,161195,307.0643,287.4419,286.4413,291.1771 M,0,161195,161239,286.4413,291.1771,265.4588,291.2441
Sprite,Foreground,Centre,"sb\hl2.png",422,249 C,0,160931,,6,87,255 F,2,160931,161731,0.5,0 P,0,160931,161731,A
Sprite,Foreground,Centre,"sb\hl2.png",401.1418,246.6876 C,0,160975,,6,87,255 F,2,160975,161775,0.5,0 P,0,160975,161775,A
Sprite,Foreground,Centre,"sb\hl2.png",380.2184,247.8951 C,0,161019,,6,87,255 F,2,161019,161819,0.5,0 P,0,161019,161819,A
Sprite,Foreground,Centre,"sb\hl2.png",360.4086,254.5986 C,0,161063,,6,87,255 F,2,161063,161863,0.5,0 P,0,161063,161863,A
Sprite,Foreground,Centre,"sb\hl2.png",343.0553,266.3687 C,0,161107,,6,87,255 F,2,161107,161907,0.5,0 P,0,161107,161907,A
Sprite,Foreground,Centre,"sb\hl2.png",326.1205,278.766 C,0,161151,,6,87,255 F,2,161151,161951,0.5,0 P,0,161151,161951,A
Sprite,Foreground,Centre,"sb\hl2.png",307.0643,287.4419 C,0,161195,,6,87,255 F,2,161195,161995,0.5,0 P,0,161195,161995,A
Sprite,Foreground,Centre,"sb\hl2.png",286.4413,291.1771 C,0,161239,,6,87,255 F,2,161239,162039,0.5,0 P,0,161239,162039,A
Sprite,Foreground,Centre,"sb\hl2.png",162,288 C,0,161416,,6,87,255 F,2,161416,162216,0.5,0 S,2,161416,162216,1,0.8 P,0,161416,162216,A
Sprite,Foreground,Centre,"sb\hl2.png",108,212 C,0,161593,,6,87,255 F,2,161593,162393,0.5,0 S,2,161593,162393,1,0.8 P,0,161593,162393,A
Sprite,Foreground,Centre,"sb\hl2.png",0,0 C,0,161769,,128,255,255 M,0,161769,161813,157,131,177.373,125.9068 F,2,161769,162921,0.5,0 S,2,161769,162921,1,0.8 P,0,161769,162921,A M,0,161813,161857,177.373,125.9068,197.746,120.8135 M,0,161857,161901,197.746,120.8135,218.119,115.7203 M,0,161901,161945,218.119,115.7203,232.4832,101.0993 M,0,161945,161989,232.4832,101.0993,248.9228,89.76929 M,0,161989,162033,248.9228,89.76929,269.2958,84.67604 M,0,162033,162077,269.2958,84.67604,289.6688,79.58279 M,0,162077,162121,289.6688,79.58279,310.0418,74.48955
Sprite,Foreground,Centre,"sb\hl2.png",157,131 C,0,161813,,128,255,255 F,2,161813,162613,0.5,0 P,0,161813,162613,A
Sprite,Foreground,Centre,"sb\hl2.png",177.373,125.9068 C,0,161857,,128,255,255 F,2,161857,162657,0.5,0 P,0,161857,162657,A
Sprite,Foreground,Centre,"sb\hl2.png",197.746,120.8135 C,0,161901,,128,255,255 F,2,161901,162701,0.5,0 P,0,161901,162701,A
Sprite,Foreground,Centre,"sb\hl2.png",218.119,115.7203 C,0,161945,,128,255,255 F,2,161945,162745,0.5,0 P,0,161945,162745,A
Sprite,Foreground,Centre,"sb\hl2.png",232.4832,101.0993 C,0,161989,,128,255,255 F,2,161989,162789,0.5,0 P,0,161989,162789,A
Sprite,Foreground,Centre,"sb\hl2.png",248.9228,89.76929 C,0,162033,,128,255,255 F,2,162033,162833,0.5,0 P,0,162033,162833,A
Sprite,Foreground,Centre,"sb\hl2.png",269.2958,84.67604 C,0,162077,,128,255,255 F,2,162077,162877,0.5,0 P,0,162077,162877,A
Sprite,Foreground,Centre,"sb\hl2.png",289.6688,79.58279 C,0,162121,,128,255,255 F,2,162121,162921,0.5,0 P,0,162121,162921,A
Sprite,Foreground,Centre,"sb\hl2.png",346,96 C,0,162210,,128,255,255 F,2,162210,163010,0.5,0 S,2,162210,163010,1,0.8 P,0,162210,163010,A
Sprite,Foreground,Centre,"sb\hl2.png",0,0 C,0,162299,,128,255,255 M,0,162299,162343,346,96,350.6193,116.4857 F,2,162299,163275,0.5,0 S,2,162299,163275,1,0.8 P,0,162299,163275,A M,0,162343,162387,350.6193,116.4857,355.2386,136.9713 M,0,162387,162431,355.2386,136.9713,359.8579,157.457 M,0,162431,162475,359.8579,157.457,364.4773,177.9426
Sprite,Foreground,Centre,"sb\hl2.png",346,96 C,0,162343,,128,255,255 F,2,162343,163143,0.5,0 P,0,162343,163143,A
Sprite,Foreground,Centre,"sb\hl2.png",350.6193,116.4857 C,0,162387,,128,255,255 F,2,162387,163187,0.5,0 P,0,162387,163187,A
Sprite,Foreground,Centre,"sb\hl2.png",355.2386,136.9713 C,0,162431,,128,255,255 F,2,162431,163231,0.5,0 P,0,162431,163231,A
Sprite,Foreground,Centre,"sb\hl2.png",359.8579,157.457 C,0,162475,,128,255,255 F,2,162475,163275,0.5,0 P,0,162475,163275,A
Sprite,Foreground,Centre,"sb\hl2.png",0,0 C,0,162652,,128,255,255 M,0,162652,162696,422,249,418.2238,269.6577 F,2,162652,163628,0.5,0 S,2,162652,163628,1,0.8 P,0,162652,163628,A M,0,162696,162740,418.2238,269.6577,414.4477,290.3154 M,0,162740,162784,414.4477,290.3154,410.6716,310.9731 M,0,162784,162828,410.6716,310.9731,406.8954,331.6308
Sprite,Foreground,Centre,"sb\hl2.png",422,249 C,0,162696,,128,255,255 F,2,162696,163496,0.5,0 P,0,162696,163496,A
Sprite,Foreground,Centre,"sb\hl2.png",418.2238,269.6577 C,0,162740,,128,255,255 F,2,162740,163540,0.5,0 P,0,162740,163540,A
Sprite,Foreground,Centre,"sb\hl2.png",414.4477,290.3154 C,0,162784,,128,255,255 F,2,162784,163584,0.5,0 P,0,162784,163584,A
Sprite,Foreground,Centre,"sb\hl2.png",410.6716,310.9731 C,0,162828,,128,255,255 F,2,162828,163628,0.5,0 P,0,162828,163628,A
Sprite,Foreground,Centre,"sb\hl2.png",0,0 C,0,163004,,128,255,255 M,0,163004,163048,407,421,388.5886,411.0094 F,2,163004,163980,0.5,0 S,2,163004,163980,1,0.8 P,0,163004,163980,A M,0,163048,163092,388.5886,411.0094,368.8039,404.1469 M,0,163092,163136,368.8039,404.1469,348.0677,401.2341 M,0,163136,163180,348.0677,401.2341,327.1496,401.8523
Sprite,Foreground,Centre,"sb\hl2.png",407,421 C,0,163048,,128,255,255 F,2,163048,163848,0.5,0 P,0,163048,163848,A
Sprite,Foreground,Centre,"sb\hl2.png",388.5886,411.0094 C,0,163092,,128,255,255 F,2,163092,163892,0.5,0 P,0,163092,163892,A
Sprite,Foreground,Centre,"sb\hl2.png",368.8039,404.1469 C,0,163136,,128,255,255 F,2,163136,163936,0.5,0 P,0,163136,163936,A
Sprite,Foreground,Centre,"sb\hl2.png",348.0677,401.2341 C,0,163180,,128,255,255 F,2,163180,163980,0.5,0 P,0,163180,163980,A
Sprite,Foreground,Centre,"sb\hl2.png",0,0 C,0,163357,,6,87,255 M,0,163357,163401,268,330,247.7433,335.3235 F,2,163357,164333,0.5,0 S,2,163357,164333,1,0.8 P,0,163357,164333,A M,0,163401,163445,247.7433,335.3235,228.6504,343.9257 M,0,163445,163489,228.6504,343.9257,211.6584,356.1592 M,0,163489,163533,211.6584,356.1592,197.0031,371.0993
Sprite,Foreground,Centre,"sb\hl2.png",268,330 C,0,163401,,6,87,255 F,2,163401,164201,0.5,0 P,0,163401,164201,A
Sprite,Foreground,Centre,"sb\hl2.png",247.7433,335.3235 C,0,163445,,6,87,255 F,2,163445,164245,0.5,0 P,0,163445,164245,A
Sprite,Foreground,Centre,"sb\hl2.png",228.6504,343.9257 C,0,163489,,6,87,255 F,2,163489,164289,0.5,0 P,0,163489,164289,A
Sprite,Foreground,Centre,"sb\hl2.png",211.6584,356.1592 C,0,163533,,6,87,255 F,2,163533,164333,0.5,0 P,0,163533,164333,A
Sprite,Foreground,Centre,"sb\hl2.png",0,0 C,0,163710,,6,87,255 M,0,163710,163754,117,323,104.3743,339.6854 F,2,163710,164862,0.5,0 S,2,163710,164862,1,0.8 P,0,163710,164862,A M,0,163754,163798,104.3743,339.6854,95.2644,358.5097 M,0,163798,163842,95.2644,358.5097,90.74182,378.9271 M,0,163842,163886,90.74182,378.9271,90.46649,399.8176 M,0,163886,163930,90.46649,399.8176,90.74182,378.927 M,0,163930,163974,90.74182,378.927,95.2644,358.5097 M,0,163974,164018,95.2644,358.5097,104.3743,339.6854 M,0,164018,164062,104.3743,339.6854,117,323
Sprite,Foreground,Centre,"sb\hl2.png",117,323 C,0,163754,,6,87,255 F,2,163754,164554,0.5,0 P,0,163754,164554,A
Sprite,Foreground,Centre,"sb\hl2.png",104.3743,339.6854 C,0,163798,,6,87,255 F,2,163798,164598,0.5,0 P,0,163798,164598,A
Sprite,Foreground,Centre,"sb\hl2.png",95.2644,358.5097 C,0,163842,,6,87,255 F,2,163842,164642,0.5,0 P,0,163842,164642,A
Sprite,Foreground,Centre,"sb\hl2.png",90.74182,378.9271 C,0,163886,,6,87,255 F,2,163886,164686,0.5,0 P,0,163886,164686,A
Sprite,Foreground,Centre,"sb\hl2.png",90.46649,399.8176 C,0,163930,,6,87,255 F,2,163930,164730,0.5,0 P,0,163930,164730,A
Sprite,Foreground,Centre,"sb\hl2.png",90.74182,378.927 C,0,163974,,6,87,255 F,2,163974,164774,0.5,0 P,0,163974,164774,A
Sprite,Foreground,Centre,"sb\hl2.png",95.2644,358.5097 C,0,164018,,6,87,255 F,2,164018,164818,0.5,0 P,0,164018,164818,A
Sprite,Foreground,Centre,"sb\hl2.png",104.3743,339.6854 C,0,164062,,6,87,255 F,2,164062,164862,0.5,0 P,0,164062,164862,A
Sprite,Foreground,Centre,"sb\hl2.png",0,0 C,0,164240,,6,87,255 M,0,164240,164284,187,261,184.5463,240.1438 F,2,164240,165392,0.5,0 S,2,164240,165392,1,0.8 P,0,164240,165392,A M,0,164284,164328,184.5463,240.1438,182.0927,219.2877 M,0,164328,164372,182.0927,219.2877,179.639,198.4315 M,0,164372,164416,179.639,198.4315,177.1853,177.5753 M,0,164416,164460,177.1853,177.5753,174.7317,156.7192 M,0,164460,164504,174.7317,156.7192,172.278,135.863 M,0,164504,164548,172.278,135.863,169.8243,115.0069 M,0,164548,164592,169.8243,115.0069,167.3707,94.15071
Sprite,Foreground,Centre,"sb\hl2.png",187,261 C,0,164284,,6,87,255 F,2,164284,165084,0.5,0 P,0,164284,165084,A
Sprite,Foreground,Centre,"sb\hl2.png",184.5463,240.1438 C,0,164328,,6,87,255 F,2,164328,165128,0.5,0 P,0,164328,165128,A
Sprite,Foreground,Centre,"sb\hl2.png",182.0927,219.2877 C,0,164372,,6,87,255 F,2,164372,165172,0.5,0 P,0,164372,165172,A
Sprite,Foreground,Centre,"sb\hl2.png",179.639,198.4315 C,0,164416,,6,87,255 F,2,164416,165216,0.5,0 P,0,164416,165216,A
Sprite,Foreground,Centre,"sb\hl2.png",177.1853,177.5753 C,0,164460,,6,87,255 F,2,164460,165260,0.5,0 P,0,164460,165260,A
Sprite,Foreground,Centre,"sb\hl2.png",174.7317,156.7192 C,0,164504,,6,87,255 F,2,164504,165304,0.5,0 P,0,164504,165304,A
Sprite,Foreground,Centre,"sb\hl2.png",172.278,135.863 C,0,164548,,6,87,255 F,2,164548,165348,0.5,0 P,0,164548,165348,A
Sprite,Foreground,Centre,"sb\hl2.png",169.8243,115.0069 C,0,164592,,6,87,255 F,2,164592,165392,0.5,0 P,0,164592,165392,A
Sprite,Foreground,Centre,"sb\hl2.png",0,0 C,0,164769,,228,228,228 M,0,164769,164813,257,86,259.2176,106.8826 F,2,164769,165745,0.5,0 S,2,164769,165745,1,0.8 P,0,164769,165745,A M,0,164813,164857,259.2176,106.8826,261.4352,127.7652 M,0,164857,164901,261.4352,127.7652,263.6529,148.6477 M,0,164901,164945,263.6529,148.6477,265.8705,169.5303
Sprite,Foreground,Centre,"sb\hl2.png",257,86 C,0,164813,,228,228,228 F,2,164813,165613,0.5,0 P,0,164813,165613,A
Sprite,Foreground,Centre,"sb\hl2.png",259.2176,106.8826 C,0,164857,,228,228,228 F,2,164857,165657,0.5,0 P,0,164857,165657,A
Sprite,Foreground,Centre,"sb\hl2.png",261.4352,127.7652 C,0,164901,,228,228,228 F,2,164901,165701,0.5,0 P,0,164901,165701,A
Sprite,Foreground,Centre,"sb\hl2.png",263.6529,148.6477 C,0,164945,,228,228,228 F,2,164945,165745,0.5,0 P,0,164945,165745,A
Sprite,Foreground,Centre,"sb\hl2.png",0,0 C,0,165122,,228,228,228 M,0,165122,165166,325,237,345.8739,234.702 F,2,165122,166098,0.5,0 S,2,165122,166098,1,0.8 P,0,165122,166098,A M,0,165166,165210,345.8739,234.702,366.7478,232.4039 M,0,165210,165254,366.7478,232.4039,387.6216,230.1059 M,0,165254,165298,387.6216,230.1059,408.4955,227.8078
Sprite,Foreground,Centre,"sb\hl2.png",325,237 C,0,165166,,228,228,228 F,2,165166,165966,0.5,0 P,0,165166,165966,A
Sprite,Foreground,Centre,"sb\hl2.png",345.8739,234.702 C,0,165210,,228,228,228 F,2,165210,166010,0.5,0 P,0,165210,166010,A
Sprite,Foreground,Centre,"sb\hl2.png",366.7478,232.4039 C,0,165254,,228,228,228 F,2,165254,166054,0.5,0 P,0,165254,166054,A
Sprite,Foreground,Centre,"sb\hl2.png",387.6216,230.1059 C,0,165298,,228,228,228 F,2,165298,166098,0.5,0 P,0,165298,166098,A
Sprite,Foreground,Centre,"sb\hl2.png",492,178 C,0,165475,,228,228,228 F,2,165475,166275,0.5,0 S,2,165475,166275,1,0.8 P,0,165475,166275,A
Sprite,Foreground,Centre,"sb\hl2.png",0,0 C,0,165652,,228,228,228 M,0,165652,165696,545,258,546.4142,278.8784 F,2,165652,166628,0.5,0 S,2,165652,166628,1,0.8 P,0,165652,166628,A M,0,165696,165740,546.4142,278.8784,543.8889,299.6601 M,0,165740,165784,543.8889,299.6601,536.582,319.2656 M,0,165784,165828,536.582,319.2656,525.6968,337.1389
Sprite,Foreground,Centre,"sb\hl2.png",545,258 C,0,165696,,228,228,228 F,2,165696,166496,0.5,0 P,0,165696,166496,A
Sprite,Foreground,Centre,"sb\hl2.png",546.4142,278.8784 C,0,165740,,228,228,228 F,2,165740,166540,0.5,0 P,0,165740,166540,A
Sprite,Foreground,Centre,"sb\hl2.png",543.8889,299.6601 C,0,165784,,228,228,228 F,2,165784,166584,0.5,0 P,0,165784,166584,A
Sprite,Foreground,Centre,"sb\hl2.png",536.582,319.2656 C,0,165828,,228,228,228 F,2,165828,166628,0.5,0 P,0,165828,166628,A
Sprite,Foreground,Centre,"sb\hl2.png",463,414 C,0,166004,,228,228,228 F,2,166004,166804,0.5,0 S,2,166004,166804,1,0.8 P,0,166004,166804,A
Sprite,Foreground,Centre,"sb\hl2.png",0,0 C,0,166181,,136,136,136 M,0,166181,166225,463,414,442.1361,415.557 F,2,166181,167157,0.5,0 S,2,166181,167157,1,0.8 P,0,166181,167157,A M,0,166225,166269,442.1361,415.557,421.3603,413.0445 M,0,166269,166313,421.3603,413.0445,401.7986,405.6389 M,0,166313,166357,401.7986,405.6389,384.0711,394.5388
Sprite,Foreground,Centre,"sb\hl2.png",463,414 C,0,166225,,136,136,136 F,2,166225,167025,0.5,0 P,0,166225,167025,A
Sprite,Foreground,Centre,"sb\hl2.png",442.1361,415.557 C,0,166269,,136,136,136 F,2,166269,167069,0.5,0 P,0,166269,167069,A
Sprite,Foreground,Centre,"sb\hl2.png",421.3603,413.0445 C,0,166313,,136,136,136 F,2,166313,167113,0.5,0 P,0,166313,167113,A
Sprite,Foreground,Centre,"sb\hl2.png",401.7986,405.6389 C,0,166357,,136,136,136 F,2,166357,167157,0.5,0 P,0,166357,167157,A
Sprite,Foreground,Centre,"sb\hl2.png",0,0 C,0,166534,,136,136,136 M,0,166534,166578,322,325,325.7372,304.3352 F,2,166534,167686,0.5,0 S,2,166534,167686,1,0.8 P,0,166534,167686,A M,0,166578,166622,325.7372,304.3352,329.4745,283.6704 M,0,166622,166666,329.4745,283.6704,333.2117,263.0057 M,0,166666,166710,333.2117,263.0057,336.949,242.3409 M,0,166710,166754,336.949,242.3409,333.2117,263.0057 M,0,166754,166798,333.2117,263.0057,329.4745,283.6705 M,0,166798,166842,329.4745,283.6705,325.7372,304.3352 M,0,166842,166886,325.7372,304.3352,322,325
Sprite,Foreground,Centre,"sb\hl2.png",322,325 C,0,166578,,136,136,136 F,2,166578,167378,0.5,0 P,0,166578,167378,A
Sprite,Foreground,Centre,"sb\hl2.png",325.7372,304.3352 C,0,166622,,136,136,136 F,2,166622,167422,0.5,0 P,0,166622,167422,A
Sprite,Foreground,Centre,"sb\hl2.png",329.4745,283.6704 C,0,166666,,136,136,136 F,2,166666,167466,0.5,0 P,0,166666,167466,A
Sprite,Foreground,Centre,"sb\hl2.png",333.2117,263.0057 C,0,166710,,136,136,136 F,2,166710,167510,0.5,0 P,0,166710,167510,A
Sprite,Foreground,Centre,"sb\hl2.png",336.949,242.3409 C,0,166754,,136,136,136 F,2,166754,167554,0.5,0 P,0,166754,167554,A
Sprite,Foreground,Centre,"sb\hl2.png",333.2117,263.0057 C,0,166798,,136,136,136 F,2,166798,167598,0.5,0 P,0,166798,167598,A
Sprite,Foreground,Centre,"sb\hl2.png",329.4745,283.6705 C,0,166842,,136,136,136 F,2,166842,167642,0.5,0 P,0,166842,167642,A
Sprite,Foreground,Centre,"sb\hl2.png",325.7372,304.3352 C,0,166886,,136,136,136 F,2,166886,167686,0.5,0 P,0,166886,167686,A
Sprite,Foreground,Centre,"sb\hl2.png",257,398 C,0,167063,,136,136,136 F,2,167063,167863,0.5,0 S,2,167063,167863,1,0.8 P,0,167063,167863,A
Sprite,Foreground,Centre,"sb\hl2.png",0,0 C,0,167240,,136,136,136 M,0,167240,167284,219,309,222.7157,288.3314 F,2,167240,168216,0.5,0 S,2,167240,168216,1,0.8 P,0,167240,168216,A M,0,167284,167328,222.7157,288.3314,226.4314,267.6627 M,0,167328,167372,226.4314,267.6627,230.1471,246.994 M,0,167372,167416,230.1471,246.994,233.8629,226.3254
Sprite,Foreground,Centre,"sb\hl2.png",219,309 C,0,167284,,136,136,136 F,2,167284,168084,0.5,0 P,0,167284,168084,A
Sprite,Foreground,Centre,"sb\hl2.png",222.7157,288.3314 C,0,167328,,136,136,136 F,2,167328,168128,0.5,0 P,0,167328,168128,A
Sprite,Foreground,Centre,"sb\hl2.png",226.4314,267.6627 C,0,167372,,136,136,136 F,2,167372,168172,0.5,0 P,0,167372,168172,A
Sprite,Foreground,Centre,"sb\hl2.png",230.1471,246.994 C,0,167416,,136,136,136 F,2,167416,168216,0.5,0 P,0,167416,168216,A
Sprite,Foreground,Centre,"sb\hl2.png",252,139 C,0,167593,,228,228,228 F,2,167593,168393,0.5,0 S,2,167593,168393,1,0.8 P,0,167593,168393,A
Sprite,Foreground,Centre,"sb\hl2.png",252,139 C,0,167769,,228,228,228 F,2,167769,168569,0.5,0 S,2,167769,168569,1,0.8 P,0,167769,168569,A
Sprite,Foreground,Centre,"sb\hl2.png",0,0 C,0,167946,,228,228,228 M,0,167946,167990,178,78,159.7504,88.30785 F,2,167946,168922,0.5,0 S,2,167946,168922,1,0.8 P,0,167946,168922,A M,0,167990,168034,159.7504,88.30785,143.1452,101.0938 M,0,168034,168078,143.1452,101.0938,128.9726,116.5287 M,0,168078,168122,128.9726,116.5287,117.1974,133.854
Sprite,Foreground,Centre,"sb\hl2.png",178,78 C,0,167990,,228,228,228 F,2,167990,168790,0.5,0 P,0,167990,168790,A
Sprite,Foreground,Centre,"sb\hl2.png",159.7504,88.30785 C,0,168034,,228,228,228 F,2,168034,168834,0.5,0 P,0,168034,168834,A
Sprite,Foreground,Centre,"sb\hl2.png",143.1452,101.0938 C,0,168078,,228,228,228 F,2,168078,168878,0.5,0 P,0,168078,168878,A
Sprite,Foreground,Centre,"sb\hl2.png",128.9726,116.5287 C,0,168122,,228,228,228 F,2,168122,168922,0.5,0 P,0,168122,168922,A
Sprite,Foreground,Centre,"sb\hl2.png",65,217 C,0,168299,,228,228,228 F,2,168299,169099,0.5,0 S,2,168299,169099,1,0.8 P,0,168299,169099,A
Sprite,Foreground,Centre,"sb\hl2.png",0,0 C,0,168475,,228,228,228 M,0,168475,168519,65,217,75.0724,235.3653 F,2,168475,169451,0.5,0 S,2,168475,169451,1,0.8 P,0,168475,169451,A M,0,168519,168563,75.0724,235.3653,87.97277,251.8725 M,0,168563,168607,87.97277,251.8725,103.8999,265.4709 M,0,168607,168651,103.8999,265.4709,121.8319,276.2893
Sprite,Foreground,Centre,"sb\hl2.png",65,217 C,0,168519,,228,228,228 F,2,168519,169319,0.5,0 P,0,168519,169319,A
Sprite,Foreground,Centre,"sb\hl2.png",75.0724,235.3653 C,0,168563,,228,228,228 F,2,168563,169363,0.5,0 P,0,168563,169363,A
Sprite,Foreground,Centre,"sb\hl2.png",87.97277,251.8725 C,0,168607,,228,228,228 F,2,168607,169407,0.5,0 P,0,168607,169407,A
Sprite,Foreground,Centre,"sb\hl2.png",103.8999,265.4709 C,0,168651,,228,228,228 F,2,168651,169451,0.5,0 P,0,168651,169451,A
Sprite,Foreground,Centre,"sb\hl2.png",212,253 C,0,168828,,228,228,228 F,2,168828,169628,0.5,0 S,2,168828,169628,1,0.8 P,0,168828,169628,A
Sprite,Foreground,Centre,"sb\hl2.png",0,0 C,0,169004,,228,228,228 M,0,169004,169048,186,339,189.069,359.7745 F,2,169004,169980,0.5,0 S,2,169004,169980,1,0.8 P,0,169004,169980,A M,0,169048,169092,189.069,359.7745,192.1379,380.5491 M,0,169092,169136,192.1379,380.5491,195.2069,401.3236 M,0,169136,169180,195.2069,401.3236,198.2759,422.0981
Sprite,Foreground,Centre,"sb\hl2.png",186,339 C,0,169048,,228,228,228 F,2,169048,169848,0.5,0 P,0,169048,169848,A
Sprite,Foreground,Centre,"sb\hl2.png",189.069,359.7745 C,0,169092,,228,228,228 F,2,169092,169892,0.5,0 P,0,169092,169892,A
Sprite,Foreground,Centre,"sb\hl2.png",192.1379,380.5491 C,0,169136,,228,228,228 F,2,169136,169936,0.5,0 P,0,169136,169936,A
Sprite,Foreground,Centre,"sb\hl2.png",195.2069,401.3236 C,0,169180,,228,228,228 F,2,169180,169980,0.5,0 P,0,169180,169980,A
Sprite,Foreground,Centre,"sb\hl2.png",0,0 C,0,169357,,6,87,255 M,0,169357,169401,290,440,286.3009,419.3284 F,2,169357,170333,0.5,0 S,2,169357,170333,1,0.8 P,0,169357,170333,A M,0,169401,169445,286.3009,419.3284,282.6017,398.6567 M,0,169445,169489,282.6017,398.6567,278.9026,377.9851 M,0,169489,169533,278.9026,377.9851,275.2035,357.3135
Sprite,Foreground,Centre,"sb\hl2.png",290,440 C,0,169401,,6,87,255 F,2,169401,170201,0.5,0 P,0,169401,170201,A
Sprite,Foreground,Centre,"sb\hl2.png",286.3009,419.3284 C,0,169445,,6,87,255 F,2,169445,170245,0.5,0 P,0,169445,170245,A
Sprite,Foreground,Centre,"sb\hl2.png",282.6017,398.6567 C,0,169489,,6,87,255 F,2,169489,170289,0.5,0 P,0,169489,170289,A
Sprite,Foreground,Centre,"sb\hl2.png",278.9026,377.9851 C,0,169533,,6,87,255 F,2,169533,170333,0.5,0 P,0,169533,170333,A
Sprite,Foreground,Centre,"sb\hl2.png",0,0 C,0,169710,,6,87,255 M,0,169710,169754,251,267,234.0364,254.6212 F,2,169710,170686,0.5,0 S,2,169710,170686,1,0.8 P,0,169710,170686,A M,0,169754,169798,234.0364,254.6212,217.0728,242.2423 M,0,169798,169842,217.0728,242.2423,234.0364,254.6212 M,0,169842,169886,234.0364,254.6212,251,267
Sprite,Foreground,Centre,"sb\hl2.png",251,267 C,0,169754,,6,87,255 F,2,169754,170554,0.5,0 P,0,169754,170554,A
Sprite,Foreground,Centre,"sb\hl2.png",234.0364,254.6212 C,0,169798,,6,87,255 F,2,169798,170598,0.5,0 P,0,169798,170598,A
Sprite,Foreground,Centre,"sb\hl2.png",217.0728,242.2423 C,0,169842,,6,87,255 F,2,169842,170642,0.5,0 P,0,169842,170642,A
Sprite,Foreground,Centre,"sb\hl2.png",234.0364,254.6212 C,0,169886,,6,87,255 F,2,169886,170686,0.5,0 P,0,169886,170686,A
Sprite,Foreground,Centre,"sb\hl2.png",348,242 C,0,170063,,6,87,255 F,2,170063,170863,0.5,0 S,2,170063,170863,1,0.8 P,0,170063,170863,A
Sprite,Foreground,Centre,"sb\hl2.png",381,331 C,0,170240,,6,87,255 F,2,170240,171040,0.5,0 S,2,170240,171040,1,0.8 P,0,170240,171040,A
Sprite,Foreground,Centre,"sb\hl2.png",0,0 C,0,171122,,133,11,255 M,0,171122,171166,238,100,249.4832,109.6211 F,2,171122,172627,0.5,0 S,2,171122,172627,1,0.8 P,0,171122,172627,A M,0,171166,171210,249.4832,109.6211,261.7809,118.1535 M,0,171210,171254,261.7809,118.1535,274.9185,125.3316 M,0,171254,171298,274.9185,125.3316,288.7483,131.074 M,0,171298,171342,288.7483,131.074,303.1154,135.315 M,0,171342,171386,303.1154,135.315,317.8586,138.0058 M,0,171386,171430,317.8586,138.0058,332.8148,138.8527 M,0,171430,171474,332.8148,138.8527,347.7713,138.2955 M,0,171474,171519,347.7713,138.2955,362.5857,136.1513 M,0,171519,171563,362.5857,136.1513,377.0913,132.4437 M,0,171563,171607,377.0913,132.4437,391.1248,127.2134 M,0,171607,171651,391.1248,127.2134,404.528,120.5182 M,0,171651,171695,404.528,120.5182,417.1494,112.432 M,0,171695,171739,417.1494,112.432,428.6504,102.8328 M,0,171739,171783,428.6504,102.8328,439.2113,92.22659 M,0,171783,171827,439.2113,92.22659,448.5864,80.556
Sprite,Foreground,Centre,"sb\hl2.png",238,100 C,0,171166,,133,11,255 F,2,171166,171966,0.5,0 P,0,171166,171966,A
Sprite,Foreground,Centre,"sb\hl2.png",249.4832,109.6211 C,0,171210,,133,11,255 F,2,171210,172010,0.5,0 P,0,171210,172010,A
Sprite,Foreground,Centre,"sb\hl2.png",261.7809,118.1535 C,0,171254,,133,11,255 F,2,171254,172054,0.5,0 P,0,171254,172054,A
Sprite,Foreground,Centre,"sb\hl2.png",274.9185,125.3316 C,0,171298,,133,11,255 F,2,171298,172098,0.5,0 P,0,171298,172098,A
Sprite,Foreground,Centre,"sb\hl2.png",288.7483,131.074 C,0,171342,,133,11,255 F,2,171342,172142,0.5,0 P,0,171342,172142,A
Sprite,Foreground,Centre,"sb\hl2.png",303.1154,135.315 C,0,171386,,133,11,255 F,2,171386,172186,0.5,0 P,0,171386,172186,A
Sprite,Foreground,Centre,"sb\hl2.png",317.8586,138.0058 C,0,171430,,133,11,255 F,2,171430,172230,0.5,0 P,0,171430,172230,A
Sprite,Foreground,Centre,"sb\hl2.png",332.8148,138.8527 C,0,171474,,133,11,255 F,2,171474,172274,0.5,0 P,0,171474,172274,A
Sprite,Foreground,Centre,"sb\hl2.png",347.7713,138.2955 C,0,171519,,133,11,255 F,2,171519,172319,0.5,0 P,0,171519,172319,A
Sprite,Foreground,Centre,"sb\hl2.png",362.5857,136.1513 C,0,171563,,133,11,255 F,2,171563,172363,0.5,0 P,0,171563,172363,A
Sprite,Foreground,Centre,"sb\hl2.png",377.0913,132.4437 C,0,171607,,133,11,255 F,2,171607,172407,0.5,0 P,0,171607,172407,A
Sprite,Foreground,Centre,"sb\hl2.png",391.1248,127.2134 C,0,171651,,133,11,255 F,2,171651,172451,0.5,0 P,0,171651,172451,A
Sprite,Foreground,Centre,"sb\hl2.png",404.528,120.5182 C,0,171695,,133,11,255 F,2,171695,172495,0.5,0 P,0,171695,172495,A
Sprite,Foreground,Centre,"sb\hl2.png",417.1494,112.432 C,0,171739,,133,11,255 F,2,171739,172539,0.5,0 P,0,171739,172539,A
Sprite,Foreground,Centre,"sb\hl2.png",428.6504,102.8328 C,0,171783,,133,11,255 F,2,171783,172583,0.5,0 P,0,171783,172583,A
Sprite,Foreground,Centre,"sb\hl2.png",439.2113,92.22659 C,0,171827,,133,11,255 F,2,171827,172627,0.5,0 P,0,171827,172627,A
Sprite,Foreground,Centre,"sb\hl2.png",0,0 C,0,172534,,255,6,6 M,0,172534,172578,507,190,505.7878,204.9509 F,2,172534,173510,0.5,0 S,2,172534,173510,1,0.8 P,0,172534,173510,A M,0,172578,172622,505.7878,204.9509,504.5755,219.9019 M,0,172622,172666,504.5755,219.9019,503.3633,234.8528 M,0,172666,172710,503.3633,234.8528,502.1511,249.8037
Sprite,Foreground,Centre,"sb\hl2.png",507,190 C,0,172578,,255,6,6 F,2,172578,173378,0.5,0 P,0,172578,173378,A
Sprite,Foreground,Centre,"sb\hl2.png",505.7878,204.9509 C,0,172622,,255,6,6 F,2,172622,173422,0.5,0 P,0,172622,173422,A
Sprite,Foreground,Centre,"sb\hl2.png",504.5755,219.9019 C,0,172666,,255,6,6 F,2,172666,173466,0.5,0 P,0,172666,173466,A
Sprite,Foreground,Centre,"sb\hl2.png",503.3633,234.8528 C,0,172710,,255,6,6 F,2,172710,173510,0.5,0 P,0,172710,173510,A
Sprite,Foreground,Centre,"sb\hl2.png",558,330 C,0,172887,,255,6,6 F,2,172887,173687,0.5,0 S,2,172887,173687,1,0.8 P,0,172887,173687,A
Sprite,Foreground,Centre,"sb\hl2.png",0,0 C,0,173063,,128,255,255 M,0,173063,173107,485,398,464.1506,395.4893 F,2,173063,174215,0.5,0 S,2,173063,174215,1,0.8 P,0,173063,174215,A M,0,173107,173151,464.1506,395.4893,443.3012,392.9787 M,0,173151,173195,443.3012,392.9787,422.4519,390.468 M,0,173195,173239,422.4519,390.468,401.6025,387.9574 M,0,173239,173283,401.6025,387.9574,380.7531,385.4467 M,0,173283,173327,380.7531,385.4467,359.9037,382.936 M,0,173327,173371,359.9037,382.936,339.0544,380.4254 M,0,173371,173415,339.0544,380.4254,318.205,377.9147
Sprite,Foreground,Centre,"sb\hl2.png",485,398 C,0,173107,,128,255,255 F,2,173107,173907,0.5,0 P,0,173107,173907,A
Sprite,Foreground,Centre,"sb\hl2.png",464.1506,395.4893 C,0,173151,,128,255,255 F,2,173151,173951,0.5,0 P,0,173151,173951,A
Sprite,Foreground,Centre,"sb\hl2.png",443.3012,392.9787 C,0,173195,,128,255,255 F,2,173195,173995,0.5,0 P,0,173195,173995,A
Sprite,Foreground,Centre,"sb\hl2.png",422.4519,390.468 C,0,173239,,128,255,255 F,2,173239,174039,0.5,0 P,0,173239,174039,A
Sprite,Foreground,Centre,"sb\hl2.png",401.6025,387.9574 C,0,173283,,128,255,255 F,2,173283,174083,0.5,0 P,0,173283,174083,A
Sprite,Foreground,Centre,"sb\hl2.png",380.7531,385.4467 C,0,173327,,128,255,255 F,2,173327,174127,0.5,0 P,0,173327,174127,A
Sprite,Foreground,Centre,"sb\hl2.png",359.9037,382.936 C,0,173371,,128,255,255 F,2,173371,174171,0.5,0 P,0,173371,174171,A
Sprite,Foreground,Centre,"sb\hl2.png",339.0544,380.4254 C,0,173415,,128,255,255 F,2,173415,174215,0.5,0 P,0,173415,174215,A
Sprite,Foreground,Centre,"sb\hl2.png",0,0 C,0,173593,,128,255,255 M,0,173593,173637,231,429,210.0862,430.9012 F,2,173593,174569,0.5,0 S,2,173593,174569,1,0.8 P,0,173593,174569,A M,0,173637,173681,210.0862,430.9012,189.1725,432.8025 M,0,173681,173725,189.1725,432.8025,168.2587,434.7038 M,0,173725,173769,168.2587,434.7038,147.345,436.605
Sprite,Foreground,Centre,"sb\hl2.png",231,429 C,0,173637,,128,255,255 F,2,173637,174437,0.5,0 P,0,173637,174437,A
Sprite,Foreground,Centre,"sb\hl2.png",210.0862,430.9012 C,0,173681,,128,255,255 F,2,173681,174481,0.5,0 P,0,173681,174481,A
Sprite,Foreground,Centre,"sb\hl2.png",189.1725,432.8025 C,0,173725,,128,255,255 F,2,173725,174525,0.5,0 P,0,173725,174525,A
Sprite,Foreground,Centre,"sb\hl2.png",168.2587,434.7038 C,0,173769,,128,255,255 F,2,173769,174569,0.5,0 P,0,173769,174569,A
Sprite,Foreground,Centre,"sb\hl2.png",0,0 C,0,173946,,128,255,255 M,0,173946,173990,79,367,76.34501,346.1685 F,2,173946,174922,0.5,0 S,2,173946,174922,1,0.8 P,0,173946,174922,A M,0,173990,174034,76.34501,346.1685,73.69001,325.337 M,0,174034,174078,73.69001,325.337,71.03502,304.5055 M,0,174078,174122,71.03502,304.5055,68.38003,283.674
Sprite,Foreground,Centre,"sb\hl2.png",79,367 C,0,173990,,128,255,255 F,2,173990,174790,0.5,0 P,0,173990,174790,A
Sprite,Foreground,Centre,"sb\hl2.png",76.34501,346.1685 C,0,174034,,128,255,255 F,2,174034,174834,0.5,0 P,0,174034,174834,A
Sprite,Foreground,Centre,"sb\hl2.png",73.69001,325.337 C,0,174078,,128,255,255 F,2,174078,174878,0.5,0 P,0,174078,174878,A
Sprite,Foreground,Centre,"sb\hl2.png",71.03502,304.5055 C,0,174122,,128,255,255 F,2,174122,174922,0.5,0 P,0,174122,174922,A
Sprite,Foreground,Centre,"sb\hl2.png",109,195 C,0,174299,,128,255,255 F,2,174299,175099,0.5,0 S,2,174299,175099,1,0.8 P,0,174299,175099,A
Sprite,Foreground,Centre,"sb\hl2.png",182,245 C,0,174475,,128,255,255 F,2,174475,175275,0.5,0 S,2,174475,175275,1,0.8 P,0,174475,175275,A
Sprite,Foreground,Centre,"sb\hl2.png",0,0 C,0,174652,,6,87,255 M,0,174652,174696,233,167,252.4272,159.1894 F,2,174652,175628,0.5,0 S,2,174652,175628,1,0.8 P,0,174652,175628,A M,0,174696,174740,252.4272,159.1894,272.9117,154.8251 M,0,174740,174784,272.9117,154.8251,293.8466,154.9261 M,0,174784,174828,293.8466,154.9261,314.4485,158.6562
Sprite,Foreground,Centre,"sb\hl2.png",233,167 C,0,174696,,6,87,255 F,2,174696,175496,0.5,0 P,0,174696,175496,A
Sprite,Foreground,Centre,"sb\hl2.png",252.4272,159.1894 C,0,174740,,6,87,255 F,2,174740,175540,0.5,0 P,0,174740,175540,A
Sprite,Foreground,Centre,"sb\hl2.png",272.9117,154.8251 C,0,174784,,6,87,255 F,2,174784,175584,0.5,0 P,0,174784,175584,A
Sprite,Foreground,Centre,"sb\hl2.png",293.8466,154.9261 C,0,174828,,6,87,255 F,2,174828,175628,0.5,0 P,0,174828,175628,A
Sprite,Foreground,Centre,"sb\hl2.png",393,215 C,0,175004,,6,87,255 F,2,175004,175804,0.5,0 S,2,175004,175804,1,0.8 P,0,175004,175804,A
Sprite,Foreground,Centre,"sb\hl2.png",0,0 C,0,175181,,6,87,255 M,0,175181,175225,478,145,489.1993,162.7644 F,2,175181,176333,0.5,0 S,2,175181,176333,1,0.8 P,0,175181,176333,A M,0,175225,175269,489.1993,162.7644,500.3987,180.5289 M,0,175269,175313,500.3987,180.5289,505.5017,199.4905 M,0,175313,175357,505.5017,199.4905,501.8522,220.171 M,0,175357,175401,501.8522,220.171,498.2027,240.8514 M,0,175401,175445,498.2027,240.8514,494.5532,261.5319 M,0,175445,175489,494.5532,261.5319,490.9037,282.2123 M,0,175489,175533,490.9037,282.2123,487.2542,302.8928
Sprite,Foreground,Centre,"sb\hl2.png",478,145 C,0,175225,,6,87,255 F,2,175225,176025,0.5,0 P,0,175225,176025,A
Sprite,Foreground,Centre,"sb\hl2.png",489.1993,162.7644 C,0,175269,,6,87,255 F,2,175269,176069,0.5,0 P,0,175269,176069,A
Sprite,Foreground,Centre,"sb\hl2.png",500.3987,180.5289 C,0,175313,,6,87,255 F,2,175313,176113,0.5,0 P,0,175313,176113,A
Sprite,Foreground,Centre,"sb\hl2.png",505.5017,199.4905 C,0,175357,,6,87,255 F,2,175357,176157,0.5,0 P,0,175357,176157,A
Sprite,Foreground,Centre,"sb\hl2.png",501.8522,220.171 C,0,175401,,6,87,255 F,2,175401,176201,0.5,0 P,0,175401,176201,A
Sprite,Foreground,Centre,"sb\hl2.png",498.2027,240.8514 C,0,175445,,6,87,255 F,2,175445,176245,0.5,0 P,0,175445,176245,A
Sprite,Foreground,Centre,"sb\hl2.png",494.5532,261.5319 C,0,175489,,6,87,255 F,2,175489,176289,0.5,0 P,0,175489,176289,A
Sprite,Foreground,Centre,"sb\hl2.png",490.9037,282.2123 C,0,175533,,6,87,255 F,2,175533,176333,0.5,0 P,0,175533,176333,A
Sprite,Foreground,Centre,"sb\hl2.png",521,398 C,0,175710,,6,87,255 F,2,175710,176510,0.5,0 S,2,175710,176510,1,0.8 P,0,175710,176510,A
Sprite,Foreground,Centre,"sb\hl2.png",0,0 C,0,175887,,128,255,255 M,0,175887,175931,420,391,399.1224,389.5401 F,2,175887,176863,0.5,0 S,2,175887,176863,1,0.8 P,0,175887,176863,A M,0,175931,175975,399.1224,389.5401,378.3459,392.0232 M,0,175975,176019,378.3459,392.0232,358.671,399.1322 M,0,176019,176063,358.671,399.1322,340.7474,409.8961
Sprite,Foreground,Centre,"sb\hl2.png",420,391 C,0,175931,,128,255,255 F,2,175931,176731,0.5,0 P,0,175931,176731,A
Sprite,Foreground,Centre,"sb\hl2.png",399.1224,389.5401 C,0,175975,,128,255,255 F,2,175975,176775,0.5,0 P,0,175975,176775,A
Sprite,Foreground,Centre,"sb\hl2.png",378.3459,392.0232 C,0,176019,,128,255,255 F,2,176019,176819,0.5,0 P,0,176019,176819,A
Sprite,Foreground,Centre,"sb\hl2.png",358.671,399.1322 C,0,176063,,128,255,255 F,2,176063,176863,0.5,0 P,0,176063,176863,A
Sprite,Foreground,Centre,"sb\hl2.png",244,413 C,0,176240,,128,255,255 F,2,176240,177040,0.5,0 S,2,176240,177040,1,0.8 P,0,176240,177040,A
Sprite,Foreground,Centre,"sb\hl2.png",0,0 C,0,176416,,128,255,255 M,0,176416,176460,244,413,226.4141,401.6688 F,2,176416,177392,0.5,0 S,2,176416,177392,1,0.8 P,0,176416,177392,A M,0,176460,176504,226.4141,401.6688,206.9444,394.0079 M,0,176504,176548,206.9444,394.0079,186.2127,391.2563 M,0,176548,176592,186.2127,391.2563,165.3351,392.6277
Sprite,Foreground,Centre,"sb\hl2.png",244,413 C,0,176460,,128,255,255 F,2,176460,177260,0.5,0 P,0,176460,177260,A
Sprite,Foreground,Centre,"sb\hl2.png",226.4141,401.6688 C,0,176504,,128,255,255 F,2,176504,177304,0.5,0 P,0,176504,177304,A
Sprite,Foreground,Centre,"sb\hl2.png",206.9444,394.0079 C,0,176548,,128,255,255 F,2,176548,177348,0.5,0 P,0,176548,177348,A
Sprite,Foreground,Centre,"sb\hl2.png",186.2127,391.2563 C,0,176592,,128,255,255 F,2,176592,177392,0.5,0 P,0,176592,177392,A
Sprite,Foreground,Centre,"sb\hl2.png",0,0 C,0,176769,,128,255,255 M,0,176769,176813,79,336,84.09325,315.627 F,2,176769,177921,0.5,0 S,2,176769,177921,1,0.8 P,0,176769,177921,A M,0,176813,176857,84.09325,315.627,89.18649,295.254 M,0,176857,176901,89.18649,295.254,94.27974,274.881 M,0,176901,176945,94.27974,274.881,94.56987,254.5225 M,0,176945,176989,94.56987,254.5225,89.35399,234.1806 M,0,176989,177033,89.35399,234.1806,89.76502,213.8142 M,0,177033,177077,89.76502,213.8142,94.80435,193.4278 M,0,177077,177121,94.80435,193.4278,99.84369,173.0414
Sprite,Foreground,Centre,"sb\hl2.png",79,336 C,0,176813,,128,255,255 F,2,176813,177613,0.5,0 P,0,176813,177613,A
Sprite,Foreground,Centre,"sb\hl2.png",84.09325,315.627 C,0,176857,,128,255,255 F,2,176857,177657,0.5,0 P,0,176857,177657,A
Sprite,Foreground,Centre,"sb\hl2.png",89.18649,295.254 C,0,176901,,128,255,255 F,2,176901,177701,0.5,0 P,0,176901,177701,A
Sprite,Foreground,Centre,"sb\hl2.png",94.27974,274.881 C,0,176945,,128,255,255 F,2,176945,177745,0.5,0 P,0,176945,177745,A
Sprite,Foreground,Centre,"sb\hl2.png",94.56987,254.5225 C,0,176989,,128,255,255 F,2,176989,177789,0.5,0 P,0,176989,177789,A
Sprite,Foreground,Centre,"sb\hl2.png",89.35399,234.1806 C,0,177033,,128,255,255 F,2,177033,177833,0.5,0 P,0,177033,177833,A
Sprite,Foreground,Centre,"sb\hl2.png",89.76502,213.8142 C,0,177077,,128,255,255 F,2,177077,177877,0.5,0 P,0,177077,177877,A
Sprite,Foreground,Centre,"sb\hl2.png",94.80435,193.4278 C,0,177121,,128,255,255 F,2,177121,177921,0.5,0 P,0,177121,177921,A
Sprite,Foreground,Centre,"sb\hl2.png",202,142 C,0,177299,,6,87,255 F,2,177299,178099,0.5,0 S,2,177299,178099,1,0.8 P,0,177299,178099,A
Sprite,Foreground,Centre,"sb\hl2.png",0,0 C,0,177475,,6,87,255 M,0,177475,177519,202,142,197.6156,162.5372 F,2,177475,178451,0.5,0 S,2,177475,178451,1,0.8 P,0,177475,178451,A M,0,177519,177563,197.6156,162.5372,193.2313,183.0744 M,0,177563,177607,193.2313,183.0744,188.847,203.6117 M,0,177607,177651,188.847,203.6117,184.4626,224.1489
Sprite,Foreground,Centre,"sb\hl2.png",202,142 C,0,177519,,6,87,255 F,2,177519,178319,0.5,0 P,0,177519,178319,A
Sprite,Foreground,Centre,"sb\hl2.png",197.6156,162.5372 C,0,177563,,6,87,255 F,2,177563,178363,0.5,0 P,0,177563,178363,A
Sprite,Foreground,Centre,"sb\hl2.png",193.2313,183.0744 C,0,177607,,6,87,255 F,2,177607,178407,0.5,0 P,0,177607,178407,A
Sprite,Foreground,Centre,"sb\hl2.png",188.847,203.6117 C,0,177651,,6,87,255 F,2,177651,178451,0.5,0 P,0,177651,178451,A
Sprite,Foreground,Centre,"sb\hl2.png",0,0 C,0,177828,,6,87,255 M,0,177828,177872,249,300,269.9829,299.5804 F,2,177828,178980,0.5,0 S,2,177828,178980,1,0.8 P,0,177828,178980,A M,0,177872,177916,269.9829,299.5804,290.7682,302.3491 M,0,177916,177960,290.7682,302.3491,310.4786,309.4614 M,0,177960,178004,310.4786,309.4614,328.6392,319.9856 M,0,178004,178048,328.6392,319.9856,346.8032,330.5066 M,0,178048,178092,346.8032,330.5066,366.317,338.1879 M,0,178092,178136,366.317,338.1879,386.8565,342.4594 M,0,178136,178180,386.8565,342.4594,407.7857,344.047
Sprite,Foreground,Centre,"sb\hl2.png",249,300 C,0,177872,,6,87,255 F,2,177872,178672,0.5,0 P,0,177872,178672,A
Sprite,Foreground,Centre,"sb\hl2.png",269.9829,299.5804 C,0,177916,,6,87,255 F,2,177916,178716,0.5,0 P,0,177916,178716,A
Sprite,Foreground,Centre,"sb\hl2.png",290.7682,302.3491 C,0,177960,,6,87,255 F,2,177960,178760,0.5,0 P,0,177960,178760,A
Sprite,Foreground,Centre,"sb\hl2.png",310.4786,309.4614 C,0,178004,,6,87,255 F,2,178004,178804,0.5,0 P,0,178004,178804,A
Sprite,Foreground,Centre,"sb\hl2.png",328.6392,319.9856 C,0,178048,,6,87,255 F,2,178048,178848,0.5,0 P,0,178048,178848,A
Sprite,Foreground,Centre,"sb\hl2.png",346.8032,330.5066 C,0,178092,,6,87,255 F,2,178092,178892,0.5,0 P,0,178092,178892,A
Sprite,Foreground,Centre,"sb\hl2.png",366.317,338.1879 C,0,178136,,6,87,255 F,2,178136,178936,0.5,0 P,0,178136,178936,A
Sprite,Foreground,Centre,"sb\hl2.png",386.8565,342.4594 C,0,178180,,6,87,255 F,2,178180,178980,0.5,0 P,0,178180,178980,A
Sprite,Foreground,Centre,"sb\hl2.png",485,428 C,0,178357,,6,87,255 F,2,178357,179157,0.5,0 S,2,178357,179157,1,0.8 P,0,178357,179157,A
Sprite,Foreground,Centre,"sb\hl2.png",573,396 C,0,178534,,6,87,255 F,2,178534,179334,0.5,0 S,2,178534,179334,1,0.8 P,0,178534,179334,A
Sprite,Foreground,Centre,"sb\hl2.png",0,0 C,0,178710,,128,255,255 M,0,178710,178754,539,301,540.934,280.0892 F,2,178710,179862,0.5,0 S,2,178710,179862,1,0.8 P,0,178710,179862,A M,0,178754,178798,540.934,280.0892,542.8679,259.1785 M,0,178798,178842,542.8679,259.1785,544.8018,238.2677 M,0,178842,178886,544.8018,238.2677,546.7358,217.357 M,0,178886,178930,546.7358,217.357,548.6697,196.4462 M,0,178930,178974,548.6697,196.4462,550.6036,175.5354 M,0,178974,179018,550.6036,175.5354,552.5376,154.6247 M,0,179018,179062,552.5376,154.6247,554.4716,133.7139
Sprite,Foreground,Centre,"sb\hl2.png",539,301 C,0,178754,,128,255,255 F,2,178754,179554,0.5,0 P,0,178754,179554,A
Sprite,Foreground,Centre,"sb\hl2.png",540.934,280.0892 C,0,178798,,128,255,255 F,2,178798,179598,0.5,0 P,0,178798,179598,A
Sprite,Foreground,Centre,"sb\hl2.png",542.8679,259.1785 C,0,178842,,128,255,255 F,2,178842,179642,0.5,0 P,0,178842,179642,A
Sprite,Foreground,Centre,"sb\hl2.png",544.8018,238.2677 C,0,178886,,128,255,255 F,2,178886,179686,0.5,0 P,0,178886,179686,A
Sprite,Foreground,Centre,"sb\hl2.png",546.7358,217.357 C,0,178930,,128,255,255 F,2,178930,179730,0.5,0 P,0,178930,179730,A
Sprite,Foreground,Centre,"sb\hl2.png",548.6697,196.4462 C,0,178974,,128,255,255 F,2,178974,179774,0.5,0 P,0,178974,179774,A
Sprite,Foreground,Centre,"sb\hl2.png",550.6036,175.5354 C,0,179018,,128,255,255 F,2,179018,179818,0.5,0 P,0,179018,179818,A
Sprite,Foreground,Centre,"sb\hl2.png",552.5376,154.6247 C,0,179062,,128,255,255 F,2,179062,179862,0.5,0 P,0,179062,179862,A
Sprite,Foreground,Centre,"sb\hl2.png",0,0 C,0,179240,,128,255,255 M,0,179240,179284,446,66,448.7755,86.81579 F,2,179240,180216,0.5,0 S,2,179240,180216,1,0.8 P,0,179240,180216,A M,0,179284,179328,448.7755,86.81579,451.5509,107.6316 M,0,179328,179372,451.5509,107.6316,454.3263,128.4474 M,0,179372,179416,454.3263,128.4474,457.1017,149.2631
Sprite,Foreground,Centre,"sb\hl2.png",446,66 C,0,179284,,128,255,255 F,2,179284,180084,0.5,0 P,0,179284,180084,A
Sprite,Foreground,Centre,"sb\hl2.png",448.7755,86.81579 C,0,179328,,128,255,255 F,2,179328,180128,0.5,0 P,0,179328,180128,A
Sprite,Foreground,Centre,"sb\hl2.png",451.5509,107.6316 C,0,179372,,128,255,255 F,2,179372,180172,0.5,0 P,0,179372,180172,A
Sprite,Foreground,Centre,"sb\hl2.png",454.3263,128.4474 C,0,179416,,128,255,255 F,2,179416,180216,0.5,0 P,0,179416,180216,A
Sprite,Foreground,Centre,"sb\hl2.png",430,247 C,0,179593,,128,255,255 F,2,179593,180393,0.5,0 S,2,179593,180393,1,0.8 P,0,179593,180393,A
Sprite,Foreground,Centre,"sb\hl2.png",0,0 C,0,179769,,128,255,255 M,0,179769,179813,355,184,359.4765,163.4827 F,2,179769,180745,0.5,0 S,2,179769,180745,1,0.8 P,0,179769,180745,A M,0,179813,179857,359.4765,163.4827,363.953,142.9653 M,0,179857,179901,363.953,142.9653,359.4765,163.4827 M,0,179901,179945,359.4765,163.4827,355,184
Sprite,Foreground,Centre,"sb\hl2.png",355,184 C,0,179813,,128,255,255 F,2,179813,180613,0.5,0 P,0,179813,180613,A
Sprite,Foreground,Centre,"sb\hl2.png",359.4765,163.4827 C,0,179857,,128,255,255 F,2,179857,180657,0.5,0 P,0,179857,180657,A
Sprite,Foreground,Centre,"sb\hl2.png",363.953,142.9653 C,0,179901,,128,255,255 F,2,179901,180701,0.5,0 P,0,179901,180701,A
Sprite,Foreground,Centre,"sb\hl2.png",359.4765,163.4827 C,0,179945,,128,255,255 F,2,179945,180745,0.5,0 P,0,179945,180745,A
Sprite,Foreground,Centre,"sb\hl2.png",344,272 C,0,180122,,128,255,255 F,2,180122,180922,0.5,0 S,2,180122,180922,1,0.8 P,0,180122,180922,A
Sprite,Foreground,Centre,"sb\hl2.png",0,0 C,0,180299,,191,128,255 M,0,180299,180343,344,272,323.1539,269.4622 F,2,180299,181275,0.5,0 S,2,180299,181275,1,0.8 P,0,180299,181275,A M,0,180343,180387,323.1539,269.4622,302.3078,266.9244 M,0,180387,180431,302.3078,266.9244,281.4617,264.3867 M,0,180431,180475,281.4617,264.3867,260.6156,261.8489
Sprite,Foreground,Centre,"sb\hl2.png",344,272 C,0,180343,,191,128,255 F,2,180343,181143,0.5,0 P,0,180343,181143,A
Sprite,Foreground,Centre,"sb\hl2.png",323.1539,269.4622 C,0,180387,,191,128,255 F,2,180387,181187,0.5,0 P,0,180387,181187,A
Sprite,Foreground,Centre,"sb\hl2.png",302.3078,266.9244 C,0,180431,,191,128,255 F,2,180431,181231,0.5,0 P,0,180431,181231,A
Sprite,Foreground,Centre,"sb\hl2.png",281.4617,264.3867 C,0,180475,,191,128,255 F,2,180475,181275,0.5,0 P,0,180475,181275,A
Sprite,Foreground,Centre,"sb\hl2.png",0,0 C,0,180652,,191,128,255 M,0,180652,180696,197,330,176.2297,333.0973 F,2,180652,181628,0.5,0 S,2,180652,181628,1,0.8 P,0,180652,181628,A M,0,180696,180740,176.2297,333.0973,155.4594,336.1947 M,0,180740,180784,155.4594,336.1947,134.689,339.292 M,0,180784,180828,134.689,339.292,113.9187,342.3893
Sprite,Foreground,Centre,"sb\hl2.png",197,330 C,0,180696,,191,128,255 F,2,180696,181496,0.5,0 P,0,180696,181496,A
Sprite,Foreground,Centre,"sb\hl2.png",176.2297,333.0973 C,0,180740,,191,128,255 F,2,180740,181540,0.5,0 P,0,180740,181540,A
Sprite,Foreground,Centre,"sb\hl2.png",155.4594,336.1947 C,0,180784,,191,128,255 F,2,180784,181584,0.5,0 P,0,180784,181584,A
Sprite,Foreground,Centre,"sb\hl2.png",134.689,339.292 C,0,180828,,191,128,255 F,2,180828,181628,0.5,0 P,0,180828,181628,A
Sprite,Foreground,Centre,"sb\hl2.png",64,256 C,0,181004,,191,128,255 F,2,181004,181804,0.5,0 S,2,181004,181804,1,0.8 P,0,181004,181804,A
Sprite,Foreground,Centre,"sb\hl2.png",64,169 C,0,181180,,191,128,255 F,2,181180,181980,0.5,0 S,2,181180,181980,1,0.8 P,0,181180,181980,A
Sprite,Foreground,Centre,"sb\hl2.png",129,115 C,0,181356,,191,128,255 F,2,181356,182156,0.5,0 S,2,181356,182156,1,0.8 P,0,181356,182156,A
Sprite,Foreground,Centre,"sb\hl2.png",0,0 C,0,181534,,128,255,255 M,0,181534,181578,240,144,260.7699,140.9 F,2,181534,182686,0.5,0 S,2,181534,182686,1,0.8 P,0,181534,182686,A M,0,181578,181622,260.7699,140.9,281.5399,137.8 M,0,181622,181666,281.5399,137.8,302.3098,134.7 M,0,181666,181710,302.3098,134.7,318.7031,122.7149 M,0,181710,181754,318.7031,122.7149,333.8199,108.138 M,0,181754,181798,333.8199,108.138,354.0971,103.8171 M,0,181798,181842,354.0971,103.8171,374.8114,100.3648 M,0,181842,181886,374.8114,100.3648,395.5257,96.91239
Sprite,Foreground,Centre,"sb\hl2.png",240,144 C,0,181578,,128,255,255 F,2,181578,182378,0.5,0 P,0,181578,182378,A
Sprite,Foreground,Centre,"sb\hl2.png",260.7699,140.9 C,0,181622,,128,255,255 F,2,181622,182422,0.5,0 P,0,181622,182422,A
Sprite,Foreground,Centre,"sb\hl2.png",281.5399,137.8 C,0,181666,,128,255,255 F,2,181666,182466,0.5,0 P,0,181666,182466,A
Sprite,Foreground,Centre,"sb\hl2.png",302.3098,134.7 C,0,181710,,128,255,255 F,2,181710,182510,0.5,0 P,0,181710,182510,A
Sprite,Foreground,Centre,"sb\hl2.png",318.7031,122.7149 C,0,181754,,128,255,255 F,2,181754,182554,0.5,0 P,0,181754,182554,A
Sprite,Foreground,Centre,"sb\hl2.png",333.8199,108.138 C,0,181798,,128,255,255 F,2,181798,182598,0.5,0 P,0,181798,182598,A
Sprite,Foreground,Centre,"sb\hl2.png",354.0971,103.8171 C,0,181842,,128,255,255 F,2,181842,182642,0.5,0 P,0,181842,182642,A
Sprite,Foreground,Centre,"sb\hl2.png",374.8114,100.3648 C,0,181886,,128,255,255 F,2,181886,182686,0.5,0 P,0,181886,182686,A
Sprite,Foreground,Centre,"sb\hl2.png",0,0 C,0,182063,,128,255,255 M,0,182063,182107,486,127,482.2238,147.6577 F,2,182063,183039,0.5,0 S,2,182063,183039,1,0.8 P,0,182063,183039,A M,0,182107,182151,482.2238,147.6577,478.4477,168.3154 M,0,182151,182195,478.4477,168.3154,474.6716,188.9731 M,0,182195,182239,474.6716,188.9731,470.8954,209.6308
Sprite,Foreground,Centre,"sb\hl2.png",486,127 C,0,182107,,128,255,255 F,2,182107,182907,0.5,0 P,0,182107,182907,A
Sprite,Foreground,Centre,"sb\hl2.png",482.2238,147.6577 C,0,182151,,128,255,255 F,2,182151,182951,0.5,0 P,0,182151,182951,A
Sprite,Foreground,Centre,"sb\hl2.png",478.4477,168.3154 C,0,182195,,128,255,255 F,2,182195,182995,0.5,0 P,0,182195,182995,A
Sprite,Foreground,Centre,"sb\hl2.png",474.6716,188.9731 C,0,182239,,128,255,255 F,2,182239,183039,0.5,0 P,0,182239,183039,A
Sprite,Foreground,Centre,"sb\hl2.png",530,291 C,0,182416,,128,255,255 F,2,182416,183216,0.5,0 S,2,182416,183216,1,0.8 P,0,182416,183216,A
Sprite,Foreground,Centre,"sb\hl2.png",0,0 C,0,182593,,128,255,255 M,0,182593,182637,530,291,533.0305,311.7802 F,2,182593,183569,0.5,0 S,2,182593,183569,1,0.8 P,0,182593,183569,A M,0,182637,182681,533.0305,311.7802,536.0609,332.5604 M,0,182681,182725,536.0609,332.5604,539.0913,353.3406 M,0,182725,182769,539.0913,353.3406,542.1218,374.1208
Sprite,Foreground,Centre,"sb\hl2.png",530,291 C,0,182637,,128,255,255 F,2,182637,183437,0.5,0 P,0,182637,183437,A
Sprite,Foreground,Centre,"sb\hl2.png",533.0305,311.7802 C,0,182681,,128,255,255 F,2,182681,183481,0.5,0 P,0,182681,183481,A
Sprite,Foreground,Centre,"sb\hl2.png",536.0609,332.5604 C,0,182725,,128,255,255 F,2,182725,183525,0.5,0 P,0,182725,183525,A
Sprite,Foreground,Centre,"sb\hl2.png",539.0913,353.3406 C,0,182769,,128,255,255 F,2,182769,183569,0.5,0 P,0,182769,183569,A
Sprite,Foreground,Centre,"sb\hl2.png",0,0 C,0,182946,,6,87,255 M,0,182946,182990,470,430,449.1415,427.5665 F,2,182946,184098,0.5,0 S,2,182946,184098,1,0.8 P,0,182946,184098,A M,0,182990,183034,449.1415,427.5665,428.283,425.133 M,0,183034,183078,428.283,425.133,407.9875,421.3648 M,0,183078,183122,407.9875,421.3648,391.6891,408.1224 M,0,183122,183166,391.6891,408.1224,374.6927,397.6042 M,0,183166,183210,374.6927,397.6042,354.0347,401.3783 M,0,183210,183254,354.0347,401.3783,333.3766,405.1523 M,0,183254,183298,333.3766,405.1523,312.7185,408.9264
Sprite,Foreground,Centre,"sb\hl2.png",470,430 C,0,182990,,6,87,255 F,2,182990,183790,0.5,0 P,0,182990,183790,A
Sprite,Foreground,Centre,"sb\hl2.png",449.1415,427.5665 C,0,183034,,6,87,255 F,2,183034,183834,0.5,0 P,0,183034,183834,A
Sprite,Foreground,Centre,"sb\hl2.png",428.283,425.133 C,0,183078,,6,87,255 F,2,183078,183878,0.5,0 P,0,183078,183878,A
Sprite,Foreground,Centre,"sb\hl2.png",407.9875,421.3648 C,0,183122,,6,87,255 F,2,183122,183922,0.5,0 P,0,183122,183922,A
Sprite,Foreground,Centre,"sb\hl2.png",391.6891,408.1224 C,0,183166,,6,87,255 F,2,183166,183966,0.5,0 P,0,183166,183966,A
Sprite,Foreground,Centre,"sb\hl2.png",374.6927,397.6042 C,0,183210,,6,87,255 F,2,183210,184010,0.5,0 P,0,183210,184010,A
Sprite,Foreground,Centre,"sb\hl2.png",354.0347,401.3783 C,0,183254,,6,87,255 F,2,183254,184054,0.5,0 P,0,183254,184054,A
Sprite,Foreground,Centre,"sb\hl2.png",333.3766,405.1523 C,0,183298,,6,87,255 F,2,183298,184098,0.5,0 P,0,183298,184098,A
Sprite,Foreground,Centre,"sb\hl2.png",0,0 C,0,183475,,6,87,255 M,0,183475,183519,242,338,221.0843,339.8801 F,2,183475,184451,0.5,0 S,2,183475,184451,1,0.8 P,0,183475,184451,A M,0,183519,183563,221.0843,339.8801,200.1687,341.7601 M,0,183563,183607,200.1687,341.7601,179.253,343.6402 M,0,183607,183651,179.253,343.6402,158.3373,345.5202
Sprite,Foreground,Centre,"sb\hl2.png",242,338 C,0,183519,,6,87,255 F,2,183519,184319,0.5,0 P,0,183519,184319,A
Sprite,Foreground,Centre,"sb\hl2.png",221.0843,339.8801 C,0,183563,,6,87,255 F,2,183563,184363,0.5,0 P,0,183563,184363,A
Sprite,Foreground,Centre,"sb\hl2.png",200.1687,341.7601 C,0,183607,,6,87,255 F,2,183607,184407,0.5,0 P,0,183607,184407,A
Sprite,Foreground,Centre,"sb\hl2.png",179.253,343.6402 C,0,183651,,6,87,255 F,2,183651,184451,0.5,0 P,0,183651,184451,A
Sprite,Foreground,Centre,"sb\hl2.png",92,277 C,0,183828,,6,87,255 F,2,183828,184628,0.5,0 S,2,183828,184628,1,0.8 P,0,183828,184628,A
Sprite,Foreground,Centre,"sb\hl2.png",92,277 C,0,184004,,6,87,255 F,2,184004,184804,0.5,0 S,2,184004,184804,1,0.8 P,0,184004,184804,A
Sprite,Foreground,Centre,"sb\hl2.png",157,211 C,0,184181,,6,87,255 F,2,184181,184981,0.5,0 S,2,184181,184981,1,0.8 P,0,184181,184981,A
Sprite,Foreground,Centre,"sb\hl2.png",0,0 C,0,184357,,191,128,255 M,0,184357,184401,274,244,294.9173,242.1382 F,2,184357,185509,0.5,0 S,2,184357,185509,1,0.8 P,0,184357,185509,A M,0,184401,184445,294.9173,242.1382,315.8346,240.2765 M,0,184445,184489,315.8346,240.2765,336.7519,238.4147 M,0,184489,184533,336.7519,238.4147,357.6693,236.553 M,0,184533,184577,357.6693,236.553,378.5865,234.6913 M,0,184577,184621,378.5865,234.6913,399.5038,232.8295 M,0,184621,184665,399.5038,232.8295,420.4212,230.9677 M,0,184665,184709,420.4212,230.9677,441.3385,229.106
Sprite,Foreground,Centre,"sb\hl2.png",274,244 C,0,184401,,191,128,255 F,2,184401,185201,0.5,0 P,0,184401,185201,A
Sprite,Foreground,Centre,"sb\hl2.png",294.9173,242.1382 C,0,184445,,191,128,255 F,2,184445,185245,0.5,0 P,0,184445,185245,A
Sprite,Foreground,Centre,"sb\hl2.png",315.8346,240.2765 C,0,184489,,191,128,255 F,2,184489,185289,0.5,0 P,0,184489,185289,A
Sprite,Foreground,Centre,"sb\hl2.png",336.7519,238.4147 C,0,184533,,191,128,255 F,2,184533,185333,0.5,0 P,0,184533,185333,A
Sprite,Foreground,Centre,"sb\hl2.png",357.6693,236.553 C,0,184577,,191,128,255 F,2,184577,185377,0.5,0 P,0,184577,185377,A
Sprite,Foreground,Centre,"sb\hl2.png",378.5865,234.6913 C,0,184621,,191,128,255 F,2,184621,185421,0.5,0 P,0,184621,185421,A
Sprite,Foreground,Centre,"sb\hl2.png",399.5038,232.8295 C,0,184665,,191,128,255 F,2,184665,185465,0.5,0 P,0,184665,185465,A
Sprite,Foreground,Centre,"sb\hl2.png",420.4212,230.9677 C,0,184709,,191,128,255 F,2,184709,185509,0.5,0 P,0,184709,185509,A
Sprite,Foreground,Centre,"sb\hl2.png",0,0 C,0,184887,,191,128,255 M,0,184887,184931,529,179,535.7761,159.1233 F,2,184887,185863,0.5,0 S,2,184887,185863,1,0.8 P,0,184887,185863,A M,0,184931,184975,535.7761,159.1233,542.5523,139.2466 M,0,184975,185019,542.5523,139.2466,535.7761,159.1233 M,0,185019,185063,535.7761,159.1233,529,179
Sprite,Foreground,Centre,"sb\hl2.png",529,179 C,0,184931,,191,128,255 F,2,184931,185731,0.5,0 P,0,184931,185731,A
Sprite,Foreground,Centre,"sb\hl2.png",535.7761,159.1233 C,0,184975,,191,128,255 F,2,184975,185775,0.5,0 P,0,184975,185775,A
Sprite,Foreground,Centre,"sb\hl2.png",542.5523,139.2466 C,0,185019,,191,128,255 F,2,185019,185819,0.5,0 P,0,185019,185819,A
Sprite,Foreground,Centre,"sb\hl2.png",535.7761,159.1233 C,0,185063,,191,128,255 F,2,185063,185863,0.5,0 P,0,185063,185863,A
Sprite,Foreground,Centre,"sb\hl2.png",0,0 C,0,185240,,191,128,255 M,0,185240,185284,458,125,451.3592,105.0777 F,2,185240,186216,0.5,0 S,2,185240,186216,1,0.8 P,0,185240,186216,A M,0,185284,185328,451.3592,105.0777,444.7184,85.1553 M,0,185328,185372,444.7184,85.1553,451.3592,105.0777 M,0,185372,185416,451.3592,105.0777,458,125
Sprite,Foreground,Centre,"sb\hl2.png",458,125 C,0,185284,,191,128,255 F,2,185284,186084,0.5,0 P,0,185284,186084,A
Sprite,Foreground,Centre,"sb\hl2.png",451.3592,105.0777 C,0,185328,,191,128,255 F,2,185328,186128,0.5,0 P,0,185328,186128,A
Sprite,Foreground,Centre,"sb\hl2.png",444.7184,85.1553 C,0,185372,,191,128,255 F,2,185372,186172,0.5,0 P,0,185372,186172,A
Sprite,Foreground,Centre,"sb\hl2.png",451.3592,105.0777 C,0,185416,,191,128,255 F,2,185416,186216,0.5,0 P,0,185416,186216,A
Sprite,Foreground,Centre,"sb\hl2.png",0,0 C,0,185593,,191,128,255 M,0,185593,185637,366,119,352.4135,102.9873 F,2,185593,186569,0.5,0 S,2,185593,186569,1,0.8 P,0,185593,186569,A M,0,185637,185681,352.4135,102.9873,338.827,86.97462 M,0,185681,185725,338.827,86.97462,352.4135,102.9873 M,0,185725,185769,352.4135,102.9873,366,119
Sprite,Foreground,Centre,"sb\hl2.png",366,119 C,0,185637,,191,128,255 F,2,185637,186437,0.5,0 P,0,185637,186437,A
Sprite,Foreground,Centre,"sb\hl2.png",352.4135,102.9873 C,0,185681,,191,128,255 F,2,185681,186481,0.5,0 P,0,185681,186481,A
Sprite,Foreground,Centre,"sb\hl2.png",338.827,86.97462 C,0,185725,,191,128,255 F,2,185725,186525,0.5,0 P,0,185725,186525,A
Sprite,Foreground,Centre,"sb\hl2.png",352.4135,102.9873 C,0,185769,,191,128,255 F,2,185769,186569,0.5,0 P,0,185769,186569,A
Sprite,Foreground,Centre,"sb\hl2.png",0,0 C,0,185946,,133,11,255 M,0,185946,185990,283,166,262.0964,163.99 F,2,185946,186922,0.5,0 S,2,185946,186922,1,0.8 P,0,185946,186922,A M,0,185990,186034,262.0964,163.99,241.1928,161.9801 M,0,186034,186078,241.1928,161.9801,220.2892,159.9701 M,0,186078,186122,220.2892,159.9701,199.3857,157.9602
Sprite,Foreground,Centre,"sb\hl2.png",283,166 C,0,185990,,133,11,255 F,2,185990,186790,0.5,0 P,0,185990,186790,A
Sprite,Foreground,Centre,"sb\hl2.png",262.0964,163.99 C,0,186034,,133,11,255 F,2,186034,186834,0.5,0 P,0,186034,186834,A
Sprite,Foreground,Centre,"sb\hl2.png",241.1928,161.9801 C,0,186078,,133,11,255 F,2,186078,186878,0.5,0 P,0,186078,186878,A
Sprite,Foreground,Centre,"sb\hl2.png",220.2892,159.9701 C,0,186122,,133,11,255 F,2,186122,186922,0.5,0 P,0,186122,186922,A
Sprite,Foreground,Centre,"sb\hl2.png",0,0 C,0,186299,,133,11,255 M,0,186299,186343,107,125,104.7549,145.8796 F,2,186299,187275,0.5,0 S,2,186299,187275,1,0.8 P,0,186299,187275,A M,0,186343,186387,104.7549,145.8796,102.5098,166.7593 M,0,186387,186431,102.5098,166.7593,100.2646,187.6389 M,0,186431,186475,100.2646,187.6389,98.01951,208.5186
Sprite,Foreground,Centre,"sb\hl2.png",107,125 C,0,186343,,133,11,255 F,2,186343,187143,0.5,0 P,0,186343,187143,A
Sprite,Foreground,Centre,"sb\hl2.png",104.7549,145.8796 C,0,186387,,133,11,255 F,2,186387,187187,0.5,0 P,0,186387,187187,A
Sprite,Foreground,Centre,"sb\hl2.png",102.5098,166.7593 C,0,186431,,133,11,255 F,2,186431,187231,0.5,0 P,0,186431,187231,A
Sprite,Foreground,Centre,"sb\hl2.png",100.2646,187.6389 C,0,186475,,133,11,255 F,2,186475,187275,0.5,0 P,0,186475,187275,A
Sprite,Foreground,Centre,"sb\hl2.png",0,0 C,0,186652,,133,11,255 M,0,186652,186696,88,309,86.57953,329.9519 F,2,186652,187628,0.5,0 S,2,186652,187628,1,0.8 P,0,186652,187628,A M,0,186696,186740,86.57953,329.9519,85.15907,350.9038 M,0,186740,186784,85.15907,350.9038,86.57953,329.9519 M,0,186784,186828,86.57953,329.9519,88,309
Sprite,Foreground,Centre,"sb\hl2.png",88,309 C,0,186696,,133,11,255 F,2,186696,187496,0.5,0 P,0,186696,187496,A
Sprite,Foreground,Centre,"sb\hl2.png",86.57953,329.9519 C,0,186740,,133,11,255 F,2,186740,187540,0.5,0 P,0,186740,187540,A
Sprite,Foreground,Centre,"sb\hl2.png",85.15907,350.9038 C,0,186784,,133,11,255 F,2,186784,187584,0.5,0 P,0,186784,187584,A
Sprite,Foreground,Centre,"sb\hl2.png",86.57953,329.9519 C,0,186828,,133,11,255 F,2,186828,187628,0.5,0 P,0,186828,187628,A
Sprite,Foreground,Centre,"sb\hl2.png",180,257 C,0,187004,,133,11,255 F,2,187004,187804,0.5,0 S,2,187004,187804,1,0.8 P,0,187004,187804,A
Sprite,Foreground,Centre,"sb\hl2.png",0,0 C,0,187181,,128,255,255 M,0,187181,187225,226,346,246.4019,350.9761 F,2,187181,188333,0.5,0 S,2,187181,188333,1,0.8 P,0,187181,188333,A M,0,187225,187269,246.4019,350.9761,266.8039,355.9521 M,0,187269,187313,266.8039,355.9521,287.2058,360.9283 M,0,187313,187357,287.2058,360.9283,307.6077,365.9043 M,0,187357,187401,307.6077,365.9043,327.2502,358.6765 M,0,187401,187445,327.2502,358.6765,346.8778,351.2095 M,0,187445,187489,346.8778,351.2095,366.5055,343.7425 M,0,187489,187533,366.5055,343.7425,386.1331,336.2755
Sprite,Foreground,Centre,"sb\hl2.png",226,346 C,0,187225,,128,255,255 F,2,187225,188025,0.5,0 P,0,187225,188025,A
Sprite,Foreground,Centre,"sb\hl2.png",246.4019,350.9761 C,0,187269,,128,255,255 F,2,187269,188069,0.5,0 P,0,187269,188069,A
Sprite,Foreground,Centre,"sb\hl2.png",266.8039,355.9521 C,0,187313,,128,255,255 F,2,187313,188113,0.5,0 P,0,187313,188113,A
Sprite,Foreground,Centre,"sb\hl2.png",287.2058,360.9283 C,0,187357,,128,255,255 F,2,187357,188157,0.5,0 P,0,187357,188157,A
Sprite,Foreground,Centre,"sb\hl2.png",307.6077,365.9043 C,0,187401,,128,255,255 F,2,187401,188201,0.5,0 P,0,187401,188201,A
Sprite,Foreground,Centre,"sb\hl2.png",327.2502,358.6765 C,0,187445,,128,255,255 F,2,187445,188245,0.5,0 P,0,187445,188245,A
Sprite,Foreground,Centre,"sb\hl2.png",346.8778,351.2095 C,0,187489,,128,255,255 F,2,187489,188289,0.5,0 P,0,187489,188289,A
Sprite,Foreground,Centre,"sb\hl2.png",366.5055,343.7425 C,0,187533,,128,255,255 F,2,187533,188333,0.5,0 P,0,187533,188333,A
Sprite,Foreground,Centre,"sb\hl2.png",0,0 C,0,187710,,128,255,255 M,0,187710,187754,478,372,494.5568,359.1756 F,2,187710,188686,0.5,0 S,2,187710,188686,1,0.8 P,0,187710,188686,A M,0,187754,187798,494.5568,359.1756,508.5366,343.6075 M,0,187798,187842,508.5366,343.6075,519.4976,325.7983 M,0,187842,187886,519.4976,325.7983,526.8025,306.1912
Sprite,Foreground,Centre,"sb\hl2.png",478,372 C,0,187754,,128,255,255 F,2,187754,188554,0.5,0 P,0,187754,188554,A
Sprite,Foreground,Centre,"sb\hl2.png",494.5568,359.1756 C,0,187798,,128,255,255 F,2,187798,188598,0.5,0 P,0,187798,188598,A
Sprite,Foreground,Centre,"sb\hl2.png",508.5366,343.6075 C,0,187842,,128,255,255 F,2,187842,188642,0.5,0 P,0,187842,188642,A
Sprite,Foreground,Centre,"sb\hl2.png",519.4976,325.7983 C,0,187886,,128,255,255 F,2,187886,188686,0.5,0 P,0,187886,188686,A
Sprite,Foreground,Centre,"sb\hl2.png",0,0 C,0,188063,,128,255,255 M,0,188063,188107,568,218,555.1876,201.4192 F,2,188063,189039,0.5,0 S,2,188063,189039,1,0.8 P,0,188063,189039,A M,0,188107,188151,555.1876,201.4192,540.0079,186.9836 M,0,188151,188195,540.0079,186.9836,522.4833,175.5084 M,0,188195,188239,522.4833,175.5084,503.3776,166.9486
Sprite,Foreground,Centre,"sb\hl2.png",568,218 C,0,188107,,128,255,255 F,2,188107,188907,0.5,0 P,0,188107,188907,A
Sprite,Foreground,Centre,"sb\hl2.png",555.1876,201.4192 C,0,188151,,128,255,255 F,2,188151,188951,0.5,0 P,0,188151,188951,A
Sprite,Foreground,Centre,"sb\hl2.png",540.0079,186.9836 C,0,188195,,128,255,255 F,2,188195,188995,0.5,0 P,0,188195,188995,A
Sprite,Foreground,Centre,"sb\hl2.png",522.4833,175.5084 C,0,188239,,128,255,255 F,2,188239,189039,0.5,0 P,0,188239,189039,A
Sprite,Foreground,Centre,"sb\hl2.png",434,235 C,0,188416,,128,255,255 F,2,188416,189216,0.5,0 S,2,188416,189216,1,0.8 P,0,188416,189216,A
Sprite,Foreground,Centre,"sb\hl2.png",0,0 C,0,188593,,6,87,255 M,0,188593,188637,357,155,336.1147,153.0164 F,2,188593,189745,0.5,0 S,2,188593,189745,1,0.8 P,0,188593,189745,A M,0,188637,188681,336.1147,153.0164,315.2696,155.0883 M,0,188681,188725,315.2696,155.0883,295.8263,162.8042 M,0,188725,188769,295.8263,162.8042,278.954,175.2546 M,0,188769,188813,278.954,175.2546,262.9515,188.8477 M,0,188813,188857,262.9515,188.8477,244.9769,199.587 M,0,188857,188901,244.9769,199.587,224.6923,204.7231 M,0,188901,188945,224.6923,204.7231,203.7278,204.7401
Sprite,Foreground,Centre,"sb\hl2.png",357,155 C,0,188637,,6,87,255 F,2,188637,189437,0.5,0 P,0,188637,189437,A
Sprite,Foreground,Centre,"sb\hl2.png",336.1147,153.0164 C,0,188681,,6,87,255 F,2,188681,189481,0.5,0 P,0,188681,189481,A
Sprite,Foreground,Centre,"sb\hl2.png",315.2696,155.0883 C,0,188725,,6,87,255 F,2,188725,189525,0.5,0 P,0,188725,189525,A
Sprite,Foreground,Centre,"sb\hl2.png",295.8263,162.8042 C,0,188769,,6,87,255 F,2,188769,189569,0.5,0 P,0,188769,189569,A
Sprite,Foreground,Centre,"sb\hl2.png",278.954,175.2546 C,0,188813,,6,87,255 F,2,188813,189613,0.5,0 P,0,188813,189613,A
Sprite,Foreground,Centre,"sb\hl2.png",262.9515,188.8477 C,0,188857,,6,87,255 F,2,188857,189657,0.5,0 P,0,188857,189657,A
Sprite,Foreground,Centre,"sb\hl2.png",244.9769,199.587 C,0,188901,,6,87,255 F,2,188901,189701,0.5,0 P,0,188901,189701,A
Sprite,Foreground,Centre,"sb\hl2.png",224.6923,204.7231 C,0,188945,,6,87,255 F,2,188945,189745,0.5,0 P,0,188945,189745,A
Sprite,Foreground,Centre,"sb\hl2.png",0,0 C,0,189122,,6,87,255 M,0,189122,189166,124,151,114.2433,169.4898 F,2,189122,190098,0.5,0 S,2,189122,190098,1,0.8 P,0,189122,190098,A M,0,189166,189210,114.2433,169.4898,108.9778,189.6897 M,0,189210,189254,108.9778,189.6897,108.4522,210.5397 M,0,189254,189298,108.4522,210.5397,113.1105,230.8886
Sprite,Foreground,Centre,"sb\hl2.png",124,151 C,0,189166,,6,87,255 F,2,189166,189966,0.5,0 P,0,189166,189966,A
Sprite,Foreground,Centre,"sb\hl2.png",114.2433,169.4898 C,0,189210,,6,87,255 F,2,189210,190010,0.5,0 P,0,189210,190010,A
Sprite,Foreground,Centre,"sb\hl2.png",108.9778,189.6897 C,0,189254,,6,87,255 F,2,189254,190054,0.5,0 P,0,189254,190054,A
Sprite,Foreground,Centre,"sb\hl2.png",108.4522,210.5397 C,0,189298,,6,87,255 F,2,189298,190098,0.5,0 P,0,189298,190098,A
Sprite,Foreground,Centre,"sb\hl2.png",0,0 C,0,189475,,6,87,255 M,0,189475,189519,67,317,73.60583,336.8615 F,2,189475,190451,0.5,0 S,2,189475,190451,1,0.8 P,0,189475,190451,A M,0,189519,189563,73.60583,336.8615,83.68505,355.2204 M,0,189563,189607,83.68505,355.2204,97.66275,370.7993 M,0,189607,189651,97.66275,370.7993,114.231,383.6075
Sprite,Foreground,Centre,"sb\hl2.png",67,317 C,0,189519,,6,87,255 F,2,189519,190319,0.5,0 P,0,189519,190319,A
Sprite,Foreground,Centre,"sb\hl2.png",73.60583,336.8615 C,0,189563,,6,87,255 F,2,189563,190363,0.5,0 P,0,189563,190363,A
Sprite,Foreground,Centre,"sb\hl2.png",83.68505,355.2204 C,0,189607,,6,87,255 F,2,189607,190407,0.5,0 P,0,189607,190407,A
Sprite,Foreground,Centre,"sb\hl2.png",97.66275,370.7993 C,0,189651,,6,87,255 F,2,189651,190451,0.5,0 P,0,189651,190451,A
Sprite,Foreground,Centre,"sb\hl2.png",198,320 C,0,189828,,6,87,255 F,2,189828,190628,0.5,0 S,2,189828,190628,1,0.8 P,0,189828,190628,A
Sprite,Foreground,Centre,"sb\hl2.png",0,0 C,0,190004,,191,128,255 M,0,190004,190048,258,408,278.8631,405.6059 F,2,190004,191156,0.5,0 S,2,190004,191156,1,0.8 P,0,190004,191156,A M,0,190048,190092,278.8631,405.6059,299.7262,403.2118 M,0,190092,190136,299.7262,403.2118,320.2212,399.9667 M,0,190136,190180,320.2212,399.9667,336.2523,386.4019 M,0,190180,190224,336.2523,386.4019,354.4217,377.4966 M,0,190224,190268,354.4217,377.4966,375.1593,374.1873 M,0,190268,190312,375.1593,374.1873,395.8969,370.8781 M,0,190312,190356,395.8969,370.8781,416.6346,367.5689
Sprite,Foreground,Centre,"sb\hl2.png",258,408 C,0,190048,,191,128,255 F,2,190048,190848,0.5,0 P,0,190048,190848,A
Sprite,Foreground,Centre,"sb\hl2.png",278.8631,405.6059 C,0,190092,,191,128,255 F,2,190092,190892,0.5,0 P,0,190092,190892,A
Sprite,Foreground,Centre,"sb\hl2.png",299.7262,403.2118 C,0,190136,,191,128,255 F,2,190136,190936,0.5,0 P,0,190136,190936,A
Sprite,Foreground,Centre,"sb\hl2.png",320.2212,399.9667 C,0,190180,,191,128,255 F,2,190180,190980,0.5,0 P,0,190180,190980,A
Sprite,Foreground,Centre,"sb\hl2.png",336.2523,386.4019 C,0,190224,,191,128,255 F,2,190224,191024,0.5,0 P,0,190224,191024,A
Sprite,Foreground,Centre,"sb\hl2.png",354.4217,377.4966 C,0,190268,,191,128,255 F,2,190268,191068,0.5,0 P,0,190268,191068,A
Sprite,Foreground,Centre,"sb\hl2.png",375.1593,374.1873 C,0,190312,,191,128,255 F,2,190312,191112,0.5,0 P,0,190312,191112,A
Sprite,Foreground,Centre,"sb\hl2.png",395.8969,370.8781 C,0,190356,,191,128,255 F,2,190356,191156,0.5,0 P,0,190356,191156,A
Sprite,Foreground,Centre,"sb\hl2.png",0,0 C,0,190534,,191,128,255 M,0,190534,190578,502,403,522.6359,406.8936 F,2,190534,191510,0.5,0 S,2,190534,191510,1,0.8 P,0,190534,191510,A M,0,190578,190622,522.6359,406.8936,543.2718,410.7871 M,0,190622,190666,543.2718,410.7871,522.6359,406.8936 M,0,190666,190710,522.6359,406.8936,502,403
Sprite,Foreground,Centre,"sb\hl2.png",502,403 C,0,190578,,191,128,255 F,2,190578,191378,0.5,0 P,0,190578,191378,A
Sprite,Foreground,Centre,"sb\hl2.png",522.6359,406.8936 C,0,190622,,191,128,255 F,2,190622,191422,0.5,0 P,0,190622,191422,A
Sprite,Foreground,Centre,"sb\hl2.png",543.2718,410.7871 C,0,190666,,191,128,255 F,2,190666,191466,0.5,0 P,0,190666,191466,A
Sprite,Foreground,Centre,"sb\hl2.png",522.6359,406.8936 C,0,190710,,191,128,255 F,2,190710,191510,0.5,0 P,0,190710,191510,A
Sprite,Foreground,Centre,"sb\hl2.png",0,0 C,0,190887,,191,128,255 M,0,190887,190931,507,318,527.5922,322.1184 F,2,190887,191863,0.5,0 S,2,190887,191863,1,0.8 P,0,190887,191863,A M,0,190931,190975,527.5922,322.1184,548.1844,326.2369 M,0,190975,191019,548.1844,326.2369,527.5922,322.1184 M,0,191019,191063,527.5922,322.1184,507,318
Sprite,Foreground,Centre,"sb\hl2.png",507,318 C,0,190931,,191,128,255 F,2,190931,191731,0.5,0 P,0,190931,191731,A
Sprite,Foreground,Centre,"sb\hl2.png",527.5922,322.1184 C,0,190975,,191,128,255 F,2,190975,191775,0.5,0 P,0,190975,191775,A
Sprite,Foreground,Centre,"sb\hl2.png",548.1844,326.2369 C,0,191019,,191,128,255 F,2,191019,191819,0.5,0 P,0,191019,191819,A
Sprite,Foreground,Centre,"sb\hl2.png",527.5922,322.1184 C,0,191063,,191,128,255 F,2,191063,191863,0.5,0 P,0,191063,191863,A
Sprite,Foreground,Centre,"sb\hl2.png",0,0 C,0,191240,,191,128,255 M,0,191240,191284,425,276,404.4226,280.1917 F,2,191240,192216,0.5,0 S,2,191240,192216,1,0.8 P,0,191240,192216,A M,0,191284,191328,404.4226,280.1917,383.8452,284.3834 M,0,191328,191372,383.8452,284.3834,404.4226,280.1917 M,0,191372,191416,404.4226,280.1917,425,276
Sprite,Foreground,Centre,"sb\hl2.png",425,276 C,0,191284,,191,128,255 F,2,191284,192084,0.5,0 P,0,191284,192084,A
Sprite,Foreground,Centre,"sb\hl2.png",404.4226,280.1917 C,0,191328,,191,128,255 F,2,191328,192128,0.5,0 P,0,191328,192128,A
Sprite,Foreground,Centre,"sb\hl2.png",383.8452,284.3834 C,0,191372,,191,128,255 F,2,191372,192172,0.5,0 P,0,191372,192172,A
Sprite,Foreground,Centre,"sb\hl2.png",404.4226,280.1917 C,0,191416,,191,128,255 F,2,191416,192216,0.5,0 P,0,191416,192216,A
Sprite,Foreground,Centre,"sb\hl2.png",0,0 C,0,191593,,133,11,255 M,0,191593,191637,495,225,492.1181,204.2328 F,2,191593,192569,0.5,0 S,2,191593,192569,1,0.8 P,0,191593,192569,A M,0,191637,191681,492.1181,204.2328,486.5883,184.0092 M,0,191681,191725,486.5883,184.0092,477.9555,164.9065 M,0,191725,191769,477.9555,164.9065,466.8879,147.1079
Sprite,Foreground,Centre,"sb\hl2.png",495,225 C,0,191637,,133,11,255 F,2,191637,192437,0.5,0 P,0,191637,192437,A
Sprite,Foreground,Centre,"sb\hl2.png",492.1181,204.2328 C,0,191681,,133,11,255 F,2,191681,192481,0.5,0 P,0,191681,192481,A
Sprite,Foreground,Centre,"sb\hl2.png",486.5883,184.0092 C,0,191725,,133,11,255 F,2,191725,192525,0.5,0 P,0,191725,192525,A
Sprite,Foreground,Centre,"sb\hl2.png",477.9555,164.9065 C,0,191769,,133,11,255 F,2,191769,192569,0.5,0 P,0,191769,192569,A
Sprite,Foreground,Centre,"sb\hl2.png",0,0 C,0,191946,,133,11,255 M,0,191946,191990,410,72,389.2123,74.60196 F,2,191946,192922,0.5,0 S,2,191946,192922,1,0.8 P,0,191946,192922,A M,0,191990,192034,389.2123,74.60196,369.0653,80.37706 M,0,192034,192078,369.0653,80.37706,350.4323,89.95145 M,0,192078,192122,350.4323,89.95145,333.4967,102.2948
Sprite,Foreground,Centre,"sb\hl2.png",410,72 C,0,191990,,133,11,255 F,2,191990,192790,0.5,0 P,0,191990,192790,A
Sprite,Foreground,Centre,"sb\hl2.png",389.2123,74.60196 C,0,192034,,133,11,255 F,2,192034,192834,0.5,0 P,0,192034,192834,A
Sprite,Foreground,Centre,"sb\hl2.png",369.0653,80.37706 C,0,192078,,133,11,255 F,2,192078,192878,0.5,0 P,0,192078,192878,A
Sprite,Foreground,Centre,"sb\hl2.png",350.4323,89.95145 C,0,192122,,133,11,255 F,2,192122,192922,0.5,0 P,0,192122,192922,A
Sprite,Foreground,Centre,"sb\hl2.png",268,171 C,0,192299,,133,11,255 F,2,192299,193099,0.5,0 S,2,192299,193099,1,0.8 P,0,192299,193099,A
Sprite,Foreground,Centre,"sb\hl2.png",268,171 C,0,192387,,133,11,255 F,2,192387,193187,0.5,0 S,2,192387,193187,1,0.8 P,0,192387,193187,A
Sprite,Foreground,Centre,"sb\hl2.png",268,171 C,0,192475,,133,11,255 F,2,192475,193275,0.5,0 S,2,192475,193275,1,0.8 P,0,192475,193275,A
Sprite,Foreground,Centre,"sb\hl2.png",192,111 C,0,192652,,133,11,255 F,2,192652,193452,0.5,0 S,2,192652,193452,1,0.8 P,0,192652,193452,A
Sprite,Foreground,Centre,"sb\hl2.png",107,193 C,0,192828,,133,11,255 F,2,192828,193628,0.5,0 S,2,192828,193628,1,0.8 P,0,192828,193628,A
Sprite,Foreground,Centre,"sb\hl2.png",0,0 C,0,195122,,255,6,6 M,0,195122,195166,121,334,116.547,313.4775 F,2,195122,196274,0.5,0 S,2,195122,196274,1,0.8 P,0,195122,196274,A M,0,195166,195210,116.547,313.4775,112.094,292.9551 M,0,195210,195254,112.094,292.9551,107.641,272.4326 M,0,195254,195298,107.641,272.4326,103.1881,251.9102 M,0,195298,195342,103.1881,251.9102,107.6411,272.4326 M,0,195342,195386,107.6411,272.4326,112.094,292.9551 M,0,195386,195430,112.094,292.9551,116.547,313.4775 M,0,195430,195474,116.547,313.4775,121,334
Sprite,Foreground,Centre,"sb\hl2.png",121,334 C,0,195166,,255,6,6 F,2,195166,195966,0.5,0 P,0,195166,195966,A
Sprite,Foreground,Centre,"sb\hl2.png",116.547,313.4775 C,0,195210,,255,6,6 F,2,195210,196010,0.5,0 P,0,195210,196010,A
Sprite,Foreground,Centre,"sb\hl2.png",112.094,292.9551 C,0,195254,,255,6,6 F,2,195254,196054,0.5,0 P,0,195254,196054,A
Sprite,Foreground,Centre,"sb\hl2.png",107.641,272.4326 C,0,195298,,255,6,6 F,2,195298,196098,0.5,0 P,0,195298,196098,A
Sprite,Foreground,Centre,"sb\hl2.png",103.1881,251.9102 C,0,195342,,255,6,6 F,2,195342,196142,0.5,0 P,0,195342,196142,A
Sprite,Foreground,Centre,"sb\hl2.png",107.6411,272.4326 C,0,195386,,255,6,6 F,2,195386,196186,0.5,0 P,0,195386,196186,A
Sprite,Foreground,Centre,"sb\hl2.png",112.094,292.9551 C,0,195430,,255,6,6 F,2,195430,196230,0.5,0 P,0,195430,196230,A
Sprite,Foreground,Centre,"sb\hl2.png",116.547,313.4775 C,0,195474,,255,6,6 F,2,195474,196274,0.5,0 P,0,195474,196274,A
Sprite,Foreground,Centre,"sb\hl2.png",200,425 C,0,195652,,255,6,6 F,2,195652,196452,0.5,0 S,2,195652,196452,1,0.8 P,0,195652,196452,A
//Storyboard Layer 4 (Overlay)
//Storyboard Sound Samples

[TimingPoints]
123,352.941176470588,4,3,1,80,1,0
1005,352.941176470588,4,3,1,80,1,0
23593,-100,4,3,1,60,0,0
46004,-95.2380952380952,4,3,1,90,0,1
67357,-95.2380952380952,4,3,1,60,0,0
68593,-100,4,3,1,80,0,0
91357,-100,4,3,1,60,0,0
102475,-95.2380952380952,4,3,1,90,0,1
116946,-95.2380952380952,4,3,1,60,0,0
119416,-95.2380952380952,4,3,1,90,0,1
122593,-95.2380952380952,4,3,1,60,0,0
125240,-95.2380952380952,4,3,1,50,0,0
147828,-95.2380952380952,4,3,1,70,0,0
153475,-95.2380952380952,4,3,1,90,0,1
159299,-95.2380952380952,4,3,1,80,0,0
164769,-95.2380952380952,4,3,1,70,0,0
170240,-95.2380952380952,4,3,1,60,0,0
171122,-133.333333333333,4,3,1,60,0,0
173063,-95.2380952380952,4,3,1,90,0,1
184710,-95.2380952380952,4,3,1,60,0,0
187181,-95.2380952380952,4,3,1,90,0,1
190357,-95.2380952380952,4,3,1,80,0,0

[Colours]
Combo1 : 136,136,136
Combo2 : 255,128,128
Combo3 : 255,6,6
Combo4 : 191,128,255
Combo5 : 133,11,255
Combo6 : 128,255,255
Combo7 : 6,87,255
Combo8 : 228,228,228

[HitObjects]
21,108,828,6,0,B|86:101|86:101|116:119|116:119|208:108,1,160,6|2,0:0|0:0,0:0:0:0:
204,75,1269,1,0,0:0:0:0:
204,75,1357,2,0,P|240:91|273:132,1,80,2|0,0:0|0:0,0:0:0:0:
342,171,1710,2,0,P|378:155|412:115,1,80,8|0,0:0|0:0,0:0:0:0:
467,56,2063,2,0,L|446:8,2,40
497,141,2416,6,0,B|507:188|507:188|498:214|498:214|513:306,1,160,2|0,0:0|0:0,0:0:0:0:
452,368,2946,1,2,0:0:0:0:
452,368,3034,1,0,0:0:0:0:
452,368,3122,2,0,L|346:361,1,80,8|2,0:0|0:0,0:0:0:0:
294,304,3475,1,8,0:0:0:0:
199,323,3652,102,0,B|112:311|149:393|26:370,1,160,6|2,0:3|0:0,0:0:0:0:
24,338,4093,1,0,0:0:0:0:
24,338,4181,2,0,P|41:302|99:257,1,80,2|0,0:0|0:0,0:0:0:0:
107,185,4534,2,0,B|143:212|143:212|262:201,1,160,8|0,0:0|0:0,0:0:0:0:
352,209,5063,1,0,0:0:0:0:
352,209,5152,1,0,0:0:0:0:
352,209,5240,2,0,L|343:298,1,80,2|2,0:0|0:0,0:0:0:0:
451,338,5593,6,0,L|441:251,1,80,2|2,0:0|0:0,0:0:0:0:
495,180,5946,2,0,L|503:95,1,80,10|2,0:0|0:0,0:0:0:0:
450,12,6299,1,8,0:0:0:0:
362,71,6475,102,0,B|290:62|290:62|272:70|272:70|178:62,1,160,6|2,0:3|0:0,0:0:0:0:
175,44,6916,1,0,0:0:0:0:
175,44,7004,2,0,P|154:55|118:100,1,80,2|0,0:0|0:0,0:0:0:0:
148,178,7357,2,0,L|135:276,1,80,8|0,0:0|0:0,0:0:0:0:
58,291,7710,2,0,L|8:280,2,40
124,351,8063,6,0,L|314:349,1,160,2|0,0:0|0:0,0:0:0:0:
340,280,8593,1,2,0:0:0:0:
340,280,8681,1,0,0:0:0:0:
340,280,8769,2,0,P|333:243|299:198,1,80,8|2,0:0|0:0,0:0:0:0:
362,132,9122,1,8,0:0:0:0:
432,193,9299,102,0,B|461:232|461:232|445:349,1,160,6|2,0:3|0:0,0:0:0:0:
405,380,9740,1,0,0:0:0:0:
405,380,9828,2,0,L|303:368,1,80,2|0,0:0|0:0,0:0:0:0:
248,328,10181,2,0,L|168:318,1,80,8|0,0:0|0:0,0:0:0:0:
86,326,10534,2,0,L|77:370,2,40
42,241,10887,6,0,L|132:231,1,80,2|2,0:0|0:0,0:0:0:0:
154,148,11240,1,2,0:0:0:0:
154,148,11416,1,2,0:0:0:0:
226,194,11593,2,0,L|328:202,1,80,10|2,0:0|0:0,0:0:0:0:
407,235,11946,101,10,0:0:0:0:
407,235,12034,1,10,0:0:0:0:
407,235,12122,2,0,B|421:159|421:159|430:149|430:149|445:64,1,160,6|2,0:0|0:0,0:0:0:0:
421,49,12563,1,0,0:0:0:0:
421,49,12652,2,0,P|373:49|324:75,1,80,2|0,0:0|0:0,0:0:0:0:
260,41,13004,2,0,P|220:27|182:28,1,80,8|0,0:0|0:0,0:0:0:0:
96,39,13357,2,0,L|45:22,2,40
132,128,13710,6,0,L|120:211,1,80,2|0,0:0|0:0,0:0:0:0:
85,232,13975,1,0,0:0:0:0:
85,232,14063,2,0,L|96:325,1,80,0|2,0:0|0:0,0:0:0:0:
157,375,14416,2,0,L|246:386,2,80,8|2|8,0:0|0:0|0:0,0:0:0:0:
192,289,14946,102,0,B|258:284|258:284|292:297|292:297|362:294,1,160,6|2,0:0|0:0,0:0:0:0:
375,325,15387,1,0,0:0:0:0:
375,325,15475,2,0,L|455:333,1,80,2|0,0:0|0:0,0:0:0:0:
492,261,15828,2,0,L|477:153,1,80,8|0,0:0|0:0,0:0:0:0:
482,92,16181,1,0,0:0:0:0:
482,92,16357,1,0,0:0:0:0:
407,30,16534,6,0,L|310:26,1,80,2|2,0:0|0:0,0:0:0:0:
377,115,16887,2,0,L|295:111,1,80,2|2,0:0|0:0,0:0:0:0:
222,175,17240,1,10,0:0:0:0:
222,175,17416,1,2,0:0:0:0:
275,246,17593,1,10,0:0:0:0:
196,311,17769,102,0,B|131:302|131:302|114:286|114:286|17:274,1,160,6|2,0:0|0:0,0:0:0:0:
14,230,18210,1,0,0:0:0:0:
14,230,18299,2,0,P|31:181|68:143,1,80,2|0,0:0|0:0,0:0:0:0:
11,82,18652,2,0,P|57:59|109:56,1,80,8|0,0:0|0:0,0:0:0:0:
167,86,19004,2,0,L|151:138,2,40
270,64,19357,6,0,L|242:175,1,80,2|0,0:0|0:0,0:0:0:0:
287,182,19622,1,0,0:0:0:0:
287,182,19710,2,0,L|377:123,1,80,0|2,0:0|0:0,0:0:0:0:
398,57,20063,2,0,L|495:44,2,80,8|2|8,0:0|0:0|0:0,0:0:0:0:
451,146,20593,1,6,0:0:0:0:
256,192,20769,12,12,22181,0:0:0:0:
18,211,22534,102,0,L|25:104,2,80
83,270,23063,1,2,0:0:0:0:
111,182,23240,2,0,L|117:93,1,80,8|0,0:0|0:0,0:0:0:0:
181,23,23593,22,0,B|234:17|234:17|274:35|274:35|374:25,1,160,6|10,0:0|0:0,0:0:0:0:
436,29,24122,1,2,0:0:0:0:
436,29,24299,2,0,P|466:72|470:119,1,80,2|2,0:0|0:0,0:0:0:0:
395,142,24652,2,0,P|365:185|363:229,1,80,10|2,0:0|0:0,0:0:0:0:
459,291,25004,6,0,B|429:257|429:257|283:268,1,160,2|10,0:0|0:0,0:0:0:0:
244,331,25534,1,2,0:0:0:0:
169,285,25710,2,0,L|103:297,2,40,2|2|2,0:0|0:0|0:0,0:0:0:0:
152,199,26063,2,0,L|39:218,1,80,10|2,0:0|0:0,0:0:0:0:
8,140,26416,102,0,B|83:100|83:100|177:107,1,160,6|10,0:0|0:0,0:0:0:0:
243,142,26946,1,2,0:0:0:0:
243,142,27122,2,0,L|249:241,1,80,2|2,0:0|0:0,0:0:0:0:
256,321,27475,1,10,0:0:0:0:
357,375,27652,6,0,P|399:353|396:229,1,160,2|2,0:0|0:0,0:0:0:0:
482,179,28181,1,10,0:0:0:0:
482,179,28357,2,0,P|440:157|446:33,1,160,2|2,0:0|0:0,0:0:0:0:
344,13,28887,2,0,L|238:17,1,80,10|2,0:0|0:0,0:0:0:0:
215,98,29240,102,0,B|147:90|147:90|118:98|118:98|28:86,1,160,6|10,0:0|0:0,0:0:0:0:
15,175,29769,1,2,0:0:0:0:
15,175,29946,2,0,L|115:187,1,80,2|2,0:0|0:0,0:0:0:0:
150,255,30299,2,0,L|251:240,1,80,10|2,0:0|0:0,0:0:0:0:
296,326,30652,6,0,B|392:305|355:375|472:346,1,160,2|10,0:0|0:0,0:0:0:0:
505,275,31181,2,0,B|472:232|472:232|492:113,1,160,2|2,0:0|0:0,0:0:0:0:
456,21,31710,102,0,P|424:60|297:46,1,160,10|6,0:0|0:0,0:0:0:0:
246,9,32240,1,2,0:0:0:0:
246,9,32416,1,10,0:0:0:0:
184,86,32593,2,0,L|197:175,1,80,2|2,0:0|0:0,0:0:0:0:
283,199,32946,2,0,L|298:312,1,80,2|8,0:0|0:0,0:0:0:0:
235,362,33299,6,0,B|194:337|194:337|75:360,1,160,2|2,0:0|0:0,0:0:0:0:
22,286,33828,2,0,L|36:204,1,80,10|2,0:0|0:0,0:0:0:0:
7,112,34181,1,2,0:0:0:0:
51,21,34357,2,0,P|87:39|123:95,1,80,8|8,0:0|1:0,0:0:0:0:
149,164,34710,1,8,1:0:0:0:
149,164,34798,1,8,1:0:0:0:
149,164,34887,102,0,B|212:158|212:158|238:143|238:143|323:137,1,160,6|10,0:0|0:0,0:0:0:0:
363,56,35416,2,0,P|392:85|407:131,1,80,2|2,0:0|0:0,0:0:0:0:
404,216,35769,1,2,0:0:0:0:
463,288,35946,6,0,P|441:344|323:366,1,160,10|2,0:0|0:0,0:0:0:0:
281,313,36475,1,2,0:0:0:0:
281,313,36652,2,0,L|181:313,1,80,10|2,0:0|0:0,0:0:0:0:
110,333,37004,2,0,L|126:397,2,40,2|2|2,0:0|0:0|0:0,0:0:0:0:
30,290,37357,2,0,L|11:224,2,40,10|2|2,0:0|0:0|0:0,0:0:0:0:
112,244,37710,102,0,L|85:146,1,80,6|2,0:0|0:0,0:0:0:0:
14,115,38063,2,0,L|41:24,1,80,10|2,0:0|0:0,0:0:0:0:
119,0,38416,1,2,0:0:0:0:
119,0,38593,1,2,0:0:0:0:
182,69,38769,1,10,0:0:0:0:
261,21,38946,6,0,B|326:15|326:15|354:31|354:31|443:22,1,160,2|2,0:0|0:0,0:0:0:0:
493,100,39475,1,10,0:0:0:0:
493,100,39652,2,0,B|446:119|446:119|473:245,1,160,2|2,0:0|0:0,0:0:0:0:
400,282,40181,2,0,L|415:363,1,80,10|2,0:0|0:0,0:0:0:0:
306,310,40534,102,0,L|285:211,1,80,6|2,0:0|0:0,0:0:0:0:
274,144,40887,2,0,P|233:147|191:171,1,80,10|2,0:0|0:0,0:0:0:0:
140,236,41240,2,0,P|99:233|61:214,1,80,2|2,0:0|0:0,0:0:0:0:
11,143,41593,2,0,P|14:102|39:58,1,80,10|2,0:0|0:0,0:0:0:0:
108,0,41946,6,0,P|173:2|260:58,1,160,2|10,0:0|0:0,0:0:0:0:
274,144,42475,1,2,0:0:0:0:
348,90,42652,2,0,L|397:97,2,40,2|2|2,0:0|0:0|0:0,0:0:0:0:
359,182,43004,2,0,L|454:195,1,80,10|2,0:0|0:0,0:0:0:0:
473,287,43357,102,0,B|400:277|400:277|371:283|371:283|286:270,1,160,6|10,0:0|0:0,0:0:0:0:
241,326,43887,1,2,0:0:0:0:
241,326,44063,2,0,L|155:342,1,80,2|2,0:0|0:0,0:0:0:0:
77,376,44416,1,10,0:0:0:0:
36,290,44593,6,0,B|11:244|11:244|40:131,1,160,2|8,0:0|0:0,0:0:0:0:
74,113,45034,1,8,0:0:0:0:
74,113,45122,2,0,P|103:110|168:139,1,80,8|2,0:0|0:0,0:0:0:0:
190,202,45475,1,2,0:0:0:0:
130,269,45652,1,8,1:0:0:0:
190,333,45828,1,8,1:0:0:0:
281,297,46004,6,0,B|396:282|396:282,1,83.9999974365235,6|0,0:0|0:0,0:0:0:0:
452,343,46357,1,2,0:0:0:0:
501,262,46534,2,0,B|485:198|485:198|498:163|498:163|477:65,1,167.999994873047,10|2,0:0|0:0,0:0:0:0:
405,28,47063,2,0,P|370:38|323:76,1,83.9999974365235,2|10,0:0|0:0,0:0:0:0:
387,159,47416,6,0,B|291:146|335:222|222:203,1,167.999994873047,6|2,0:0|0:0,0:0:0:0:
247,111,47946,2,0,B|215:79|215:79|79:102,1,167.999994873047,10|2,0:0|0:0,0:0:0:0:
14,173,48475,1,2,0:0:0:0:
71,242,48652,1,10,0:0:0:0:
160,197,48828,102,0,B|241:240|185:282|294:331,1,167.999994873047,6|2,0:0|0:0,0:0:0:0:
366,368,49357,1,10,0:0:0:0:
444,311,49534,1,0,0:0:0:0:
436,214,49710,2,0,P|416:199|360:174,1,83.9999974365235,2|0,0:0|0:0,0:0:0:0:
361,80,50063,2,0,P|336:83|280:109,1,83.9999974365235,10|0,0:0|0:0,0:0:0:0:
213,177,50416,6,0,L|108:160,1,83.9999974365235,2|0,0:0|0:0,0:0:0:0:
44,97,50769,1,10,0:0:0:0:
2,193,50946,2,0,B|8:233|8:233|17:249|17:249|28:371,1,167.999994873047,0|10,0:0|0:0,0:0:0:0:
121,311,51475,1,10,0:0:0:0:
194,383,51652,102,0,P|240:378|287:348,1,83.9999974365235,6|0,0:0|0:0,0:0:0:0:
344,298,52004,1,2,0:0:0:0:
344,298,52181,2,0,P|390:303|440:335,1,83.9999974365235,10|2,0:0|0:0,0:0:0:0:
501,265,52534,2,0,B|474:177|543:187|499:71,1,167.999994873047,2|10,0:0|0:0,0:0:0:0:
436,26,53063,5,6,0:0:0:0:
436,26,53240,2,0,L|328:71,1,83.9999974365235,0|2,0:0|0:0,0:0:0:0:
306,145,53593,2,0,B|237:136|237:136|217:111|217:111|133:97,1,167.999994873047,10|2,0:0|0:0,0:0:0:0:
57,59,54122,1,2,0:0:0:0:
6,145,54299,1,10,0:0:0:0:
86,202,54475,102,0,L|59:395,1,167.999994873047,6|2,0:0|0:0,0:0:0:0:
154,379,55004,2,0,L|165:278,1,83.9999974365235,10|0,0:0|0:0,0:0:0:0:
251,261,55357,2,0,L|260:348,1,83.9999974365235,2|0,0:0|0:0,0:0:0:0:
345,376,55710,2,0,L|354:288,1,83.9999974365235,10|0,0:0|0:0,0:0:0:0:
398,204,56063,5,2,0:0:0:0:
474,253,56240,1,0,0:0:0:0:
512,170,56416,2,0,P|513:143|496:83,1,83.9999974365235,10|0,0:0|0:0,0:0:0:0:
420,22,56769,1,8,0:0:0:0:
344,78,56946,1,8,1:0:0:0:
270,22,57122,1,8,1:0:0:0:
212,101,57299,102,0,B|225:196|225:196,1,83.9999974365235,6|0,0:0|0:0,0:0:0:0:
162,277,57652,1,2,0:0:0:0:
113,195,57828,2,0,B|105:141|105:141|119:106|119:106|106:24,1,167.999994873047,10|2,0:0|0:0,0:0:0:0:
7,18,58357,2,0,L|18:115,1,83.9999974365235,2|10,0:0|0:0,0:0:0:0:
0,198,58710,6,0,L|21:380,1,167.999994873047,6|2,0:0|0:0,0:0:0:0:
122,348,59240,2,0,B|228:363|178:272|304:289,1,167.999994873047,10|2,0:0|0:0,0:0:0:0:
351,349,59769,1,2,0:0:0:0:
417,278,59946,1,10,0:0:0:0:
479,368,60122,102,0,L|491:189,1,167.999994873047,6|2,0:0|0:0,0:0:0:0:
495,92,60652,2,0,P|442:110|399:152,1,83.9999974365235,10|0,0:0|0:0,0:0:0:0:
343,201,61004,2,0,P|321:152|323:98,1,83.9999974365235,2|0,0:0|0:0,0:0:0:0:
364,41,61357,1,10,0:3:0:0:
288,0,61534,1,0,0:3:0:0:
231,73,61710,6,0,L|134:85,1,83.9999974365235,2|0,0:3|0:3,0:0:0:0:
80,153,62063,1,10,0:3:0:0:
163,204,62240,2,0,B|190:317|190:317|150:386,1,167.999994873047,0|10,0:3|0:0,0:0:0:0:
67,369,62768,1,10,0:0:0:0:
1,309,62946,102,0,P|3:288|42:213,1,83.9999974365235,6|0,0:0|0:0,0:0:0:0:
80,153,63299,1,2,0:0:0:0:
80,153,63475,2,0,P|77:132|32:57,1,83.9999974365235,10|2,0:0|0:0,0:0:0:0:
121,2,63828,2,0,B|190:30|190:30|228:18|228:18|300:46,1,167.999994873047,2|10,0:0|0:0,0:0:0:0:
379,12,64357,5,6,0:0:0:0:
379,12,64534,2,0,P|384:62|359:118,1,83.9999974365235,0|2,0:0|0:0,0:0:0:0:
295,145,64887,2,0,L|321:346,1,167.999994873047,10|2,0:0|0:0,0:0:0:0:
412,298,65416,1,2,0:0:0:0:
473,374,65593,1,10,0:0:0:0:
506,268,65769,102,0,P|486:202|509:89,1,167.999994873047,6|8,0:0|0:0,0:0:0:0:
512,7,66299,1,8,0:0:0:0:
419,41,66475,1,2,0:0:0:0:
334,0,66652,2,0,P|315:3|247:52,1,83.9999974365235,10|2,0:0|0:0,0:0:0:0:
201,116,67004,2,0,P|182:113|115:69,1,83.9999974365235,8|8,1:0|1:0,0:0:0:0:
84,0,67357,1,6,0:0:0:0:
28,326,68593,54,0,B|92:318|92:318|115:303|115:303|202:292,1,160,6|0,0:0|0:0,0:0:0:0:
222,328,69034,1,0,0:0:0:0:
222,328,69122,2,0,L|318:334,1,80
392,363,69475,2,0,L|444:264,1,80,10|0,0:0|0:0,0:0:0:0:
468,216,69828,2,0,L|521:212,2,40
377,224,70181,6,0,B|303:204|303:204|210:232,1,160,2|0,0:0|0:0,0:0:0:0:
133,276,70710,1,0,0:0:0:0:
133,276,70799,1,0,0:0:0:0:
133,276,70887,2,0,L|117:175,1,80,10|2,0:0|0:0,0:0:0:0:
46,140,71240,1,10,0:0:0:0:
112,72,71416,102,0,B|212:93|168:15|292:42,1,160,6|0,0:0|0:0,0:0:0:0:
301,62,71857,1,0,0:0:0:0:
301,62,71946,2,0,L|283:155,1,80
345,237,72299,2,0,B|314:197|314:197|174:171,1,160,10|0,0:0|0:0,0:0:0:0:
140,239,72828,1,0,0:0:0:0:
140,239,72916,1,0,0:0:0:0:
140,239,73004,6,0,L|149:326,1,80,2|2,0:0|0:0,0:0:0:0:
66,375,73357,2,0,L|59:289,1,80,2|2,0:0|0:0,0:0:0:0:
16,220,73710,2,0,L|25:134,1,80,10|2,0:0|0:0,0:0:0:0:
74,57,74063,1,10,0:0:0:0:
150,124,74240,102,0,B|210:115|210:115|237:128|237:128|333:110,1,160,6|0,0:0|0:0,0:0:0:0:
347,131,74681,1,0,0:0:0:0:
347,131,74769,2,0,L|299:219,1,80
215,213,75122,2,0,L|251:301,1,80,10|0,0:0|0:0,0:0:0:0:
252,378,75475,2,0,L|178:362,2,40
325,327,75828,6,0,B|382:356|382:356|505:323,1,160,2|0,0:0|0:0,0:0:0:0:
512,248,76357,1,0,0:0:0:0:
512,248,76446,1,0,0:0:0:0:
512,248,76534,2,0,L|501:148,1,80,10|2,0:0|0:0,0:0:0:0:
446,80,76887,1,10,0:0:0:0:
378,151,77063,102,0,B|296:168|296:168|212:131,1,160,6|0,0:0|0:0,0:0:0:0:
200,94,77504,1,0,0:0:0:0:
200,94,77592,2,0,L|110:103,1,80
33,100,77946,2,0,L|41:187,1,80,10|0,0:0|0:0,0:0:0:0:
94,252,78299,2,0,L|86:333,1,80
161,384,78652,5,2,0:0:0:0:
161,384,78828,1,2,0:0:0:0:
234,322,79004,1,2,0:0:0:0:
234,322,79181,1,2,0:0:0:0:
193,243,79357,2,0,L|208:145,1,80,10|2,0:0|0:0,0:0:0:0:
302,138,79710,1,10,0:0:0:0:
302,138,79799,1,10,0:0:0:0:
302,138,79887,102,0,L|277:309,1,160,6|2,0:0|0:0,0:0:0:0:
309,328,80328,1,2,0:0:0:0:
309,328,80416,2,0,L|423:318,1,80,2|2,0:0|0:0,0:0:0:0:
481,336,80769,2,0,L|472:222,1,80,10|2,0:0|0:0,0:0:0:0:
438,173,81122,6,0,L|461:-24,1,160,2|10,0:0|0:0,0:0:0:0:
357,13,81652,2,0,B|296:33|296:33|268:65|268:65|192:91,1,160,2|2,0:0|0:0,0:0:0:0:
149,148,82181,2,0,L|55:124,1,80,10|2,0:0|0:0,0:0:0:0:
1,209,82534,1,2,0:0:0:0:
1,209,82622,1,2,0:0:0:0:
1,209,82710,102,0,L|169:259,1,160,2|2,0:0|0:0,0:0:0:0:
221,332,83240,2,0,P|242:329|308:277,1,80,2|2,0:0|0:0,0:0:0:0:
315,263,83504,1,2,0:0:0:0:
315,263,83593,2,0,P|336:265|404:310,1,80,10|2,0:0|0:0,0:0:0:0:
443,313,83857,1,2,0:0:0:0:
443,313,83946,2,0,L|457:212,1,80,2|2,0:0|0:0,0:0:0:0:
462,146,84299,6,0,P|416:120|283:105,1,160,10|2,0:0|0:0,0:0:0:0:
240,175,84828,1,2,0:0:0:0:
182,105,85004,2,0,L|191:44,2,40,10|0|8,0:0|0:0|1:0,0:0:0:0:
122,174,85357,1,8,1:0:0:0:
122,174,85446,1,0,0:0:0:0:
122,174,85534,102,0,L|146:356,1,160,6|2,0:0|0:0,0:0:0:0:
231,383,86063,2,0,P|255:370|343:372,1,80,2|2,0:0|0:0,0:0:0:0:
409,357,86416,2,0,P|400:330|342:277,1,80,10|2,0:0|0:0,0:0:0:0:
277,252,86769,1,2,0:0:0:0:
277,252,86946,1,2,0:0:0:0:
347,187,87122,6,0,B|417:170|417:170|439:146|439:146|521:124,1,160,10|2,0:0|0:0,0:0:0:0:
500,37,87652,1,2,0:0:0:0:
500,37,87828,2,0,L|392:67,1,80,10|2,0:0|0:0,0:0:0:0:
344,13,88181,1,2,0:0:0:0:
344,13,88269,1,2,0:0:0:0:
344,13,88357,102,0,B|255:6|291:81|164:58,1,160,6|2,0:0|0:0,0:0:0:0:
149,151,88887,2,0,P|147:175|101:249,1,80,2|2,0:0|0:0,0:0:0:0:
31,257,89240,1,10,0:0:0:0:
0,169,89416,1,2,0:0:0:0:
0,169,89593,2,0,L|6:60,1,80,2|2,0:0|0:0,0:0:0:0:
80,21,89946,5,6,0:0:0:0:
80,21,90034,1,8,0:0:0:0:
80,21,90122,2,0,P|114:22|175:51,1,80,8|8,0:0|0:0,0:0:0:0:
227,122,90475,1,8,1:0:0:0:
227,122,90563,1,8,0:0:0:0:
227,122,90651,2,0,P|261:121|316:89,1,80,8|8,0:0|0:0,0:0:0:0:
368,40,91004,2,0,L|354:-13,2,40,8|8|8,0:0|1:0|1:0,0:0:0:0:
450,78,91357,6,0,L|458:169,1,80,6|2,0:0|0:0,0:0:0:0:
503,242,91710,2,0,L|512:344,1,80,10|2,0:0|0:0,0:0:0:0:
420,352,92063,1,2,0:0:0:0:
420,352,92240,1,2,0:0:0:0:
350,279,92416,2,0,P|324:278|259:314,1,80,10|2,0:0|0:0,0:0:0:0:
222,373,92769,2,0,P|196:373|130:337,1,80,2|2,0:0|0:0,0:0:0:0:
69,302,93122,6,0,L|75:215,1,80,10|2,0:0|0:0,0:0:0:0:
6,155,93475,2,0,L|0:75,1,80,2|2,0:0|0:0,0:0:0:0:
79,17,93828,1,10,0:0:0:0:
139,100,94004,102,0,B|190:92|190:92|210:73|210:73|324:53,1,160,2|2,0:0|0:0,0:0:0:0:
333,136,94534,2,0,L|414:117,1,80,10|2,0:0|0:0,0:0:0:0:
501,166,94887,2,0,L|481:261,1,80,2|2,0:0|0:0,0:0:0:0:
390,250,95240,1,10,0:0:0:0:
429,335,95416,6,0,B|358:369|358:369|246:355,1,160,2|2,0:0|0:0,0:0:0:0:
179,327,95946,2,0,P|180:309|215:242,1,80,10|2,0:0|0:0,0:0:0:0:
297,226,96299,2,0,P|297:208|264:131,1,80,2|2,0:0|0:0,0:0:0:0:
176,129,96652,1,10,0:0:0:0:
125,214,96828,1,2,0:0:0:0:
34,199,97004,102,0,B|5:149|5:149|42:16,1,160,6|10,0:0|0:0,0:0:0:0:
120,14,97534,1,2,0:0:0:0:
120,14,97710,2,0,L|227:19,1,80,2|2,0:0|0:0,0:0:0:0:
262,82,98063,2,0,L|379:75,1,80,10|2,0:0|0:0,0:0:0:0:
438,29,98416,6,0,P|406:48|385:172,1,160,2|10,0:0|0:0,0:0:0:0:
480,207,98946,1,2,0:0:0:0:
480,207,99122,2,0,P|474:255|445:298,1,80,2|2,0:0|0:0,0:0:0:0:
391,350,99475,2,0,P|346:368|298:365,1,80,10|2,0:0|0:0,0:0:0:0:
248,303,99828,102,0,B|179:296|179:296|161:276|161:276|71:269,1,160,6|10,0:0|0:0,0:0:0:0:
23,214,100357,1,2,0:0:0:0:
23,214,100534,2,0,B|1:162|1:162|61:37,1,160,2|10,0:0|0:0,0:0:0:0:
129,31,101063,6,0,P|177:53|234:44,1,80,2|2,0:0|0:0,0:0:0:0:
282,12,101416,2,0,L|390:19,1,80,8|8,0:0|0:0,0:0:0:0:
440,90,101769,1,8,1:0:0:0:
440,90,101857,1,8,1:0:0:0:
440,90,101946,1,8,1:0:0:0:
381,163,102122,1,8,1:0:0:0:
446,230,102299,1,8,1:0:0:0:
388,296,102475,6,0,L|289:280,1,83.9999974365235,6|0,0:0|0:0,0:0:0:0:
235,359,102828,1,2,0:0:0:0:
160,305,103004,2,0,B|170:181|170:181|210:226,1,167.999994873047,10|2,0:0|0:0,0:0:0:0:
288,173,103534,2,0,L|212:93,1,83.9999974365235,2|10,0:0|0:0,0:0:0:0:
252,15,103887,6,0,B|188:21|188:21|157:41|157:41|57:50,1,167.999994873047,6|2,0:0|0:0,0:0:0:0:
18,112,104416,2,0,L|48:284,1,167.999994873047,10|2,0:0|0:0,0:0:0:0:
113,359,104945,1,2,0:0:0:0:
179,283,105121,1,10,0:0:0:0:
268,322,105299,102,0,B|364:309|320:385|437:358,1,167.999994873047,6|2,0:0|0:0,0:0:0:0:
474,283,105828,2,0,L|491:178,1,83.9999974365235,10|0,0:0|0:0,0:0:0:0:
433,134,106181,2,0,L|405:35,1,83.9999974365235,2|0,0:0|0:0,0:0:0:0:
497,0,106534,1,10,0:0:0:0:
497,0,106710,1,0,0:0:0:0:
411,54,106887,6,0,P|366:49|332:29,1,83.9999974365235,2|0,0:0|0:0,0:0:0:0:
263,97,107240,1,10,0:0:0:0:
210,24,107416,2,0,B|141:16|141:16|108:36|108:36|14:28,1,167.999994873047,0|10,0:0|0:0,0:0:0:0:
0,114,107946,1,10,0:0:0:0:
64,183,108122,102,0,P|98:171|159:166,1,83.9999974365235,6|0,0:0|0:0,0:0:0:0:
257,198,108475,1,2,0:0:0:0:
257,198,108652,2,0,P|252:233|227:298,1,83.9999974365235,10|2,0:0|0:0,0:0:0:0:
163,353,109004,6,0,B|104:275|81:360|18:267,1,167.999994873047,2|10,0:0|0:0,0:0:0:0:
64,183,109534,1,6,0:0:0:0:
64,183,109710,2,0,L|46:66,1,83.9999974365235,0|2,0:0|0:0,0:0:0:0:
133,34,110063,2,0,L|161:228,1,167.999994873047,10|2,0:0|0:0,0:0:0:0:
231,292,110593,1,2,0:0:0:0:
315,234,110769,1,10,0:0:0:0:
411,301,110946,102,0,B|427:219|427:219|375:118,1,167.999994873047,6|2,0:0|0:0,0:0:0:0:
443,38,111475,2,0,L|353:28,1,83.9999974365235,10|0,0:0|0:0,0:0:0:0:
297,103,111828,2,0,L|210:96,1,83.9999974365235,2|0,0:0|0:0,0:0:0:0:
165,15,112181,2,0,L|77:6,1,83.9999974365235,10|0,0:0|0:0,0:0:0:0:
5,76,112534,5,2,0:0:0:0:
76,139,112710,1,8,0:0:0:0:
11,210,112887,2,0,P|5:232|20:301,1,83.9999974365235,8|8,0:0|0:0,0:0:0:0:
84,366,113240,1,8,0:0:0:0:
181,380,113416,1,8,1:0:0:0:
239,302,113592,1,8,1:0:0:0:
197,212,113769,102,0,B|183:115|259:158|237:38,1,167.999994873047,6|8,0:0|1:0,0:0:0:0:
320,2,114299,1,2,0:0:0:0:
386,73,114475,1,2,0:0:0:0:
386,73,114652,2,0,P|426:73|479:58,2,83.9999974365235,10|2|10,0:0|0:0|0:0,0:0:0:0:
325,148,115181,6,0,B|387:196|387:196|399:230|399:230|469:282,1,167.999994873047,6|8,0:0|1:0,0:0:0:0:
492,353,115710,2,0,P|449:379|395:379,1,83.9999974365235,2|2,0:0|0:0,0:0:0:0:
337,323,116063,2,0,P|288:312|249:271,1,83.9999974365235,10|2,0:0|0:0,0:0:0:0:
222,201,116416,1,10,0:0:0:0:
158,297,116593,70,0,B|112:310|112:310|90:348|90:348|-4:366,1,167.999994873047,6|0,0:0|0:0,0:0:0:0:
0,274,117122,2,0,L|8:207,2,41.9999987182618
93,226,117475,2,0,L|98:184,2,41.9999987182618,10|0|0,0:0|0:0|0:0,0:0:0:0:
20,142,117828,2,0,L|25:97,2,41.9999987182618
116,95,118181,6,0,L|101:-6,1,83.9999974365235,2|0,0:0|0:0,0:0:0:0:
199,0,118534,2,0,L|214:98,1,83.9999974365235
228,178,118887,2,0,L|239:244,2,41.9999987182618,8|8|8,0:0|0:0|0:0,0:0:0:0:
305,115,119240,1,8,0:0:0:0:
365,192,119416,6,0,L|350:377,1,167.999994873047,6|10,0:0|0:0,0:0:0:0:
450,374,119946,2,0,L|457:269,1,83.9999974365235,2|2,0:0|0:0,0:0:0:0:
505,210,120299,1,10,0:0:0:0:
505,210,120475,2,0,L|499:101,1,83.9999974365235,2|10,0:0|0:0,0:0:0:0:
426,49,120828,6,0,B|357:63|357:63|336:55|336:55|235:77,1,167.999994873047,6|10,0:0|0:0,0:0:0:0:
154,91,121357,2,0,L|174:-3,2,83.9999974365235,2|2|10,0:0|0:0|0:0,0:0:0:0:
214,162,121887,1,2,0:0:0:0:
146,224,122063,1,10,0:0:0:0:
68,164,122240,70,0,L|82:351,1,167.999994873047,6|0,0:0|0:0,0:0:0:0:
163,383,122769,2,0,L|214:369,2,41.9999987182618
182,286,123122,2,0,L|234:271,2,41.9999987182618,10|0|0,0:0|0:0|0:0,0:0:0:0:
286,341,123475,2,0,L|355:324,2,41.9999987182618
306,244,123828,6,0,L|404:221,1,83.9999974365235,2|8,0:0|0:0,0:0:0:0:
428,215,124093,1,8,0:0:0:0:
428,215,124181,2,0,L|455:128,1,83.9999974365235,8|0,0:0|0:0,0:0:0:0:
471,48,124534,1,8,0:0:0:0:
471,48,124710,1,8,1:0:0:0:
375,83,124887,1,8,1:0:0:0:
297,23,125063,1,8,1:0:0:0:
250,104,125240,38,0,L|191:116,2,41.9999987182618,2|2|2,0:0|0:0|0:0,0:0:0:0:
207,14,125593,2,0,P|162:24|110:40,1,83.9999974365235,2|2,0:0|0:0,0:0:0:0:
50,94,125946,2,0,P|40:131|36:178,2,83.9999974365235
135,177,126475,1,2,0:0:0:0:
135,177,126652,2,0,L|308:159,1,167.999994873047,8|0,0:0|0:0,0:0:0:0:
442,41,127357,6,0,L|450:0,2,41.9999987182618,2|2|2,0:0|0:0|0:0,0:0:0:0:
441,136,127710,1,2,0:0:0:0:
441,136,127887,1,2,0:0:0:0:
364,89,128063,1,0,0:0:0:0:
313,250,128416,102,0,L|322:357,1,83.9999974365235,0|2,0:0|0:0,0:0:0:0:
227,384,128769,2,0,L|221:284,1,83.9999974365235,2|0,0:0|0:0,0:0:0:0:
123,231,129122,2,0,L|130:319,1,83.9999974365235,0|2,0:0|0:0,0:0:0:0:
44,364,129475,38,0,L|-12:350,2,41.9999987182618,14|2|2,0:0|0:0|0:0,0:0:0:0:
32,272,129828,2,0,L|23:179,1,83.9999974365235,2|2,0:0|0:0,0:0:0:0:
75,116,130181,2,0,L|125:122,2,41.9999987182618,14|2|2,0:0|0:0|0:0,0:0:0:0:
8,50,130534,1,2,0:0:0:0:
81,0,130710,1,2,0:0:0:0:
157,49,130887,86,0,L|210:54,2,41.9999987182618,6|2|2,0:0|0:0|0:0,0:0:0:0:
232,133,131240,2,0,L|341:122,1,83.9999974365235,2|2,0:0|0:0,0:0:0:0:
427,117,131593,2,0,P|472:162|486:196,2,83.9999974365235
370,37,132122,1,2,0:0:0:0:
370,37,132299,2,0,L|360:210,1,167.999994873047,8|0,0:0|0:0,0:0:0:0:
301,361,133004,102,0,L|241:357,2,41.9999987182618,2|2|2,0:0|0:0|0:0,0:0:0:0:
390,333,133357,1,2,0:0:0:0:
390,333,133534,1,2,0:0:0:0:
334,258,133710,2,0,L|239:250,1,83.9999974365235
173,305,134063,6,0,L|76:310,1,83.9999974365235,0|2,0:0|0:0,0:0:0:0:
14,261,134416,2,0,P|14:241|43:177,1,83.9999974365235,2|0,0:0|0:0,0:0:0:0:
137,191,134769,2,0,P|137:171|108:111,1,83.9999974365235,0|2,0:0|0:0,0:0:0:0:
51,46,135122,22,0,L|-18:26,2,41.9999987182618,14|2|2,0:0|0:0|0:0,0:0:0:0:
138,3,135475,1,2,0:0:0:0:
207,74,135652,1,2,0:0:0:0:
278,11,135828,2,0,L|349:0,2,41.9999987182618,14|2|2,0:0|0:0|0:0,0:0:0:0:
294,101,136181,70,0,L|277:197,1,83.9999974365235,2|2,0:0|0:0,0:0:0:0:
265,275,136534,1,6,0:0:0:0:
348,246,136710,1,2,0:0:0:0:
414,312,136887,6,0,P|458:299|492:269,1,83.9999974365235,2|2,0:0|0:0,0:0:0:0:
501,180,137240,2,0,P|488:136|452:101,1,83.9999974365235
385,53,137593,2,0,P|341:66|306:101,1,83.9999974365235,0|2,0:0|0:0,0:0:0:0:
266,171,137946,1,8,0:0:0:0:
266,171,138122,2,0,P|222:180|180:178,1,83.9999974365235
109,119,138475,1,0,0:0:0:0:
40,50,138652,102,0,L|59:-5,2,41.9999987182618,2|2|2,0:0|0:0|0:0,0:0:0:0:
15,153,139004,1,2,0:0:0:0:
15,153,139181,1,2,0:0:0:0:
0,253,139357,1,0,0:0:0:0:
133,326,139710,6,0,P|168:344|234:346,1,83.9999974365235,0|2,0:0|0:0,0:0:0:0:
247,263,140063,2,0,P|282:245|351:244,1,83.9999974365235,2|0,0:0|0:0,0:0:0:0:
377,323,140416,2,0,P|412:341|477:342,1,83.9999974365235,0|2,0:0|0:0,0:0:0:0:
498,266,140769,22,0,L|518:207,2,41.9999987182618,14|2|2,0:0|0:0|0:0,0:0:0:0:
421,217,141122,1,2,0:0:0:0:
421,217,141299,1,2,0:0:0:0:
467,143,141475,2,0,L|446:84,2,41.9999987182618,14|2|2,0:0|0:0|0:0,0:0:0:0:
376,139,141828,2,0,L|345:48,1,83.9999974365235,2|2,0:0|0:0,0:0:0:0:
273,17,142181,70,0,L|220:28,2,41.9999987182618,6|2|2,0:0|0:0|0:0,0:0:0:0:
273,104,142534,2,0,L|183:124,1,83.9999974365235,2|2,0:0|0:0,0:0:0:0:
128,51,142887,2,0,L|37:33,1,83.9999974365235,0|8,0:0|1:0,0:0:0:0:
0,111,143240,1,8,1:0:0:0:
0,111,143416,1,8,1:0:0:0:
65,180,143593,1,8,0:0:0:0:
41,331,144299,6,0,L|-25:322,2,41.9999987182618,2|2|2,0:0|0:0|0:0,0:0:0:0:
113,263,144652,2,0,P|156:270|205:306,1,83.9999974365235,2|2,0:0|0:0,0:0:0:0:
238,371,145004,1,0,0:0:0:0:
429,336,145357,2,0,P|456:301|467:242,1,83.9999974365235,0|2,0:0|0:0,0:0:0:0:
466,169,145710,2,0,P|422:163|370:125,1,83.9999974365235,2|0,0:0|0:0,0:0:0:0:
326,69,146063,2,0,P|290:96|225:106,1,83.9999974365235,0|2,0:0|0:0,0:0:0:0:
153,68,146416,21,12,0:0:0:0:
59,54,146593,2,0,L|13:72,2,41.9999987182618,8|8|8,0:0|0:0|0:0,0:0:0:0:
89,141,146946,1,8,1:0:0:0:
11,198,147122,2,0,B|8:252|8:252|24:281|24:281|18:380,1,167.999994873047,8|2,1:0|0:0,0:0:0:0:
114,311,147652,1,2,0:0:0:0:
193,367,147828,38,0,L|366:356,1,167.999994873047,14|0,0:0|0:0,0:0:0:0:
420,279,148357,1,2,0:0:0:0:
420,279,148446,1,0,0:0:0:0:
420,279,148534,2,0,P|398:230|399:170,2,83.9999974365235,10|2|0,0:0|0:0|0:0,0:0:0:0:
497,213,149063,1,2,0:0:0:0:
462,118,149240,6,0,B|356:76|356:76|285:91,1,167.999994873047,8|0,0:0|0:0,0:0:0:0:
217,55,149769,1,2,0:0:0:0:
178,139,149946,2,0,L|197:229,1,83.9999974365235,10|2,0:0|0:0,0:0:0:0:
286,248,150299,2,0,L|262:347,1,83.9999974365235,0|2,0:0|0:0,0:0:0:0:
245,347,150563,1,2,0:0:0:0:
245,347,150652,102,0,B|151:358,2,83.9999974365235,14|2|0,0:0|0:0|0:0,0:0:0:0:
351,351,151181,1,2,0:0:0:0:
434,384,151357,2,0,P|465:350|478:279,1,83.9999974365235,10|2,0:0|0:0,0:0:0:0:
481,225,151710,6,0,B|462:153|462:153|470:132|470:132|442:30,1,167.999994873047,2|10,0:0|0:0,0:0:0:0:
373,8,152240,2,0,B|349:48|349:48|208:31,1,167.999994873047,2|2,0:0|0:0,0:0:0:0:
165,111,152769,2,0,L|347:135,1,167.999994873047,10|0,0:0|0:0,0:0:0:0:
390,207,153299,1,2,0:0:0:0:
368,294,153475,70,0,P|330:315|261:318,1,83.9999974365235,14|2,0:0|0:0,0:0:0:0:
221,249,153740,1,0,0:0:0:0:
221,249,153828,2,0,P|183:228|115:228,1,83.9999974365235,0|2,0:0|0:0,0:0:0:0:
56,269,154181,1,10,0:0:0:0:
56,269,154269,1,0,0:0:0:0:
56,269,154357,2,0,B|20:235|20:235|-5:82,1,167.999994873047,2|2,0:0|0:0,0:0:0:0:
37,39,154887,6,0,P|70:60|99:123,1,83.9999974365235,10|2,0:0|0:0,0:0:0:0:
108,188,155240,1,0,0:0:0:0:
181,135,155416,1,2,0:0:0:0:
242,207,155593,2,0,B|217:325|217:325|246:377,1,167.999994873047,10|0,0:0|0:0,0:0:0:0:
328,329,156122,1,2,0:0:0:0:
328,329,156210,1,0,0:0:0:0:
328,329,156299,70,0,P|326:269|354:220,2,83.9999974365235,14|2|0,0:0|0:0|0:0,0:0:0:0:
414,370,156828,1,2,0:0:0:0:
485,313,157004,2,0,B|430:216|519:222|464:118,1,167.999994873047,10|0,0:0|0:0,0:0:0:0:
398,73,157534,1,2,0:0:0:0:
398,73,157622,1,0,0:0:0:0:
398,73,157710,6,0,P|430:15|463:-10,2,83.9999974365235,10|2|0,0:0|0:0|0:0,0:0:0:0:
315,124,158240,1,2,0:0:0:0:
315,124,158328,1,0,0:0:0:0:
315,124,158416,2,0,L|202:106,1,83.9999974365235,10|2,0:0|0:0,0:0:0:0:
172,42,158769,2,0,L|57:56,1,83.9999974365235,10|2,0:0|0:0,0:0:0:0:
31,129,159122,1,10,0:0:0:0:
98,187,159299,38,0,B|89:239|89:239|71:263|71:263|52:362,1,167.999994873047,6|0,0:0|0:0,0:0:0:0:
147,361,159828,2,0,B|187:336|187:336|335:364,1,167.999994873047,10|2,0:0|0:0,0:0:0:0:
394,321,160357,1,2,0:0:0:0:
394,321,160534,2,0,P|383:292|382:231,1,83.9999974365235,10|2,0:0|0:0,0:0:0:0:
358,193,160799,1,0,0:0:0:0:
358,193,160887,6,0,B|258:176|296:255|169:231,1,167.999994873047,2|10,0:0|0:0,0:0:0:0:
98,232,161416,1,0,0:0:0:0:
44,156,161593,1,2,0:0:0:0:
93,75,161769,102,0,B|157:59|157:59|176:36|176:36|276:11,1,167.999994873047,6|2,0:0|0:0,0:0:0:0:
282,40,162210,1,2,0:0:0:0:
282,40,162299,2,0,L|305:142,1,83.9999974365235,2|2,0:0|0:0,0:0:0:0:
358,193,162652,2,0,L|341:286,1,83.9999974365235,10|2,0:0|0:0,0:0:0:0:
343,365,163004,2,0,P|315:351|243:350,1,83.9999974365235,2|2,0:0|0:0,0:0:0:0:
204,274,163357,6,0,P|174:283|121:333,1,83.9999974365235,10|2,0:0|0:0,0:0:0:0:
53,267,163710,2,0,P|35:293|33:371,2,83.9999974365235,2|2|10,0:0|0:0|0:0,0:0:0:0:
123,205,164240,2,0,L|101:18,1,167.999994873047,2|0,0:0|0:0,0:0:0:0:
193,30,164769,6,0,L|205:143,1,83.9999974365235,14|2,0:0|0:0,0:0:0:0:
261,181,165122,2,0,L|370:169,1,83.9999974365235,2|2,0:0|0:0,0:0:0:0:
428,122,165475,1,10,0:0:0:0:
481,202,165652,2,0,P|471:267|438:303,1,83.9999974365235,2|2,0:0|0:0,0:0:0:0:
399,358,166004,1,2,0:0:0:0:
399,358,166181,6,0,P|334:348|299:315,1,83.9999974365235,10|2,0:0|0:0,0:0:0:0:
258,269,166534,2,0,L|275:175,2,83.9999974365235,2|2|10,0:0|0:0|0:0,0:0:0:0:
193,342,167063,1,2,0:0:0:0:
155,253,167240,2,0,L|171:164,1,83.9999974365235,2|2,0:0|0:0,0:0:0:0:
188,83,167593,101,14,0:0:0:0:
188,83,167769,1,2,0:0:0:0:
114,22,167946,2,0,P|77:47|47:90,1,83.9999974365235,2|2,0:0|0:0,0:0:0:0:
1,161,168299,1,10,0:0:0:0:
1,161,168475,2,0,P|26:198|72:226,1,83.9999974365235,2|2,0:0|0:0,0:0:0:0:
148,197,168828,1,2,0:0:0:0:
122,283,169004,2,0,L|135:371,1,83.9999974365235,10|2,0:0|0:0,0:0:0:0:
226,384,169357,102,0,L|209:289,1,83.9999974365235,10|2,0:0|0:0,0:0:0:0:
187,211,169710,2,0,L|150:184,2,41.9999987182618,8|8|8,0:0|0:0|0:0,0:0:0:0:
284,186,170063,1,8,0:0:0:0:
317,275,170240,1,6,0:0:0:0:
174,44,171122,86,0,P|227:76|395:8,1,240.000009155274
443,134,172534,86,0,L|437:208,1,60.0000022888184
494,274,172887,1,0,0:0:0:0:
421,342,173063,38,0,L|230:319,1,167.999994873047,6|2,0:0|0:0,0:0:0:0:
167,373,173593,2,0,L|57:383,1,83.9999974365235,10|0,0:0|0:0,0:0:0:0:
15,311,173946,2,0,L|2:209,1,83.9999974365235,2|0,0:0|0:0,0:0:0:0:
45,139,174299,1,10,0:0:0:0:
118,189,174475,1,0,0:0:0:0:
169,111,174652,6,0,P|207:99|265:108,1,83.9999974365235,2|0,0:0|0:0,0:0:0:0:
329,159,175004,1,10,0:0:0:0:
414,89,175181,2,0,B|443:135|443:135|419:271,1,167.999994873047,0|8,0:0|1:0,0:0:0:0:
457,342,175710,1,8,1:0:0:0:
356,335,175887,102,0,P|314:336|256:375,1,83.9999974365235,6|0,0:0|0:0,0:0:0:0:
180,357,176240,1,2,0:0:0:0:
180,357,176416,2,0,P|139:337|95:338,1,83.9999974365235,10|2,0:0|0:0,0:0:0:0:
15,280,176769,2,0,B|33:208|33:208|23:169|23:169|45:80,1,167.999994873047,2|10,0:0|0:0,0:0:0:0:
138,86,177299,5,6,0:0:0:0:
138,86,177475,2,0,L|119:175,1,83.9999974365235,0|2,0:0|0:0,0:0:0:0:
185,244,177828,2,0,B|277:237|253:297|376:287,1,167.999994873047,10|2,0:0|0:0,0:0:0:0:
421,372,178357,1,2,0:0:0:0:
509,340,178534,1,10,0:0:0:0:
475,245,178710,102,0,L|491:72,1,167.999994873047,6|2,0:0|0:0,0:0:0:0:
382,10,179240,2,0,L|394:100,1,83.9999974365235,10|0,0:0|0:0,0:0:0:0:
366,191,179593,1,2,0:0:0:0:
291,128,179769,2,0,L|303:73,2,41.9999987182618,8|8|8,0:0|0:0|0:0,0:0:0:0:
280,216,180122,1,8,0:0:0:0:
280,216,180299,86,0,L|165:202,1,83.9999974365235,8|8,0:0|1:0,0:0:0:0:
133,274,180652,2,0,L|19:291,1,83.9999974365235,8|8,1:0|1:0,0:0:0:0:
0,200,181004,1,2,0:0:0:0:
0,113,181180,1,2,0:0:0:0:
65,59,181356,1,2,0:0:0:0:
176,88,181534,22,0,B|243:78|243:78|271:51|271:51|355:37,1,167.999994873047,6|10,0:0|0:0,0:0:0:0:
422,71,182063,2,0,L|405:164,1,83.9999974365235,2|2,0:0|0:0,0:0:0:0:
466,235,182416,1,10,0:0:0:0:
466,235,182593,2,0,L|480:331,1,83.9999974365235,2|10,0:0|0:0,0:0:0:0:
406,374,182946,6,0,B|346:367|346:367|314:341|314:341|210:360,1,167.999994873047,6|8,0:0|1:0,0:0:0:0:
178,282,183475,2,0,L|89:290,1,83.9999974365235,2|2,0:0|0:0,0:0:0:0:
28,221,183828,1,10,0:0:0:0:
28,221,184004,1,2,0:0:0:0:
93,155,184181,1,10,0:0:0:0:
210,188,184357,70,0,L|401:171,1,167.999994873047,6|0,0:0|0:0,0:0:0:0:
465,123,184887,2,0,L|480:79,2,41.9999987182618,2|0|0,0:0|0:0|0:0,0:0:0:0:
394,69,185240,2,0,L|380:27,2,41.9999987182618,10|0|0,0:0|0:0|0:0,0:0:0:0:
302,63,185593,2,0,L|274:30,2,41.9999987182618,2|0|0,0:0|0:0|0:0,0:0:0:0:
219,110,185946,6,0,L|115:100,1,83.9999974365235,2|0,0:0|0:0,0:0:0:0:
43,69,186299,2,0,L|33:162,1,83.9999974365235,2|0,0:0|0:0,0:0:0:0:
24,253,186652,2,0,L|20:312,2,41.9999987182618,8|8|8,0:0|0:0|0:0,0:0:0:0:
116,201,187004,1,8,0:0:0:0:
162,290,187181,6,0,B|244:310|244:310|336:275,1,167.999994873047,6|10,0:0|0:0,0:0:0:0:
414,316,187710,2,0,P|430:304|467:217,1,83.9999974365235,2|2,0:0|0:0,0:0:0:0:
504,162,188063,2,0,P|492:146|404:104,1,83.9999974365235,10|2,0:0|0:0,0:0:0:0:
370,179,188416,1,10,0:0:0:0:
293,99,188593,6,0,B|197:83|222:169|117:145,1,167.999994873047,6|10,0:0|0:0,0:0:0:0:
60,95,189122,2,0,P|46:126|52:183,1,83.9999974365235,2|2,0:0|0:0,0:0:0:0:
3,261,189475,2,0,P|15:292|65:335,1,83.9999974365235,10|2,0:0|0:0,0:0:0:0:
134,264,189828,1,10,0:0:0:0:
194,352,190004,70,0,B|255:345|255:345|281:323|281:323|375:308,1,167.999994873047,6|0,0:0|0:0,0:0:0:0:
438,347,190534,2,0,L|491:357,2,41.9999987182618,2|0|0,0:0|0:0|0:0,0:0:0:0:
443,262,190887,2,0,L|488:271,2,41.9999987182618,10|0|0,0:0|0:0|0:0,0:0:0:0:
361,220,191240,2,0,L|307:231,2,41.9999987182618,2|0|0,0:0|0:0|0:0,0:0:0:0:
431,169,191593,6,0,P|423:129|394:80,1,83.9999974365235,2|0,0:0|0:0,0:0:0:0:
346,16,191946,2,0,P|306:24|258:58,1,83.9999974365235,2|0,0:0|0:0,0:0:0:0:
204,115,192299,1,8,0:0:0:0:
204,115,192387,1,8,0:0:0:0:
204,115,192475,1,8,0:0:0:0:
128,55,192652,1,8,0:0:0:0:
43,137,192828,1,6,0:0:0:0:
57,278,195122,86,0,L|34:172,2,83.9999974365235,10|10|10,0:0|0:0|0:0,0:0:0:0:
136,369,195652,1,6,0:0:0:0:
